osu file format v14

[General]
AudioFilename: audio.mp3
AudioLeadIn: 0
PreviewTime: 64969
Countdown: 0
SampleSet: Soft
StackLeniency: 0.7
Mode: 0
LetterboxInBreaks: 0
WidescreenStoryboard: 0

[Editor]
DistanceSpacing: 0.8
BeatDivisor: 4
GridSize: 32
TimelineZoom: 1.1

[Metadata]
Title:Shinsou Noise
TitleUnicode:シンソウノイズ
Artist:Shimotsuki Haruka x Ceui
ArtistUnicode:霜月はるか×Ceui
Creator:-Nanaka-
Version:Normal
Source:シンソウノイズ~受信探偵の事件簿~
Tags:Azurite Opening eroge Visual Novel Karen Suiyu Mashiro Sama Kagamine Ren
BeatmapID:1211075
BeatmapSetID:559476

[Difficulty]
HPDrainRate:4
CircleSize:3.5
OverallDifficulty:5
ApproachRate:5.5
SliderMultiplier:1.25
SliderTickRate:1

[Events]
//Background and Video events
Video,-2300,"Video.avi"
0,0,"BG2.jpg",0,0
//Break Periods
//Storyboard Layer 0 (Background)
//Storyboard Layer 1 (Fail)
//Storyboard Layer 2 (Pass)
//Storyboard Layer 3 (Foreground)
//Storyboard Layer 4 (Overlay)
//Storyboard Sound Samples

[TimingPoints]
7800,377.358490566038,4,2,1,50,1,0
19834,-100,4,2,1,50,0,0
31950,-100,4,2,1,60,0,0
57988,-100,4,2,1,65,0,0
59120,-100,4,2,1,70,0,0
62894,-100,4,2,1,75,0,0
63649,-100,4,2,1,70,0,0
64781,-100,4,2,1,90,0,1
64875,-100,4,2,1,90,0,0
65158,-100,4,2,1,80,0,1
87800,-100,4,2,1,80,0,0
89309,-100,4,2,1,80,0,1
94969,-100,4,2,1,80,0,1
95347,-100,4,2,1,80,0,1
111950,-100,4,2,1,80,0,0
112705,-100,4,2,1,70,0,0
113083,-100,4,2,1,60,0,0
113460,-100,4,2,1,40,0,0
115724,-100,4,2,1,60,0,0
116101,-100,4,2,1,70,0,0
116479,-100,4,2,1,80,0,1
117800,-100,4,2,1,80,0,1
119309,-125,4,2,1,80,0,0
119333,-200,4,2,1,5,0,0
122139,-200,4,2,1,20,0,0
122516,-125,4,2,1,40,0,0
123460,-125,4,2,1,20,0,0
124026,-125,4,2,1,40,0,0
126479,-125,4,2,1,20,0,0
127045,-125,4,2,1,40,0,0
129498,-125,4,2,1,20,0,0
130064,-125,4,2,1,40,0,0
133083,-125,4,2,1,40,0,0
134026,-125,4,2,1,30,0,0
134592,-125,4,2,1,40,0,0
135535,-125,4,2,1,20,0,0
136101,-125,4,2,1,40,0,0
138554,-125,4,2,1,20,0,0
139120,-125,4,2,1,40,0,0
141573,-125,4,2,1,20,0,0
142139,-125,4,2,1,40,0,0
143649,-125,4,2,1,30,0,0
145158,-125,4,2,1,20,0,0

[Colours]
Combo1 : 0,172,255
Combo2 : 45,45,45
Combo3 : 0,101,225
Combo4 : 255,115,47
Combo5 : 255,192,0

[HitObjects]
416,75,7799,22,0,P|400:138|393:212,1,125,4|8,0:1|0:3,0:0:0:0:
372,243,8366,2,0,P|334:214|270:214,2,93.75,2|8|8,0:1|0:3|0:3,0:0:0:0:
297,309,9309,2,0,P|245:347|171:355,1,125,4|2,0:1|0:0,0:0:0:0:
136,357,9875,2,0,P|74:346|25:309,1,125,2|2,0:1|0:0,0:0:0:0:
3,264,10441,1,0,0:0:0:0:
72,191,10818,38,0,P|116:136|139:63,1,125,4|8,0:1|0:3,0:0:0:0:
117,38,11384,2,0,P|74:15|24:11,2,93.75,2|8|8,0:1|0:3|0:3,0:0:0:0:
210,73,12328,2,0,L|343:50,1,125,4|2,0:1|0:0,0:0:0:0:
379,32,12894,2,0,P|349:92|348:176,1,125,2|2,0:1|0:0,0:0:0:0:
353,198,13460,1,8,0:3:0:0:
331,295,13837,22,0,L|195:261,1,125,4|2,0:1|0:0,0:0:0:0:
171,297,14403,2,0,P|188:249|183:190,2,93.75,2|8|8,0:1|0:3|0:3,0:0:0:0:
98,228,15347,2,0,L|73:86,1,125,4|2,0:1|0:0,0:0:0:0:
76,55,15913,2,0,P|132:85|200:97,1,125,2|2,0:1|0:0,0:0:0:0:
241,88,16479,1,0,0:0:0:0:
334,51,16856,38,0,L|311:191,1,125,4|2,0:1|0:0,0:0:0:0:
313,224,17422,2,0,P|374:211|428:182,1,125,2|2,0:1|0:0,0:0:0:0:
468,151,17988,1,8,0:3:0:0:
482,250,18366,2,0,P|472:314|456:386,1,125,4|4,0:1|0:1,0:0:0:0:
414,351,18932,2,0,P|359:320|277:307,1,125,2|2,0:1|0:0,0:0:0:0:
159,362,19875,6,0,P|187:313|203:260,1,93.75,4|0,0:1|0:0,0:0:0:0:
144,226,20441,2,0,P|123:183|115:122,2,93.75,8|8|8,0:3|0:3|0:3,0:0:0:0:
236,189,21384,2,0,P|300:200|353:244,1,125,4|8,0:1|0:3,0:0:0:0:
369,280,21950,2,0,L|389:142,1,125,2|2,0:0|0:0,0:0:0:0:
392,106,22516,1,0,0:0:0:0:
307,52,22894,22,0,L|205:74,1,93.75,4|8,0:1|0:3,0:0:0:0:
148,106,23460,2,0,P|111:78|44:66,2,93.75,8|8|8,0:3|0:3|0:3,0:0:0:0:
206,186,24403,2,0,P|200:237|159:299,1,125,4|0,0:1|0:0,0:0:0:0:
127,335,24969,2,0,L|276:312,1,125,2|2,0:0|0:0,0:0:0:0:
300,311,25535,1,8,0:3:0:0:
390,353,25913,6,0,P|409:313|412:241,1,93.75,4|0,0:1|0:0,0:0:0:0:
397,191,26479,2,0,P|437:214|482:225,2,93.75,8|8|2,0:3|0:3|0:0,0:0:0:0:
323,122,27422,2,0,P|272:92|198:88,1,125,4|8,0:1|0:3,0:0:0:0:
170,120,27988,2,0,P|103:115|52:78,1,125,2|2,0:0|0:0,0:0:0:0:
22,46,28554,1,0,0:0:0:0:
2,144,28932,22,0,P|34:197|38:266,1,125,4|0,0:1|0:0,0:0:0:0:
21,305,29498,2,0,L|154:276,1,125,2|0,0:0|0:0,0:0:0:0:
192,267,30064,1,8,0:3:0:0:
268,331,30441,2,0,P|327:360|392:366,1,125,4|0,0:1|0:0,0:0:0:0:
428,341,31007,2,0,P|448:280|451:198,1,125,2|0,0:0|0:0,0:0:0:0:
447,169,31573,1,8,0:3:0:0:
358,214,31950,22,0,B|319:200|319:200|279:205|279:205|240:189,2,125,2|0|0,3:3|3:2|3:0,0:0:0:0:
447,169,33083,2,0,P|457:140|469:91,1,62.5,2|8,3:2|0:0,0:0:0:0:
446,63,33460,2,0,L|316:91,1,125,4|0,3:1|3:0,0:0:0:0:
280,114,34026,2,0,L|133:78,1,125,10|10,0:0|0:0,0:0:0:0:
110,69,34592,1,0,3:2:0:0:
46,145,34969,6,0,P|15:104|16:31,2,125,4|0|0,3:1|3:0|3:0,0:0:0:0:
82,179,35913,1,8,0:0:0:0:
82,179,36102,2,0,P|95:212|99:240,1,62.5,0|8,3:2|0:0,0:0:0:0:
105,288,36479,2,0,P|154:243|225:232,1,125,4|0,3:1|3:2,0:0:0:0:
249,261,37045,1,10,0:0:0:0:
249,261,37233,2,0,P|279:283|317:297,1,62.5,0|10,3:2|0:0,0:0:0:0:
351,303,37611,1,0,3:2:0:0:
434,358,37988,22,0,B|454:311|454:311|433:217,1,125,2|0,0:3|3:0,0:0:0:0:
410,197,38554,1,8,0:0:0:0:
410,197,38743,2,0,P|354:159|281:151,1,125,0|0,3:2|3:0,0:0:0:0:
204,114,39498,2,0,P|242:170|245:240,1,125,4|0,3:1|3:0,0:0:0:0:
228,271,40064,1,10,0:0:0:0:
228,271,40252,2,0,P|198:292|152:312,1,62.5,0|10,3:2|0:0,0:0:0:0:
125,311,40630,1,0,3:2:0:0:
28,336,41007,22,0,P|69:284|82:215,1,125,4|0,3:1|3:0,0:0:0:0:
76,178,41573,2,0,P|94:119|152:74,1,125,10|8,0:0|0:0,0:0:0:0:
190,87,42139,2,0,P|231:73|259:48,1,62.5,2|8,3:2|0:0,0:0:0:0:
269,17,42516,2,0,B|248:162,1,125,4|0,3:1|3:0,0:0:0:0:
218,179,43083,2,0,L|246:307,1,125,8|10,0:0|0:0,0:0:0:0:
255,350,43649,1,0,3:2:0:0:
327,280,44026,6,0,P|368:237|448:235,1,125,4|2,3:1|3:2,0:0:0:0:
475,250,44592,1,8,0:0:0:0:
475,250,44781,2,0,L|493:113,1,125,0|0,3:2|3:2,0:0:0:0:
471,80,45347,1,8,0:0:0:0:
471,80,45535,2,0,L|393:100,1,62.5,0|8,3:0|0:0,0:0:0:0:
367,122,45913,2,0,P|336:78|249:49,1,125,0|0,3:2|3:0,0:0:0:0:
188,103,46667,1,0,3:0:0:0:
102,50,47045,22,0,P|44:73|7:122,1,125,4|2,3:2|3:2,0:0:0:0:
21,170,47611,2,0,P|45:221|56:313,1,125,10|10,0:0|0:0,0:0:0:0:
39,335,48177,1,0,3:2:0:0:
39,335,48366,2,0,P|95:298|176:297,1,125,10|10,0:0|0:0,0:0:0:0:
191,322,48932,2,0,P|247:350|323:358,1,125,0|0,3:2|3:2,0:0:0:0:
402,325,49686,2,0,P|417:288|423:252,1,62.5,2|8,3:2|0:0,0:0:0:0:
408,217,50064,22,0,P|350:249|288:257,1,125,2|2,3:2|3:2,0:0:0:0:
248,233,50630,2,0,P|263:173|261:83,2,125,10|10|10,0:0|0:0|0:0,0:0:0:0:
218,274,51573,2,0,L|152:257,1,62.5,0|10,3:0|0:0,0:0:0:0:
111,277,51950,2,0,L|46:292,1,62.5,0|10,3:2|0:0,0:0:0:0:
3,272,52328,1,2,3:1:0:0:
23,174,52705,2,0,L|40:88,1,62.5,0|10,3:0|0:1,0:0:0:0:
38,62,53083,6,0,P|88:103|152:110,1,125,2|0,3:3|3:0,0:0:0:0:
191,90,53649,2,0,P|246:55|316:59,1,125,10|10,0:0|0:0,0:0:0:0:
337,92,54215,1,0,3:0:0:0:
337,92,54403,2,0,P|319:180|313:235,1,125,10|10,0:0|0:0,0:0:0:0:
337,259,54969,2,0,P|294:301|222:311,1,125,2|0,3:2|3:0,0:0:0:0:
138,349,55724,2,0,P|122:314|117:281,1,62.5,2|10,3:2|0:0,0:0:0:0:
147,250,56101,22,0,P|175:194|176:108,1,125,2|0,3:2|3:0,0:0:0:0:
162,85,56667,2,0,L|305:126,1,125,10|10,0:0|0:0,0:0:0:0:
328,138,57233,2,0,L|352:74,1,62.5,0|10,3:0|0:0,0:0:0:0:
391,50,57611,2,0,L|413:119,1,62.5,0|8,3:0|0:0,0:0:0:0:
424,157,57988,1,4,3:1:0:0:
413,256,58366,1,2,3:2:0:0:
505,218,58743,1,2,3:1:0:0:
489,316,59120,6,0,P|445:347|361:337,1,125,4|0,3:2|3:0,0:0:0:0:
328,329,59686,1,8,0:0:0:0:
328,329,59875,2,0,L|188:277,1,125,2|0,3:2|3:0,0:0:0:0:
123,334,60630,2,0,L|80:217,1,125,2|0,3:1|3:0,0:0:0:0:
53,173,61196,1,10,0:0:0:0:
53,173,61384,2,0,L|88:46,1,125,2|0,3:1|3:0,0:0:0:0:
168,109,62139,6,0,L|308:75,1,125,2|0,3:1|3:0,0:0:0:0:
334,102,62705,1,10,0:0:0:0:
334,102,62894,2,0,L|314:186,1,62.5,2|10,3:1|0:0,0:0:0:0:
346,204,63271,2,0,L|364:276,1,62.5,2|10,3:2|0:1,0:0:0:0:
337,309,63649,2,0,P|301:282|226:268,2,93.75,0|0|8,3:0|0:0|3:0,0:0:0:0:
370,345,64403,2,0,L|443:318,1,62.5,8|8,3:0|3:0,0:0:0:0:
476,306,64781,1,4,0:3:0:0:
477,206,65158,6,0,P|428:155|363:134,1,125,4|0,3:2|1:0,0:0:0:0:
335,162,65724,2,0,P|289:195|206:197,1,125,10|10,0:0|0:0,0:0:0:0:
179,175,66290,2,0,P|163:141|146:117,1,62.5,0|10,1:0|0:0,0:0:0:0:
113,85,66667,2,0,P|88:111|75:150,1,62.5,0|10,3:0|0:0,0:0:0:0:
77,185,67045,1,0,1:0:0:0:
77,185,67233,2,0,P|108:239|188:273,1,125,10|10,0:0|0:1,0:0:0:0:
211,275,67800,1,0,1:0:0:0:
283,343,68177,6,0,B|311:284|311:284|287:201,1,125,4|0,3:1|1:0,0:0:0:0:
262,188,68743,2,0,B|240:130|240:130|263:64,1,125,10|10,0:0|0:0,0:0:0:0:
285,27,69309,2,0,L|369:54,1,62.5,0|10,1:0|0:0,0:0:0:0:
386,73,69686,2,0,L|459:52,1,62.5,0|10,3:0|0:0,0:0:0:0:
491,33,70064,1,0,1:0:0:0:
491,33,70252,2,0,P|463:98|468:170,1,125,10|12,0:0|0:1,0:0:0:0:
481,198,70819,1,0,1:0:0:0:
421,278,71196,6,0,B|377:260|377:260|339:262|339:262|286:240,1,125,0|0,3:2|1:2,0:0:0:0:
257,224,71762,1,8,0:0:0:0:
257,224,71951,2,0,P|220:232|197:245,1,62.5,2|8,3:2|0:0,0:0:0:0:
166,281,72328,2,0,P|133:267|107:250,1,62.5,2|8,1:1|0:0,0:0:0:0:
79,213,72705,2,0,L|104:84,1,125,4|0,3:1|1:0,0:0:0:0:
128,47,73271,2,0,P|182:85|252:98,1,125,10|8,0:1|0:0,0:0:0:0:
288,89,73837,1,4,1:0:0:0:
343,172,74215,6,0,P|358:227|364:316,1,125,4|0,3:1|1:2,0:0:0:0:
330,331,74781,2,0,P|258:308|191:313,1,125,10|10,0:1|0:0,0:0:0:0:
162,326,75347,1,4,1:0:0:0:
104,247,75724,2,0,P|128:187|129:104,1,125,4|0,3:3|1:0,0:0:0:0:
130,77,76290,2,0,P|183:45|262:35,1,125,0|0,1:0|1:0,0:0:0:0:
294,36,76856,2,0,P|320:47|363:56,1,62.5,2|4,1:0|1:0,0:0:0:0:
386,93,77233,6,0,P|354:138|355:219,1,125,4|0,3:2|1:0,0:0:0:0:
375,249,77799,2,0,L|233:223,1,125,10|10,0:0|0:0,0:0:0:0:
206,246,78365,1,0,1:0:0:0:
206,246,78554,2,0,L|74:276,1,125,10|10,0:1|0:0,0:0:0:0:
39,250,79120,1,0,1:0:0:0:
39,250,79308,2,0,P|80:199|91:136,1,125,12|10,0:1|0:1,0:0:0:0:
79,92,79875,1,0,1:0:0:0:
165,41,80252,6,0,L|315:71,1,125,4|0,3:1|1:0,0:0:0:0:
334,48,80818,2,0,P|397:68|427:133,1,125,10|10,0:0|0:1,0:0:0:0:
418,166,81384,2,0,L|400:244,1,62.5,0|12,1:0|0:1,0:0:0:0:
390,275,81762,2,0,L|321:254,1,62.5,0|12,3:0|0:1,0:0:0:0:
282,271,82139,1,0,1:0:0:0:
282,271,82327,2,0,P|233:304|156:314,1,125,10|10,0:0|0:1,0:0:0:0:
123,292,82894,1,0,1:0:0:0:
154,197,83271,6,0,P|177:142|185:50,1,125,4|2,3:1|1:2,0:0:0:0:
174,29,83837,2,0,L|317:65,1,125,10|8,0:0|0:0,0:0:0:0:
342,75,84403,2,0,P|375:61|396:45,1,62.5,4|8,1:0|0:0,0:0:0:0:
436,14,84781,2,0,P|473:57|490:133,1,125,4|0,3:1|1:0,0:0:0:0:
486,171,85347,1,8,0:0:0:0:
486,171,85535,2,0,P|480:211|462:258,1,62.5,2|8,3:2|0:0,0:0:0:0:
458,280,85913,1,2,1:2:0:0:
375,224,86290,6,0,B|333:209|333:209|295:219|295:219|239:197,1,125,6|0,3:1|1:0,0:0:0:0:
224,242,86856,2,0,P|186:285|110:291,1,125,10|12,0:0|0:1,0:0:0:0:
78,269,87422,2,0,P|58:246|42:195,1,62.5,0|10,1:0|0:1,0:0:0:0:
63,170,87800,2,0,B|105:155|105:155|143:165|143:165|199:143,1,125,4|0,3:2|1:0,0:0:0:0:
260,89,88554,2,0,P|289:97|323:115,1,62.5,4|0,3:1|1:0,0:0:0:0:
362,135,88932,2,0,P|391:116|413:95,1,62.5,2|0,3:1|1:0,0:0:0:0:
432,51,89309,6,0,L|462:173,1,125,4|0,3:3|1:0,0:0:0:0:
466,222,89875,2,0,P|420:266|351:290,1,125,10|10,0:0|0:0,0:0:0:0:
316,270,90441,2,0,P|278:255|233:246,1,62.5,0|10,1:0|0:0,0:0:0:0:
220,284,90818,2,0,P|162:319|105:333,1,125,4|0,3:1|1:0,0:0:0:0:
41,256,91573,2,0,P|55:218|65:176,1,62.5,2|8,3:2|0:0,0:0:0:0:
44,149,91950,2,0,P|33:111|30:69,1,62.5,2|0,1:0|0:0,0:0:0:0:
54,44,92328,38,0,L|186:77,1,125,4|2,3:1|1:2,0:0:0:0:
214,106,92894,2,0,L|333:70,1,125,10|10,0:0|0:0,0:0:0:0:
379,49,93460,2,0,P|397:78|414:119,1,62.5,0|10,1:0|0:0,0:0:0:0:
403,153,93837,2,0,L|372:300,1,125,2|0,3:1|1:0,0:0:0:0:
300,339,94592,2,0,P|283:299|279:269,1,62.5,2|8,3:2|0:0,0:0:0:0:
268,231,94969,2,0,P|243:247|207:255,1,62.5,2|0,1:0|0:0,0:0:0:0:
169,282,95347,22,0,L|30:230,1,125,4|2,3:1|1:2,0:0:0:0:
21,198,95913,2,0,P|68:144|83:83,1,125,10|12,0:1|0:1,0:0:0:0:
125,67,96479,2,0,P|151:99|160:141,1,62.5,0|10,1:0|0:0,0:0:0:0:
157,168,96856,2,0,L|294:126,1,125,4|0,3:1|1:0,0:0:0:0:
365,85,97611,2,0,P|379:115|389:158,1,62.5,2|8,3:1|0:0,0:0:0:0:
367,189,97988,2,0,P|351:221|346:256,1,62.5,2|8,1:0|0:0,0:0:0:0:
362,294,98366,38,0,P|312:252|252:242,2,125,4|2|4,3:1|1:2|3:1,0:0:0:0:
395,331,99309,1,8,0:0:0:0:
395,331,99498,2,0,P|432:319|456:307,1,62.5,2|8,1:0|0:0,0:0:0:0:
481,267,99875,2,0,P|501:197|495:125,1,125,4|2,1:1|1:0,0:0:0:0:
430,72,100630,2,0,L|359:95,1,62.5,4|0,3:1|1:0,0:0:0:0:
322,104,101007,2,0,L|246:78,1,62.5,2|0,1:0|1:0,0:0:0:0:
219,59,101384,6,0,P|245:120|251:195,1,125,4|0,3:2|1:0,0:0:0:0:
218,215,101950,2,0,L|92:174,1,125,10|10,0:0|0:0,0:0:0:0:
53,155,102516,1,0,1:0:0:0:
53,155,102705,2,0,P|23:211|14:286,1,125,10|10,0:0|0:0,0:0:0:0:
30,318,103271,1,0,1:0:0:0:
30,318,103459,2,0,L|162:292,1,125,10|10,0:0|0:1,0:0:0:0:
202,287,104026,1,0,1:0:0:0:
285,341,104403,6,0,B|305:302|305:302|288:217,1,125,4|4,3:1|1:0,0:0:0:0:
257,183,104969,2,0,L|395:225,1,125,10|12,0:0|0:1,0:0:0:0:
422,240,105535,2,0,P|450:212|464:165,1,62.5,0|10,1:0|0:0,0:0:0:0:
429,151,105913,2,0,P|412:127|402:76,1,62.5,0|10,3:0|0:0,0:0:0:0:
379,50,106290,1,0,1:0:0:0:
379,50,106478,2,0,L|238:78,1,125,12|10,0:1|0:1,0:0:0:0:
206,83,107045,1,0,1:0:0:0:
120,31,107422,6,0,P|63:34|54:115,1,125,4|0,3:1|1:0,0:0:0:0:
53,139,107988,2,0,L|184:167,1,125,10|8,0:1|0:0,0:0:0:0:
219,189,108554,2,0,P|257:178|277:155,1,62.5,4|8,1:0|0:0,0:0:0:0:
308,127,108932,2,0,L|288:268,1,125,4|0,3:1|1:0,0:0:0:0:
284,300,109498,1,8,0:0:0:0:
284,300,109686,2,0,P|257:324|231:332,1,62.5,2|8,3:2|0:0,0:0:0:0:
184,316,110064,1,2,1:2:0:0:
91,353,110441,6,0,L|57:219,1,125,4|0,3:1|1:0,0:0:0:0:
30,191,111007,2,0,L|55:43,1,125,10|10,0:1|0:0,0:0:0:0:
76,24,111573,2,0,P|111:40|135:62,1,62.5,0|12,1:0|0:1,0:0:0:0:
146,102,111950,2,0,L|289:62,1,125,4|0,3:3|1:0,0:0:0:0:
363,44,112705,1,4,3:1:0:0:
417,128,113083,1,2,3:1:0:0:
354,206,113460,6,0,L|201:180,1,125,4|0,0:1|0:0,0:0:0:0:
189,213,114026,2,0,P|139:246|64:254,1,125,4|2,0:1|0:0,0:0:0:0:
38,221,114592,1,0,0:0:0:0:
38,221,114781,2,0,P|64:159|79:80,2,125,4|2|2,0:1|0:0|0:1,0:0:0:0:
18,266,115724,1,2,0:0:0:0:
54,358,116101,1,4,0:1:0:0:
140,307,116479,38,0,L|277:342,1,125,4|0,3:3|1:0,0:0:0:0:
304,362,117045,2,0,L|452:334,1,125,4|0,3:3|3:0,0:0:0:0:
473,355,117611,1,0,1:0:0:0:
473,355,117800,2,0,L|494:226,1,125,4|2,3:3|1:0,0:0:0:0:
471,186,118366,1,0,1:0:0:0:
471,186,118554,2,0,L|398:209,1,62.5,4|0,3:3|1:0,0:0:0:0:
365,225,118932,2,0,L|299:209,1,62.5,4|0,3:1|3:0,0:0:0:0:
264,203,119309,38,0,B|256:258|201:284|201:284|146:258|146:258|81:304|81:304|32:250|68:187|68:187|24:130|52:55|52:55|128:84|128:84|175:51|175:51|223:61|253:113,1,750,14|0,0:1|0:0,0:0:0:0:
319,146,122516,6,0,P|372:131|412:88,1,100,4|2,0:1|0:0,0:0:0:0:
429,69,123083,2,0,L|403:228,1,150,2|0,0:1|0:0,0:0:0:0:
440,288,124026,2,0,L|498:258,2,50,4|0|2,0:1|0:0|0:0,0:0:0:0:
405,308,124592,2,0,L|310:348,1,100,2|2,0:1|0:0,0:0:0:0:
198,311,125535,38,0,P|152:282|86:268,1,100,4|2,0:1|0:0,0:0:0:0:
77,295,126102,2,0,L|103:136,1,150,2|0,0:1|0:0,0:0:0:0:
66,76,127045,2,0,P|40:88|13:107,2,50,4|0|2,0:1|0:0|0:0,0:0:0:0:
105,67,127611,2,0,P|152:75|214:110,1,100,2|2,0:1|0:0,0:0:0:0:
294,26,128554,22,0,P|314:74|313:132,1,100,4|2,0:1|0:0,0:0:0:0:
298,157,129121,2,0,P|350:201|451:212,1,150,2|0,0:1|0:0,0:0:0:0:
500,179,130064,2,0,L|478:114,2,50,4|0|2,0:1|0:0|0:0,0:0:0:0:
508,218,130630,2,0,L|480:321,1,100,2|2,0:1|0:0,0:0:0:0:
361,310,131573,38,0,L|375:357,2,50,4|0|2,0:1|0:0|0:0,0:0:0:0:
352,270,132140,2,0,P|319:299|252:320,1,100,2|2,0:0|0:1,0:0:0:0:
149,293,133083,2,0,L|159:342,2,50,4|0|2,0:1|0:0|0:0,0:0:0:0:
145,254,133650,2,0,P|183:222|229:206,1,100,2|2,0:1|0:0,0:0:0:0:
328,273,134592,22,0,P|369:301|431:307,1,100,4|2,0:1|0:0,0:0:0:0:
456,295,135159,2,0,P|481:230|491:129,1,150,2|0,0:1|0:0,0:0:0:0:
495,70,136102,2,0,L|515:15,2,50,4|0|2,0:1|0:0|0:0,0:0:0:0:
457,85,136668,2,0,L|339:113,1,100,2|2,0:1|0:0,0:0:0:0:
253,152,137611,38,0,P|211:126|187:77,1,100,4|2,0:1|0:0,0:0:0:0:
192,42,138178,2,0,L|171:190,1,150,2|0,0:1|0:0,0:0:0:0:
108,240,139121,2,0,L|85:183,2,50,4|0|2,0:1|0:0|0:0,0:0:0:0:
126,275,139687,2,0,P|165:302|236:307,1,100,2|2,0:1|0:0,0:0:0:0:
319,370,140630,22,0,P|342:320|350:267,1,100,4|2,0:1|0:0,0:0:0:0:
337,237,141197,2,0,P|283:295|209:310,1,150,2|0,0:1|0:0,0:0:0:0:
143,277,142140,2,0,L|142:211,2,50,4|0|2,0:1|0:0|0:0,0:0:0:0:
124,312,142706,2,0,P|72:291|32:243,1,100,2|2,0:1|0:0,0:0:0:0:
40,140,143649,38,0,P|82:99|127:81,1,100,4|2,0:1|0:0,0:0:0:0:
150,108,144216,2,0,P|196:140|257:149,1,100,2|2,0:0|0:0,0:0:0:0:
348,101,145159,2,0,P|356:74|362:45,2,50,4|0|2,0:1|0:0|0:0,0:0:0:0:
334,138,145725,2,0,P|366:174|385:241,1,100,2|2,0:0|0:0,0:0:0:0:
310,317,146667,5,4,0:1:0:0:
