osu file format v14

[General]
AudioFilename: audio.mp3
AudioLeadIn: 0
PreviewTime: 81898
Countdown: 0
SampleSet: Soft
StackLeniency: 0.7
Mode: 0
LetterboxInBreaks: 0
WidescreenStoryboard: 0

[Editor]
Bookmarks: 13428,36016,47310,58604,69898,104839,116134,127428,130692,142781
DistanceSpacing: 0.4
BeatDivisor: 4
GridSize: 16
TimelineZoom: 2.999999

[Metadata]
Title:smile link
TitleUnicode:smile link
Artist:Shimotsuki Haruka
ArtistUnicode:霜月はるか
Creator:MochiA
Version:petal
Source:霜月はるかのFrost Moon Café+
Tags:japanese pop ぺさま pesama Shimotsuki Haruka no Frost Moon Cafe+ opening CRAFTSCAPE op jpop j-pop
BeatmapID:3316125
BeatmapSetID:1624188

[Difficulty]
HPDrainRate:6
CircleSize:4.5
OverallDifficulty:8
ApproachRate:9
SliderMultiplier:1.6
SliderTickRate:1

[Events]
//Background and Video events
0,0,"BG.jpg",0,0
//Break Periods
//Storyboard Layer 0 (Background)
//Storyboard Layer 1 (Fail)
//Storyboard Layer 2 (Pass)
//Storyboard Layer 3 (Foreground)
//Storyboard Layer 4 (Overlay)
//Storyboard Sound Samples

[TimingPoints]
722,352.941176470588,4,2,1,45,1,0
722,-100,4,2,1,45,0,0
2133,-142.857142857143,4,2,1,45,0,0
6192,-125,4,2,1,45,0,0
7427,-142.857142857143,4,2,1,45,0,0
7780,-125,4,2,1,45,0,0
10604,-125,4,2,1,50,0,0
10957,-125,4,2,1,52,0,0
11310,-125,4,2,1,54,0,0
11663,-83.3333333333333,4,2,1,58,0,0
12016,-90.9090909090909,4,2,1,60,0,0
12280,-90.9090909090909,4,2,1,5,0,0
12369,-90.9090909090909,4,2,1,60,0,0
12545,-71.4285714285714,4,2,1,60,0,0
12810,-71.4285714285714,4,2,1,5,0,0
12898,-71.4285714285714,4,2,1,60,0,0
13427,-83.3333333333333,4,2,1,70,0,0
14486,-100,4,2,1,70,0,0
14839,-83.3333333333333,4,2,1,70,0,0
15369,-100,4,2,1,70,0,0
16251,-83.3333333333333,4,2,1,70,0,0
17310,-100,4,2,1,70,0,0
17663,-83.3333333333333,4,2,1,70,0,0
18721,-90.9090909090909,4,2,1,70,0,0
19074,-76.9230769230769,4,2,1,70,0,0
20133,-95.2380952380952,4,2,1,70,0,0
20486,-83.3333333333333,4,2,1,70,0,0
21016,-100,4,2,1,70,0,0
21898,-76.9230769230769,4,2,1,70,0,0
22163,-76.9230769230769,4,2,1,5,0,0
22251,-100,4,2,1,70,0,0
22339,-100,4,2,1,5,0,0
22427,-71.4285714285714,4,2,1,70,0,0
22692,-71.4285714285714,4,2,1,5,0,0
22780,-100,4,2,1,70,0,0
22869,-100,4,2,1,5,0,0
22957,-83.3333333333333,4,2,1,70,0,0
23221,-83.3333333333333,4,2,1,5,0,0
23310,-100,4,2,1,70,0,0
23398,-100,4,2,1,5,0,0
23486,-83.3333333333333,4,2,1,70,0,0
23751,-83.3333333333333,4,2,1,5,0,0
23839,-100,4,2,1,70,0,0
23927,-100,4,2,1,5,0,0
24016,-76.9230769230769,4,2,1,70,0,0
24721,-83.3333333333333,4,2,1,70,0,0
25780,-90.9090909090909,4,2,1,70,0,0
26133,-76.9230769230769,4,2,1,70,0,0
26663,-90.9090909090909,4,2,1,70,0,0
27545,-83.3333333333333,4,2,1,70,0,0
28957,-71.4285714285714,4,2,1,70,0,0
29663,-74.0740740740741,4,2,1,70,0,0
30016,-100,4,2,1,70,0,0
30104,-100,4,2,1,5,0,0
30192,-100,4,2,1,60,0,0
30280,-100,4,2,1,5,0,0
30369,-80,4,2,1,70,0,0
30898,-100,4,2,1,70,0,0
31781,-90.9090909090909,4,2,1,70,0,0
32486,-83.3333333333333,4,2,1,70,0,0
33192,-66.6666666666667,4,2,1,70,0,0
33721,-71.4285714285714,4,2,1,70,0,0
34251,-76.9230769230769,4,2,1,70,0,0
36016,-100,4,2,1,50,0,0
36369,-133.333333333333,4,2,1,50,0,0
44486,-86.9565217391304,4,2,1,50,0,0
45016,-100,4,2,1,50,0,0
45545,-86.9565217391304,4,2,1,50,0,0
45810,-86.9565217391304,4,2,1,5,0,0
45898,-90.9090909090909,4,2,1,50,0,0
46163,-90.9090909090909,4,2,1,5,0,0
46251,-90.9090909090909,4,2,1,50,0,0
46427,-83.3333333333333,4,2,1,50,0,0
46957,-100,4,2,1,50,0,0
47310,-100,4,2,1,50,0,0
47839,-117.647058823529,4,2,1,50,0,0
50663,-111.111111111111,4,2,1,50,0,0
52957,-100,4,2,1,50,0,0
53486,-95.2380952380952,4,2,1,50,0,0
56045,-95.2380952380952,4,2,1,5,0,0
56133,-95.2380952380952,4,2,1,50,0,0
56574,-95.2380952380952,4,2,1,5,0,0
56663,-95.2380952380952,4,2,1,50,0,0
57192,-86.9565217391304,4,2,1,50,0,0
57721,-90.9090909090909,4,2,1,50,0,0
58604,-125,4,2,1,50,0,0
58958,-125,4,2,1,40,0,0
61427,-117.647058823529,4,2,1,40,0,0
62839,-133.333333333333,4,2,1,40,0,0
64251,-125,4,2,1,40,0,0
67074,-142.857142857143,4,2,1,40,0,0
68486,-100,4,2,1,40,0,0
69898,-100,4,2,1,50,0,0
71310,-90.9090909090909,4,2,1,50,0,0
71839,-100,4,2,1,50,0,0
75545,-90.9090909090909,4,2,1,60,0,0
76074,-100,4,2,1,60,0,0
78369,-90.9090909090909,4,2,1,60,0,0
79780,-100,4,2,1,60,0,0
80045,-100,4,2,1,5,0,0
80133,-100,4,2,1,60,0,0
80310,-66.6666666666667,4,2,1,60,0,0
82251,-66.6666666666667,4,2,1,70,0,1
82516,-66.6666666666667,4,2,1,5,0,1
82604,-66.6666666666667,4,2,1,70,0,1
82780,-76.9230769230769,4,2,1,70,0,1
83310,-83.3333333333333,4,2,1,70,0,1
85251,-90.9090909090909,4,2,1,70,0,1
86486,-71.4285714285714,4,2,1,70,0,1
86751,-71.4285714285714,4,2,1,5,0,1
86839,-71.4285714285714,4,2,1,70,0,1
87545,-83.3333333333333,4,2,1,70,0,1
87898,-71.4285714285714,4,2,1,70,0,1
89133,-83.3333333333333,4,2,1,70,0,1
89839,-66.6666666666667,4,2,1,70,0,1
91957,-62.5,4,2,1,70,0,1
92221,-62.5,4,2,1,5,0,1
92310,-76.9230769230769,4,2,1,70,0,1
92574,-76.9230769230769,4,2,1,5,0,1
92663,-83.3333333333333,4,2,1,70,0,1
92927,-83.3333333333333,4,2,1,5,0,1
93016,-83.3333333333333,4,2,1,70,0,1
93545,-71.4285714285714,4,2,1,70,0,1
93810,-71.4285714285714,4,2,1,5,0,1
93898,-71.4285714285714,4,2,1,70,0,1
94074,-90.9090909090909,4,2,1,70,0,1
94604,-76.9230769230769,4,2,1,70,0,1
96545,-83.3333333333333,4,2,1,70,0,1
96898,-100,4,2,1,70,0,1
97604,-71.4285714285714,4,2,1,70,0,1
98486,-90.9090909090909,4,2,1,70,0,1
98839,-83.3333333333333,4,2,1,70,0,1
99192,-76.9230769230769,4,2,1,70,0,1
100604,-83.3333333333333,4,2,1,70,0,1
101133,-62.5,4,2,1,70,0,1
101663,-83.3333333333333,4,2,1,70,0,1
103251,-76.9230769230769,4,2,1,70,0,1
103780,-80,4,2,1,70,0,0
104486,-80,4,2,1,40,0,0
104839,-142.857142857143,4,2,1,60,0,0
106780,-125,4,2,1,60,0,0
108192,-142.857142857143,4,2,1,60,0,0
109074,-125,4,2,1,60,0,0
110486,-105.263157894737,4,2,1,60,0,0
112427,-100,4,2,1,60,0,0
113310,-90.9090909090909,4,2,1,60,0,0
113839,-100,4,2,1,60,0,0
114545,-83.3333333333333,4,2,1,60,0,0
115604,-166.666666666667,4,2,1,60,0,0
116133,-100,4,2,1,50,0,0
116663,-117.647058823529,4,2,1,50,0,0
119486,-111.111111111111,4,2,1,50,0,0
121780,-100,4,2,1,50,0,0
122310,-95.2380952380952,4,2,1,50,0,0
124869,-95.2380952380952,4,2,1,5,0,0
124957,-95.2380952380952,4,2,1,50,0,0
125398,-95.2380952380952,4,2,1,5,0,0
125486,-95.2380952380952,4,2,1,50,0,0
126016,-86.9565217391304,4,2,1,50,0,0
126545,-90.9090909090909,4,2,1,50,0,0
127957,-111.111111111111,4,2,1,50,0,0
128839,-100,4,2,1,50,0,0
130780,-111.111111111111,4,2,1,50,0,0
131663,-100,4,2,1,50,0,0
132192,-125,4,2,1,50,0,0
133075,-105.263157894737,4,2,1,50,0,0
135016,-100,4,2,1,50,0,0
135545,-111.111111111111,4,2,1,50,0,0
135898,-95.2380952380952,4,2,1,50,0,0
136957,-111.111111111111,4,2,1,50,0,0
137310,-90.9090909090909,4,2,1,50,0,0
138721,-166.666666666667,4,2,1,50,0,0
139074,-166.666666666667,4,2,1,40,0,0
141545,-142.857142857143,4,2,1,40,0,0
147721,-153.846153846154,4,2,1,40,0,0
148604,-125,4,2,1,40,0,0
149133,-90.9090909090909,4,2,1,40,0,0
150015,-100,4,2,1,50,0,0
151427,-90.9090909090909,4,2,1,50,0,0
151956,-100,4,2,1,50,0,0
155662,-90.9090909090909,4,2,1,60,0,0
156192,-100,4,2,1,60,0,0
158486,-90.9090909090909,4,2,1,60,0,0
159898,-80,4,2,1,60,0,0
161310,-71.4285714285714,4,2,1,60,0,0
161545,-66.6666666666667,4,2,1,60,0,0
161781,-62.5,4,2,1,60,0,0
162369,-68.9655172413793,4,2,1,70,0,1
162633,-68.9655172413793,4,2,1,5,0,1
162721,-68.9655172413793,4,2,1,70,0,1
162898,-76.9230769230769,4,2,1,70,0,1
165369,-71.4285714285714,4,2,1,70,0,1
165721,-90.9090909090909,4,2,1,70,0,1
166604,-76.9230769230769,4,2,1,70,0,1
168280,-76.9230769230769,4,2,1,5,0,1
168369,-76.9230769230769,4,2,1,70,0,1
168545,-83.3333333333333,4,2,1,70,0,1
169251,-71.4285714285714,4,2,1,70,0,1
172074,-66.6666666666667,4,2,1,70,0,1
172339,-66.6666666666667,4,2,1,5,0,1
172427,-64.5161290322581,4,2,1,70,0,1
172692,-64.5161290322581,4,2,1,5,0,1
172780,-62.5,4,2,1,70,0,1
173045,-62.5,4,2,1,5,0,1
173133,-62.5,4,2,1,70,0,1
173663,-76.9230769230769,4,2,1,70,0,1
173927,-76.9230769230769,4,2,1,5,0,1
174016,-76.9230769230769,4,2,1,70,0,1
174192,-71.4285714285714,4,2,1,70,0,1
174721,-83.3333333333333,4,2,1,70,0,1
176663,-71.4285714285714,4,2,1,70,0,1
177016,-90.9090909090909,4,2,1,70,0,1
177721,-71.4285714285714,4,2,1,70,0,1
178957,-90.9090909090909,4,2,1,70,0,1
179310,-71.4285714285714,4,2,1,70,0,1
179839,-68.9655172413793,4,2,1,70,0,1
181251,-62.5,4,2,1,70,0,1
181780,-83.3333333333333,4,2,1,70,0,1
184957,-166.666666666667,4,2,1,40,0,0
195016,-125,4,2,1,40,0,0
196251,-111.111111111111,4,2,1,40,0,0
197663,-100,4,2,1,40,0,0
207016,-133.333333333333,4,2,2,40,0,0
208250,-125,4,2,2,20,0,0
211780,-125,4,2,1,20,0,0
213192,-125,4,2,1,45,0,0
213545,-125,4,2,1,55,0,0
213898,-125,4,2,1,65,0,0
214251,-125,4,2,1,65,0,0
214604,-66.6666666666667,4,2,1,70,0,1
215839,-76.9230769230769,4,2,1,70,0,1
220251,-71.4285714285714,4,2,1,70,0,1
220516,-71.4285714285714,4,2,1,5,0,1
220604,-71.4285714285714,4,2,1,70,0,1
221310,-76.9230769230769,4,2,1,70,0,1
222192,-83.3333333333333,4,2,1,70,0,1
223251,-76.9230769230769,4,2,1,70,0,1
223604,-71.4285714285714,4,2,1,70,0,1
223869,-71.4285714285714,4,2,1,5,0,1
223957,-71.4285714285714,4,2,1,70,0,1
224310,-71.4285714285714,4,2,1,70,0,1
225192,-90.9090909090909,4,2,1,70,0,1
225545,-83.3333333333333,4,2,1,70,0,1
225898,-71.4285714285714,4,2,1,70,0,1
227310,-83.3333333333333,4,2,1,70,0,1
227839,-62.5,4,2,1,70,0,1
228369,-83.3333333333333,4,2,1,70,0,1
229957,-76.9230769230769,4,2,1,70,0,1
230486,-80,4,2,1,70,0,0
231367,-80,4,2,1,60,0,0
231545,-83.3333333333333,4,2,1,60,0,0
232603,-100,4,2,1,60,0,0
232956,-83.3333333333333,4,2,1,60,0,0
233486,-100,4,2,1,60,0,0
234368,-83.3333333333333,4,2,1,60,0,0
235427,-100,4,2,1,60,0,0
235780,-83.3333333333333,4,2,1,60,0,0
236839,-90.9090909090909,4,2,1,60,0,0
237192,-76.9230769230769,4,2,1,60,0,0
238251,-83.3333333333333,4,2,1,60,0,0
238603,-76.9230769230769,4,2,1,60,0,0
240015,-76.9230769230769,4,2,1,60,0,0
240280,-76.9230769230769,4,2,1,5,0,0
240368,-100,4,2,1,60,0,0
240457,-100,4,2,1,5,0,0
240545,-71.4285714285714,4,2,1,60,0,0
240810,-71.4285714285714,4,2,1,5,0,0
240898,-100,4,2,1,60,0,0
240986,-100,4,2,1,5,0,0
241074,-83.3333333333333,4,2,1,60,0,0
241339,-83.3333333333333,4,2,1,5,0,0
241427,-100,4,2,1,60,0,0
241516,-100,4,2,1,5,0,0
241603,-83.3333333333333,4,2,1,60,0,0
241869,-83.3333333333333,4,2,1,5,0,0
241956,-100,4,2,1,60,0,0
242045,-100,4,2,1,5,0,0
242133,-76.9230769230769,4,2,1,60,0,0
242839,-83.3333333333333,4,2,1,60,0,0
243898,-90.9090909090909,4,2,1,60,0,0
244251,-76.9230769230769,4,2,1,60,0,0
244780,-90.9090909090909,4,2,1,60,0,0
245662,-83.3333333333333,4,2,1,60,0,0
247074,-71.4285714285714,4,2,1,60,0,0
247780,-74.0740740740741,4,2,1,60,0,0
248133,-100,4,2,1,60,0,0
248221,-100,4,2,1,5,0,0
248310,-100,4,2,1,60,0,0
248398,-100,4,2,1,5,0,0
248486,-80,4,2,1,60,0,0
249015,-100,4,2,1,60,0,0
249898,-90.9090909090909,4,2,1,60,0,0
250603,-83.3333333333333,4,2,1,60,0,0
251309,-76.9230769230769,4,2,1,60,0,0
254133,-76.9230769230769,4,2,1,60,0,0
254662,-76.9230769230769,4,2,1,50,0,0
256250,-76.9230769230769,4,2,1,60,0,0
256957,-76.9230769230769,4,2,1,70,0,0
258016,-50,4,2,1,70,0,0
258545,-45.4545454545455,4,2,1,70,0,0
259427,-35.7142857142857,4,2,1,70,0,0
259604,-35.7142857142857,4,2,1,5,0,0

[Colours]
Combo1 : 255,223,115
Combo2 : 201,155,227
Combo3 : 234,170,149
Combo4 : 243,122,122

[HitObjects]
35,279,722,5,0,0:0:0:0:
94,328,898,1,0,0:0:0:0:
22,355,1074,1,0,0:0:0:0:
35,279,1251,1,0,0:0:0:0:
148,160,1604,1,0,0:0:0:0:
148,160,1780,2,0,L|169:52,1,80
165,240,2133,6,0,P|108:230|69:169,1,111.999996582031,4|0,0:0|0:0,0:0:0:0:
73,190,2663,2,0,P|131:200|169:262,1,111.999996582031,2|0,0:0|0:0,0:0:0:0:
254,282,3369,6,0,P|310:281|423:160,1,223.999993164063,2|2,0:0|0:3,0:0:0:0:
432,83,4427,1,0,0:0:0:0:
432,83,4780,6,0,P|420:50|384:25,2,55.9999982910157,2|0|0,0:0|0:0|0:0,0:0:0:0:
356,121,5486,2,0,P|302:143|240:138,1,111.999996582031,2|0,0:0|0:0,0:0:0:0:
249,140,6016,1,0,0:0:0:0:
356,121,6192,6,0,P|407:99|485:103,1,128,2|2,0:3|0:0,0:0:0:0:
429,175,6721,1,0,0:0:0:0:
429,175,6898,6,0,L|438:305,1,128,2|0,0:3|0:0,0:0:0:0:
415,374,7427,2,0,L|407:319,1,55.9999982910157
336,235,7780,6,0,P|278:222|193:250,1,128,2|0,0:0|0:0,0:0:0:0:
154,296,8310,2,0,B|133:323|133:323|87:281|101:214,1,128,2|0,0:0|0:0,0:0:0:0:
156,192,8839,1,0,0:0:0:0:
103,108,9016,2,0,P|84:148|91:183,1,64,2|0,0:3|0:0,0:0:0:0:
156,192,9369,1,2,0:0:0:0:
229,166,9545,1,0,0:0:0:0:
308,198,9721,6,0,P|371:194|451:227,1,128,2|0,0:0|0:0,0:0:0:0:
497,287,10251,2,0,P|464:286|419:320,1,64,2|0,0:3|0:0,0:0:0:0:
374,350,10604,5,12,0:0:0:0:
361,230,10780,1,8,0:0:0:0:
303,300,10957,5,8,0:0:0:0:
367,148,11133,1,8,0:0:0:0:
452,360,11310,5,8,0:0:0:0:
492,123,11486,1,8,0:0:0:0:
268,319,11663,2,0,P|215:328|169:272,1,95.9999970703126,10|8,0:0|0:0,0:0:0:0:
169,276,11927,1,8,0:0:0:0:
166,252,12016,6,0,L|194:89,1,132.00000402832,12|0,0:1|0:0,0:0:0:0:
311,135,12369,1,0,1:0:0:0:
200,47,12545,6,0,L|240:215,1,167.999994873047,8|0,0:0|0:0,0:0:0:0:
268,319,12898,1,8,0:0:0:0:
401,256,13251,5,0,3:0:0:0:
407,239,13339,1,0,3:0:0:0:
411,228,13427,2,0,P|495:280|448:358,2,191.999994140625,12|0|8,0:1|1:0|0:0,0:0:0:0:
278,315,14310,1,8,0:0:0:0:
229,192,14486,2,0,P|272:183|309:198,1,80,0|0,1:0|0:0,0:0:0:0:
278,315,14839,6,0,P|203:282|231:191,1,191.999994140625,10|0,0:0|1:0,0:0:0:0:
370,212,15369,2,0,P|424:222|464:207,1,80,8|0,0:0|0:0,0:0:0:0:
414,147,15721,1,8,0:0:0:0:
290,224,15898,2,0,P|311:261|368:288,1,80,0|0,1:0|0:0,0:0:0:0:
238,151,16251,6,0,B|148:109|139:195|47:149,1,191.999994140625,10|0,0:0|1:0,0:0:0:0:
87,242,16780,1,0,0:0:0:0:
205,69,16957,1,10,0:0:0:0:
235,228,17133,1,8,0:0:0:0:
100,83,17310,2,0,P|87:40|96:1,1,80,2|0,1:3|0:0,0:0:0:0:
94,269,17663,6,0,P|117:176|100:83,1,191.999994140625,10|0,0:0|1:0,0:0:0:0:
36,29,18192,1,8,0:0:0:0:
72,163,18369,1,0,0:0:0:0:
190,96,18545,1,8,0:0:0:0:
176,256,18721,2,0,P|140:273|82:262,1,88.000002685547,2|0,1:3|0:0,0:0:0:0:
279,218,19074,6,0,P|345:215|411:327,1,207.999990478516,12|0,0:0|1:0,0:0:0:0:
193,282,19604,1,0,0:0:0:0:
324,300,19780,1,8,0:0:0:0:
279,181,19957,1,8,0:0:0:0:
121,257,20133,2,0,P|114:304|130:342,1,83.9999974365235,0|0,1:0|0:0,0:0:0:0:
295,257,20486,6,0,P|320:182|238:111,1,191.999994140625,8|0,0:0|1:0,0:0:0:0:
161,190,21016,2,0,P|167:228|203:265,1,80,8|2,0:0|0:0,0:0:0:0:
392,282,21369,1,8,0:0:0:0:
309,174,21545,1,0,1:0:0:0:
200,251,21721,1,0,0:0:0:0:
285,376,21898,6,0,P|261:313|169:295,1,155.999992858887,12|0,0:0|0:0,0:0:0:0:
162,292,22251,2,0,L|178:234,1,40,0|0,1:0|0:0,0:0:0:0:
303,127,22427,6,0,P|368:158|285:182,1,167.999994873047,12|0,0:0|0:0,0:0:0:0:
287,208,22780,2,0,L|243:191,1,40,0|0,1:0|0:0,0:0:0:0:
138,155,22957,6,0,L|118:12,1,143.999995605469,12|0,0:0|0:0,0:0:0:0:
95,17,23310,2,0,L|82:69,1,40,8|0,0:0|0:0,0:0:0:0:
82,231,23486,6,0,P|150:185|219:232,1,143.999995605469,12|0,0:0|0:0,0:0:0:0:
221,228,23839,2,0,L|217:270,1,40,0|0,1:0|0:0,0:0:0:0:
283,73,24016,6,0,L|301:208,1,103.999995239258,12|0,0:0|3:0,0:0:0:0:
310,301,24280,1,0,0:0:0:0:
295,296,24369,1,12,0:0:0:0:
295,280,24457,1,2,0:0:0:0:
310,275,24545,1,2,0:0:0:0:
319,288,24633,1,2,0:0:0:0:
310,301,24721,6,0,P|207:335|213:262,2,191.999994140625,12|0|10,0:1|1:0|0:0,0:0:0:0:
252,202,25604,1,0,0:0:0:0:
134,236,25780,2,0,P|117:275|121:319,1,88.000002685547,0|0,1:0|0:0,0:0:0:0:
424,220,26133,6,0,P|387:131|279:138,1,207.999990478516,10|0,0:0|1:0,0:0:0:0:
374,285,26663,2,0,P|412:302|458:296,1,88.000002685547,8|2,0:0|0:3,0:0:0:0:
416,108,27016,1,8,0:0:0:0:
205,96,27192,2,0,P|173:67|156:19,1,88.000002685547,0|0,1:0|0:0,0:0:0:0:
345,168,27545,6,0,P|259:120|177:153,1,191.999994140625,10|0,0:0|1:0,0:0:0:0:
257,215,28074,1,0,0:0:0:0:
340,63,28251,1,2,0:3:0:0:
345,168,28427,1,8,0:0:0:0:
248,31,28604,2,0,P|207:16|150:29,1,95.9999970703126,0|0,1:0|0:0,0:0:0:0:
4,168,28957,6,0,P|71:244|125:166,1,223.999993164063,10|0,0:0|1:0,0:0:0:0:
92,73,29486,1,8,0:0:0:0:
277,141,29663,6,0,B|289:187|250:227|199:231|199:231|238:178,1,162.000000617981,2|2,0:3|0:0,0:0:0:0:
119,127,30016,2,0,P|125:160|130:196,1,40,0|0,1:0|0:0,0:0:0:0:
224,248,30192,2,0,P|218:223|209:177,1,40,2|0,0:0|0:0,0:0:0:0:
130,343,30369,6,0,P|192:331|319:384,1,200,12|0,0:1|1:0,0:0:0:0:
405,360,30898,1,0,3:0:0:0:
423,341,30986,1,0,3:0:0:0:
430,320,31074,2,0,P|432:281|384:230,1,80,10|0,0:0|0:0,0:0:0:0:
256,240,31427,2,0,P|290:259|340:258,1,80,0|0,1:0|0:0,0:0:0:0:
392,81,31781,6,0,P|425:153|409:251,1,176.000005371094,8|0,0:0|1:0,0:0:0:0:
336,332,32310,1,8,0:0:0:0:
256,240,32486,2,0,P|295:215|355:222,1,95.9999970703126,2|8,0:0|0:0,0:0:0:0:
383,345,32839,2,0,P|343:368|283:363,1,95.9999970703126,0|0,1:0|0:0,0:0:0:0:
256,240,33192,6,0,P|326:138|440:108,1,240.000009155274,12|0,0:0|1:0,0:0:0:0:
257,267,33721,6,0,P|188:165|90:139,1,223.999993164063,12|0,0:0|1:0,0:0:0:0:
257,295,34251,6,0,P|316:188|431:158,1,207.999990478516,12|0,0:0|1:0,0:0:0:0:
264,339,34780,5,12,0:0:0:0:
264,339,34869,1,0,3:0:0:0:
264,339,34957,1,2,0:0:0:0:
175,111,35133,1,8,0:3:0:0:
95,285,35310,5,2,0:0:0:0:
286,192,35486,1,8,0:3:0:0:
122,200,35663,5,8,0:3:0:0:
182,324,35839,1,2,0:3:0:0:
297,248,36016,6,0,P|264:211|213:202,1,80,12|0,0:0|0:0,0:0:0:0:
182,324,36369,2,0,P|211:301|227:273,1,60.0000022888184,8|0,0:0|0:0,0:0:0:0:
211,198,36721,2,0,P|214:162|244:131,2,60.0000022888184,8|0|8,0:0|0:0|0:0,0:0:0:0:
333,143,37251,2,0,P|267:120|213:163,1,120.000004577637
281,195,37780,1,8,0:0:0:0:
281,195,37957,2,0,L|283:68,1,120.000004577637
356,61,38486,1,0,0:0:0:0:
356,61,38663,1,2,0:0:0:0:
414,131,38839,5,8,0:0:0:0:
451,43,39016,1,0,0:0:0:0:
508,122,39192,1,8,0:0:0:0:
356,61,39369,2,0,L|287:34,1,60.0000022888184,2|0,0:0|0:0,0:0:0:0:
223,12,39721,1,2,0:0:0:0:
202,3,39898,1,8,0:0:0:0:
112,80,40074,6,0,P|137:131|193:148,1,120.000004577637,2|0,0:0|0:0,0:0:0:0:
252,95,40604,1,10,0:0:0:0:
119,155,40780,2,0,P|81:154|53:135,1,60.0000022888184,2|0,0:0|0:0,0:0:0:0:
162,49,41133,1,0,0:0:0:0:
162,49,41310,2,0,P|122:77|98:81,1,60.0000022888184,10|0,0:0|0:0,0:0:0:0:
62,144,41663,5,4,0:0:0:0:
94,213,41839,2,0,P|101:243|87:284,1,60.0000022888184,0|8,0:0|0:0,0:0:0:0:
172,223,42192,2,0,B|243:206|225:265|307:244,1,120.000004577637
326,314,42721,1,8,0:0:0:0:
399,207,42898,2,0,P|401:236|392:265,1,60.0000022888184,0|8,0:0|0:0,0:0:0:0:
366,132,43251,1,0,0:0:0:0:
444,248,43427,2,0,P|423:270|396:283,1,60.0000022888184,8|0,0:0|0:0,0:0:0:0:
326,314,43780,5,10,0:0:0:0:
258,232,43957,1,0,0:0:0:0:
199,328,44133,1,10,0:0:0:0:
113,210,44310,1,0,0:0:0:0:
215,348,44486,6,0,P|288:353|323:252,1,184.000003509522,12|0,0:0|1:0,0:0:0:0:
285,137,45016,2,0,P|233:207|268:294,1,160,12|0,0:0|1:0,0:0:0:0:
370,152,45545,6,0,P|353:79|264:64,1,138.000002632141,8|0,0:0|0:0,0:0:0:0:
266,205,45898,2,0,P|341:195|371:130,1,132.00000402832,12|0,3:0|0:0,0:0:0:0:
322,67,46251,1,8,0:0:0:0:
200,152,46427,6,0,P|194:242|275:282,1,191.999994140625,12|0,0:0|1:0,0:0:0:0:
358,294,46957,2,0,P|357:255|328:222,1,80
358,26,47310,6,0,P|370:82|459:160,1,160,12|0,0:0|1:0,0:0:0:0:
511,192,47839,2,0,P|488:216|430:228,1,68.0000012969971,0|8,0:0|0:0,0:0:0:0:
313,210,48192,1,0,0:0:0:0:
411,171,48369,1,0,1:0:0:0:
345,291,48545,1,0,0:0:0:0:
345,291,48721,6,0,P|291:289|225:232,1,136.000002593994,8|0,0:0|1:0,0:0:0:0:
361,153,49251,2,0,P|323:218|280:170,1,136.000002593994,8|8,0:0|0:0,0:0:0:0:
257,135,49780,1,0,1:0:0:0:
257,135,49957,1,0,0:0:0:0:
318,60,50133,5,8,0:0:0:0:
257,135,50310,1,0,0:0:0:0:
200,74,50486,1,0,1:0:0:0:
361,152,50663,2,0,P|401:145|440:102,1,71.9999978027344,0|8,0:0|0:0,0:0:0:0:
440,8,51016,1,0,0:0:0:0:
368,78,51192,1,0,1:0:0:0:
480,171,51369,1,0,0:0:0:0:
373,265,51545,6,0,P|403:196|351:149,1,143.999995605469,8|0,0:0|1:0,0:0:0:0:
295,250,52074,2,0,P|256:259|219:243,1,71.9999978027344,8|0,0:0|0:0,0:0:0:0:
188,184,52427,1,0,0:0:0:0:
259,123,52604,1,0,1:0:0:0:
295,250,52780,1,0,0:0:0:0:
368,98,52957,6,0,P|451:108|465:179,1,160,12|0,0:0|1:0,0:0:0:0:
368,98,53486,2,0,P|309:66|229:118,1,167.999994873047,2|0,0:0|0:0,0:0:0:0:
364,181,54016,1,0,1:0:0:0:
364,181,54192,6,0,P|433:146|436:52,1,167.999994873047,2|0,0:0|0:0,0:0:0:0:
230,114,54721,1,0,1:0:0:0:
230,114,54898,6,0,B|145:87|155:161|61:131,1,167.999994873047,10|0,0:0|0:0,0:0:0:0:
198,184,55427,1,2,1:2:0:0:
129,49,55604,1,0,0:0:0:0:
84,232,55780,6,0,B|58:272|84:328|84:328|95:309|122:294,1,125.999996154785,12|0,0:0|0:0,0:0:0:0:
188,269,56133,1,0,1:0:0:0:
288,367,56310,6,0,P|237:387|173:361,1,125.999996154785,12|0,0:0|0:0,0:0:0:0:
188,269,56663,1,0,1:0:0:0:
366,324,56839,5,10,0:0:0:0:
273,164,57016,1,0,0:0:0:0:
442,220,57192,6,0,P|511:206|468:126,1,184.000003509522,12|0,0:0|1:0,0:0:0:0:
361,235,57721,2,0,P|404:214|445:222,1,88.000002685547,12|0,0:0|0:0,0:0:0:0:
416,297,58074,1,0,1:0:0:0:
341,216,58251,1,10,0:0:0:0:
285,328,58427,1,0,3:0:0:0:
257,335,58516,1,0,3:0:0:0:
234,328,58604,6,0,B|204:265|204:265|237:194,1,128,4|0,0:0|1:0,0:0:0:0:
295,135,59133,2,0,B|325:200|325:200|292:271,1,128,0|0,3:0|0:0,0:0:0:0:
207,236,59663,2,0,L|137:220,1,64,0|0,3:0|3:0,3:0:0:0:
121,215,59927,1,0,3:0:0:0:
101,208,60016,6,0,P|67:145|126:41,2,192,8|0|8,0:0|3:0|0:3,0:0:0:0:
177,179,61251,1,0,3:0:0:0:
194,171,61339,1,0,3:0:0:0:
206,170,61427,6,0,P|239:171|295:255,1,136.000002593994,12|0,0:0|1:0,0:0:0:0:
237,318,61957,2,0,P|204:317|148:232,1,136.000002593994,0|0,3:0|0:0,0:0:0:0:
303,265,62486,1,0,0:0:0:0:
369,208,62663,1,0,0:0:0:0:
317,148,62839,6,0,P|251:174|289:260,2,180.000006866455,8|2|0,0:0|0:3|0:0,0:0:0:0:
366,234,64074,1,0,0:0:0:0:
366,234,64251,6,0,P|356:296|310:343,1,128,12|0,0:0|1:0,0:0:0:0:
297,260,64780,2,0,P|342:303|412:313,1,128,0|0,3:0|0:0,0:0:0:0:
307,368,65310,1,0,0:0:0:0:
216,331,65486,1,0,3:0:0:0:
203,325,65574,1,0,3:0:0:0:
191,327,65663,6,0,P|143:337|67:324,1,128,8|0,0:0|0:0,0:0:0:0:
65,323,66192,2,0,P|114:312|190:325,1,128,0|0,3:0|0:0,0:0:0:0:
259,271,66721,2,0,L|270:204,1,64,8|0,0:0|3:0,0:0:0:0:
272,189,66986,1,0,3:0:0:0:
273,173,67074,6,0,P|243:126|194:146,1,111.999996582031,12|0,0:0|1:0,0:0:0:0:
118,199,67604,2,0,P|77:204|-3:173,1,111.999996582031,0|0,3:0|0:0,0:0:0:0:
110,140,68133,2,0,L|117:198,1,55.9999982910157,0|0,0:0|3:0,0:0:0:0:
120,219,68398,1,0,3:0:0:0:
122,240,68486,6,0,B|134:352|134:352|179:284,1,160,12|0,0:0|0:0,0:0:0:0:
263,265,69016,2,0,P|288:260|346:292,1,80,0|0,3:0|0:0,0:0:0:0:
351,312,69369,1,0,0:0:0:0:
259,252,69545,1,2,0:0:0:0:
207,358,69721,1,0,0:0:0:0:
367,306,69898,6,0,P|384:242|316:188,1,160,12|0,0:1|1:0,0:0:0:0:
293,325,70427,2,0,P|343:324|376:289,1,80,0|8,0:0|0:0,0:0:0:0:
244,253,70780,1,0,0:0:0:0:
191,358,70957,1,0,1:0:0:0:
79,218,71133,1,0,3:0:0:0:
68,208,71221,1,0,3:0:0:0:
61,200,71310,6,0,B|84:381,1,176.000005371094,10|0,0:0|1:0,0:0:0:0:
162,108,71839,2,0,B|186:281,1,160,8|8,0:0|0:0,0:0:0:0:
310,332,72369,1,0,1:0:0:0:
352,218,72545,1,0,0:0:0:0:
191,301,72721,6,0,B|112:278|122:363|44:342,1,160,8|0,0:0|1:0,0:0:0:0:
42,183,73251,2,0,L|59:265,1,80,8|0,0:0|0:0,0:0:0:0:
20,108,73604,1,8,0:0:0:0:
163,177,73780,1,0,1:0:0:0:
118,302,73957,1,0,3:0:0:0:
104,305,74045,1,0,3:0:0:0:
89,303,74133,6,0,P|30:261|49:175,1,160,10|0,0:0|1:0,0:0:0:0:
249,242,74663,2,0,P|169:204|100:228,1,160,8|8,0:0|0:0,0:0:0:0:
225,368,75192,2,0,L|237:289,1,80,0|0,1:0|3:0,0:0:0:0:
245,264,75457,1,0,3:0:0:0:
249,242,75545,6,0,P|320:227|293:144,1,176.000005371094,12|0,0:0|1:0,0:0:0:0:
253,58,76074,2,0,B|175:78,1,80,0|8,0:0|0:0,0:0:0:0:
189,177,76427,2,0,B|111:196,1,80,0|0,0:0|1:0,0:0:0:0:
32,115,76780,1,0,3:0:0:0:
29,101,76869,1,0,3:0:0:0:
27,92,76957,6,0,P|84:62|183:82,1,160,10|0,0:0|1:0,0:0:0:0:
221,165,77486,2,0,L|225:248,1,80,8|0,0:0|0:0,0:0:0:0:
269,94,77839,1,2,0:3:0:0:
317,242,78016,1,0,1:0:0:0:
355,153,78192,1,2,0:3:0:0:
207,328,78369,6,0,P|144:260|161:180,1,176.000005371094,10|0,0:0|1:0,0:0:0:0:
278,181,78898,2,0,P|265:218|224:244,1,88.000002685547,2|0,0:0|0:0,0:0:0:0:
90,158,79251,1,0,0:0:0:0:
225,244,79427,1,0,1:0:0:0:
308,79,79604,1,0,3:0:0:0:
315,57,79692,1,0,3:0:0:0:
307,40,79780,6,0,P|234:31|206:87,1,120,12|0,0:0|0:0,0:0:0:0:
84,105,80133,1,0,0:0:0:0:
270,232,80310,2,0,P|343:94|284:20,1,240.000009155274,12|0,0:0|1:0,0:0:0:0:
238,263,80839,5,8,0:0:0:0:
259,309,80927,1,0,3:0:0:0:
309,301,81016,1,0,3:0:0:0:
315,251,81104,1,0,3:0:0:0:
270,232,81192,2,0,P|212:223|106:261,1,120.000004577637,0|0,1:0|0:0,0:0:0:0:
72,272,81457,1,0,0:0:0:0:
53,292,81545,1,0,1:0:0:0:
329,80,82074,1,0,3:0:0:0:
329,80,82163,1,0,3:0:0:0:
329,80,82251,6,0,P|286:155|313:239,1,180.000006866455,12|0,0:1|0:0,0:0:0:0:
361,300,82604,1,0,1:0:0:0:
199,182,82780,2,0,P|149:157|86:174,1,103.999995239258,8|0,0:0|0:0,0:0:0:0:
33,215,83133,1,8,0:0:0:0:
209,356,83310,2,0,P|273:334|285:272,1,95.9999970703126,0|0,1:0|0:0,0:0:0:0:
134,277,83663,5,8,0:0:0:0:
285,313,83839,1,0,0:0:0:0:
235,182,84016,1,0,1:0:0:0:
53,214,84192,2,0,P|6:139|69:75,1,191.999994140625,8|8,0:0|0:0,0:0:0:0:
128,272,84721,1,0,1:0:0:0:
79,144,84898,1,0,0:0:0:0:
262,208,85074,1,10,0:0:0:0:
82,360,85251,6,0,P|36:348|-21:315,1,88.000002685547,0|0,0:0|1:0,0:0:0:0:
154,289,85604,2,0,P|196:300|235:320,1,88.000002685547,8|0,0:0|0:0,0:0:0:0:
187,103,85957,1,0,0:0:0:0:
154,289,86133,1,0,1:0:0:0:
77,180,86310,1,0,0:0:0:0:
225,371,86486,6,0,P|302:300|381:284,1,167.999994873047,8|0,0:0|0:0,0:0:0:0:
432,329,86839,1,0,1:0:0:0:
477,214,87016,1,8,0:0:0:0:
281,112,87192,2,0,P|256:161|268:215,1,111.999996582031,0|8,0:0|0:0,0:0:0:0:
227,355,87545,2,0,P|195:320|141:302,1,95.9999970703126,4|0,1:2|1:0,0:0:0:0:
109,313,87810,1,0,1:0:0:0:
76,324,87898,6,0,P|33:251|149:207,1,223.999993164063,12|0,0:1|1:0,0:0:0:0:
337,257,88427,2,0,P|288:286|232:282,1,111.999996582031,8|0,0:0|0:0,0:0:0:0:
233,168,88780,1,8,0:0:0:0:
337,257,88957,1,0,1:0:0:0:
187,353,89133,2,0,P|153:292|248:177,1,191.999994140625,8|0,0:0|0:0,0:0:0:0:
303,244,89663,1,0,1:0:0:0:
221,14,89839,6,0,P|153:62|214:192,1,240.000009155274,10|8,0:1|0:0,0:0:0:0:
228,100,90369,1,0,1:0:0:0:
234,85,90545,1,0,0:0:0:0:
157,291,90721,5,12,0:0:0:0:
228,100,90898,1,0,0:0:0:0:
281,264,91074,1,0,1:0:0:0:
78,188,91251,5,0,3:0:0:0:
336,161,91427,1,2,0:0:0:0:
379,173,91516,1,0,0:0:0:0:
387,219,91604,1,2,0:0:0:0:
353,249,91692,1,0,0:0:0:0:
310,234,91780,1,0,1:0:0:0:
301,191,91869,1,0,0:0:0:0:
336,161,91957,6,0,P|373:219|320:361,1,192,10|0,0:0|0:0,0:0:0:0:
194,162,92310,6,0,P|244:135|353:179,1,155.999992858887,12|0,0:0|0:0,0:0:0:0:
167,292,92663,6,0,P|156:228|224:143,1,143.999995605469,12|0,0:1|0:0,0:0:0:0:
296,162,93016,5,8,0:0:0:0:
270,28,93192,1,0,1:0:0:0:
303,192,93369,1,2,0:3:0:0:
313,222,93457,1,0,3:0:0:0:
324,252,93545,6,0,P|387:279|460:208,1,167.999994873047,12|0,0:1|0:0,0:0:0:0:
392,125,93898,1,0,1:0:0:0:
237,260,94074,2,0,P|248:292|292:340,1,88.000002685547,0|8,0:0|0:0,0:0:0:0:
462,292,94427,1,8,0:0:0:0:
392,125,94604,2,0,P|340:123|295:149,1,103.999995239258,0|8,1:0|0:0,0:0:0:0:
213,239,94957,5,0,0:0:0:0:
156,121,95133,1,8,0:0:0:0:
291,253,95310,1,0,1:0:0:0:
145,360,95486,6,0,P|91:356|45:320,1,103.999995239258,0|8,0:0|0:0,0:0:0:0:
214,292,95839,1,8,0:0:0:0:
50,328,96016,1,0,1:0:0:0:
252,374,96192,1,0,0:0:0:0:
59,257,96369,5,10,0:0:0:0:
384,332,96545,2,0,L|273:305,1,95.9999970703126,0|0,0:0|1:0,0:0:0:0:
328,215,96898,2,0,L|214:192,1,80,0|8,0:0|0:0,0:0:0:0:
317,112,97251,1,8,0:0:0:0:
194,263,97427,1,0,1:0:0:0:
82,106,97604,6,0,P|178:75|232:166,1,223.999993164063,8|8,0:0|0:0,0:0:0:0:
230,239,98133,1,0,1:0:0:0:
145,152,98310,1,8,0:0:0:0:
344,61,98486,6,0,P|385:70|411:105,1,88.000002685547,2|0,0:0|0:0,0:0:0:0:
337,198,98839,2,0,P|295:179|277:135,1,95.9999970703126,0|0,1:2|0:0,0:0:0:0:
477,171,99192,6,0,P|516:262|468:350,1,207.999990478516,12|0,0:1|1:0,0:0:0:0:
299,208,99721,2,0,P|350:157|497:192,1,207.999990478516,12|0,0:0|0:0,0:0:0:0:
405,257,100251,1,8,1:3:0:0:
301,135,100427,1,0,0:0:0:0:
222,267,100604,2,0,P|216:313|188:352,1,95.9999970703126,12|0,0:0|0:0,0:0:0:0:
93,169,100957,1,0,1:0:0:0:
379,183,101133,6,0,P|393:113|227:92,1,256,12|0,0:1|0:0,0:0:0:0:
186,181,101663,2,0,P|145:183|84:165,1,95.9999970703126,8|0,0:3|3:0,0:0:0:0:
273,288,102016,5,12,0:0:0:0:
305,157,102192,1,0,0:0:0:0:
280,301,102369,5,0,1:0:0:0:
205,92,102545,1,8,0:0:0:0:
289,315,102721,5,0,1:0:0:0:
324,328,102810,1,0,1:0:0:0:
361,328,102898,1,0,1:0:0:0:
398,315,102986,1,0,1:0:0:0:
427,291,103074,1,4,1:2:0:0:
445,257,103163,1,0,0:0:0:0:
450,215,103251,2,0,L|423:140,1,51.999997619629,2|0,0:0|0:0,0:0:0:0:
398,67,103427,5,12,1:1:0:0:
364,198,103604,1,8,1:2:0:0:
324,328,103780,1,8,1:2:0:0:
50,175,104839,6,0,P|59:132|47:100,1,55.9999982910157,12|0,0:1|0:0,0:0:0:0:
38,52,105192,1,0,1:0:0:0:
135,106,105369,6,0,B|184:109|247:127,1,111.999996582031
303,68,105898,1,0,1:0:0:0:
368,123,106074,1,0,0:0:0:0:
342,198,106251,1,8,0:0:0:0:
263,200,106427,1,0,0:0:0:0:
301,76,106604,1,0,1:0:0:0:
257,216,106780,6,0,B|195:196|215:276|131:249,1,128,8|8,0:0|0:0,0:0:0:0:
176,328,107310,1,0,1:0:0:0:
257,216,107486,1,0,0:0:0:0:
115,160,107663,6,0,P|91:227|149:244,1,128,8|0,0:0|1:0,0:0:0:0:
156,98,108192,2,0,P|138:72|92:61,1,55.9999982910157,0|8,0:0|0:0,0:0:0:0:
191,167,108545,2,0,P|223:163|254:130,1,55.9999982910157,0|0,0:0|1:0,0:0:0:0:
273,72,108898,1,0,0:0:0:0:
320,187,109074,6,0,P|385:192|436:129,1,128,8|0,0:0|1:0,0:0:0:0:
428,153,109604,2,0,P|363:148|312:210,1,128,8|8,0:0|0:0,0:0:0:0:
392,224,110133,1,0,1:0:0:0:
444,123,110310,1,0,0:0:0:0:
321,158,110486,6,0,L|172:123,1,151.999995941162,12|0,0:0|1:0,0:0:0:0:
101,153,111016,1,0,3:0:0:0:
234,184,111192,1,8,0:0:0:0:
194,56,111369,1,0,0:0:0:0:
156,220,111545,6,0,L|167:306,1,75.9999979705811,0|0,1:0|0:0,0:0:0:0:
315,358,111898,2,0,P|356:299|315:240,1,151.999995941162,8|0,0:0|1:0,0:0:0:0:
240,238,112427,2,0,P|261:186|374:200,1,160,8|8,0:0|0:0,0:0:0:0:
424,152,112957,1,0,1:0:0:0:
340,252,113133,1,0,0:0:0:0:
219,260,113310,6,0,B|192:215|216:177,1,88.000002685547,12|0,0:0|0:0,0:0:0:0:
260,327,113663,1,0,1:0:0:0:
110,303,113839,6,0,B|131:343|186:341,1,80,12|0,0:0|0:0,0:0:0:0:
260,327,114192,1,0,1:0:0:0:
126,270,114369,1,8,0:0:0:0:
329,313,114545,6,0,B|353:327|377:315|377:315|361:287|340:289,1,95.9999970703126,2|0,1:2|0:0,0:0:0:0:
143,304,114898,6,0,B|117:308|105:332|105:332|134:343|151:328,1,95.9999970703126,8|0,1:3|0:0,0:0:0:0:
247,160,115251,6,0,B|252:132|233:114|233:114|213:136|222:159,1,95.9999970703126,4|0,1:3|0:0,0:0:0:0:
329,313,115604,6,0,B|353:327|377:315|377:315|361:287|340:289,1,95.9999970703126,2|0,1:2|0:0,0:0:0:0:
329,313,116133,6,0,P|307:257|371:190,1,160,12|8,0:0|0:0,0:0:0:0:
409,101,116663,2,0,P|412:143|382:176,1,68.0000012969971,0|8,0:0|0:0,0:0:0:0:
327,119,117016,1,0,0:0:0:0:
399,163,117192,1,8,0:0:0:0:
356,48,117369,1,0,0:0:0:0:
356,48,117545,6,0,P|275:61|250:118,1,136.000002593994,8|8,0:0|0:0,0:0:0:0:
235,185,118074,2,0,P|175:200|158:142,1,136.000002593994
302,151,118604,1,8,0:0:0:0:
302,151,118780,1,2,0:0:0:0:
336,313,118957,5,8,0:0:0:0:
269,224,119133,1,0,0:0:0:0:
219,299,119310,1,8,0:0:0:0:
361,235,119486,2,0,P|401:242|440:285,1,71.9999978027344,2|8,0:0|0:0,0:0:0:0:
440,376,119839,1,0,0:0:0:0:
480,212,120016,1,10,0:0:0:0:
368,306,120192,1,0,0:0:0:0:
373,119,120369,6,0,P|403:187|351:235,1,143.999995605469,8|8,0:0|0:0,0:0:0:0:
295,133,120898,2,0,P|256:125|219:141,1,71.9999978027344,2|0,0:0|0:0,0:0:0:0:
182,74,121251,1,0,0:0:0:0:
295,133,121427,1,10,0:0:0:0:
199,212,121604,1,0,0:0:0:0:
199,212,121780,6,0,P|117:222|48:189,1,160,4|8,0:0|0:0,0:0:0:0:
68,299,122310,2,0,P|117:236|207:212,1,167.999994873047
273,268,122840,1,8,0:0:0:0:
353,106,123016,2,0,P|414:145|345:171,1,167.999994873047
283,139,123546,1,8,0:0:0:0:
223,327,123721,2,0,P|289:301|281:204,1,167.999994873047
290,215,124251,1,10,0:0:0:0:
366,323,124427,1,0,0:0:0:0:
412,162,124604,6,0,B|439:122|412:67|412:67|401:86|375:101,1,125.999996154785,12|0,0:0|0:0,0:0:0:0:
324,115,124957,1,0,1:0:0:0:
219,33,125133,6,0,P|270:13|334:38,1,125.999996154785,12|0,0:0|0:0,0:0:0:0:
324,115,125486,1,0,1:0:0:0:
165,90,125663,2,0,P|140:37|147:12,1,83.9999974365235,8|0,0:0|0:0,0:0:0:0:
161,265,126016,6,0,P|96:289|90:198,1,184.000003509522,12|0,0:0|1:0,0:0:0:0:
238,236,126545,2,0,P|190:240|158:269,1,88.000002685547,12|0,0:0|0:0,0:0:0:0:
161,341,126898,1,0,1:0:0:0:
238,234,127074,1,8,0:0:0:0:
175,102,127251,1,0,3:0:0:0:
165,90,127339,1,0,3:0:0:0:
157,83,127427,6,0,B|147:204|147:204|180:159,1,176.000005371094,12|0,0:1|1:0,0:0:0:0:
295,130,127957,2,0,P|336:132|367:164,1,71.9999978027344,0|8,0:0|0:0,0:0:0:0:
440,150,128310,1,0,0:0:0:0:
348,219,128486,1,0,1:0:0:0:
308,50,128663,1,0,0:0:0:0:
308,50,128839,2,0,B|265:15|206:25|206:25|208:60|174:78,1,160,8|0,0:0|1:0,0:0:0:0:
167,145,129369,6,0,P|107:87|128:18,1,160,8|8,0:0|0:0,0:0:0:0:
186,70,129898,1,0,1:0:0:0:
186,70,130074,1,0,0:0:0:0:
275,198,130251,5,8,0:0:0:0:
363,158,130427,1,0,0:0:0:0:
403,252,130604,1,0,1:0:0:0:
483,174,130780,2,0,P|504:223|488:270,1,71.9999978027344,0|8,0:0|0:0,0:0:0:0:
440,376,131133,1,0,0:0:0:0:
367,315,131310,1,0,1:0:0:0:
475,220,131486,1,0,0:0:0:0:
373,119,131663,6,0,P|403:187|342:236,1,160,8|0,0:0|1:0,0:0:0:0:
295,133,132192,2,0,P|256:125|218:140,1,64,8|0,0:0|0:0,0:0:0:0:
174,250,132545,5,0,0:0:0:0:
161,155,132721,1,8,0:0:0:0:
262,204,132898,1,0,0:0:0:0:
328,61,133074,1,12,0:0:0:0:
328,61,133251,6,0,P|360:74|373:121,1,75.9999979705811,0|0,0:0|1:0,0:0:0:0:
249,62,133604,2,0,P|175:50|116:95,1,151.999995941162,2|0,0:0|0:0,0:0:0:0:
98,171,134133,1,0,1:0:0:0:
216,200,134310,2,0,L|195:123,1,75.9999979705811,2|8,0:0|0:0,0:0:0:0:
173,53,134663,5,0,0:0:0:0:
293,140,134839,1,0,1:0:0:0:
234,279,135016,2,0,P|192:277|150:228,1,80,8|0,0:0|0:0,0:0:0:0:
65,70,135369,1,8,0:0:0:0:
107,204,135545,2,0,L|118:129,1,71.9999978027344,0|0,1:0|0:0,0:0:0:0:
8,15,135898,6,0,P|-13:80|48:155,1,167.999994873047,12|0,0:0|1:0,0:0:0:0:
141,45,136427,2,0,P|72:-11|5:17,1,167.999994873047,12|0,0:0|1:0,0:0:0:0:
26,194,136957,2,0,P|64:190|93:170,1,71.9999978027344,10|0,0:0|0:0,0:0:0:0:
221,92,137310,6,0,B|279:61|343:98|343:98|301:122,1,176.000005371094,12|0,0:0|1:0,0:0:0:0:
222,243,137839,2,0,P|196:196|230:160,1,88.000002685547,12|0,0:0|0:0,0:0:0:0:
301,121,138192,1,0,1:0:0:0:
384,265,138369,2,0,L|403:178,1,88.000002685547,10|0,0:0|3:0,0:0:0:0:
408,160,138633,1,0,3:0:0:0:
409,148,138721,6,0,P|401:106|340:101,1,95.9999970703126,4|0,0:0|1:0,0:0:0:0:
284,122,139251,2,0,L|271:216,1,95.9999970703126,0|0,3:0|0:0,0:0:0:0:
267,292,139780,1,0,1:0:0:0:
183,228,139957,1,0,3:0:0:0:
173,223,140045,1,0,3:0:0:0:
165,220,140133,6,0,P|116:219|62:240,1,95.9999970703126,8|0,0:0|0:0,0:0:0:0:
131,292,140663,2,0,B|114:135,1,143.999995605469,0|8,3:0|0:3,0:0:0:0:
202,86,141369,1,0,3:0:0:0:
218,85,141457,1,0,3:0:0:0:
231,90,141545,6,0,P|246:131|193:160,1,111.999996582031,12|0,0:0|1:0,0:0:0:0:
133,121,142074,2,0,L|122:0,1,111.999996582031,8|0,0:0|0:0,0:0:0:0:
38,67,142604,1,0,3:0:0:0:
133,121,142780,1,0,3:0:0:0:
135,136,142869,1,0,3:0:0:0:
136,150,142957,6,0,L|145:261,1,111.999996582031,8|2,0:0|0:0,0:0:0:0:
206,317,143486,1,2,0:3:0:0:
263,252,143663,2,0,P|303:228|379:220,1,111.999996582031,2|0,2:0|2:0,2:0:0:0:
359,308,144192,1,0,3:0:0:0:
351,319,144280,1,0,3:0:0:0:
343,325,144369,6,0,P|302:301|257:240,1,111.999996582031,12|0,2:0|1:0,2:0:0:0:
366,218,144898,2,0,P|365:265|335:334,2,111.999996582031,0|0|0,3:0|0:0|3:0,2:0:0:0:
365,196,145692,1,0,3:0:0:0:
365,178,145780,6,0,P|370:152|388:126,1,55.9999982910157,8|0,0:0|0:0,2:0:0:0:
440,83,146133,1,0,0:0:0:0:
365,196,146310,2,0,P|315:186|277:133,1,111.999996582031,0|0,3:0|0:0,2:0:0:0:
321,108,146839,2,0,P|295:117|278:139,1,55.9999982910157,8|0,0:3|0:0,2:0:0:0:
214,195,147192,6,0,P|202:171|212:79,1,111.999996582031,12|0,0:0|1:0,2:0:0:0:
206,87,147721,2,0,L|214:206,1,103.999995239258,8|0,0:0|0:0,2:0:0:0:
277,282,148251,1,0,0:0:0:0:
335,209,148427,1,2,0:0:0:0:
168,255,148604,6,0,P|121:246|146:177,1,128,12|0,0:0|1:0,2:0:0:0:
262,196,149133,2,0,L|278:294,1,88.000002685547,8|0,0:0|0:0,2:0:0:0:
308,126,149486,1,0,1:0:0:0:
249,59,149663,1,2,0:0:0:0:
163,99,149839,1,0,0:0:0:0:
342,198,150016,6,0,P|387:132|336:54,1,160,12|0,0:1|1:0,0:0:0:0:
216,100,150545,2,0,P|245:126|284:130,1,80,0|8,0:0|0:0,0:0:0:0:
203,71,150898,1,0,0:0:0:0:
313,130,151074,1,0,1:0:0:0:
193,253,151251,1,0,3:0:0:0:
182,264,151339,1,0,3:0:0:0:
175,272,151427,6,0,B|194:142|194:142|219:190,1,176.000005371094,10|0,0:0|1:0,0:0:0:0:
275,289,151957,2,0,B|295:328|295:328|309:209,1,160,8|8,0:0|0:0,0:0:0:0:
257,98,152486,1,0,1:0:0:0:
214,181,152663,1,0,0:0:0:0:
368,135,152839,6,0,B|447:112|436:196|515:176,1,160,8|0,0:0|1:0,0:0:0:0:
497,22,153369,2,0,L|494:101,1,80
479,278,153721,1,0,0:0:0:0:
511,176,153898,1,0,1:0:0:0:
360,300,154074,1,0,3:0:0:0:
345,303,154163,1,0,3:0:0:0:
331,301,154251,6,0,P|272:259|291:173,1,160,10|0,0:0|1:0,0:0:0:0:
395,173,154780,2,0,P|416:228|359:300,1,160,8|8,0:0|0:0,0:0:0:0:
287,16,155310,2,0,L|275:95,1,80,0|0,1:0|3:0,0:0:0:0:
267,120,155574,1,0,3:0:0:0:
263,142,155663,6,0,P|192:157|219:240,1,176.000005371094,12|0,0:0|1:0,0:0:0:0:
259,325,156192,2,0,B|336:306,1,80,0|8,0:0|0:0,0:0:0:0:
323,207,156545,2,0,B|401:187,1,80,0|0,0:0|1:0,0:0:0:0:
480,269,156898,1,0,3:0:0:0:
483,282,156986,1,0,3:0:0:0:
485,292,157074,6,0,P|427:321|329:302,1,160,10|0,0:0|1:0,0:0:0:0:
291,219,157604,2,0,L|287:135,1,80,8|0,0:0|0:0,0:0:0:0:
243,289,157957,1,2,0:3:0:0:
195,142,158133,1,0,1:0:0:0:
156,231,158310,1,2,0:3:0:0:
305,56,158486,6,0,P|368:123|350:204,1,176.000005371094,8|0,0:0|1:0,0:0:0:0:
234,203,159016,2,0,P|247:166|288:139,1,88.000002685547
422,226,159369,1,0,0:0:0:0:
287,140,159545,1,0,1:0:0:0:
204,305,159721,1,0,3:0:0:0:
196,327,159810,1,0,3:0:0:0:
205,344,159898,6,0,P|272:334|275:219,1,200,12|0,0:0|1:0,0:0:0:0:
83,179,160427,5,12,0:0:0:0:
63,185,160516,1,0,0:0:0:0:
52,201,160604,1,0,0:0:0:0:
48,226,160692,1,0,0:0:0:0:
62,257,160780,1,0,1:0:0:0:
85,279,160869,1,0,0:0:0:0:
122,309,160957,1,0,3:0:0:0:
106,354,161045,1,0,3:0:0:0:
58,352,161133,1,0,3:0:0:0:
45,306,161221,1,0,3:0:0:0:
85,279,161310,5,0,3:0:0:0:
218,256,161545,5,0,3:0:0:0:
355,278,161780,5,0,3:0:0:0:
381,293,162192,1,0,3:0:0:0:
416,299,162280,1,0,3:0:0:0:
447,287,162369,6,0,P|468:201|419:136,1,174.000005310059,12|0,0:1|0:0,0:0:0:0:
231,182,162721,1,0,1:0:0:0:
304,328,162898,2,0,P|356:367|425:364,1,103.999995239258,8|0,0:0|0:0,0:0:0:0:
383,221,163251,1,8,0:0:0:0:
232,280,163427,2,0,P|217:339|267:398,1,103.999995239258,0|0,1:0|0:0,0:0:0:0:
298,211,163780,5,8,0:0:0:0:
190,361,163957,1,0,0:0:0:0:
133,252,164133,1,0,1:0:0:0:
40,339,164310,6,0,P|-2:281|71:173,1,207.999990478516,0|8,0:0|0:0,0:0:0:0:
171,273,164839,1,0,1:0:0:0:
187,120,165016,1,0,0:0:0:0:
27,264,165192,1,10,0:0:0:0:
254,236,165369,6,0,P|321:207|376:154,1,111.999996582031,0|0,0:0|1:0,0:0:0:0:
170,302,165721,2,0,P|224:322|263:354,1,88.000002685547,8|0,0:0|0:0,0:0:0:0:
377,268,166074,1,8,0:0:0:0:
324,366,166251,1,0,1:0:0:0:
180,223,166427,1,0,0:0:0:0:
326,86,166604,6,0,P|403:84|409:226,1,207.999990478516,8|0,0:0|1:0,0:0:0:0:
245,164,167133,1,8,0:0:0:0:
150,308,167310,2,0,P|109:337|47:334,1,103.999995239258,2|8,0:0|0:0,0:0:0:0:
23,214,167663,2,0,P|64:185|125:188,1,103.999995239258,2|0,0:0|1:0,0:0:0:0:
122,206,167927,1,0,1:0:0:0:
126,227,168016,6,0,P|186:281|254:244,1,155.999992858887,12|0,0:1|0:0,0:0:0:0:
285,331,168369,5,0,1:0:0:0:
180,154,168545,2,0,P|137:188|128:244,1,95.9999970703126,8|0,0:0|0:0,0:0:0:0:
299,313,168898,1,8,0:0:0:0:
125,226,169074,1,0,1:0:0:0:
324,329,169251,6,0,B|419:335|479:273|479:273|451:257|412:273,1,223.999993164063,0|0,3:0|0:0,0:0:0:0:
352,348,169780,1,0,1:0:0:0:
442,194,169957,2,0,P|419:144|361:133,1,111.999996582031,10|0,0:1|0:0,0:0:0:0:
329,275,170310,5,8,0:0:0:0:
331,315,170398,1,0,0:0:0:0:
352,348,170486,1,0,1:0:0:0:
433,160,170663,1,0,0:0:0:0:
227,246,170839,5,12,0:0:0:0:
459,324,171016,1,0,0:0:0:0:
351,114,171192,1,0,1:0:0:0:
256,339,171369,1,0,3:0:0:0:
355,205,171545,5,2,0:0:0:0:
335,175,171633,1,0,0:0:0:0:
296,159,171721,1,0,1:0:0:0:
258,177,171810,1,0,0:0:0:0:
244,218,171898,1,2,0:0:0:0:
266,256,171986,1,0,0:0:0:0:
300,266,172074,6,0,P|352:238|341:118,1,180.000006866455,10|0,0:0|0:0,0:0:0:0:
278,57,172427,6,0,P|358:21|420:83,1,186.000001419067,12|0,0:0|0:0,0:0:0:0:
377,291,172780,6,0,P|283:292|217:226,1,192,12|0,0:1|0:0,0:0:0:0:
174,162,173133,5,8,0:0:0:0:
321,96,173310,1,0,1:0:0:0:
305,254,173486,1,2,3:3:0:0:
298,285,173574,1,0,3:0:0:0:
291,315,173663,6,0,P|261:345|153:329,1,155.999992858887,12|0,0:1|0:0,0:0:0:0:
152,185,174016,1,0,1:0:0:0:
291,315,174192,6,0,P|338:346|424:324,1,111.999996582031,0|8,0:0|0:0,0:0:0:0:
291,133,174545,1,8,0:0:0:0:
119,218,174721,2,0,P|116:259|162:320,1,95.9999970703126,0|8,1:0|0:0,0:0:0:0:
300,252,175074,5,0,0:0:0:0:
228,137,175251,1,8,0:0:0:0:
119,218,175427,1,0,1:0:0:0:
318,255,175604,2,0,P|342:210|310:138,1,95.9999970703126,0|8,0:0|0:0,0:0:0:0:
345,332,175957,5,8,0:0:0:0:
385,192,176133,1,0,1:0:0:0:
480,304,176310,1,0,0:0:0:0:
508,144,176486,1,10,0:0:0:0:
272,271,176663,6,0,P|229:232|275:200,1,111.999996582031,0|0,0:0|1:0,0:0:0:0:
404,266,177016,2,0,P|451:300|506:299,1,88.000002685547,0|8,0:0|0:0,0:0:0:0:
477,224,177369,1,8,0:0:0:0:
352,347,177545,1,0,1:0:0:0:
205,255,177721,6,0,P|216:149|336:155,1,223.999993164063,8|8,0:0|0:0,0:0:0:0:
363,313,178251,1,0,1:0:0:0:
275,210,178427,1,8,0:0:0:0:
422,109,178604,2,0,P|424:160|379:210,1,111.999996582031,2|0,0:0|0:0,0:0:0:0:
250,123,178957,2,0,P|293:113|358:147,1,88.000002685547,0|0,1:0|0:0,0:0:0:0:
152,313,179310,6,0,P|90:220|173:232,1,223.999993164063,12|0,0:1|1:0,0:0:0:0:
337,356,179839,2,0,P|427:339|439:185,1,232.000007080078,12|0,0:0|0:0,0:0:0:0:
387,182,180369,1,8,1:3:0:0:
270,318,180545,1,0,0:0:0:0:
474,343,180721,1,12,0:0:0:0:
356,383,180898,5,0,0:0:0:0:
223,204,181074,1,0,1:0:0:0:
430,91,181251,6,0,B|431:60|472:53|472:53|518:121|407:217,1,256,12|0,0:1|0:0,0:0:0:0:
340,107,181780,2,0,B|321:84|291:87|291:87|280:116|291:160,1,95.9999970703126,8|0,0:3|3:0,0:0:0:0:
354,257,182133,5,12,0:0:0:0:
438,245,182310,1,0,0:0:0:0:
471,168,182486,1,0,1:0:0:0:
420,100,182663,1,8,0:0:0:0:
275,192,182839,5,0,1:0:0:0:
262,227,182927,1,0,1:0:0:0:
262,264,183016,1,0,1:0:0:0:
275,301,183104,1,0,1:0:0:0:
299,330,183192,1,4,1:2:0:0:
333,348,183280,1,0,0:0:0:0:
375,353,183369,2,0,L|446:326,1,47.9999985351563,2|0,0:0|0:0,0:0:0:0:
507,291,183545,5,12,1:1:0:0:
354,255,183721,1,8,1:2:0:0:
215,353,183898,1,8,1:2:0:0:
250,309,184957,6,0,B|179:292|100:269,2,143.999995605469,12|8|0,3:2|0:0|0:0,0:0:0:0:
331,344,186192,5,0,0:0:0:0:
331,344,186369,2,0,P|388:335|439:355,1,95.9999970703126,10|0,0:0|0:0,0:0:0:0:
360,277,186898,2,0,P|383:318|423:344,1,95.9999970703126,8|0,0:0|3:0,0:0:0:0:
436,259,187427,2,0,P|450:235|455:206,1,47.9999985351563,0|0,1:0|0:0,0:0:0:0:
323,204,187780,6,0,P|251:171|209:123,2,143.999995605469,8|8|0,3:2|0:0|0:0,0:0:0:0:
392,171,189016,5,0,0:0:0:0:
329,81,189192,2,0,B|305:55|305:55|291:90|309:133,1,95.9999970703126,10|0,0:0|0:0,0:0:0:0:
385,142,189721,2,0,P|431:127|479:122,1,95.9999970703126,8|0,0:0|0:0,0:0:0:0:
328,187,190251,2,0,P|325:209|305:242,1,47.9999985351563,0|0,1:0|0:0,0:0:0:0:
235,297,190604,6,0,P|180:265|87:265,1,143.999995605469,12|8,0:0|0:0,0:0:0:0:
101,260,191310,2,0,P|81:289|69:340,2,71.9999978027344,2|2|0,0:0|0:3|0:0,0:0:0:0:
139,196,192016,6,0,P|162:126|154:40,1,143.999995605469,8|8,3:2|0:0,0:0:0:0:
109,2,192721,2,0,P|72:34|8:45,1,95.9999970703126,0|0,0:0|1:0,0:0:0:0:
125,105,193427,2,0,B|163:115|185:145|185:145|210:115|267:106,2,143.999995605469,8|8|0,3:2|0:0|0:0,0:0:0:0:
112,186,194839,5,8,0:0:0:0:
112,186,195016,2,0,P|84:204|50:208,1,64,2|0,0:3|0:0,0:0:0:0:
153,262,195369,2,0,P|109:209|46:212,1,128,2|0,0:0|3:0,0:0:0:0:
47,339,195898,2,0,L|78:280,1,64,0|0,1:0|3:0,0:0:0:0:
223,306,196251,6,0,B|284:158,1,143.999995605469,12|0,0:1|1:0,0:0:0:0:
337,123,196780,1,0,0:0:0:0:
409,238,196957,2,0,P|417:203|401:161,1,71.9999978027344,8|0,0:0|0:0,0:0:0:0:
329,257,197310,1,0,1:0:0:0:
254,220,197486,1,0,0:0:0:0:
195,315,197663,6,0,B|159:353|107:324|107:324|94:289|55:285,1,160,8|0,0:0|1:0,0:0:0:0:
37,356,198192,1,8,0:0:0:0:
144,236,198369,2,0,L|165:75,1,160,2|0,0:3|1:0,0:0:0:0:
43,41,198898,2,0,L|41:2,2,26.6666666666667,2|2|2,0:0|0:0|0:0,0:0:0:0:
44,56,199074,6,0,P|2:118|32:200,1,160,10|0,0:0|1:0,0:0:0:0:
148,210,199604,2,0,B|188:224|188:224|154:187,1,80,2|10,0:3|0:0,0:0:0:0:
28,173,199957,1,8,0:0:0:0:
73,257,200133,1,0,1:2:0:0:
132,120,200310,1,2,0:0:0:0:
210,240,200486,6,0,P|273:275|356:244,1,160,10|2,0:0|1:3,0:0:0:0:
384,95,201016,2,0,P|377:132|381:178,1,80,10|0,0:0|0:0,0:0:0:0:
495,272,201369,2,0,P|464:247|425:236,1,80,8|2,0:0|1:3,0:0:0:0:
353,329,201721,1,0,0:0:0:0:
353,329,201810,1,0,0:0:0:0:
353,329,201898,5,14,0:0:0:0:
396,232,202074,1,2,0:0:0:0:
285,356,202251,5,0,1:0:0:0:
286,193,202427,1,2,0:0:0:0:
361,259,202604,5,8,0:0:0:0:
321,87,202780,1,2,0:0:0:0:
215,225,202957,5,2,1:2:0:0:
303,45,203133,1,2,0:0:0:0:
303,45,203310,6,0,B|348:91|409:63,1,80,10|0,0:0|0:0,0:0:0:0:
424,155,203663,1,0,1:0:0:0:
470,15,203839,2,0,P|485:52|483:92,1,80,8|0,0:0|0:0,0:0:0:0:
345,127,204192,1,10,0:3:0:0:
345,127,204280,1,0,0:0:0:0:
345,127,204369,2,0,P|342:167|356:207,1,80,12|2,0:0|0:0,0:0:0:0:
485,325,204721,5,12,0:1:0:0:
511,235,204898,2,0,L|500:187,3,26.6666666666667,2|2|2|2,0:0|0:0|0:0|0:0,0:0:0:0:
391,295,205251,5,12,0:0:0:0:
369,133,205427,1,2,0:0:0:0:
301,181,205604,2,0,P|352:216|405:212,1,80,8|4,3:3|3:0,0:0:0:0:
301,98,205957,5,12,0:0:0:0:
161,43,206310,5,10,0:0:0:0:
30,104,206663,5,12,0:0:0:0:
145,227,207016,6,0,B|80:196|97:84|206:87|265:157|263:202|147:239|153:297|177:324|199:374|257:340,1,420.000016021729,2|0,0:0|0:0,0:0:0:0:
245,345,208957,5,4,0:0:0:0:
265,337,209663,1,0,0:0:0:0:
289,328,210369,1,2,0:0:0:0:
312,313,211780,1,2,0:0:0:0:
312,313,213192,5,4,3:0:0:0:
274,322,213280,1,0,3:0:0:0:
240,308,213369,1,0,3:0:0:0:
221,275,213457,1,0,3:0:0:0:
224,239,213545,1,2,0:0:0:0:
249,211,213633,1,0,0:0:0:0:
268,180,213721,1,0,0:0:0:0:
264,142,213810,1,0,0:0:0:0:
239,115,213898,6,0,P|190:116|164:151,1,64,2|0,0:1|0:0,0:0:0:0:
179,326,214251,2,0,P|222:343|258:326,1,64,2|0,0:0|0:0,0:0:0:0:
239,115,214604,6,0,P|122:133|53:232,1,240.000009155274,12|0,0:1|1:0,0:0:0:0:
323,306,215133,2,0,P|302:153|220:111,1,240.000009155274,8|8,0:0|0:0,0:0:0:0:
328,304,215663,1,0,1:0:0:0:
243,112,215839,6,0,P|176:143|255:212,1,207.999990478516,0|0,3:0|0:0,0:0:0:0:
377,106,216369,1,0,1:0:0:0:
393,310,216545,2,0,B|407:343|382:367|382:367|313:324|361:215,1,207.999990478516,10|8,0:1|0:0,0:0:0:0:
379,123,217074,1,0,1:0:0:0:
428,248,217251,1,0,0:0:0:0:
244,297,217427,5,12,0:0:0:0:
231,75,217604,1,0,0:0:0:0:
359,185,217780,1,0,1:0:0:0:
179,244,217957,1,0,3:0:0:0:
354,90,218133,5,2,0:0:0:0:
396,94,218221,1,0,0:0:0:0:
434,117,218310,1,2,0:0:0:0:
458,152,218398,1,0,0:0:0:0:
466,195,218486,1,2,0:0:0:0:
455,238,218574,1,0,0:0:0:0:
427,271,218663,1,2,0:0:0:0:
388,290,218751,1,0,0:0:0:0:
343,297,218839,6,0,P|322:280|313:254,1,51.999997619629,2|0,0:3|0:0,0:0:0:0:
243,230,219016,2,0,P|246:204|263:184,1,51.999997619629,12|0,0:0|0:0,0:0:0:0:
259,107,219192,2,0,P|279:100|307:109,1,51.999997619629
368,53,219369,2,0,P|386:67|396:94,1,51.999997619629,12|0,0:1|0:0,0:0:0:0:
87,355,219721,6,0,L|50:358,1,25.9999988098145,10|2,0:1|0:0,0:0:0:0:
83,343,219810,6,0,L|46:336,1,25.9999988098145,2|2,0:0|0:0,0:0:0:0:
82,330,219898,6,0,L|48:313,1,25.9999988098145,10|2,0:0|0:0,0:0:0:0:
84,317,219986,6,0,L|55:292,1,25.9999988098145,2|2,0:0|0:0,0:0:0:0:
90,305,220074,6,0,L|68:273,1,25.9999988098145,2|2,0:0|0:0,0:0:0:0:
98,294,220163,6,0,L|85:258,1,25.9999988098145,2|2,0:0|0:0,0:0:0:0:
108,285,220251,6,0,B|117:328|174:346|174:346|198:293|177:263,1,167.999994873047,14|0,0:1|0:0,0:0:0:0:
118,189,220604,1,0,1:0:0:0:
342,272,220780,2,0,P|382:294|459:285,1,111.999996582031,0|8,0:0|0:0,0:0:0:0:
382,136,221133,1,8,0:0:0:0:
264,243,221310,2,0,P|265:299|288:344,1,103.999995239258,0|8,1:0|0:0,0:0:0:0:
194,210,221663,5,0,0:0:0:0:
368,145,221839,1,8,0:0:0:0:
346,324,222016,1,0,1:0:0:0:
373,122,222192,6,0,L|388:16,1,95.9999970703126,0|8,0:0|0:0,0:0:0:0:
278,171,222545,1,8,0:0:0:0:
212,85,222721,1,0,1:0:0:0:
161,280,222898,1,0,0:0:0:0:
58,182,223074,5,10,0:0:0:0:
230,323,223251,2,0,P|195:356|109:335,1,103.999995239258,0|0,0:0|1:0,0:0:0:0:
173,198,223604,2,0,P|242:252|229:325,1,167.999994873047
95,265,223957,1,8,0:0:0:0:
230,323,224133,1,0,1:0:0:0:
320,145,224310,6,0,P|269:54|169:84,1,223.999993164063,8|8,0:0|0:0,0:0:0:0:
222,194,224839,1,0,1:0:0:0:
353,130,225016,1,8,0:0:0:0:
169,83,225192,6,0,P|136:97|112:160,1,88.000002685547,2|0,0:0|0:0,0:0:0:0:
291,26,225545,2,0,P|334:43|353:86,1,95.9999970703126,0|0,1:0|0:0,0:0:0:0:
153,243,225898,6,0,P|229:291|348:232,1,223.999993164063,12|0,0:1|1:0,0:0:0:0:
424,65,226427,2,0,B|438:28|403:1|403:1|367:22|343:109|416:171,1,223.999993164063,12|0,0:0|0:0,0:0:0:0:
436,281,226957,1,8,1:3:0:0:
504,144,227133,1,0,0:0:0:0:
336,218,227310,6,0,B|310:215|289:180|289:180|313:164|344:181,1,95.9999970703126,12|0,0:0|0:0,0:0:0:0:
511,267,227663,1,0,1:0:0:0:
235,369,227839,6,0,P|230:235|342:171,1,256,12|0,0:1|0:0,0:0:0:0:
331,265,228369,2,0,P|336:222|315:164,1,95.9999970703126,8|0,0:3|3:0,0:0:0:0:
335,281,228721,5,12,0:0:0:0:
297,104,228898,1,0,0:0:0:0:
343,297,229074,5,0,1:0:0:0:
384,64,229251,1,8,0:0:0:0:
315,337,229427,5,0,1:0:0:0:
267,331,229516,1,0,1:0:0:0:
248,286,229604,1,0,1:0:0:0:
277,248,229692,1,0,1:0:0:0:
325,253,229780,1,4,1:2:0:0:
343,297,229869,1,0,0:0:0:0:
315,337,229957,2,0,P|296:344|243:355,1,51.999997619629,2|0,0:0|0:0,0:0:0:0:
69,320,230133,5,12,1:1:0:0:
265,178,230310,1,8,1:2:0:0:
477,300,230486,1,8,1:2:0:0:
114,121,231369,5,0,3:0:0:0:
109,138,231457,1,0,3:0:0:0:
105,149,231545,2,0,P|20:97|67:19,2,191.999994140625,12|0|8,0:1|1:0|0:0,0:0:0:0:
253,63,232427,1,8,0:0:0:0:
302,186,232604,2,0,P|259:196|222:181,1,80,0|0,1:0|0:0,0:0:0:0:
253,63,232957,6,0,P|328:96|300:188,1,191.999994140625,10|0,0:0|1:0,0:0:0:0:
243,332,233486,2,0,P|237:294|247:256,1,80,8|0,0:0|0:0,0:0:0:0:
384,239,233839,1,8,0:0:0:0:
174,194,234016,2,0,P|196:162|232:143,1,80,0|0,1:0|0:0,0:0:0:0:
447,284,234369,6,0,B|489:199|404:190|446:100,1,191.999994140625,10|0,0:0|1:0,0:0:0:0:
504,149,234898,1,0,0:0:0:0:
371,278,235074,1,10,0:0:0:0:
302,164,235251,1,8,0:0:0:0:
371,278,235427,2,0,P|414:291|452:281,1,80,2|0,1:3|0:0,0:0:0:0:
401,130,235780,6,0,P|335:202|373:279,1,191.999994140625,10|0,0:0|1:0,0:0:0:0:
265,143,236310,1,8,0:0:0:0:
503,174,236486,2,0,B|455:214|392:200,1,95.9999970703126,2|8,0:0|0:0,0:0:0:0:
379,192,236751,1,0,3:0:0:0:
355,182,236839,2,0,B|307:142|244:155,1,88.000002685547,2|0,1:3|0:0,0:0:0:0:
308,345,237192,6,0,P|381:277|356:183,1,207.999990478516,12|0,0:0|1:0,0:0:0:0:
291,244,237721,1,0,0:0:0:0:
442,155,237898,1,0,0:0:0:0:
281,260,238074,5,8,0:0:0:0:
399,92,238251,2,0,P|407:45|379:2,1,95.9999970703126,0|0,1:0|0:0,0:0:0:0:
223,138,238604,6,0,P|197:212|293:287,1,207.999990478516,8|0,0:0|1:0,0:0:0:0:
360,158,239133,1,8,0:0:0:0:
178,220,239310,2,0,P|138:239|57:219,1,103.999995239258,2|8,0:0|0:0,0:0:0:0:
61,86,239663,2,0,P|108:66|158:74,1,103.999995239258,0|0,1:0|0:0,0:0:0:0:
178,220,240016,6,0,P|250:202|271:130,1,155.999992858887,12|0,0:0|0:0,0:0:0:0:
297,130,240369,2,0,L|303:194,1,40,0|0,1:0|0:0,0:0:0:0:
353,348,240545,6,0,P|416:318|334:294,1,167.999994873047,12|0,0:0|0:0,0:0:0:0:
336,268,240898,2,0,L|292:285,1,40,0|0,1:0|0:0,0:0:0:0:
147,335,241074,6,0,L|4:315,1,143.999995605469,12|0,0:0|0:0,0:0:0:0:
0,285,241427,2,0,L|49:291,1,40,8|0,0:0|0:0,0:0:0:0:
212,280,241604,6,0,P|257:212|211:142,1,143.999995605469,12|0,0:0|0:0,0:0:0:0:
215,141,241957,2,0,L|173:145,1,40,0|0,1:0|0:0,0:0:0:0:
22,206,242133,6,0,L|152:223,1,103.999995239258,12|2,0:0|3:0,0:0:0:0:
263,225,242398,1,2,0:0:0:0:
293,214,242486,1,2,0:0:0:0:
293,184,242574,1,2,0:0:0:0:
263,174,242663,1,2,0:0:0:0:
245,198,242751,1,2,0:0:0:0:
269,198,242839,6,0,B|343:177|368:98|368:98|324:112,2,191.999994140625,12|0|2,0:1|1:0|0:0,0:0:0:0:
248,45,243721,1,8,0:0:0:0:
422,46,243898,2,0,P|440:92|424:145,1,88.000002685547,0|0,1:0|0:0,0:0:0:0:
349,305,244251,6,0,P|254:258|279:157,1,207.999990478516,10|0,0:0|1:0,0:0:0:0:
430,322,244780,2,0,P|407:361|353:384,1,88.000002685547,8|2,0:0|0:3,3:0:0:0:
408,245,245133,1,8,0:0:0:0:
408,245,245310,2,0,P|438:212|480:199,1,88.000002685547,0|0,1:0|0:0,0:0:0:0:
240,229,245663,6,0,P|326:277|408:244,1,191.999994140625,10|0,0:0|1:0,0:0:0:0:
227,138,246192,1,0,0:0:0:0:
185,321,246369,1,2,0:3:0:0:
162,201,246545,1,8,0:0:0:0:
269,358,246721,2,0,P|310:372|367:360,1,95.9999970703126,0|0,1:0|0:0,0:0:0:0:
511,209,247074,6,0,P|445:132|389:210,1,223.999993164063,10|0,0:0|1:0,0:0:0:0:
333,300,247604,1,8,0:0:0:0:
179,280,247780,6,0,B|167:234|206:194|256:190|256:190|218:243,1,162.000000617981,2|2,0:3|0:0,0:0:0:0:
333,300,248133,2,0,L|312:238,1,40,0|0,1:0|0:0,0:0:0:0:
232,173,248310,2,0,P|238:198|247:244,1,40,2|0,0:0|0:0,0:0:0:0:
248,337,248486,6,0,P|187:366|87:292,1,200,12|0,0:1|1:0,0:0:0:0:
19,235,249016,2,0,P|-1:270|0:309,1,80,0|10,3:0|0:0,0:0:0:0:
8,330,249280,1,0,0:0:0:0:
26,350,249369,1,0,0:0:0:0:
200,264,249545,2,0,P|202:303|183:337,1,80,0|0,1:0|0:0,0:0:0:0:
157,169,249898,6,0,P|242:155|311:206,1,176.000005371094,8|0,0:0|1:0,0:0:0:0:
256,82,250427,1,8,0:0:0:0:
169,243,250604,2,0,P|167:286|203:335,1,95.9999970703126,2|8,0:0|0:0,0:0:0:0:
339,234,250957,2,0,P|352:279|333:323,1,95.9999970703126,0|0,1:0|0:0,0:0:0:0:
256,191,251310,6,0,P|326:89|440:59,1,207.999990478516,12|0,0:0|1:0,0:0:0:0:
256,228,251839,6,0,P|186:127|71:97,1,207.999990478516,12|0,0:0|1:0,0:0:0:0:
256,268,252369,6,0,P|326:166|440:135,1,207.999990478516,12|0,0:0|1:0,0:0:0:0:
256,306,252898,6,0,P|186:204|71:174,1,207.999990478516,12|0,0:0|1:0,0:0:0:0:
350,198,253427,6,2,P|416:244|431:292,1,103.999995239258,10|2,0:3|0:0,0:0:0:0:
169,244,253780,6,0,P|146:305|153:359,1,103.999995239258,4|0,0:3|0:0,0:0:0:0:
256,191,254133,5,2,0:3:0:0:
256,228,254663,1,2,0:0:0:0:
256,268,255192,1,2,0:0:0:0:
256,306,255721,1,2,0:3:0:0:
256,344,256251,5,8,0:3:0:0:
256,268,256604,5,2,0:0:0:0:
248,236,256692,1,2,0:0:0:0:
218,232,256780,1,2,0:0:0:0:
205,263,256869,1,2,0:0:0:0:
231,285,256957,6,0,P|231:255|87:123,1,207.999990478516,12|0,0:1|1:0,0:0:0:0:
313,221,257486,6,0,P|313:190|473:67,1,207.999990478516,12|0,0:0|1:0,0:0:0:0:
234,182,258016,6,0,B|234:154|209:41|79:56|79:56|75:112|130:146,1,320,12|0,0:1|1:0,0:0:0:0:
305,146,258545,6,0,B|305:114|330:-9|474:5|474:5|479:68|415:108,1,352.000010742188,12|0,0:0|1:0,0:0:0:0:
176,239,259074,6,0,B|141:284|165:342|165:342|183:308|218:285,1,176.000005371094,10|0,0:3|0:0,0:0:0:0:
322,240,259427,6,0,B|388:265|386:358|386:358|345:298|271:304,1,223.999993164063,4|0,0:3|0:0,0:0:0:0:
