osu file format v14

[General]
AudioFilename: audio.mp3
AudioLeadIn: 0
PreviewTime: 81876
Countdown: 0
SampleSet: Soft
StackLeniency: 0.5
Mode: 0
LetterboxInBreaks: 0
WidescreenStoryboard: 1

[Editor]
Bookmarks: 13428,24722,36016,47310,58604,69898,82251,93545,104839,116133,127427,138721,150015,162368,173662,184956,196250,208956,213191,214603,220250,231544,242838,254132,259426
DistanceSpacing: 0.3
BeatDivisor: 4
GridSize: 32
TimelineZoom: 3.199999

[Metadata]
Title:smile link
TitleUnicode:smile link
Artist:Shimotsuki Haruka
ArtistUnicode:霜月はるか
Creator:Lasse
Version:Petal
Source:霜月はるかのFrost Moon Cafe+
Tags:japanese pop ぺさま pesama Shimotsuki Haruka no Frost Moon Cafe+ opening CRAFTSCAPE
BeatmapID:2313864
BeatmapSetID:1107099

[Difficulty]
HPDrainRate:6
CircleSize:4.5
OverallDifficulty:8
ApproachRate:9
SliderMultiplier:1.76
SliderTickRate:1

[Events]
//Background and Video events
0,0,"b.jpg",0,0
//Break Periods
//Storyboard Layer 0 (Background)
//Storyboard Layer 1 (Fail)
//Storyboard Layer 2 (Pass)
//Storyboard Layer 3 (Foreground)
//Storyboard Layer 4 (Overlay)
//Storyboard Sound Samples

[TimingPoints]
2148,352.941176470588,4,2,1,36,1,0
2148,-200,4,2,1,36,0,0
3383,-250,4,2,1,36,0,0
3559,-250,4,2,1,18,0,0
4089,-250,4,2,1,36,0,0
4971,-250,4,2,1,18,0,0
6030,-250,4,2,1,30,0,0
6206,-200,4,2,1,36,0,0
6912,-250,4,2,1,36,0,0
7795,-200,4,2,1,36,0,0
8324,-181.818181818182,4,2,1,36,0,0
9030,-200,4,2,1,36,0,0
9736,-222.222222222222,4,2,1,36,0,0
9912,-250,4,2,1,18,0,0
10265,-222.222222222222,4,2,1,36,0,0
10618,-222.222222222222,4,2,1,40,0,0
10795,-222.222222222222,4,2,1,41,0,0
10971,-222.222222222222,4,2,1,42,0,0
11147,-222.222222222222,4,2,1,43,0,0
11324,-222.222222222222,4,2,1,44,0,0
11500,-222.222222222222,4,2,1,45,0,0
11677,-222.222222222222,4,2,1,46,0,0
11853,-222.222222222222,4,2,1,48,0,0
11942,-222.222222222222,4,2,1,49,0,0
12030,-222.222222222222,4,2,1,50,0,0
12383,-222.222222222222,4,2,1,51,0,0
12559,-222.222222222222,4,2,1,52,0,0
12912,-222.222222222222,4,2,1,53,0,0
13265,-222.222222222222,4,2,1,44,0,0
13442,-100,4,2,1,52,0,0
13706,-100,4,2,1,26,0,0
13795,-100,4,2,1,52,0,0
16530,-100,4,2,1,26,0,0
16618,-100,4,2,1,52,0,0
21912,-83.3333333333333,4,2,1,52,0,0
22971,-76.9230769230769,4,2,1,52,0,0
24030,-71.4285714285714,4,2,1,52,0,0
24736,-100,4,2,1,54,0,0
25000,-100,4,2,1,26,0,0
25089,-100,4,2,1,54,0,0
27824,-100,4,2,1,26,0,0
27912,-100,4,2,1,54,0,0
29236,-100,4,2,1,26,0,0
29324,-100,4,2,1,54,0,0
32059,-100,4,2,1,26,0,0
32147,-100,4,2,1,54,0,0
33206,-83.3333333333333,4,2,1,54,0,0
33736,-76.9230769230769,4,2,1,54,0,0
34265,-71.4285714285714,4,2,1,54,0,0
34795,-76.9230769230769,4,2,1,54,0,0
36030,-142.857142857143,4,2,1,42,0,0
44500,-111.111111111111,4,2,1,48,0,0
45295,-111.111111111111,4,2,1,36,0,0
45383,-111.111111111111,4,2,1,48,0,0
46706,-111.111111111111,4,2,1,36,0,0
46795,-111.111111111111,4,2,1,48,0,0
47324,-120.481927710843,4,2,1,46,0,0
55795,-108.695652173913,4,2,1,48,0,0
56853,-133.333333333333,4,2,1,44,0,0
57206,-100,4,2,1,48,0,0
58265,-133.333333333333,4,2,1,44,0,0
58442,-133.333333333333,4,2,1,38,0,0
58618,-142.857142857143,4,2,1,38,0,0
60030,-166.666666666667,4,2,1,38,0,0
60383,-166.666666666667,4,2,1,24,0,0
60559,-166.666666666667,4,2,1,38,0,0
60736,-166.666666666667,4,2,1,24,0,0
61089,-166.666666666667,4,2,1,38,0,0
61442,-142.857142857143,4,2,1,38,0,0
62853,-166.666666666667,4,2,1,38,0,0
63030,-166.666666666667,4,2,1,24,0,0
63383,-166.666666666667,4,2,1,38,0,0
63559,-166.666666666667,4,2,1,24,0,0
63912,-166.666666666667,4,2,1,38,0,0
64265,-142.857142857143,4,2,1,38,0,0
65677,-166.666666666667,4,2,1,38,0,0
67089,-142.857142857143,4,2,1,40,0,0
68500,-125,4,2,1,42,0,0
69383,-125,4,2,1,44,0,0
69912,-111.111111111111,4,2,1,48,0,0
77765,-111.111111111111,4,2,1,24,0,0
77853,-111.111111111111,4,2,1,48,0,0
78383,-100,4,2,1,50,0,0
79795,-90.9090909090909,4,2,1,52,0,0
80324,-83.3333333333333,4,2,1,54,0,0
80853,-76.9230769230769,4,2,1,52,0,0
81206,-76.9230769230769,4,2,1,56,0,0
81383,-76.9230769230769,4,2,1,50,0,0
81471,-76.9230769230769,4,2,1,52,0,0
81559,-76.9230769230769,4,2,1,58,0,0
81912,-200,4,2,1,50,0,0
82265,352.941176470588,4,2,1,60,1,1
82265,-71.4285714285714,4,2,1,60,0,1
82529,-71.4285714285714,4,2,1,30,0,1
82617,-71.4285714285714,4,2,1,60,0,1
82794,-90.9090909090909,4,2,1,60,0,1
83059,-90.9090909090909,4,2,1,30,0,1
83147,-90.9090909090909,4,2,1,60,0,1
84206,-111.111111111111,4,2,1,60,0,1
84470,-111.111111111111,4,2,1,30,0,1
84559,-100,4,2,1,60,0,1
84912,-90.9090909090909,4,2,1,60,0,1
85617,-83.3333333333333,4,2,1,60,0,1
85882,-83.3333333333333,4,2,1,30,0,1
85970,-83.3333333333333,4,2,1,60,0,1
86323,-76.9230769230769,4,2,1,60,0,1
86853,-100,4,2,1,60,0,1
87206,-83.3333333333333,4,2,1,60,0,1
87294,-83.3333333333333,4,2,1,46,0,1
87382,-55.5555555555556,4,2,1,60,0,1
87470,-55.5555555555556,4,2,1,46,0,1
87559,-125,4,2,1,60,0,1
87823,-125,4,2,1,46,0,1
87912,-71.4285714285714,4,2,1,60,0,1
88441,-90.9090909090909,4,2,1,60,0,1
88706,-90.9090909090909,4,2,1,30,0,1
88794,-90.9090909090909,4,2,1,60,0,1
89853,-83.3333333333333,4,2,1,60,0,1
90382,-125,4,2,1,60,0,1
90735,-83.3333333333333,4,2,1,60,0,1
91441,-100,4,2,1,60,0,1
91970,-83.3333333333333,4,2,1,60,0,1
92015,-83.3333333333333,4,2,99,5,0,1
92323,-71.4285714285714,4,2,1,60,0,1
92367,-83.3333333333333,4,2,99,5,0,1
92676,-62.5,4,2,1,60,0,1
92720,-83.3333333333333,4,2,99,5,0,1
92853,-55.5555555555556,4,2,1,60,0,1
93029,-66.6666666666667,4,2,1,60,0,1
93117,-66.6666666666667,4,2,1,46,0,1
93206,-83.3333333333333,4,2,1,60,0,1
93294,-83.3333333333333,4,2,1,46,0,1
93382,-66.6666666666667,4,2,1,60,0,1
93470,-66.6666666666667,4,2,1,46,0,1
93559,-71.4285714285714,4,2,1,60,0,1
93823,-71.4285714285714,4,2,1,30,0,1
93912,-71.4285714285714,4,2,1,60,0,1
94088,-90.9090909090909,4,2,1,60,0,1
95500,-76.9230769230769,4,2,1,60,0,1
95764,-76.9230769230769,4,2,1,30,0,1
95853,-83.3333333333333,4,2,1,60,0,1
97617,-90.9090909090909,4,2,1,60,0,1
98500,-83.3333333333333,4,2,1,60,0,1
98764,-83.3333333333333,4,2,1,30,0,1
98853,-76.9230769230769,4,2,1,60,0,1
99117,-76.9230769230769,4,2,1,30,0,1
99206,-71.4285714285714,4,2,1,60,0,1
99470,-71.4285714285714,4,2,1,30,0,1
99559,-71.4285714285714,4,2,1,60,0,1
99735,-83.3333333333333,4,2,1,60,0,1
100000,-83.3333333333333,4,2,1,30,0,1
100088,-83.3333333333333,4,2,1,60,0,1
101147,-76.9230769230769,4,2,1,60,0,1
101676,-100,4,2,1,60,0,1
102735,-83.3333333333333,4,2,1,60,0,1
103441,-71.4285714285714,4,2,1,62,0,1
103529,-71.4285714285714,4,2,1,46,0,1
103617,-71.4285714285714,4,2,1,62,0,1
103706,-71.4285714285714,4,2,1,46,0,1
103794,-71.4285714285714,4,2,1,62,0,1
103882,-71.4285714285714,4,2,1,46,0,1
103970,-100,4,2,1,46,0,0
104853,-106.382978723404,4,2,1,50,0,0
114559,-100,4,2,1,51,0,0
114823,-100,4,2,1,20,0,0
114912,-90.9090909090909,4,2,1,52,0,0
115176,-90.9090909090909,4,2,1,20,0,0
115264,-83.3333333333333,4,2,1,53,0,0
115529,-83.3333333333333,4,2,1,20,0,0
115617,-104.166666666667,4,2,1,54,0,0
115970,-104.166666666667,4,2,1,36,0,0
116147,-133.333333333333,4,2,1,44,0,0
124617,-111.111111111111,4,2,1,48,0,0
125412,-111.111111111111,4,2,1,36,0,0
125500,-111.111111111111,4,2,1,48,0,0
126823,-111.111111111111,4,2,1,36,0,0
126912,-111.111111111111,4,2,1,48,0,0
127441,-117.647058823529,4,2,1,46,0,0
135912,-105.263157894737,4,2,1,48,0,0
136970,-133.333333333333,4,2,1,44,0,0
137323,-98.0392156862745,4,2,1,48,0,0
138382,-98.0392156862745,4,2,1,44,0,0
138559,-98.0392156862745,4,2,1,38,0,0
138735,-142.857142857143,4,2,1,38,0,0
140147,-166.666666666667,4,2,1,38,0,0
140323,-166.666666666667,4,2,1,24,0,0
140676,-166.666666666667,4,2,1,38,0,0
140853,-166.666666666667,4,2,1,24,0,0
141206,-166.666666666667,4,2,1,38,0,0
141559,-142.857142857143,4,2,1,38,0,0
142970,-166.666666666667,4,2,1,38,0,0
143147,-166.666666666667,4,2,1,24,0,0
143500,-166.666666666667,4,2,1,38,0,0
143676,-166.666666666667,4,2,1,24,0,0
144029,-166.666666666667,4,2,1,38,0,0
144382,-142.857142857143,4,2,1,38,0,0
145794,-166.666666666667,4,2,1,38,0,0
147206,-142.857142857143,4,2,1,40,0,0
148617,-125,4,2,1,42,0,0
149500,-125,4,2,1,44,0,0
150029,-107.52688172043,4,2,1,48,0,0
157882,-107.52688172043,4,2,1,24,0,0
157970,-107.52688172043,4,2,1,48,0,0
158500,-100,4,2,1,50,0,0
159912,-90.9090909090909,4,2,1,52,0,0
160441,-83.3333333333333,4,2,1,54,0,0
160970,-83.3333333333333,4,2,1,52,0,0
161323,-76.9230769230769,4,2,1,56,0,0
161441,-76.9230769230769,4,2,1,20,0,0
161559,-76.9230769230769,4,2,1,56,0,0
161676,-76.9230769230769,4,2,1,20,0,0
161794,-76.9230769230769,4,2,1,56,0,0
161912,-76.9230769230769,4,2,1,20,0,0
162382,352.941176470588,4,2,1,60,1,1
162382,-71.4285714285714,4,2,1,60,0,1
162646,-71.4285714285714,4,2,1,30,0,1
162734,-71.4285714285714,4,2,1,60,0,1
162911,-90.9090909090909,4,2,1,60,0,1
163176,-90.9090909090909,4,2,1,30,0,1
163264,-90.9090909090909,4,2,1,60,0,1
164323,-111.111111111111,4,2,1,60,0,1
164587,-111.111111111111,4,2,1,30,0,1
164676,-100,4,2,1,60,0,1
165029,-90.9090909090909,4,2,1,60,0,1
165734,-83.3333333333333,4,2,1,60,0,1
165999,-83.3333333333333,4,2,1,30,0,1
166087,-83.3333333333333,4,2,1,60,0,1
166440,-76.9230769230769,4,2,1,60,0,1
166970,-100,4,2,1,60,0,1
167323,-83.3333333333333,4,2,1,60,0,1
167411,-83.3333333333333,4,2,1,46,0,1
167499,-55.5555555555556,4,2,1,60,0,1
167587,-55.5555555555556,4,2,1,46,0,1
167676,-125,4,2,1,60,0,1
167940,-125,4,2,1,46,0,1
168029,-71.4285714285714,4,2,1,60,0,1
168558,-90.9090909090909,4,2,1,60,0,1
168823,-90.9090909090909,4,2,1,30,0,1
168911,-90.9090909090909,4,2,1,60,0,1
169970,-83.3333333333333,4,2,1,60,0,1
170234,-83.3333333333333,4,2,1,30,0,1
170323,-83.3333333333333,4,2,1,60,0,1
170852,-83.3333333333333,4,2,1,60,0,1
171558,-100,4,2,1,60,0,1
172087,-83.3333333333333,4,2,1,60,0,1
172132,-83.3333333333333,4,2,99,5,0,1
172440,-71.4285714285714,4,2,1,60,0,1
172484,-83.3333333333333,4,2,99,5,0,1
172793,-62.5,4,2,1,60,0,1
172837,-83.3333333333333,4,2,99,5,0,1
172970,-55.5555555555556,4,2,1,60,0,1
173146,-66.6666666666667,4,2,1,60,0,1
173234,-66.6666666666667,4,2,1,46,0,1
173323,-83.3333333333333,4,2,1,60,0,1
173411,-83.3333333333333,4,2,1,46,0,1
173499,-66.6666666666667,4,2,1,60,0,1
173587,-66.6666666666667,4,2,1,46,0,1
173676,-68.9655172413793,4,2,1,60,0,1
173940,-68.9655172413793,4,2,1,30,0,1
174029,-68.9655172413793,4,2,1,60,0,1
174205,-90.9090909090909,4,2,1,60,0,1
175617,-76.9230769230769,4,2,1,60,0,1
175882,-76.9230769230769,4,2,1,30,0,1
175970,-83.3333333333333,4,2,1,60,0,1
177734,-90.9090909090909,4,2,1,60,0,1
178617,-83.3333333333333,4,2,1,60,0,1
178882,-83.3333333333333,4,2,1,30,0,1
178970,-76.9230769230769,4,2,1,60,0,1
179234,-76.9230769230769,4,2,1,30,0,1
179323,-71.4285714285714,4,2,1,60,0,1
179587,-71.4285714285714,4,2,1,30,0,1
179676,-71.4285714285714,4,2,1,60,0,1
179852,-83.3333333333333,4,2,1,60,0,1
180117,-83.3333333333333,4,2,1,30,0,1
180205,-83.3333333333333,4,2,1,60,0,1
181264,-76.9230769230769,4,2,1,60,0,1
181793,-100,4,2,1,60,0,1
182852,-83.3333333333333,4,2,1,60,0,1
183558,-71.4285714285714,4,2,1,62,0,1
183646,-71.4285714285714,4,2,1,46,0,1
183734,-71.4285714285714,4,2,1,62,0,1
183823,-71.4285714285714,4,2,1,46,0,1
183911,-71.4285714285714,4,2,1,62,0,1
183999,-71.4285714285714,4,2,1,46,0,1
184087,-71.4285714285714,4,2,1,50,0,0
184970,-166.666666666667,4,2,1,34,0,0
185146,-166.666666666667,4,2,1,18,0,0
185499,-166.666666666667,4,2,1,34,0,0
185676,-166.666666666667,4,2,1,18,0,0
186029,-166.666666666667,4,2,1,34,0,0
187970,-166.666666666667,4,2,1,18,0,0
188323,-166.666666666667,4,2,1,34,0,0
188499,-166.666666666667,4,2,1,18,0,0
188852,-166.666666666667,4,2,1,34,0,0
190970,-166.666666666667,4,2,1,18,0,0
191146,-166.666666666667,4,2,1,34,0,0
192381,-166.666666666667,4,2,1,18,0,0
192558,-166.666666666667,4,2,1,34,0,0
193617,-166.666666666667,4,2,1,18,0,0
193970,-166.666666666667,4,2,1,34,0,0
194146,-166.666666666667,4,2,1,18,0,0
194499,-166.666666666667,4,2,1,34,0,0
194852,-166.666666666667,4,2,1,36,0,0
195381,-166.666666666667,4,2,1,38,0,0
195911,-166.666666666667,4,2,1,40,0,0
196264,-111.111111111111,4,2,1,50,0,0
201911,-111.111111111111,4,2,1,52,0,0
203146,-111.111111111111,4,2,1,54,0,0
203587,-111.111111111111,4,2,1,28,0,0
203676,-111.111111111111,4,2,1,52,0,0
204734,-111.111111111111,4,2,1,54,0,0
205264,-111.111111111111,4,2,1,56,0,0
205617,-111.111111111111,4,2,1,58,0,0
205793,-111.111111111111,4,2,1,50,0,0
205970,-111.111111111111,4,2,1,54,0,0
206323,-111.111111111111,4,2,1,56,0,0
206676,-111.111111111111,4,2,1,58,0,0
207029,-153.846153846154,4,2,1,54,0,0
207205,-142.857142857143,4,2,1,30,0,0
207558,-142.857142857143,4,2,1,26,0,0
207911,-142.857142857143,4,2,1,22,0,0
208264,-142.857142857143,4,2,1,18,0,0
208617,-142.857142857143,4,2,1,22,0,0
208970,-277.777777777778,4,2,1,24,0,0
209323,-277.777777777778,4,2,1,14,0,0
209676,-277.777777777778,4,2,1,24,0,0
210029,-277.777777777778,4,2,1,14,0,0
210381,-277.777777777778,4,2,1,24,0,0
212146,-277.777777777778,4,2,1,8,0,0
212852,-277.777777777778,4,2,1,24,0,0
213205,-133.333333333333,4,2,1,40,0,0
213293,-133.333333333333,4,2,1,41,0,0
213381,-133.333333333333,4,2,1,42,0,0
213470,-133.333333333333,4,2,1,43,0,0
213558,-133.333333333333,4,2,1,44,0,0
213646,-133.333333333333,4,2,1,46,0,0
213734,-133.333333333333,4,2,1,48,0,0
213823,-133.333333333333,4,2,1,50,0,0
213911,-83.3333333333333,4,2,1,54,0,0
213955,-83.3333333333333,4,2,99,5,0,0
214264,-76.9230769230769,4,2,1,56,0,0
214308,-76.9230769230769,4,2,99,5,0,0
214617,-66.6666666666667,4,2,1,62,0,1
214970,-66.6666666666667,4,2,1,60,0,1
215146,-90.9090909090909,4,2,1,60,0,1
215411,-90.9090909090909,4,2,1,30,0,1
215499,-90.9090909090909,4,2,1,60,0,1
216558,-83.3333333333333,4,2,1,60,0,1
216823,-83.3333333333333,4,2,1,30,0,1
216911,-83.3333333333333,4,2,1,60,0,1
217440,-83.3333333333333,4,2,1,60,0,1
218146,-100,4,2,1,60,0,1
218675,-83.3333333333333,4,2,1,60,0,1
218720,-83.3333333333333,4,2,99,5,0,1
219028,-71.4285714285714,4,2,1,60,0,1
219072,-83.3333333333333,4,2,99,5,0,1
219381,-62.5,4,2,1,60,0,1
219425,-83.3333333333333,4,2,99,5,0,1
219558,-66.6666666666667,4,2,1,60,0,1
219734,-105.263157894737,4,2,1,50,0,1
219779,-105.263157894737,4,2,1,51,0,1
219823,-100,4,2,1,52,0,1
219867,-100,4,2,1,53,0,1
219911,-95.2380952380952,4,2,1,54,0,1
219955,-95.2380952380952,4,2,1,55,0,1
219999,-90.9090909090909,4,2,1,56,0,1
220043,-90.9090909090909,4,2,1,57,0,1
220087,-86.9565217391304,4,2,1,58,0,1
220131,-86.9565217391304,4,2,1,59,0,1
220176,-76.9230769230769,4,2,1,60,0,1
220220,-76.9230769230769,4,2,1,61,0,1
220264,-69.4444444444444,4,2,1,62,0,1
220529,-69.4444444444444,4,2,1,30,0,1
220617,-69.4444444444444,4,2,1,60,0,1
220793,-90.9090909090909,4,2,1,60,0,1
222205,-76.9230769230769,4,2,1,60,0,1
222470,-76.9230769230769,4,2,1,30,0,1
222558,-83.3333333333333,4,2,1,60,0,1
224323,-90.9090909090909,4,2,1,60,0,1
225205,-83.3333333333333,4,2,1,60,0,1
225470,-83.3333333333333,4,2,1,30,0,1
225558,-76.9230769230769,4,2,1,60,0,1
225823,-76.9230769230769,4,2,1,30,0,1
225911,-71.4285714285714,4,2,1,60,0,1
226176,-71.4285714285714,4,2,1,30,0,1
226264,-71.4285714285714,4,2,1,60,0,1
226440,-83.3333333333333,4,2,1,60,0,1
226705,-83.3333333333333,4,2,1,30,0,1
226793,-83.3333333333333,4,2,1,60,0,1
227852,-76.9230769230769,4,2,1,60,0,1
228381,-100,4,2,1,60,0,1
229440,-83.3333333333333,4,2,1,60,0,1
230146,-71.4285714285714,4,2,1,62,0,1
230234,-71.4285714285714,4,2,1,46,0,1
230323,-71.4285714285714,4,2,1,62,0,1
230411,-71.4285714285714,4,2,1,46,0,1
230499,-71.4285714285714,4,2,1,62,0,1
230587,-71.4285714285714,4,2,1,46,0,1
230676,-71.4285714285714,4,2,1,50,0,0
231381,-71.4285714285714,4,2,1,44,0,0
231558,-100,4,2,1,54,0,0
231823,-100,4,2,1,26,0,0
231911,-100,4,2,1,54,0,0
234646,-100,4,2,1,26,0,0
234734,-100,4,2,1,54,0,0
236058,-100,4,2,1,26,0,0
236146,-100,4,2,1,54,0,0
240029,-83.3333333333333,4,2,1,54,0,0
241087,-76.9230769230769,4,2,1,54,0,0
242146,-71.4285714285714,4,2,1,54,0,0
242499,-83.3333333333333,4,2,1,54,0,0
242852,-100,4,2,1,54,0,0
243117,-100,4,2,1,26,0,0
243205,-100,4,2,1,54,0,0
245940,-100,4,2,1,26,0,0
246029,-100,4,2,1,54,0,0
248764,-100,4,2,1,26,0,0
248852,-100,4,2,1,54,0,0
251323,-83.3333333333333,4,2,1,56,0,0
251852,-76.9230769230769,4,2,1,56,0,0
252381,-71.4285714285714,4,2,1,56,0,0
252911,-83.3333333333333,4,2,1,54,0,0
253264,-83.3333333333333,4,2,1,50,0,0
253440,-90.9090909090909,4,2,1,52,0,0
254146,-133.333333333333,4,2,1,40,0,0
254676,-133.333333333333,4,2,1,41,0,0
255205,-133.333333333333,4,2,1,42,0,0
255734,-133.333333333333,4,2,1,43,0,0
256264,-133.333333333333,4,2,1,44,0,0
256617,-133.333333333333,4,2,1,42,0,0
256705,-133.333333333333,4,2,1,43,0,0
256793,-133.333333333333,4,2,1,44,0,0
256881,-133.333333333333,4,2,1,45,0,0
256970,-100,4,2,1,52,0,0
257499,-90.9090909090909,4,2,1,54,0,0
258029,-83.3333333333333,4,2,1,56,0,0
258558,-76.9230769230769,4,2,1,58,0,0
259087,-100,4,2,1,54,0,0
259440,-166.666666666667,4,2,1,48,0,0

[Colours]
Combo1 : 250,180,240
Combo2 : 120,200,230
Combo3 : 255,230,130
Combo4 : 160,230,150

[HitObjects]
169,91,736,5,2,0:0:0:0:
127,147,912,1,0,0:0:0:0:
60,126,1089,1,0,0:0:0:0:
60,55,1265,1,2,0:0:0:0:
127,34,1618,1,2,0:0:0:0:
211,185,2148,6,0,B|196:217|212:235|212:235|226:215|217:200,1,88,2|0,0:0|0:0,0:0:0:0:
218,202,2677,2,0,P|177:184|128:183,1,88,2|0,0:0|0:0,0:0:0:0:
220,311,3383,2,0,B|238:355|289:350|289:350|300:320|333:302,1,140.8,2|2,0:0|0:0,0:0:0:0:
449,271,4442,5,2,0:0:0:0:
449,271,4795,2,0,B|473:284|488:307|484:329|484:329|446:304|446:255|449:211|479:171,1,246.4,2|0,0:0|0:0,0:0:0:0:
479,171,6206,2,0,B|467:192|467:192|436:179|440:129,1,88,2|0,0:0|0:0,0:0:0:0:
374,19,6912,5,2,0:0:0:0:
374,19,7089,2,0,B|378:54|355:66|355:66|354:41,1,70.4,0|0,0:0|0:0,0:0:0:0:
204,112,7795,6,0,B|180:84|145:85|145:85|157:98|174:105,1,88,2|0,0:0|0:0,0:0:0:0:
161,98,8324,2,0,P|191:141|175:190,1,96.8000029541017,2|0,0:0|0:0,0:0:0:0:
83,257,9030,2,0,P|40:240|-12:246,1,88,2|0,0:0|0:0,0:0:0:0:
147,319,9736,2,0,B|151:364|198:377|198:377|211:365|229:356,1,118.799996374512,2|0,0:0|0:0,0:0:0:0:
354,321,10618,5,14,0:1:0:0:
417,369,10795,1,8,0:3:0:0:
482,323,10971,1,8,0:0:0:0:
458,246,11147,1,8,0:3:0:0:
354,321,11324,1,8,0:0:0:0:
482,323,11500,1,8,0:0:0:0:
377,245,11677,1,8,0:0:0:0:
491,138,11853,5,2,0:0:0:0:
491,138,11942,1,2,0:0:0:0:
491,138,12030,1,14,0:1:0:0:
491,138,12383,5,10,0:0:0:0:
321,34,12559,5,10,0:1:0:0:
14,181,12912,5,10,0:1:0:0:
178,361,13265,5,2,0:0:0:0:
178,361,13353,1,2,0:0:0:0:
178,361,13442,2,0,B|229:348|260:376|260:376|304:361,1,132,14|0,0:1|0:0,0:0:0:0:
303,362,13795,2,0,B|282:370|282:370|297:300,1,88,10|0,0:0|0:0,0:0:0:0:
328,186,14147,1,10,0:1:0:0:
386,240,14324,1,8,0:1:0:0:
343,113,14500,2,0,P|314:143|272:137,1,88,8|0,0:0|0:0,0:0:0:0:
149,58,14853,6,0,B|108:10|28:28|28:28|78:62,1,176,10|8,0:1|0:0,0:0:0:0:
149,58,15383,1,8,0:1:0:0:
78,149,15559,1,2,0:0:0:0:
2,174,15736,1,8,0:1:0:0:
89,298,15912,2,0,P|96:252|123:218,1,88,8|0,0:0|0:0,0:0:0:0:
272,137,16265,6,0,B|358:161|358:161|380:150|380:115,1,132,10|0,0:1|0:0,0:0:0:0:
379,126,16618,2,0,P|356:164|365:218,1,88,8|0,0:0|0:0,0:0:0:0:
422,309,16971,1,10,0:1:0:0:
491,345,17147,1,8,0:1:0:0:
367,367,17324,2,0,B|336:362|336:362|316:375|316:375|257:363,1,88,8|0,0:0|0:0,0:0:0:0:
165,269,17677,6,0,B|181:225|173:180|138:152|138:152|124:178|142:207,1,176,10|8,0:1|0:0,0:0:0:0:
165,269,18206,1,8,0:1:0:0:
267,213,18383,1,2,0:0:0:0:
225,100,18559,1,10,0:1:0:0:
225,100,18647,1,8,0:1:0:0:
225,100,18736,2,0,P|210:45|230:-1,1,88,8|0,0:0|0:0,0:0:0:0:
377,165,19089,6,0,P|449:171|417:106,1,176,14|8,0:1|0:0,0:0:0:0:
267,213,19618,2,0,P|258:255|273:296,1,88,2|8,0:0|0:1,0:0:0:0:
377,367,19971,1,8,0:1:0:0:
377,367,20059,1,8,0:1:0:0:
377,367,20147,2,0,B|417:339|453:373|430:387|411:374,1,88,8|0,0:0|0:0,0:0:0:0:
274,297,20500,6,0,B|171:263|207:345|94:312,1,176,10|8,0:1|0:0,0:0:0:0:
0,185,21030,2,0,P|-4:141|17:97,1,88,10|0,0:1|0:0,0:0:0:0:
143,19,21383,1,10,0:1:0:0:
166,165,21559,2,0,B|126:181|126:181|90:153,1,88,10|0,0:0|0:0,0:0:0:0:
375,99,21912,6,0,B|404:137|470:130|470:130|463:64|419:44,1,211.199993554688,14|8,0:1|0:0,0:0:0:0:
310,75,22442,2,0,B|282:114|309:175|309:175|369:148|375:100,1,211.199993554688,14|8,0:1|0:1,0:0:0:0:
100,177,22971,6,0,B|68:218|-3:211|-3:211|4:139|51:117,1,228.799989526368,14|8,0:1|0:0,0:0:0:0:
173,152,23500,2,0,B|203:194|173:260|173:260|108:231|101:179,1,228.799989526368,14|8,0:1|0:1,0:0:0:0:
375,228,24030,6,0,B|390:260|421:269|421:269|439:240|481:221,1,123.199996240234,10|0,0:1|0:1,0:0:0:0:
313,384,24383,5,10,0:0:0:0:
326,356,24471,1,2,0:0:0:0:
330,326,24559,1,2,0:0:0:0:
322,296,24647,1,2,0:0:0:0:
305,272,24736,6,0,B|262:236|209:261|209:261|231:234,1,132,14|0,0:1|0:0,0:0:0:0:
228,239,25089,2,0,B|192:277|192:277|170:281|161:246,1,88,8|0,0:0|0:0,0:0:0:0:
243,143,25442,1,10,0:1:0:0:
311,182,25618,1,8,0:1:0:0:
254,65,25795,2,0,P|232:89|174:83,1,88,8|0,0:0|0:0,0:0:0:0:
389,15,26147,6,0,B|375:70|411:104|465:101|465:101|492:57,1,176,10|8,0:1|0:0,0:0:0:0:
389,15,26677,1,8,0:1:0:0:
407,173,26853,1,2,0:0:0:0:
484,191,27030,1,8,0:1:0:0:
378,320,27206,2,0,P|378:276|358:237,1,88,8|0,0:0|0:0,0:0:0:0:
211,108,27559,6,0,B|172:143|112:126|112:126|121:111|142:106,1,132,10|0,0:1|0:0,0:0:0:0:
132,109,27912,2,0,P|163:140|164:192,1,88,8|0,0:0|0:0,0:0:0:0:
94,324,28265,5,10,0:1:0:0:
16,340,28442,1,2,0:0:0:0:
0,262,28618,1,10,0:0:0:0:
78,246,28795,1,2,0:0:0:0:
180,339,28971,6,0,B|188:314|213:315|213:315|216:349|240:369|271:368,1,132,10|0,0:1|0:0,0:0:0:0:
271,368,29324,2,0,P|300:353|306:287,1,88,8|8,0:0|0:1,0:0:0:0:
183,160,29677,6,0,B|136:145|147:180|90:166,1,88,2|8,0:0|0:1,0:0:0:0:
89,166,29942,1,2,0:0:0:0:
81,162,30030,2,0,P|56:140|68:74,1,88,10|2,0:0|0:0,0:0:0:0:
303,15,30383,6,0,B|328:65|381:57|381:57|403:19|446:16,1,176,14|8,0:1|0:0,0:0:0:0:
502,158,30912,1,2,0:0:0:0:
499,166,31000,1,2,0:0:0:0:
495,174,31089,2,0,B|486:197|459:201|459:201|470:182|467:160,1,88,10|0,0:1|0:0,0:0:0:0:
335,332,31442,2,0,B|344:355|370:359|370:359|360:340|362:318,1,88,8|0,0:0|0:0,0:0:0:0:
261,182,31795,6,0,B|218:140|157:158|157:158|167:167|191:167,1,132,10|0,0:1|0:0,0:0:0:0:
175,166,32147,2,0,P|208:141|202:100,1,88,10|8,0:0|0:1,0:0:0:0:
71,9,32500,5,2,0:0:0:0:
45,75,32677,1,8,0:1:0:0:
149,232,32853,5,10,0:0:0:0:
175,166,33030,1,8,0:1:0:0:
373,77,33206,6,0,B|373:129|406:168|460:165|460:165|479:129|458:95,1,211.199993554688,14|8,0:1|0:1,0:0:0:0:
286,231,33736,6,0,B|257:278|266:332|318:359|318:359|355:335|354:292,1,228.799989526368,14|8,0:1|0:1,0:0:0:0:
120,134,34265,6,0,B|66:164|46:219|80:272|80:272|127:270|149:229,1,246.399992480469,14|8,0:1|0:1,0:0:0:0:
210,31,34795,5,14,0:1:0:0:
100,10,34971,1,2,0:0:0:0:
210,50,35147,1,10,0:3:0:0:
64,82,35324,1,2,0:0:0:0:
213,69,35500,1,6,0:3:0:0:
80,160,35677,1,10,0:2:0:0:
220,87,35853,1,10,0:1:0:0:
275,162,36030,6,0,P|269:191|277:221,1,61.5999981201172,14|0,0:1|0:0,0:0:0:0:
357,213,36383,2,0,P|361:183|354:154,1,61.5999981201172,10|0,0:1|0:0,0:0:0:0:
275,162,36736,2,0,B|262:191|277:222|277:222|253:198|220:198,1,123.199996240234,10|8,0:1|0:1,0:0:0:0:
135,269,37265,5,2,0:0:0:0:
135,269,37442,2,0,B|102:269|80:292|80:292|95:261|82:232,1,123.199996240234,8|8,0:1|0:1,0:0:0:0:
47,166,37971,2,0,P|37:138|37:107,1,61.5999981201172,2|8,0:0|0:1,0:0:0:0:
47,166,38324,1,2,0:0:0:0:
26,95,38500,2,0,P|38:66|60:45,1,61.5999981201172,10|0,0:1|0:0,0:0:0:0:
169,24,38853,6,0,B|198:48|228:44|228:44|245:19|277:15,1,123.199996240234,10|8,0:1|0:1,0:0:0:0:
329,77,39383,2,0,P|317:102|321:139,1,61.5999981201172,2|8,0:0|0:1,0:0:0:0:
398,146,39736,2,0,P|410:121|406:84,1,61.5999981201172,2|8,0:0|0:1,0:0:0:0:
345,211,40089,5,2,0:0:0:0:
345,211,40265,2,0,P|342:241|354:269,1,61.5999981201172,8|0,0:1|0:0,0:0:0:0:
422,310,40618,1,10,0:1:0:0:
480,255,40795,2,0,P|483:225|471:197,1,61.5999981201172,2|8,0:0|0:1,0:0:0:0:
403,155,41147,1,2,0:0:0:0:
368,95,41324,1,10,0:1:0:0:
372,82,41500,1,2,0:1:0:0:
289,23,41677,6,0,B|260:47|230:43|230:43|215:20|181:14,1,123.199996240234,14|8,0:1|0:1,0:0:0:0:
112,56,42206,2,0,P|101:84|104:115,1,61.5999981201172,2|8,0:0|0:1,0:0:0:0:
149,181,42559,2,0,P|152:211|141:240,1,61.5999981201172,2|8,0:0|0:1,0:0:0:0:
90,320,42912,5,2,0:0:0:0:
90,320,43089,2,0,B|56:326|41:354|41:354|42:322|16:300,1,123.199996240234,8|8,0:1|0:1,0:0:0:0:
90,320,43618,2,0,P|125:332|173:324,1,61.5999981201172,2|8,0:0|0:1,0:0:0:0:
226,310,43971,1,2,0:0:0:0:
277,259,44147,1,2,0:0:0:0:
283,243,44324,1,2,0:0:0:0:
402,316,44500,6,0,B|445:322|464:359|464:359|463:319|496:290,1,158.399995166016,14|8,0:1|0:0,0:0:0:0:
427,204,45030,2,0,P|439:148|393:100,1,118.799996374512,14|0,0:1|0:0,0:0:0:0:
387,98,45383,1,8,0:0:0:0:
357,215,45559,2,0,P|394:224|427:204,1,79.1999975830079,10|0,0:3|0:0,0:0:0:0:
317,66,45912,6,0,B|272:73|254:109|254:109|254:68|222:40,1,158.399995166016,14|8,0:1|0:0,0:0:0:0:
74,9,46442,2,0,P|34:50|44:107,1,118.799996374512,14|0,0:1|0:0,0:0:0:0:
52,119,46795,1,8,0:0:0:0:
145,30,46971,2,0,P|112:8|73:9,1,79.1999975830079,6|0,0:3|0:0,0:0:0:0:
192,155,47324,6,0,P|236:137|360:145,1,146.080002117554,14|8,0:1|0:0,0:0:0:0:
406,169,47853,2,0,P|435:155|413:133,1,73.0400010587769,2|8,0:0|0:1,0:0:0:0:
333,136,48206,1,10,0:1:0:0:
346,215,48383,1,10,0:0:0:0:
288,286,48559,5,2,0:0:0:0:
288,286,48647,1,2,0:0:0:0:
288,286,48736,2,0,B|248:298|216:273|216:273|207:235|172:223,1,146.080002117554,10|8,0:1|0:0,0:0:0:0:
186,339,49265,2,0,P|216:276|172:223,1,146.080002117554,10|8,0:1|0:1,0:0:0:0:
101,194,49795,5,10,0:0:0:0:
101,194,49971,1,2,0:0:0:0:
38,243,50147,6,0,P|8:306|52:359,1,146.080002117554,10|8,0:1|0:0,0:0:0:0:
129,382,50677,2,0,P|168:364|211:363,1,73.0400010587769,2|8,0:0|0:1,0:0:0:0:
276,378,51030,1,10,0:1:0:0:
354,362,51206,1,10,0:0:0:0:
405,274,51383,5,2,0:0:0:0:
405,274,51471,1,2,0:0:0:0:
405,274,51559,2,0,P|378:207|396:138,1,146.080002117554,10|8,0:1|0:0,0:0:0:0:
445,82,52089,1,8,0:1:0:0:
445,82,52265,2,0,P|478:94|512:83,1,73.0400010587769,2|8,0:0|0:1,0:0:0:0:
387,25,52618,2,0,P|353:12|319:23,1,73.0400010587769,10|0,0:0|0:0,0:0:0:0:
236,106,52971,6,0,B|228:128|207:142|207:142|223:88|188:50,1,146.080002117554,14|8,0:1|0:0,0:0:0:0:
123,5,53500,2,0,B|111:-4|87:0|87:0|98:18|116:19,1,73.0400010587769,2|8,0:0|0:1,0:0:0:0:
188,50,53853,1,10,0:1:0:0:
124,99,54030,1,10,0:0:0:0:
197,175,54206,5,2,0:0:0:0:
197,175,54295,1,2,0:0:0:0:
197,175,54383,2,0,L|286:162,1,73.0400010587769,10|0,0:1|0:0,0:0:0:0:
338,123,54736,1,10,0:0:0:0:
415,220,54912,6,0,P|404:286|337:292,1,146.080002117554,10|8,0:1|0:1,0:0:0:0:
279,237,55442,2,0,L|268:148,1,73.0400010587769,10|0,0:0|0:0,0:0:0:0:
196,77,55795,6,0,B|154:74|122:108|122:108|111:65|70:53,1,161.919994564453,14|8,0:1|0:0,0:0:0:0:
89,180,56324,2,0,P|121:110|70:53,1,161.919994564453,14|8,0:1|0:0,0:0:0:0:
0,165,56853,6,0,L|9:233,1,66.0000025177003,14|0,0:0|0:0,0:0:0:0:
89,304,57206,6,0,B|133:329|180:305|180:305|190:257|225:241,1,176,14|8,0:1|0:0,0:0:0:0:
237,375,57736,2,0,P|183:312|225:241,1,176,14|8,0:1|0:0,0:0:0:0:
319,197,58265,5,14,0:2:0:0:
385,299,58442,5,2,0:0:0:0:
385,299,58530,1,2,0:0:0:0:
385,299,58618,2,0,P|431:313|493:272,1,123.199996240234,14|8,0:1|0:0,0:0:0:0:
509,203,59147,2,0,P|498:156|431:122,1,123.199996240234,10|0,0:1|0:0,0:0:0:0:
360,119,59677,2,0,P|329:123|303:109,1,61.5999981201172,2|0,0:0|0:0,0:0:0:0:
297,103,59942,1,2,0:0:0:0:
292,96,60030,6,0,P|267:41|173:28,2,158.399995166016,10|8|8,0:1|0:1|0:1,0:0:0:0:
292,96,61265,1,2,0:0:0:0:
254,171,61442,6,0,B|190:149|204:197|133:168,1,123.199996240234,14|8,0:1|0:0,0:0:0:0:
106,101,61971,2,0,P|113:51|50:25,1,123.199996240234,10|0,0:1|0:0,0:0:0:0:
0,69,62500,2,0,L|8:134,1,61.5999981201172,10|0,0:0|0:0,0:0:0:0:
73,200,62853,6,0,B|164:176|132:241|225:213,2,158.399995166016,10|8|8,0:1|0:1|0:1,0:0:0:0:
73,200,64089,1,2,0:0:0:0:
9,273,64265,6,0,B|-28:321|5:372|5:372|26:351,1,123.199996240234,14|8,0:1|0:0,0:0:0:0:
80,321,64795,2,0,P|125:302|202:314,1,123.199996240234,10|0,0:1|0:0,0:0:0:0:
265,339,65324,2,0,P|293:353|323:352,1,61.5999981201172,10|0,0:0|0:0,0:0:0:0:
410,307,65677,6,0,P|391:258|407:209,1,105.599996777344,10|0,0:1|0:0,0:0:0:0:
481,207,66206,2,0,P|499:255|483:304,1,105.599996777344,2|8,0:0|0:1,0:0:0:0:
411,322,66736,2,0,P|381:311|346:307,1,52.7999983886719,10|0,0:1|0:0,0:0:0:0:
272,340,67089,6,0,B|249:369|210:365|210:365|196:338|174:326,1,123.199996240234,14|8,0:1|0:0,0:0:0:0:
101,313,67618,2,0,B|75:329|42:315|42:315|35:278|57:246,1,123.199996240234,10|0,0:1|0:0,0:0:0:0:
91,193,68147,2,0,P|107:165|77:123,1,61.5999981201172,10|0,0:3|0:0,0:0:0:0:
211,236,68500,6,0,B|232:278|281:269|281:269|285:243|315:222,1,140.8,14|0,0:1|0:0,0:0:0:0:
392,273,69030,2,0,P|387:298|408:348,1,70.4,10|0,0:3|0:0,0:0:0:0:
474,382,69383,5,10,0:0:0:0:
512,318,69559,1,8,0:1:0:0:
508,303,69736,1,8,0:1:0:0:
454,221,69912,6,0,B|413:208|378:238|378:238|335:235|325:191,1,158.399995166016,14|8,0:1|0:0,0:0:0:0:
376,109,70442,2,0,P|416:112|451:94,1,79.1999975830079,2|8,0:0|0:1,0:0:0:0:
342,41,70795,1,10,0:1:0:0:
300,104,70971,1,10,0:0:0:0:
221,49,71147,5,2,0:0:0:0:
221,49,71236,1,2,0:0:0:0:
221,49,71324,2,0,P|149:16|71:19,1,158.399995166016,10|8,0:1|0:0,0:0:0:0:
138,138,71853,2,0,P|73:183|38:253,1,158.399995166016,10|8,0:1|0:1,0:0:0:0:
89,361,72383,5,10,0:0:0:0:
89,361,72559,1,2,0:0:0:0:
191,327,72736,6,0,B|284:309|245:377|336:366,1,158.399995166016,10|8,0:1|0:0,0:0:0:0:
410,289,73265,2,0,P|400:240|423:188,1,79.1999975830079,2|8,0:0|0:1,0:0:0:0:
480,122,73618,1,10,0:1:0:0:
501,198,73795,1,10,0:0:0:0:
384,126,73971,5,2,0:0:0:0:
384,126,74059,1,2,0:0:0:0:
384,126,74147,2,0,B|335:105|290:132|290:132|264:128|245:92,1,158.399995166016,10|8,0:1|0:0,0:0:0:0:
84,36,74677,2,0,B|133:15|178:42|178:42|204:38|223:2,1,158.399995166016,10|8,0:1|0:1,0:0:0:0:
126,104,75206,2,0,P|105:125|112:190,1,79.1999975830079,8|0,0:0|0:0,0:0:0:0:
206,242,75559,6,0,B|292:228|261:292|348:300,1,158.399995166016,14|8,0:1|0:0,0:0:0:0:
233,376,76089,2,0,B|248:344|227:320|227:320|221:326|220:340,1,79.1999975830079,2|8,0:0|0:1,0:0:0:0:
346,300,76442,2,0,B|346:311|352:317|352:317|373:293|358:261,1,79.1999975830079,10|8,0:1|0:0,0:0:0:0:
228,177,76795,5,2,0:0:0:0:
228,177,76883,1,2,0:0:0:0:
228,177,76971,2,0,B|191:212|140:194|140:194|131:163|98:148,1,158.399995166016,10|8,0:1|0:0,0:0:0:0:
132,247,77500,2,0,P|139:190|100:149,1,118.799996374512,10|0,0:1|0:0,0:0:0:0:
83,148,77853,5,10,0:1:0:0:
156,49,78030,1,10,0:0:0:0:
228,177,78206,1,2,0:0:0:0:
350,133,78383,6,0,B|368:102|367:40|325:18|325:18|317:44|336:64,1,176,10|8,0:1|0:0,0:0:0:0:
422,166,78912,2,0,P|465:176|512:142,1,88,2|8,0:0|0:1,0:0:0:0:
350,133,79265,5,10,0:1:0:0:
428,249,79442,1,10,0:0:0:0:
318,314,79618,5,2,0:0:0:0:
318,314,79706,1,2,0:0:0:0:
318,314,79795,2,0,B|276:280|221:306|230:319|204:369|136:351,1,193.600005908203,14|8,0:1|0:0,0:0:0:0:
206,213,80324,2,0,P|231:308|144:353,1,211.199993554688,14|8,0:1|0:2,0:0:0:0:
10,239,80853,5,10,0:1:0:0:
0,221,80942,1,2,0:0:0:0:
16,212,81030,1,2,0:0:0:0:
25,228,81118,1,2,0:0:0:0:
13,225,81206,6,0,P|-2:169|24:110,1,114.399994763184,10|8,0:2|0:1,0:0:0:0:
75,68,81471,1,8,0:1:0:0:
85,83,81559,1,10,0:0:0:0:
208,103,82265,6,0,B|160:110|131:155|131:155|122:105|80:80,1,184.799994360352,14|0,0:1|0:0,0:0:0:0:
68,73,82617,1,10,0:0:0:0:
208,103,82794,6,0,P|275:92|282:21,1,145.200004431152,10|0,0:1|0:0,0:0:0:0:
326,104,83147,2,0,P|319:149|372:193,1,96.8000029541017,2|8,0:0|0:0,0:0:0:0:
502,231,83500,5,2,0:1:0:0:
502,231,83588,1,2,0:1:0:0:
502,231,83676,1,8,0:1:0:0:
445,131,83853,1,2,0:0:0:0:
341,274,84029,1,8,0:0:0:0:
445,384,84206,6,0,B|468:357|466:321|444:295|444:295|433:306|438:321,1,118.799996374512,10|0,0:1|0:0,0:0:0:0:
436,314,84559,2,0,P|475:329|514:312,1,88,10|8,0:1|0:0,0:0:0:0:
381,192,84912,5,2,0:0:0:0:
341,274,85088,1,10,0:1:0:0:
308,143,85265,1,2,0:0:0:0:
308,143,85353,1,2,0:0:0:0:
308,143,85441,1,8,0:0:0:0:
215,278,85617,6,0,B|207:293|193:306|181:305|181:305|171:272|174:229|206:201,1,158.399995166016,10|0,0:1|0:0,0:0:0:0:
219,193,85970,1,2,0:0:0:0:
341,274,86147,1,10,0:0:0:0:
458,129,86323,5,2,0:0:0:0:
458,129,86412,1,2,0:0:0:0:
458,129,86500,2,0,B|463:172|436:200|436:200|339:218|295:119,1,228.799989526368,10|8,0:1|0:0,0:0:0:0:
256,23,87029,5,10,0:1:0:0:
141,116,87206,6,0,P|135:149|143:171,1,52.7999983886719,10|0,0:3|0:0,0:0:0:0:
233,232,87382,6,0,B|248:243|256:262|256:262|263:243|281:230,1,79.1999975830079,6|0,0:3|0:0,0:0:0:0:
372,166,87559,6,0,P|386:116|367:68,1,105.6,12|8,0:0|0:0,0:0:0:0:
256,23,87912,6,0,B|242:89|162:84|162:84|126:14|50:20,1,246.399992480469,14|8,0:1|0:0,0:0:0:0:
6,188,88441,6,0,P|71:214|136:184,1,145.200004431152,10|0,0:1|0:0,0:0:0:0:
147,175,88794,1,10,0:1:0:0:
102,291,88970,1,10,0:0:0:0:
215,379,89147,5,2,0:0:0:0:
215,379,89235,1,2,0:0:0:0:
215,379,89323,1,10,0:1:0:0:
264,257,89500,1,2,0:0:0:0:
147,175,89676,5,10,0:0:0:0:
264,257,89853,2,0,B|304:303|367:282|367:282|379:222|421:201,1,211.199993554688,10|8,0:1|0:1,0:0:0:0:
509,316,90382,6,0,P|516:350|510:384,1,70.4,10|0,0:0|0:0,0:0:0:0:
322,183,90735,5,14,0:1:0:0:
498,235,90912,1,2,0:1:0:0:
463,142,91088,5,10,0:0:0:0:
338,281,91265,1,2,0:0:0:0:
225,179,91441,5,10,0:1:0:0:
240,149,91529,1,2,0:0:0:0:
246,117,91617,1,2,0:0:0:0:
243,84,91706,1,2,0:0:0:0:
231,53,91794,2,0,B|217:33|217:33|215:67,1,44,10|0,0:0|0:0,0:0:0:0:
321,154,91970,6,0,L|355:158,1,26.399999194336,10|0,0:3|0:0,0:0:0:0:
120,199,92323,6,0,L|70:204,1,30.7999990600586,14|0,0:0|0:0,0:0:0:0:
369,249,92676,6,0,L|429:256,1,35.2,10|0,0:0|0:0,0:0:0:0:
161,348,93029,6,0,P|131:371|97:366,1,66.0000025177003,10|0,0:3|0:0,0:0:0:0:
272,248,93206,6,0,B|256:268|256:268|239:248,1,52.7999983886719,10|0,0:0|0:0,0:0:0:0:
351,348,93382,6,0,P|381:371|415:366,1,66.0000025177003,6|0,0:3|0:0,0:0:0:0:
298,175,93559,6,0,P|256:240|213:175,1,184.799994360352,14|0,0:1|0:0,0:0:0:0:
256,108,93912,1,10,0:0:0:0:
385,180,94088,6,0,P|384:228|363:271,1,96.8000029541017,2|8,0:0|0:1,0:0:0:0:
149,271,94441,2,0,P|127:228|126:180,1,96.8000029541017,2|8,0:0|0:0,0:0:0:0:
256,16,94794,5,10,0:1:0:0:
256,16,94882,1,2,0:1:0:0:
256,16,94970,1,2,0:1:0:0:
330,121,95147,1,8,0:1:0:0:
406,0,95323,1,8,0:0:0:0:
489,144,95500,6,0,B|498:158|520:171|520:171|509:95|436:86,1,171.599992144776,2|0,0:1|0:0,0:0:0:0:
421,85,95853,5,10,0:1:0:0:
323,218,96029,1,10,0:0:0:0:
488,237,96206,1,2,0:0:0:0:
330,121,96382,5,10,0:1:0:0:
234,248,96559,1,2,0:0:0:0:
234,248,96647,1,2,0:0:0:0:
234,248,96735,1,8,0:0:0:0:
152,124,96912,6,0,B|160:116|173:96|173:96|179:60|143:29,1,105.599996777344,2|8,0:0|0:1,0:0:0:0:
48,0,97264,1,10,0:1:0:0:
152,124,97441,1,10,0:0:0:0:
29,192,97617,5,10,0:1:0:0:
29,192,97706,1,2,0:0:0:0:
29,192,97794,1,2,0:0:0:0:
131,137,97970,1,8,0:1:0:0:
46,96,98147,1,8,0:0:0:0:
125,244,98323,5,8,0:2:0:0:
125,244,98412,1,8,0:2:0:0:
125,244,98500,2,0,B|146:288|201:279|201:279|205:243|233:222,1,158.399995166016,10|0,0:1|0:0,0:0:0:0:
275,299,98853,6,0,B|257:325|218:317|218:317|182:266|233:222,1,171.599992144776,10|0,0:0|0:0,0:0:0:0:
327,165,99206,6,0,B|345:196|386:189|386:189|422:129|369:85,1,184.799994360352,14|0,0:1|0:0,0:0:0:0:
357,74,99559,1,10,0:0:0:0:
211,39,99735,6,0,B|200:78|145:83|145:83|143:45|111:20,1,158.399995166016,14|0,0:1|0:0,0:0:0:0:
98,10,100088,1,2,0:0:0:0:
5,140,100264,1,10,0:3:0:0:
149,213,100441,1,2,0:0:0:0:
149,213,100529,1,2,0:0:0:0:
149,213,100617,1,14,0:1:0:0:
65,86,100794,5,2,0:0:0:0:
12,260,100970,1,10,0:0:0:0:
160,345,101147,2,0,B|293:315|239:413|375:379,1,228.799989526368,14|0,0:1|0:0,0:0:0:0:
494,308,101676,6,0,L|508:221,1,88,10|0,0:3|0:0,0:0:0:0:
401,84,102029,5,14,0:1:0:0:
335,211,102206,1,10,0:1:0:0:
208,145,102382,1,10,0:0:0:0:
273,18,102559,1,10,0:0:0:0:
403,160,102735,6,0,P|429:161|449:147,1,52.7999983886719,10|0,0:3|0:0,0:0:0:0:
465,44,102912,2,0,P|453:20|430:10,1,52.7999983886719,10|0,0:3|0:0,0:0:0:0:
326,124,103088,5,10,0:0:0:0:
318,146,103176,1,2,0:0:0:0:
316,169,103264,1,2,0:0:0:0:
322,191,103353,1,2,0:0:0:0:
335,211,103441,6,0,P|360:232|391:240,1,61.5999981201172,10|0,0:3|0:0,0:0:0:0:
257,73,103617,6,0,P|263:43|256:14,1,61.5999981201172,10|0,0:0|0:0,0:0:0:0:
177,212,103794,6,0,P|146:223|123:245,1,61.5999981201172,10|0,0:3|0:0,0:0:0:0:
393,366,104853,6,0,P|433:371|470:353,1,82.719998737793,14|0,0:1|0:0,0:0:0:0:
393,366,105206,1,8,0:0:0:0:
470,352,105382,2,0,P|494:319|498:278,1,82.719998737793,2|8,0:2|0:1,0:0:0:0:
475,140,105735,2,0,B|474:181|474:181|439:144,1,82.719998737793,10|8,0:1|0:0,0:0:0:0:
381,86,106088,5,2,0:0:0:0:
445,150,106264,1,10,0:1:0:0:
357,173,106441,1,2,0:0:0:0:
378,75,106617,1,10,0:0:0:0:
455,152,106794,2,0,P|475:187|471:227,1,82.719998737793,10|0,0:1|0:0,0:0:0:0:
365,255,107147,2,0,P|344:219|348:179,1,82.719998737793,10|8,0:1|0:0,0:0:0:0:
378,75,107500,5,2,0:0:0:0:
454,151,107676,2,0,P|524:143|490:82,1,165.439997475586,10|8,0:1|0:0,0:0:0:0:
376,0,108206,2,0,P|355:33|316:33,1,82.719998737793,2|8,0:0|0:1,0:0:0:0:
219,94,108559,2,0,P|246:122|284:112,1,82.719998737793,2|8,0:0|0:0,0:0:0:0:
187,1,108912,5,2,0:0:0:0:
187,1,109000,1,2,0:0:0:0:
187,1,109088,1,8,0:1:0:0:
111,79,109264,2,0,B|79:106|79:106|79:65,1,82.719998737793,2|8,0:0|0:0,0:0:0:0:
202,183,109617,2,0,B|234:210|234:210|233:169,1,82.719998737793,10|0,0:1|0:0,0:0:0:0:
111,79,109970,5,10,0:1:0:0:
114,203,110147,1,10,0:0:0:0:
28,292,110323,1,2,0:0:0:0:
153,352,110500,6,0,B|190:320|237:338|237:338|254:372|298:377,1,165.439997475586,14|8,0:1|0:0,0:0:0:0:
239,254,111029,1,2,0:0:0:0:
239,254,111206,2,0,P|233:333|298:377,1,165.439997475586,10|8,0:1|0:0,0:0:0:0:
399,314,111735,6,0,P|403:274|413:223,1,82.719998737793,2|8,0:0|0:1,0:0:0:0:
239,254,112088,2,0,P|235:214|225:163,1,82.719998737793,2|8,0:0|0:0,0:0:0:0:
411,232,112441,2,0,P|425:194|443:156,1,82.719998737793,10|0,0:1|0:0,0:0:0:0:
234,179,112794,1,10,0:1:0:0:
234,179,112882,1,2,0:0:0:0:
234,178,112970,2,0,P|219:140|200:103,1,82.719998737793,8|0,0:0|0:1,0:0:0:0:
355,0,113323,6,0,P|362:55|461:55,1,165.439997475586,14|8,0:1|0:0,0:0:0:0:
234,178,113853,2,0,P|227:233|128:233,1,165.439997475586,14|8,0:1|0:0,0:0:0:0:
133,239,114382,1,10,0:1:0:0:
280,348,114559,6,0,B|358:330|328:380|406:361,1,132,10|0,0:0|0:0,0:0:0:0:
413,351,114912,6,0,B|328:371|360:316|274:336,1,145.200004431152,10|0,0:3|0:0,0:0:0:0:
268,327,115264,6,0,B|362:306|326:366|419:343,1,158.399995166016,6|0,0:3|0:0,0:0:0:0:
425,335,115617,6,0,B|326:359|364:294|263:317,1,168.960004125,10|0,0:3|0:0,0:0:0:0:
165,358,116147,6,0,B|135:395|94:383|94:383|108:354|142:356,1,132.000005035401,14|8,0:1|0:1,0:0:0:0:
232,319,116676,1,2,0:0:0:0:
232,319,116853,2,0,B|262:356|303:344|303:344|289:315|255:317,1,132.000005035401,10|8,0:1|0:1,0:0:0:0:
194,244,117382,5,2,0:0:0:0:
194,244,117559,2,0,P|221:193|186:104,1,132.000005035401,8|8,0:1|0:1,0:0:0:0:
157,69,118088,1,2,0:0:0:0:
157,69,118176,1,2,0:0:0:0:
157,69,118264,2,0,P|131:79|91:71,1,66.0000025177003,8|0,0:1|0:0,0:0:0:0:
215,8,118617,5,10,0:1:0:0:
215,8,118794,1,2,0:0:0:0:
280,87,118970,6,0,B|305:115|347:100|347:100|358:73|389:55,1,132.000005035401,10|8,0:1|0:1,0:0:0:0:
347,126,119500,1,2,0:0:0:0:
386,57,119676,2,0,P|421:47|461:56,1,66.0000025177003,10|0,0:1|0:0,0:0:0:0:
476,117,120029,2,0,P|502:142|514:181,1,66.0000025177003,10|0,0:1|0:0,0:0:0:0:
455,258,120382,6,0,B|430:286|388:271|388:271|377:244|346:226,1,132.000005035401,10|8,0:1|0:1,0:0:0:0:
388,297,120912,1,2,0:0:0:0:
349,228,121088,2,0,P|314:218|274:227,1,66.0000025177003,10|0,0:1|0:0,0:0:0:0:
215,250,121441,2,0,P|182:253|151:244,1,66.0000025177003,10|0,0:1|0:0,0:0:0:0:
111,158,121794,6,0,P|137:121|110:38,1,132.000005035401,14|8,0:1|0:1,0:0:0:0:
44,63,122323,2,0,P|41:30|53:0,1,66.0000025177003,2|8,0:0|0:1,0:0:0:0:
115,42,122676,1,2,0:0:0:0:
177,83,122853,2,0,P|188:53|185:20,1,66.0000025177003,10|0,0:1|0:0,0:0:0:0:
101,120,123206,6,0,P|70:177|91:236,1,132.000005035401,10|8,0:1|0:1,0:0:0:0:
162,274,123735,2,0,P|200:260|232:261,1,66.0000025177003,2|8,0:0|0:1,0:0:0:0:
303,276,124088,1,2,0:0:0:0:
346,337,124264,1,10,0:1:0:0:
345,358,124441,1,2,0:0:0:0:
472,384,124617,6,0,P|495:333|446:227,1,158.399995166016,14|8,0:1|0:0,0:0:0:0:
388,171,125147,2,0,B|372:200|339:203|339:203|338:171|316:152,1,118.799996374512,14|0,0:1|0:0,0:0:0:0:
303,142,125500,1,8,0:0:0:0:
354,76,125676,2,0,B|368:90|388:88|388:88|379:61|350:60,1,79.1999975830079,10|0,0:3|0:0,0:0:0:0:
249,24,126029,6,0,B|238:66|186:67|186:67|169:25|128:18,1,158.399995166016,14|8,0:1|0:0,0:0:0:0:
186,110,126559,2,0,P|179:52|132:19,1,118.799996374512,14|0,0:1|0:0,0:0:0:0:
116,15,126912,1,8,0:0:0:0:
22,85,127088,2,0,P|12:119|24:165,1,79.1999975830079,6|0,0:3|0:0,0:0:0:0:
87,241,127441,6,0,B|170:211|147:276|229:253,1,149.600002853394,14|8,0:1|0:0,0:0:0:0:
303,220,127970,2,0,B|327:193|327:193|286:207,1,74.8000014266968,2|8,0:0|0:1,0:0:0:0:
229,253,128323,1,10,0:1:0:0:
257,328,128500,1,10,0:0:0:0:
352,375,128676,5,2,0:0:0:0:
352,375,128764,1,2,0:0:0:0:
352,375,128853,2,0,B|395:386|424:348|424:348|408:312|426:283,1,149.600002853394,10|8,0:1|0:0,0:0:0:0:
500,353,129382,2,0,P|432:352|426:284,1,149.600002853394,10|8,0:1|0:1,0:0:0:0:
490,209,129912,5,10,0:0:0:0:
490,209,130088,1,2,0:0:0:0:
431,132,130264,6,0,B|423:158|406:171|406:171|349:181|317:130,1,149.600002853394,10|8,0:1|0:0,0:0:0:0:
274,70,130794,2,0,P|293:38|287:-3,1,74.8000014266968,2|8,0:0|0:1,0:0:0:0:
197,87,131147,1,10,0:1:0:0:
157,23,131323,1,10,0:0:0:0:
69,92,131500,5,2,0:0:0:0:
69,92,131588,1,2,0:0:0:0:
69,92,131676,2,0,P|38:159|58:229,1,149.600002853394,10|8,0:1|0:0,0:0:0:0:
119,280,132206,1,10,0:1:0:0:
119,280,132382,2,0,P|152:265|190:265,1,74.8000014266968,2|8,0:0|0:1,0:0:0:0:
209,342,132735,2,0,P|175:357|137:357,1,74.8000014266968,10|0,0:0|0:0,0:0:0:0:
264,287,133088,6,0,B|320:279|349:325|349:325|364:296|397:282,1,149.600002853394,14|8,0:1|0:0,0:0:0:0:
450,252,133617,2,0,B|462:261|486:257|486:257|471:237|455:237,1,74.8000014266968,2|8,0:0|0:1,0:0:0:0:
384,289,133970,1,10,0:1:0:0:
360,187,134147,1,10,0:0:0:0:
283,233,134323,5,2,0:0:0:0:
283,233,134412,1,2,0:0:0:0:
283,233,134500,2,0,B|272:243|244:242|244:242|259:219|274:219,1,74.8000014266968,10|0,0:1|0:0,0:0:0:0:
360,187,134853,1,10,0:0:0:0:
278,111,135029,6,0,B|253:136|216:134|216:134|200:92|150:81,1,149.600002853394,10|8,0:1|0:1,0:0:0:0:
62,129,135559,2,0,P|46:150|51:217,1,74.8000014266968,10|0,0:0|0:0,0:0:0:0:
132,275,135912,6,0,B|173:265|208:299|208:299|219:251|261:239,1,167.199995535278,14|8,0:1|0:0,0:0:0:0:
243,370,136441,2,0,P|209:299|261:239,1,167.199995535278,14|8,0:1|0:0,0:0:0:0:
373,195,136970,6,0,P|398:212|438:218,1,66.0000025177003,14|0,0:1|0:0,0:0:0:0:
372,76,137323,6,0,B|326:64|289:100|289:100|277:49|233:36,1,179.520001095703,14|8,0:1|0:0,0:0:0:0:
241,171,137853,2,0,P|287:100|233:36,1,179.520001095703,14|8,0:1|0:0,0:0:0:0:
144,1,138382,5,14,0:1:0:0:
53,84,138559,5,2,0:0:0:0:
53,84,138647,1,2,0:0:0:0:
53,84,138735,2,0,B|57:124|105:134|105:134|130:116|126:85,1,123.199996240234,14|8,0:1|0:0,0:0:0:0:
53,84,139264,2,0,P|28:124|39:201,1,123.199996240234,10|0,0:1|0:0,0:0:0:0:
94,244,139794,2,0,P|118:234|159:240,1,61.5999981201172,10|0,0:0|0:0,0:0:0:0:
161,244,140059,1,2,0:0:0:0:
167,252,140147,6,0,P|173:305|271:313,2,158.399995166016,10|8|8,0:1|0:1|0:1,0:0:0:0:
167,252,141382,1,2,0:0:0:0:
239,187,141559,6,0,P|266:132|255:73,1,123.199996240234,14|8,0:1|0:0,0:0:0:0:
178,62,142088,2,0,P|150:116|161:175,1,123.199996240234,10|0,0:1|0:0,0:0:0:0:
232,205,142617,2,0,P|273:192|304:195,1,61.5999981201172,10|0,0:0|0:0,0:0:0:0:
369,261,142970,6,0,B|363:305|399:331|399:331|439:311|439:268,2,158.399995166016,10|8|8,0:1|0:1|0:1,0:0:0:0:
369,261,144206,1,2,0:0:0:0:
417,187,144382,6,0,B|454:139|421:86|421:86|400:109,1,123.199996240234,14|8,0:1|0:0,0:0:0:0:
349,145,144912,2,0,B|338:160|315:166|315:166|270:165|236:124,1,123.199996240234,10|0,0:1|0:0,0:0:0:0:
205,62,145441,2,0,P|205:39|180:3,1,61.5999981201172,10|0,0:0|0:0,0:0:0:0:
103,89,145794,6,0,P|81:135|90:187,1,105.599996777344,10|8,0:1|0:0,0:0:0:0:
136,245,146323,2,0,P|158:291|149:343,1,105.599996777344,10|0,0:1|0:0,0:0:0:0:
83,378,146853,2,0,P|52:366|19:366,1,52.7999983886719,10|0,0:3|0:0,0:0:0:0:
136,245,147206,6,0,B|156:276|208:271|208:271|225:256|233:223,1,123.199996240234,14|8,0:1|0:0,0:0:0:0:
303,240,147735,2,0,B|296:251|280:261|280:261|249:225|276:168,1,123.199996240234,10|0,0:1|0:0,0:0:0:0:
323,119,148264,2,0,L|398:108,1,61.5999981201172,10|0,0:0|0:0,0:0:0:0:
265,28,148617,6,0,B|244:70|195:61|195:61|190:34|158:9,1,140.8,14|0,0:1|0:0,0:0:0:0:
73,80,149147,2,0,P|59:112|64:150,1,70.4,10|0,0:3|0:0,0:0:0:0:
116,246,149500,5,10,0:0:0:0:
210,227,149676,1,8,0:3:0:0:
248,158,149853,1,4,0:3:0:0:
290,275,150029,6,0,P|287:336|372:346,1,163.680005119995,14|8,0:1|0:0,0:0:0:0:
432,257,150559,2,0,P|420:227|433:164,1,81.8400025599976,2|8,0:0|0:1,0:0:0:0:
461,85,150912,1,10,0:1:0:0:
501,155,151088,1,10,0:0:0:0:
380,109,151264,5,2,0:0:0:0:
380,109,151353,1,2,0:0:0:0:
380,109,151441,2,0,B|343:121|300:99|300:99|276:59|239:48,1,163.680005119995,10|8,0:1|0:0,0:0:0:0:
305,180,151970,2,0,P|300:100|239:48,1,163.680005119995,10|8,0:1|0:1,0:0:0:0:
124,25,152500,5,10,0:0:0:0:
124,25,152676,1,2,0:0:0:0:
48,128,152853,6,0,P|52:207|112:259,1,163.680005119995,10|8,0:1|0:0,0:0:0:0:
183,323,153382,2,0,P|143:331|107:351,1,81.8400025599976,2|8,0:0|0:1,0:0:0:0:
272,324,153735,1,10,0:1:0:0:
328,381,153912,1,10,0:0:0:0:
421,307,154088,5,2,0:0:0:0:
421,307,154176,1,2,0:0:0:0:
421,307,154264,2,0,P|436:228|392:162,1,163.680005119995,10|8,0:1|0:0,0:0:0:0:
512,253,154794,2,0,B|469:258|436:227|436:227|424:182|392:162,1,163.680005119995,10|8,0:1|0:1,0:0:0:0:
297,125,155323,2,0,B|290:148|309:170|309:170|318:151|306:136,1,81.8400025599976,8|0,0:0|0:0,0:0:0:0:
221,40,155676,6,0,B|184:33|144:64|144:64|132:23|95:4,1,163.680005119995,14|8,0:1|0:0,0:0:0:0:
18,106,156206,2,0,B|-4:125|-2:150|-2:150|20:143|22:114,1,81.8400025599976,2|8,0:0|0:1,0:0:0:0:
176,181,156559,2,0,B|198:200|196:225|196:225|174:218|172:189,1,81.8400025599976,10|8,0:1|0:0,0:0:0:0:
31,245,156912,5,2,0:0:0:0:
31,245,157000,1,2,0:0:0:0:
31,245,157088,2,0,B|-8:308|33:366|33:366|75:343,1,163.680005119995,10|8,0:1|0:0,0:0:0:0:
192,293,157617,2,0,P|179:239|103:246,1,122.760003839996,10|0,0:1|0:0,0:0:0:0:
109,239,157970,5,10,0:1:0:0:
214,153,158147,1,10,0:0:0:0:
275,298,158323,1,2,0:0:0:0:
420,250,158500,6,0,B|453:226|453:226|476:157|416:93,1,176,10|8,0:1|0:0,0:0:0:0:
317,48,159029,2,0,B|305:63|277:64|277:64|281:39|301:30,1,88,2|8,0:0|0:1,0:0:0:0:
406,9,159382,5,10,0:1:0:0:
315,185,159559,1,10,0:0:0:0:
161,76,159735,5,2,0:0:0:0:
161,76,159823,1,2,0:0:0:0:
161,76,159912,2,0,B|117:91|66:65|66:65|48:17|0:1,1,193.600005908203,14|8,0:1|0:0,0:0:0:0:
40,172,160441,2,0,P|69:76|1:1,1,211.199993554688,14|8,0:1|0:2,0:0:0:0:
157,173,160970,5,10,0:1:0:0:
166,186,161059,1,2,0:0:0:0:
180,176,161147,1,2,0:0:0:0:
171,161,161235,1,2,0:0:0:0:
168,174,161323,6,0,B|167:205|192:225|192:225|197:207|192:194,1,76.2666631754559,10|0,0:2|0:0,0:0:0:0:
108,53,161559,6,0,B|81:36|51:48|51:48|64:61|78:63,1,76.2666631754559,10|0,0:2|0:0,0:0:0:0:
242,61,161794,6,0,B|269:46|274:14|274:14|256:19|247:30,1,76.2666631754559,10|0,0:2|0:0,0:0:0:0:
366,229,162382,6,0,B|380:284|444:277|444:277|450:226|497:211,1,184.799994360352,14|0,0:1|0:0,0:0:0:0:
507,209,162734,1,10,0:0:0:0:
384,48,162911,6,0,B|390:116|332:129|332:129|291:98,1,145.200004431152,10|0,0:1|0:0,0:0:0:0:
242,61,163264,2,0,P|220:29|144:31,1,96.8000029541017,2|8,0:0|0:0,0:0:0:0:
20,91,163617,5,2,0:1:0:0:
20,91,163705,1,2,0:1:0:0:
20,91,163793,1,8,0:1:0:0:
164,125,163970,1,2,0:0:0:0:
0,197,164146,1,8,0:0:0:0:
150,268,164323,6,0,B|169:279|169:279|164:248|137:225|99:223,1,118.799996374512,10|0,0:1|0:0,0:0:0:0:
100,223,164676,2,0,P|78:260|85:303,1,88,10|8,0:1|0:0,0:0:0:0:
196,378,165029,5,2,0:0:0:0:
256,256,165205,1,10,0:1:0:0:
324,384,165382,1,2,0:0:0:0:
324,384,165470,1,2,0:0:0:0:
324,384,165558,1,8,0:0:0:0:
429,274,165734,6,0,P|457:202|426:129,1,158.399995166016,10|0,0:1|0:0,0:0:0:0:
417,117,166087,1,2,0:0:0:0:
312,2,166264,1,10,0:0:0:0:
149,91,166440,5,2,0:0:0:0:
149,91,166529,1,2,0:0:0:0:
149,91,166617,2,0,B|106:150|124:221|189:237|235:189|216:147,1,228.799989526368,10|8,0:1|0:0,0:0:0:0:
32,192,167146,5,10,0:1:0:0:
161,292,167323,6,0,P|181:296|213:289,1,52.7999983886719,10|0,0:3|0:0,0:0:0:0:
316,215,167499,6,0,B|328:199|347:192|347:192|328:184|316:168,1,79.1999975830079,6|0,0:3|0:0,0:0:0:0:
212,95,167676,6,0,B|182:85|153:94|153:94|168:76|207:80,1,105.6,12|8,0:0|0:0,0:0:0:0:
324,44,168029,6,0,B|359:97|426:102|459:89|459:89|462:30|421:11,1,246.399992480469,14|8,0:1|0:0,0:0:0:0:
194,79,168558,6,0,B|167:116|126:111|126:111|107:74|70:63,1,145.200004431152,10|0,0:1|0:0,0:0:0:0:
65,62,168911,1,10,0:1:0:0:
147,198,169087,1,10,0:0:0:0:
0,261,169264,1,2,0:0:0:0:
0,261,169352,1,2,0:0:0:0:
0,261,169440,1,10,0:1:0:0:
147,198,169617,5,2,0:0:0:0:
0,261,169793,1,10,0:0:0:0:
154,349,169970,2,0,P|229:360|257:285,1,158.399995166016,10|0,0:1|0:0,0:0:0:0:
256,279,170323,5,10,0:1:0:0:
147,198,170499,1,10,0:0:0:0:
318,123,170676,1,2,0:0:0:0:
250,264,170852,6,0,P|225:194|258:49,1,211.199993554688,14|8,0:1|0:0,0:0:0:0:
359,0,171382,1,2,0:0:0:0:
443,119,171558,5,10,0:1:0:0:
452,127,171646,2,0,P|473:133|488:109,1,44,8|0,0:0|0:0,0:0:0:0:
377,209,171823,1,10,0:1:0:0:
370,220,171911,2,0,P|349:226|334:202,1,44,10|0,0:0|0:0,0:0:0:0:
454,301,172087,6,0,L|488:305,1,26.399999194336,10|0,0:3|0:0,0:0:0:0:
279,120,172440,6,0,L|309:116,1,30.7999990600586,14|0,0:0|0:0,0:0:0:0:
256,351,172793,6,0,L|291:354,1,35.2,10|0,0:0|0:0,0:0:0:0:
95,221,173146,6,0,P|125:210|158:214,1,66.0000025177003,10|0,0:3|0:0,0:0:0:0:
256,299,173323,6,0,L|256:375,1,52.7999983886719,10|0,0:0|0:0,0:0:0:0:
417,221,173499,6,0,P|387:210|354:214,1,66.0000025177003,6|0,0:3|0:0,0:0:0:0:
220,91,173676,6,0,B|211:46|240:34|256:6|256:6|272:34|300:46|292:91,1,191.400005841065,14|0,0:1|0:0,0:0:0:0:
256,164,174029,1,10,0:0:0:0:
127,134,174205,6,0,P|115:95|123:28,1,96.8000029541017,2|8,0:0|0:1,0:0:0:0:
393,39,174558,2,0,P|397:87|385:134,1,96.8000029541017,2|8,0:0|0:0,0:0:0:0:
264,314,174911,5,10,0:1:0:0:
264,314,174999,1,2,0:1:0:0:
264,314,175087,1,2,0:1:0:0:
186,213,175264,1,8,0:1:0:0:
131,358,175440,1,8,0:0:0:0:
61,208,175617,6,0,B|51:178|27:174|27:174|2:236|47:284,1,171.599992144776,2|0,0:1|0:0,0:0:0:0:
59,296,175970,5,10,0:1:0:0:
186,213,176146,1,10,0:0:0:0:
74,109,176323,1,2,0:0:0:0:
236,44,176499,5,10,0:1:0:0:
193,220,176676,1,2,0:0:0:0:
193,220,176764,1,2,0:0:0:0:
193,220,176852,1,8,0:0:0:0:
321,131,177029,6,0,B|336:124|346:107|346:107|313:100|281:129,1,105.599996777344,2|8,0:0|0:1,0:0:0:0:
193,220,177382,1,10,0:1:0:0:
335,276,177558,1,10,0:0:0:0:
215,370,177734,5,10,0:1:0:0:
215,370,177823,1,2,0:0:0:0:
215,370,177911,1,2,0:0:0:0:
247,288,178087,1,8,0:1:0:0:
301,358,178264,1,8,0:0:0:0:
159,300,178440,5,8,0:2:0:0:
159,300,178529,1,8,0:2:0:0:
159,300,178617,2,0,B|119:340|63:311|63:311|60:277|90:251,1,158.399995166016,10|0,0:1|0:0,0:0:0:0:
162,210,178970,6,0,B|190:235|229:217|229:217|236:156|182:122,1,171.599992144776,10|0,0:0|0:0,0:0:0:0:
79,114,179323,6,0,B|52:136|9:123|9:123|-2:59|53:15,1,184.799994360352,14|0,0:1|0:0,0:0:0:0:
60,14,179676,1,10,0:0:0:0:
260,53,179852,6,0,B|281:55|293:37|293:37|261:15|221:14|180:47,1,158.399995166016,14|0,0:1|0:0,0:0:0:0:
172,57,180205,1,2,0:0:0:0:
48,145,180382,1,10,0:3:0:0:
180,246,180558,1,2,0:0:0:0:
180,246,180646,1,2,0:0:0:0:
180,246,180734,1,14,0:1:0:0:
140,139,180911,5,2,0:0:0:0:
60,290,181087,1,10,0:0:0:0:
208,354,181264,2,0,B|269:337|314:373|314:373|381:376|390:292,1,228.799989526368,14|0,0:1|0:0,0:0:0:0:
153,156,181793,6,0,B|145:177|122:180|122:180|120:157|140:139,1,88,10|0,0:3|0:0,0:0:0:0:
287,56,182146,5,14,0:1:0:0:
341,204,182323,1,10,0:1:0:0:
490,148,182499,1,10,0:0:0:0:
436,0,182676,1,10,0:0:0:0:
291,138,182852,6,0,P|265:139|245:125,1,52.7999983886719,10|0,0:3|0:0,0:0:0:0:
440,88,183029,2,0,P|460:71|484:71,1,52.7999983886719,10|0,0:3|0:0,0:0:0:0:
320,248,183205,5,10,0:0:0:0:
312,269,183293,1,2,0:0:0:0:
301,289,183382,1,2,0:0:0:0:
283,303,183470,1,2,0:0:0:0:
261,311,183558,6,0,B|231:315|231:315|257:286,1,61.5999981201172,10|0,0:3|0:0,0:0:0:0:
291,138,183734,6,0,B|277:110|277:110|313:126,1,61.5999981201172,10|0,0:0|0:0,0:0:0:0:
464,113,183911,6,0,B|485:92|485:92|481:130,1,61.5999981201172,10|0,0:3|0:0,0:0:0:0:
251,291,184970,6,0,P|186:273|79:283,2,158.399995166016,14|8|0,0:1|0:1|0:0,0:0:0:0:
320,326,186249,5,2,0:0:0:0:
320,326,186382,2,0,P|367:347|419:356,1,105.599996777344,10|0,0:1|0:0,0:0:0:0:
424,344,186911,2,0,P|372:334|324:313,1,105.599996777344,10|0,0:1|0:0,0:0:0:0:
316,243,187440,2,0,P|329:219|332:185,1,52.7999983886719,10|0,0:0|0:0,0:0:0:0:
289,120,187793,6,0,P|217:86|161:31,2,158.399995166016,10|8|0,0:1|0:1|0:0,0:0:0:0:
375,128,189073,5,2,0:0:0:0:
375,128,189205,2,0,P|432:110|499:103,1,105.599996777344,10|0,0:1|0:0,0:0:0:0:
483,118,189734,2,0,P|430:125|380:142,1,105.599996777344,10|0,0:1|0:0,0:0:0:0:
334,201,190264,2,0,P|327:226|312:256,1,52.7999983886719,8|0,0:0|0:0,0:0:0:0:
233,291,190617,6,0,P|173:274|59:267,1,158.399995166016,14|8,0:1|0:1,0:0:0:0:
78,266,191323,2,0,P|58:295|46:337,2,79.1999975830079,2|0|0,0:0|0:0|0:0,0:0:0:0:
139,197,192029,6,0,P|163:126|163:36,1,158.399995166016,10|8,0:1|0:1,0:0:0:0:
108,2,192734,2,0,P|71:34|-4:41,1,105.599996777344,2|8,0:0|0:0,0:0:0:0:
197,116,193440,6,0,P|212:178|298:211,2,158.399995166016,10|8|0,0:1|0:1|0:0,0:0:0:0:
46,235,194852,5,10,0:1:0:0:
46,235,195029,2,0,P|18:254|-11:258,1,52.7999983886719,2|0,0:0|0:0,0:0:0:0:
71,309,195381,2,0,P|109:339|172:336,1,105.599996777344,10|0,0:1|0:0,0:0:0:0:
221,291,195911,2,0,P|224:269|237:237,1,52.7999983886719,10|0,0:0|0:0,0:0:0:0:
330,150,196264,6,0,B|366:167|406:149|406:149|401:104|363:83,1,158.399995166016,14|8,0:1|0:0,0:0:0:0:
330,150,196793,1,2,0:0:0:0:
406,220,196970,2,0,P|415:185|400:140,1,79.1999975830079,10|0,0:1|0:0,0:0:0:0:
316,258,197323,1,10,0:0:0:0:
357,348,197499,1,2,0:0:0:0:
226,315,197676,6,0,B|187:311|153:339|153:339|137:299|92:280,1,158.399995166016,10|8,0:1|0:0,0:0:0:0:
23,262,198205,1,10,0:1:0:0:
148,214,198381,2,0,P|190:152|162:71,1,158.399995166016,2|8,0:0|0:0,0:0:0:0:
40,18,198911,5,2,0:0:0:0:
40,18,198970,1,2,0:0:0:0:
40,18,199029,1,2,0:0:0:0:
40,18,199087,2,0,P|-2:80|26:161,1,158.399995166016,10|8,0:1|0:0,0:0:0:0:
148,214,199617,2,0,B|188:228|188:228|149:190,1,79.1999975830079,2|8,0:0|0:1,0:0:0:0:
20,155,199970,1,10,0:1:0:0:
63,249,200146,1,10,0:0:0:0:
0,332,200323,1,2,0:0:0:0:
127,366,200499,6,0,B|217:338|185:396|281:370,1,158.399995166016,10|8,0:1|0:0,0:0:0:0:
353,248,201029,2,0,P|343:209|349:171,1,79.1999975830079,10|0,0:1|0:0,0:0:0:0:
495,255,201381,2,0,P|501:293|491:331,1,79.1999975830079,10|8,0:1|0:0,0:0:0:0:
287,377,201734,5,2,0:0:0:0:
287,377,201823,1,2,0:0:0:0:
287,377,201911,1,14,0:1:0:0:
353,248,202087,1,2,0:0:0:0:
215,284,202264,1,10,0:0:0:0:
312,176,202440,1,2,0:0:0:0:
177,170,202617,1,10,0:1:0:0:
291,95,202793,1,10,0:1:0:0:
153,57,202970,1,10,0:0:0:0:
316,0,203146,5,2,0:0:0:0:
316,0,203323,2,0,B|348:43|393:33|393:33|401:13|429:-5,1,118.799996374512,10|0,0:1|0:0,0:0:0:0:
421,5,203676,1,8,0:0:0:0:
510,115,203852,2,0,P|513:75|500:38,1,79.1999975830079,10|0,0:1|0:0,0:0:0:0:
346,136,204205,1,10,0:1:0:0:
346,136,204293,1,2,0:0:0:0:
346,136,204381,2,0,P|343:175|356:212,1,79.1999975830079,10|0,0:0|0:0,0:0:0:0:
512,337,204734,5,14,0:1:0:0:
493,243,204911,1,2,0:0:0:0:
490,238,204970,1,2,0:0:0:0:
487,233,205029,1,2,0:0:0:0:
484,228,205087,1,10,0:0:0:0:
393,293,205264,5,14,0:1:0:0:
431,145,205440,1,2,0:0:0:0:
280,203,205617,6,0,B|306:203|306:203|318:213|318:213|362:218,1,79.1999975830079,10|8,0:0|0:3,0:0:0:0:
237,44,205970,5,10,0:1:0:0:
78,313,206323,5,10,0:1:0:0:
0,58,206676,5,10,0:1:0:0:
187,249,207029,6,0,B|237:286|334:296|455:220|456:95|321:3|222:129|273:236|380:230,1,514.799976434327,14|0,0:1|0:0,0:0:0:0:
376,231,208970,6,0,P|440:250|498:285,2,126.72000309375,2|0|0,0:0|0:0|0:0,0:0:0:0:
236,248,211617,5,0,0:0:0:0:
236,248,211793,2,0,P|185:276|52:289,1,190.080004640625,2|0,0:0|0:0,0:0:0:0:
209,72,213205,5,2,0:0:0:0:
224,68,213293,1,2,0:0:0:0:
240,71,213381,1,2,0:0:0:0:
253,79,213470,1,2,0:0:0:0:
263,92,213558,1,2,0:0:0:0:
271,104,213646,1,2,0:0:0:0:
285,113,213734,1,2,0:0:0:0:
301,115,213823,1,2,0:0:0:0:
317,112,213911,6,0,L|329:78,1,26.399999194336,10|0,0:1|0:0,0:0:0:0:
511,234,214264,6,0,L|501:261,1,28.599998690796,10|0,0:1|0:0,0:0:0:0:
252,355,214617,6,0,B|113:296|142:420|-2:358,1,264.000010070801,14|8,0:1|0:0,0:0:0:0:
182,159,215146,6,0,P|193:226|261:236,1,145.200004431152,10|0,0:1|0:0,0:0:0:0:
274,231,215499,1,10,0:1:0:0:
218,73,215676,1,10,0:0:0:0:
97,191,215852,1,2,0:0:0:0:
97,191,215940,1,2,0:0:0:0:
97,191,216029,1,10,0:1:0:0:
130,15,216205,5,2,0:0:0:0:
182,159,216381,1,10,0:0:0:0:
328,105,216558,2,0,B|386:69|361:-5|361:-5|338:1|330:33,1,158.399995166016,10|0,0:1|0:0,0:0:0:0:
331,30,216911,5,10,0:1:0:0:
393,174,217087,1,10,0:0:0:0:
486,48,217264,1,2,0:0:0:0:
311,211,217440,5,14,0:1:0:0:
404,85,217617,1,2,0:0:0:0:
466,229,217793,1,10,0:0:0:0:
373,355,217970,1,2,0:0:0:0:
311,211,218146,5,10,0:1:0:0:
322,216,218234,2,0,B|345:224|345:224|334:197,1,44,8|0,0:0|0:0,0:0:0:0:
230,116,218411,5,10,0:1:0:0:
219,121,218499,2,0,B|196:129|196:129|207:102,1,44,10|0,0:0|0:0,0:0:0:0:
305,22,218676,6,0,L|338:19,1,26.399999194336,10|0,0:3|0:0,0:0:0:0:
79,121,219029,6,0,L|46:124,1,30.7999990600586,14|0,0:0|0:0,0:0:0:0:
355,212,219381,6,0,L|391:208,1,35.2,10|0,0:0|0:0,0:0:0:0:
87,355,219734,6,0,L|50:358,1,20.8999994419098,10|2,0:1|0:0,0:0:0:0:
83,343,219823,6,0,L|46:336,1,22,2|2,0:0|0:0,0:0:0:0:
82,330,219911,6,0,L|48:313,1,23.099999295044,10|2,0:0|0:0,0:0:0:0:
84,317,219999,6,0,L|55:292,1,24.2000007385254,2|2,0:0|0:0,0:0:0:0:
90,305,220087,6,0,L|68:273,1,25.3000004825592,2|2,0:0|0:0,0:0:0:0:
98,294,220176,6,0,L|85:258,1,28.599998690796,2|2,0:0|0:0,0:0:0:0:
108,285,220264,6,0,B|117:328|174:346|174:346|198:293|172:256,1,190.080004640625,14|0,0:1|0:0,0:0:0:0:
110,205,220617,1,10,0:0:0:0:
210,86,220793,6,0,B|226:72|223:54|223:54|197:57|181:93,1,96.8000029541017,2|8,0:0|0:1,0:0:0:0:
108,285,221146,2,0,B|91:321|65:324|65:324|62:306|79:292,1,96.8000029541017,2|8,0:0|0:0,0:0:0:0:
270,160,221499,5,10,0:1:0:0:
270,160,221587,1,2,0:1:0:0:
270,160,221676,1,2,0:1:0:0:
348,306,221852,1,8,0:1:0:0:
414,176,222029,1,8,0:0:0:0:
495,358,222205,6,0,B|516:388|516:388|551:323|495:266,1,171.599992144776,2|0,0:1|0:0,0:0:0:0:
484,255,222558,5,10,0:1:0:0:
334,318,222734,1,10,0:0:0:0:
414,176,222911,1,2,0:0:0:0:
355,24,223087,5,10,0:1:0:0:
275,166,223264,1,2,0:0:0:0:
275,166,223352,1,2,0:0:0:0:
275,166,223440,1,8,0:0:0:0:
441,206,223617,6,0,B|455:211|475:206|475:206|457:178|415:176,1,105.599996777344,2|8,0:0|0:1,0:0:0:0:
275,166,223970,1,10,0:1:0:0:
334,318,224146,1,10,0:0:0:0:
194,368,224323,5,10,0:1:0:0:
194,368,224411,1,2,0:0:0:0:
194,368,224499,1,2,0:0:0:0:
242,282,224676,1,8,0:1:0:0:
334,318,224852,1,8,0:0:0:0:
235,182,225029,5,8,0:2:0:0:
235,182,225117,1,8,0:2:0:0:
235,182,225205,2,0,B|214:226|163:218|163:218|161:177|127:151,1,158.399995166016,10|0,0:1|0:0,0:0:0:0:
90,232,225558,6,0,B|108:258|147:252|147:252|180:198|132:155,1,171.599992144776,10|0,0:0|0:0,0:0:0:0:
305,148,225911,6,0,B|285:176|242:169|242:169|207:111|259:64,1,184.799994360352,14|0,0:1|0:0,0:0:0:0:
273,57,226264,1,10,0:0:0:0:
416,161,226440,6,0,B|431:178|452:179|452:179|451:140|428:107|378:90,1,158.399995166016,14|0,0:1|0:0,0:0:0:0:
369,87,226793,1,2,0:0:0:0:
319,254,226970,1,10,0:3:0:0:
423,168,227146,1,2,0:0:0:0:
423,168,227234,1,2,0:0:0:0:
423,168,227323,1,14,0:1:0:0:
240,184,227499,5,2,0:0:0:0:
304,354,227676,1,10,0:0:0:0:
474,297,227852,2,0,B|497:279|510:257|510:257|523:153|465:91,1,228.799989526368,14|0,0:1|0:0,0:0:0:0:
266,137,228381,6,0,B|259:167|232:171|232:171|233:147|250:136,1,88,10|0,0:3|0:0,0:0:0:0:
338,0,228734,5,14,0:1:0:0:
397,153,228911,1,10,0:1:0:0:
240,212,229087,1,10,0:0:0:0:
180,57,229264,1,10,0:0:0:0:
374,72,229440,6,0,P|394:66|416:33,1,52.7999983886719,10|0,0:3|0:0,0:0:0:0:
180,57,229617,2,0,P|164:42|125:40,1,52.7999983886719,10|0,0:3|0:0,0:0:0:0:
264,232,229793,5,10,0:0:0:0:
265,254,229881,1,2,0:0:0:0:
269,276,229970,1,2,0:0:0:0:
282,294,230058,1,2,0:0:0:0:
300,308,230146,6,0,B|313:319|333:316|333:316|327:301|312:300,1,61.5999981201172,10|0,0:3|0:0,0:0:0:0:
127,330,230323,6,0,B|120:345|129:363|129:363|142:353|138:338,1,61.5999981201172,10|0,0:0|0:0,0:0:0:0:
53,171,230499,6,0,B|36:169|21:183|21:183|35:192|47:184,1,61.5999981201172,10|0,0:3|0:0,0:0:0:0:
337,311,231381,5,2,0:0:0:0:
337,311,231470,1,2,0:0:0:0:
337,311,231558,2,0,B|391:296|427:343|427:343|419:309,1,132,14|0,0:1|0:0,0:0:0:0:
420,314,231911,2,0,B|434:361|434:361|459:370|473:352,1,88,8|0,0:0|0:0,0:0:0:0:
510,193,232264,1,10,0:1:0:0:
446,241,232440,1,8,0:1:0:0:
364,164,232617,2,0,P|373:122|352:78,1,88,8|0,0:0|0:0,0:0:0:0:
183,5,232970,6,0,B|176:54|145:92|96:88|96:88|97:60|119:43,1,176,10|8,0:1|0:0,0:0:0:0:
183,5,233499,1,8,0:1:0:0:
179,151,233676,1,2,0:0:0:0:
105,180,233852,1,8,0:1:0:0:
199,314,234029,2,0,P|199:268|217:229,1,88,8|0,0:0|0:0,0:0:0:0:
339,124,234381,6,0,B|384:167|436:149|436:149|429:135|415:133,1,132,10|0,0:1|0:0,0:0:0:0:
417,134,234734,2,0,P|391:170|392:215,1,88,8|0,0:0|0:0,0:0:0:0:
424,314,235087,1,10,0:1:0:0:
496,344,235264,1,8,0:1:0:0:
391,212,235440,2,0,P|355:186|310:187,1,88,8|0,0:0|0:0,0:0:0:0:
171,267,235793,6,0,B|179:308|163:343|133:357|133:357|118:352|109:339,1,132,10|0,0:1|0:0,0:0:0:0:
111,342,236146,2,0,P|92:298|97:257,1,88,8|8,0:0|0:1,0:0:0:0:
155,143,236499,5,2,0:0:0:0:
224,178,236676,1,10,0:1:0:0:
259,109,236852,1,10,0:0:0:0:
190,73,237029,1,2,0:0:0:0:
300,177,237205,6,0,B|333:198|385:184|385:184|383:139|337:115,1,176,14|8,0:1|0:0,0:0:0:0:
218,191,237734,2,0,P|202:229|215:277,1,88,2|8,0:0|0:1,0:0:0:0:
372,373,238087,1,2,0:0:0:0:
372,373,238176,1,2,0:0:0:0:
372,373,238264,2,0,P|388:335|375:287,1,88,10|0,0:0|0:0,0:0:0:0:
218,191,238617,6,0,B|173:207|133:189|133:189|120:144|75:125,1,176,10|8,0:1|0:0,0:0:0:0:
137,231,239146,1,10,0:1:0:0:
76,125,239323,2,0,P|47:118|-11:132,1,88,2|8,0:0|0:1,0:0:0:0:
218,191,239676,2,0,P|247:198|305:184,1,88,10|0,0:0|0:0,0:0:0:0:
467,53,240029,6,0,B|456:101|393:122|393:122|372:59|403:22,1,211.199993554688,14|8,0:1|0:0,0:0:0:0:
218,191,240558,2,0,B|228:239|291:260|291:260|312:197|281:160,1,211.199993554688,14|8,0:1|0:0,0:0:0:0:
160,49,241087,5,14,0:1:0:0:
106,144,241264,1,2,0:0:0:0:
106,144,241352,1,2,0:0:0:0:
106,144,241440,1,10,0:0:0:0:
62,7,241617,5,14,0:1:0:0:
106,144,241793,1,2,0:0:0:0:
160,49,241970,1,10,0:0:0:0:
279,192,242146,6,0,B|309:212|338:207|338:207|343:173|376:152,1,123.199996240234,10|0,0:1|0:0,0:0:0:0:
381,153,242411,1,8,0:1:0:0:
391,152,242499,1,10,0:0:0:0:
307,85,242676,1,2,0:0:0:0:
401,150,242852,6,0,B|441:188|496:165|496:165|466:143,1,132,14|0,0:1|0:0,0:0:0:0:
472,147,243205,2,0,B|497:165|497:165|499:126|476:103,1,88,8|0,0:0|0:0,0:0:0:0:
350,19,243558,1,10,0:1:0:0:
307,85,243734,1,8,0:1:0:0:
203,30,243911,2,0,P|161:17|117:20,1,88,10|0,0:0|0:0,0:0:0:0:
204,144,244264,6,0,B|145:168|129:240|129:240|143:268|176:281,1,176,10|8,0:1|0:0,0:0:0:0:
204,144,244793,1,8,0:1:0:0:
94,236,244970,1,2,0:0:0:0:
19,263,245146,1,8,0:1:0:0:
124,342,245323,2,0,B|158:346|158:346|167:354|167:354|215:362,1,88,8|0,0:0|0:0,0:0:0:0:
320,313,245676,6,0,B|298:282|303:237|329:212|329:212|337:235|323:259,1,132,10|0,0:1|0:0,0:0:0:0:
332,234,246029,2,0,P|277:233|241:203,1,88,8|0,0:0|0:0,0:0:0:0:
162,106,246381,5,10,0:1:0:0:
237,130,246558,1,10,0:1:0:0:
261,54,246734,1,10,0:0:0:0:
186,30,246911,1,2,0:0:0:0:
83,107,247087,6,0,B|26:144|35:218|35:218|48:238|77:257,1,176,10|8,0:1|0:0,0:0:0:0:
186,324,247617,1,10,0:1:0:0:
285,243,247793,2,0,P|295:199|269:146,1,88,2|8,0:0|0:1,0:0:0:0:
273,148,248058,1,2,0:0:0:0:
265,137,248146,2,0,P|251:95|261:53,1,88,10|2,0:0|0:0,0:0:0:0:
483,1,248499,6,0,P|464:72|418:46,1,132,14|0,0:1|0:0,0:0:0:0:
416,51,248852,1,10,0:0:0:0:
387,183,249029,1,2,0:0:0:0:
387,183,249117,1,2,0:0:0:0:
387,183,249205,2,0,B|396:206|423:210|423:210|426:187|406:173,1,88,10|0,0:1|0:0,0:0:0:0:
264,274,249558,2,0,B|255:297|228:301|228:301|225:278|245:264,1,88,8|0,0:0|0:0,0:0:0:0:
406,342,249911,6,0,B|433:384|502:379|512:357|512:357|517:334|501:304,1,176,10|8,0:1|0:0,0:0:0:0:
396,159,250440,1,10,0:1:0:0:
316,266,250617,1,2,0:0:0:0:
386,134,250793,1,10,0:1:0:0:
246,203,250970,1,10,0:0:0:0:
381,108,251146,1,2,0:0:0:0:
226,9,251323,6,0,B|209:64|234:111|287:122|287:122|315:92|303:54,1,211.199993554688,14|8,0:1|0:0,0:0:0:0:
490,127,251852,6,0,B|508:186|480:236|424:248|424:248|395:216|407:175,1,228.799989526368,14|8,0:1|0:0,0:0:0:0:
220,242,252381,6,0,B|199:301|228:354|287:367|287:367|319:333|306:290,1,246.399992480469,14|8,0:1|0:0,0:0:0:0:
171,121,252911,6,0,B|174:175|138:213|85:210|85:210|67:175|87:142,1,211.199993554688,14|0,0:1|0:0,0:0:0:0:
295,22,253440,6,0,B|291:72|324:108|374:105|374:105|391:72|372:41,1,193.600005908203,10|6,0:3|0:3,0:0:0:0:
295,22,254146,5,2,0:0:0:0:
280,109,254676,5,2,0:0:0:0:
232,195,255205,5,2,0:0:0:0:
133,240,255734,5,2,0:0:0:0:
9,248,256264,5,10,0:3:0:0:
284,364,256617,5,2,0:0:0:0:
284,364,256705,1,2,0:0:0:0:
284,364,256793,1,2,0:0:0:0:
284,364,256881,1,2,0:0:0:0:
284,364,256970,2,0,B|328:398|380:363|380:363|377:322|339:306,1,176,14|8,0:1|0:0,0:0:0:0:
208,264,257499,6,0,B|154:303|97:265|97:265|103:225|137:205,1,193.600005908203,14|8,0:1|0:0,0:0:0:0:
348,176,258029,6,0,B|397:231|468:188|468:188|460:144|422:128,1,211.199993554688,14|8,0:1|0:0,0:0:0:0:
249,53,258558,6,0,B|190:113|115:68|115:68|127:24|170:8,1,228.799989526368,14|8,0:1|0:0,0:0:0:0:
423,128,259087,6,0,B|429:146|458:146|458:146|476:103|456:49|407:23,1,176,10|6,0:3|1:3,0:0:0:0:
