osu file format v14

[General]
AudioFilename: pray.ogg
AudioLeadIn: 0
PreviewTime: 52850
Countdown: 0
SampleSet: Soft
StackLeniency: 0.7
Mode: 0
LetterboxInBreaks: 0
WidescreenStoryboard: 1

[Editor]
Bookmarks: 5264,75092,83023,91298
DistanceSpacing: 1
BeatDivisor: 4
GridSize: 32
TimelineZoom: 2.000001

[Metadata]
Title:pray
TitleUnicode:pray
Artist:Shimotsuki Haruka
ArtistUnicode:霜月はるか
Creator:Hakusui Sama
Version:surac's insane
Source:れじぇくろ! ~レジェンド・クローバー~
Tags:Japanese JP Jpop J-pop pop Techcross Sound Corps Legeclo! ~Legend Clover~ Eroge OP Opening Short Version Hakusui3820 Teages kanpakyin Surac Mimiliaa Hojo Karen Hitsukuya Suzuhara Lulu Mimilie dahkjdas
BeatmapID:3880788
BeatmapSetID:1864352

[Difficulty]
HPDrainRate:5.5
CircleSize:3.8
OverallDifficulty:7.5
ApproachRate:9
SliderMultiplier:1.4
SliderTickRate:1

[Events]
//Background and Video events
0,0,"BG.jpg",0,0
Video,0,"OP.mp4"
//Break Periods
//Storyboard Layer 0 (Background)
//Storyboard Layer 1 (Fail)
//Storyboard Layer 2 (Pass)
//Storyboard Layer 3 (Foreground)
//Storyboard Layer 4 (Overlay)
//Storyboard Sound Samples

[TimingPoints]
-770,344.827586206897,4,2,1,60,1,0
609,-125,4,2,2,40,0,0
3367,-166.666666666667,4,2,2,40,0,0
4402,-166.666666666667,4,2,2,20,0,0
4747,-250,4,2,2,40,0,0
5264,-250,4,2,2,20,0,0
5436,-250,4,2,2,40,0,0
6126,-111.111111111111,4,2,1,50,0,0
17161,-100,4,2,1,60,0,0
28195,-83.3333333333333,4,2,1,70,0,0
30954,-90.9090909090909,4,2,1,70,0,0
41988,-111.111111111111,4,2,1,50,0,0
47505,-100,4,2,1,50,0,0
50264,-100,4,2,1,60,0,0
51643,-90.9090909090909,4,2,1,70,0,0
53023,-83.3333333333333,4,2,1,80,0,1
80609,-83.3333333333333,4,2,1,90,0,1
88712,-138.888888888889,4,2,1,80,0,0
90982,-111.111111111111,4,2,1,70,0,0
91298,-111.111111111111,4,2,99,10,0,0

[Colours]
Combo1 : 191,191,191
Combo2 : 255,217,128
Combo3 : 128,191,255
Combo4 : 255,128,191
Combo5 : 191,128,255

[HitObjects]
210,108,609,6,0,P|212:81|217:52,3,56,2|0|0|0,0:0|0:0|0:0|0:0,0:0:0:0:
136,174,1298,2,0,P|108:168|80:166,1,56
50,275,1643,1,0,0:0:0:0:
50,275,1988,6,0,P|104:266|166:260,1,112,2|0,0:0|0:0,0:0:0:0:
281,233,2678,1,0,0:0:0:0:
397,329,3023,1,0,0:0:0:0:
449,187,3367,6,0,B|467:177|470:156|466:141|424:128|402:138|388:149|370:161|363:204|363:204|344:164|305:151,1,251.999992309571,2|0,0:0|0:0,0:0:0:0:
196,24,4747,6,0,P|204:80|207:114,1,84,2|0,0:0|0:0,0:0:0:0:
147,184,5436,1,0,0:0:0:0:
147,184,5609,1,0,0:0:0:0:
61,137,5781,1,0,0:0:0:0:
61,137,5954,1,0,0:0:0:0:
57,306,6126,6,0,P|115:270|183:298,1,125.999996154785,4|0,0:0|0:0,0:0:0:0:
340,338,6816,2,0,B|424:325|391:377|481:360,1,125.999996154785,2|0,0:0|0:0,0:0:0:0:
495,183,7333,6,0,P|446:225|456:288,1,125.999996154785,2|0,0:0|0:0,0:0:0:0:
341,150,8023,2,0,B|346:128|369:121|369:121|326:96|274:107|274:107|257:132|225:139,1,188.999994232178,2|0,0:0|0:0,0:0:0:0:
160,50,8712,1,0,0:0:0:0:
74,120,8885,6,0,B|48:115|23:92|23:92|29:148|29:148|38:156|38:156|44:227,1,188.999994232178,2|0,0:0|0:0,0:0:0:0:
99,346,9574,2,0,P|149:311|209:323,1,125.999996154785,2|0,0:0|0:0,0:0:0:0:
334,215,10092,1,0,0:0:0:0:
261,121,10264,6,0,B|207:175|239:247|239:247|266:260|278:281,1,188.999994232178,2|0,0:0|0:0,0:0:0:0:
363,361,10954,1,0,0:0:0:0:
363,361,11126,1,0,0:0:0:0:
423,238,11298,2,0,P|386:218|341:226,1,62.9999980773926,2|0,0:0|0:0,0:0:0:0:
506,122,11643,6,0,P|500:159|496:199,2,62.9999980773926,2|0|0,0:0|0:0|0:0,0:0:0:0:
378,133,12161,1,0,0:0:0:0:
421,41,12333,2,0,B|366:34|366:34|347:47|347:47|294:40,1,125.999996154785,2|0,0:0|0:0,0:0:0:0:
163,163,12850,2,0,P|120:161|85:132,1,62.9999980773926
212,24,13195,2,0,P|232:61|224:106,1,62.9999980773926
107,31,13540,2,0,B|61:2|-10:24|-1:80|-1:80|22:95|28:127,1,188.999994232178,2|0,0:0|0:0,0:0:0:0:
0,215,14230,1,0,0:0:0:0:
36,323,14402,6,0,B|75:336|114:317|114:317|138:334|138:334|183:315|225:324,1,188.999994232178,2|0,0:0|0:0,0:0:0:0:
296,170,15092,2,0,B|252:207|264:256|264:256|284:271|287:293,1,125.999996154785,2|0,0:0|0:0,0:0:0:0:
411,239,15609,1,0,0:0:0:0:
478,97,15781,6,0,B|484:49|426:25|426:25|375:63|400:115,1,188.999994232178,2|0,0:0|0:0,0:0:0:0:
296,170,16471,2,0,P|253:168|218:139,1,62.9999980773926,2|0,0:0|0:0,0:0:0:0:
210,58,16816,1,8,0:0:0:0:
210,58,16902,1,8,0:0:0:0:
210,58,16988,1,8,2:3:0:0:
57,150,17161,6,0,P|68:229|75:299,1,140,12|0,2:1|0:0,0:0:0:0:
171,352,17678,2,0,B|258:340|222:391|326:372,1,140,2|0,0:0|0:0,0:0:0:0:
403,270,18195,6,0,P|338:251|284:292,2,140,2|8|0,0:0|2:1|0:0,0:0:0:0:
403,270,19230,2,0,P|397:230|391:176,1,70,2|0,0:0|0:0,0:0:0:0:
510,116,19574,2,0,P|504:155|498:209,1,70,2|8,0:0|2:1,0:0:0:0:
379,80,19919,6,0,B|291:51|291:51|239:85,1,140,8|0,2:1|0:0,0:0:0:0:
226,187,20436,2,0,P|265:181|319:175,1,70,2|0,0:0|0:0,0:0:0:0:
164,69,20781,2,0,P|124:63|70:57,1,70,2|0,0:0|0:0,0:0:0:0:
54,183,21126,1,0,0:0:0:0:
128,231,21298,6,0,B|144:194|144:194|127:146,2,70,8|0|0,2:1|0:0|0:0,0:0:0:0:
108,384,21816,1,2,0:0:0:0:
39,352,21988,2,0,B|86:350|131:341|131:341|160:366|160:366|203:356|264:353,1,210,0|8,0:0|2:1,0:0:0:0:
302,192,22678,6,0,B|275:234|278:286|278:286|304:298|312:326,1,140,8|2,2:1|0:0,0:0:0:0:
488,275,23195,2,0,B|452:289|432:316|432:316|425:284|399:252,1,140,2|0,0:0|0:0,0:0:0:0:
501,155,23712,1,0,0:0:0:0:
405,96,23885,2,0,B|276:76|352:174|165:146,1,210,2|0,0:0|0:0,0:0:0:0:
212,151,24747,2,0,P|172:144|124:140,1,70,2|0,0:0|0:0,0:0:0:0:
179,41,25092,2,0,P|218:34|266:30,1,70,2|8,0:0|2:1,0:0:0:0:
51,41,25436,6,0,B|10:18|10:18|22:124,1,140,8|0,2:1|0:0,0:0:0:0:
24,243,25954,2,0,B|31:277|68:295|68:295|107:267|99:222,1,140,2|0,0:0|0:0,0:0:0:0:
181,158,26471,1,0,0:0:0:0:
183,295,26643,6,0,B|220:273|269:291|269:291|299:279|331:287,1,140,2|0,0:0|0:0,0:0:0:0:
409,315,27161,2,0,P|403:354|397:408,1,70,2|0,0:0|0:0,0:0:0:0:
494,238,27505,2,0,P|488:199|482:145,1,70,8|0,2:1|0:0,0:0:0:0:
482,136,27764,1,8,0:0:0:0:
482,136,27850,2,0,L|474:76,2,35,8|8|4,0:0|0:0|2:3,0:0:0:0:
348,50,28195,5,12,2:1:0:0:
377,195,28367,1,0,0:0:0:0:
339,14,28540,2,0,P|291:18|228:27,1,83.9999974365235,8|0,0:0|0:0,0:0:0:0:
189,189,28885,2,0,P|237:193|299:202,1,83.9999974365235,8|0,2:1|0:0,0:0:0:0:
111,47,29230,2,0,P|69:41|27:38,1,83.9999974365235,8|0,0:0|0:0,0:0:0:0:
36,142,29574,5,12,2:1:0:0:
186,109,29747,1,8,0:0:0:0:
260,293,29919,1,8,2:3:0:0:
104,255,30092,1,4,2:3:0:0:
273,95,30264,1,4,2:3:0:0:
273,95,30350,1,8,0:0:0:0:
273,95,30436,1,4,2:3:0:0:
114,136,30609,1,8,2:3:0:0:
193,237,30781,1,4,2:3:0:0:
59,380,30954,6,0,P|139:365|241:357,1,154.000004699707,12|8,2:1|0:0,0:0:0:0:
328,170,31471,2,0,P|285:230|310:300,1,154.000004699707,8|8,2:1|2:1,0:0:0:0:
442,227,31988,2,0,B|398:222|417:246|368:242,1,77.0000023498536,8|0,0:0|0:0,0:0:0:0:
208,178,32333,5,8,2:1:0:0:
229,330,32505,1,0,0:0:0:0:
368,242,32678,1,8,0:0:0:0:
176,180,32850,2,0,B|110:171|110:171|91:185|91:185|7:175,1,154.000004699707,8|8,2:1|2:1,0:0:0:0:
145,62,33367,2,0,P|190:54|249:49,1,77.0000023498536,8|0,0:0|0:0,0:0:0:0:
291,198,33712,6,0,P|274:158|297:110,1,77.0000023498536,8|0,2:1|0:0,0:0:0:0:
476,72,34057,1,8,0:0:0:0:
369,22,34230,2,0,B|405:75|386:124|386:124|362:140|357:159,1,154.000004699707,8|8,2:1|2:1,0:0:0:0:
366,277,34747,1,8,0:0:0:0:
432,193,34919,1,0,0:0:0:0:
307,366,35092,5,8,2:1:0:0:
241,282,35264,1,0,0:0:0:0:
307,198,35436,1,8,0:0:0:0:
176,367,35609,2,0,B|68:353|68:353|101:339|119:302,1,154.000004699707,2|8,0:0|2:1,0:0:0:0:
26,199,36126,2,0,P|33:237|38:276,1,77.0000023498536,8|0,0:0|0:0,0:0:0:0:
168,93,36471,6,0,B|136:74|91:85|73:128|73:128|99:144|104:178,1,154.000004699707,8|8,2:1|0:0,0:0:0:0:
306,231,36988,2,0,B|334:198|369:190|369:190|334:191|296:158,1,154.000004699707,8|8,2:1|2:1,0:0:0:0:
382,33,37505,2,0,B|377:70|377:70|370:76|370:76|367:112,1,77.0000023498536,8|0,0:0|0:0,0:0:0:0:
372,273,37850,5,8,2:1:0:0:
295,78,38023,1,0,0:0:0:0:
459,158,38195,1,8,0:0:0:0:
299,160,38367,2,0,P|215:145|117:137,1,154.000004699707,8|8,2:1|2:1,0:0:0:0:
174,313,38885,2,0,P|191:273|168:225,1,77.0000023498536,8|0,0:0|0:0,0:0:0:0:
23,141,39230,6,0,P|29:178|34:217,1,77.0000023498536,8|0,2:1|0:0,0:0:0:0:
16,370,39574,1,8,0:0:0:0:
174,313,39747,2,0,B|266:294|233:350|326:332,1,154.000004699707,2|8,0:0|2:1,0:0:0:0:
507,290,40264,1,8,0:0:0:0:
401,384,40436,1,0,0:0:0:0:
311,181,40609,5,12,2:1:0:0:
411,290,40781,1,0,0:0:0:0:
311,181,40954,1,8,0:0:0:0:
472,89,41126,2,0,P|402:75|330:71,1,115.50000352478,12|0,2:1|0:0,0:0:0:0:
325,67,41471,5,8,0:0:0:0:
207,35,41643,1,8,0:0:0:0:
105,98,41816,1,4,2:3:0:0:
105,98,41902,1,4,2:3:0:0:
105,98,41988,6,0,B|112:73|97:38|75:25|42:24|21:59|15:90|42:117|65:146|65:146|110:169|118:217|118:217|79:200|41:205,1,377.999988464356,4|0,0:0|0:0,0:0:0:0:
277,271,43367,6,0,B|330:258|334:205|334:205|353:234|328:253|322:299|336:340|390:366|390:366|440:326|421:270,1,377.999988464356,2|0,0:0|0:0,0:0:0:0:
443,80,44747,6,0,P|464:131|419:182,1,125.999996154785,2|0,0:0|0:0,0:0:0:0:
314,81,45436,2,0,B|239:65|268:122|169:99,1,125.999996154785,2|0,0:0|0:0,0:0:0:0:
33,170,46126,6,0,B|-1:150|-1:150|9:239,1,125.999996154785,2|0,0:0|0:0,0:0:0:0:
36,321,46643,2,0,B|83:266|161:285|161:285|177:315|215:324,1,188.999994232178,2|0,0:0|0:0,0:0:0:0:
301,241,47505,6,0,P|267:236|233:244,2,70,12|0|0,2:1|0:0|0:0,0:0:0:0:
364,178,48023,2,0,P|336:156|303:146,2,70,2|0|0,0:0|0:0|0:0,0:0:0:0:
345,61,48540,1,2,0:0:0:0:
345,61,48712,1,8,2:1:0:0:
221,99,48885,5,8,2:1:0:0:
221,99,49230,2,0,L|138:109,1,70,2|0,0:0|0:0,0:0:0:0:
57,225,49574,2,0,L|89:148,1,70,2|0,0:0|0:0,0:0:0:0:
29,19,49919,2,0,L|79:85,1,70,2|8,0:0|2:1,0:0:0:0:
163,217,50264,6,0,B|224:211|224:211|240:195|240:195|311:188,1,140,12|0,2:1|0:0,0:0:0:0:
295,189,50781,1,0,0:0:0:0:
466,239,50954,6,0,B|485:168|485:168|453:104,1,140,12|0,2:1|0:0,0:0:0:0:
455,108,51471,1,0,0:0:0:0:
371,126,51643,5,12,2:1:0:0:
512,0,51816,1,0,0:0:0:0:
338,9,51988,2,0,P|294:2|251:-1,1,77.0000023498536,8|0,0:0|0:0,0:0:0:0:
119,0,52333,1,12,2:1:0:0:
123,37,52419,1,8,0:0:0:0:
128,75,52505,1,8,2:3:0:0:
132,113,52592,1,4,2:3:0:0:
137,150,52678,2,0,L|142:194,1,38.5000011749268,8|8,0:0|2:3,0:0:0:0:
10,240,52850,2,0,L|5:284,1,38.5000011749268,4|4,2:3|2:3,0:0:0:0:
124,354,53023,6,0,B|172:319|239:325|239:325|259:352|295:358,1,167.999994873047,12|8,2:1|0:0,0:0:0:0:
369,359,53540,2,0,P|411:352|460:347,1,83.9999974365235,2|8,0:0|2:1,0:0:0:0:
482,186,53885,1,2,0:0:0:0:
307,232,54057,1,8,0:0:0:0:
460,71,54230,6,0,B|411:33|411:33|291:66,1,167.999994873047,8|0,2:1|0:0,0:0:0:0:
174,108,54747,2,0,P|132:100|67:94,1,83.9999974365235,8|0,0:0|0:0,0:0:0:0:
190,263,55092,2,0,B|217:220|217:220|182:174,1,83.9999974365235,2|8,0:0|2:1,0:0:0:0:
75,362,55436,2,0,P|108:338|150:339,1,83.9999974365235,8|0,0:0|0:0,0:0:0:0:
300,357,55781,6,0,P|375:346|449:338,1,125.999996154785,8|0,2:1|0:0,0:0:0:0:
503,367,56126,2,0,P|504:322|483:279,1,83.9999974365235,8|0,0:0|0:0,0:0:0:0:
332,154,56471,1,8,2:1:0:0:
397,258,56643,1,0,0:0:0:0:
506,170,56816,2,0,P|472:146|428:145,1,83.9999974365235,8|8,0:0|2:1,0:0:0:0:
312,21,57161,6,0,P|356:64|344:126,1,125.999996154785,2|0,0:0|0:0,0:0:0:0:
332,154,57505,1,8,0:0:0:0:
201,87,57678,2,0,P|114:73|14:64,1,167.999994873047,2|8,0:0|2:1,0:0:0:0:
103,219,58195,2,0,P|139:188|143:146,1,83.9999974365235,8|0,0:0|0:0,0:0:0:0:
0,196,58540,6,0,B|5:254|5:254|13:259|13:259|19:329,1,125.999996154785,12|0,2:1|0:0,0:0:0:0:
21,349,58885,1,8,0:0:0:0:
188,258,59057,1,2,0:0:0:0:
105,218,59230,1,8,2:1:0:0:
205,372,59402,1,0,0:0:0:0:
331,189,59574,6,0,P|287:232|299:294,1,125.999996154785,8|0,0:0|0:0,0:0:0:0:
372,337,59919,2,0,B|414:331|414:331|418:325|418:325|462:319,1,83.9999974365235,4|8,0:0|2:1,0:0:0:0:
438,140,60264,2,0,P|471:116|513:117,1,83.9999974365235,8|0,0:0|0:0,0:0:0:0:
301,30,60609,2,0,P|334:54|376:53,1,83.9999974365235,2|8,0:0|2:1,0:0:0:0:
331,189,60954,2,0,B|293:177|293:177|271:186|271:186|242:174|205:175,1,125.999996154785,8|0,0:0|0:0,0:0:0:0:
178,165,61298,5,12,2:1:0:0:
194,26,61471,1,0,0:0:0:0:
35,133,61643,2,0,P|42:175|47:224,1,83.9999974365235,8|0,0:0|0:0,0:0:0:0:
175,332,61988,1,12,2:1:0:0:
0,355,62161,1,0,0:0:0:0:
209,327,62333,2,0,B|251:321|251:321|255:315|255:315|299:309,1,83.9999974365235,8|0,0:0|0:0,0:0:0:0:
436,184,62678,5,12,2:1:0:0:
387,384,62850,1,8,2:1:0:0:
313,236,63023,1,12,0:0:0:0:
481,322,63195,1,8,2:1:0:0:
277,218,63367,1,8,0:0:0:0:
237,204,63453,1,8,0:0:0:0:
195,209,63539,1,8,0:0:0:0:
159,229,63625,1,8,0:0:0:0:
134,262,63712,2,0,L|127:316,1,41.9999987182618,8|8,0:0|2:3,0:0:0:0:
5,200,63885,2,0,L|-1:145,1,41.9999987182618,4|4,2:3|2:3,0:0:0:0:
82,30,64057,6,0,B|91:84|96:144|96:144|122:121|156:108,1,167.999994873047,12|8,2:1|0:0,0:0:0:0:
264,80,64574,2,0,B|362:60|335:122|437:102,1,167.999994873047,2|0,0:0|0:0,0:0:0:0:
479,0,65092,2,0,P|438:-1|403:22,1,83.9999974365235,8|8,0:0|2:1,0:0:0:0:
342,178,65436,5,2,0:0:0:0:
512,90,65609,1,8,2:1:0:0:
498,277,65781,1,8,0:0:0:0:
311,173,65954,2,0,P|230:160|144:154,1,167.999994873047,2|8,0:0|2:1,0:0:0:0:
168,320,66471,2,0,P|189:293|190:242,1,83.9999974365235,8|0,0:0|0:0,0:0:0:0:
41,154,66816,5,8,2:1:0:0:
112,265,66988,1,0,0:0:0:0:
162,83,67161,1,8,0:0:0:0:
10,248,67333,2,0,P|18:295|21:345,2,83.9999974365235,2|8|8,0:0|2:1|2:1,0:0:0:0:
128,170,67850,2,0,P|202:175|273:185,1,125.999996154785,8|0,0:0|0:0,0:0:0:0:
332,173,68195,6,0,B|344:193|363:200|363:200|340:202|325:219,1,83.9999974365235,2|8,0:0|2:1,0:0:0:0:
407,41,68540,2,0,P|400:83|397:125,1,83.9999974365235,8|0,0:0|0:0,0:0:0:0:
512,41,68885,1,8,2:1:0:0:
307,79,69057,1,8,2:1:0:0:
470,206,69230,1,8,0:0:0:0:
470,206,69316,1,8,2:3:0:0:
470,206,69402,2,0,L|463:255,1,41.9999987182618,4|4,2:3|2:3,0:0:0:0:
325,332,69574,6,0,B|227:312|254:374|152:354,1,167.999994873047,12|8,2:1|0:0,0:0:0:0:
27,213,70092,1,0,0:0:0:0:
189,275,70264,1,8,2:1:0:0:
62,384,70436,1,8,2:1:0:0:
131,217,70609,2,0,P|158:196|209:194,1,83.9999974365235,8|8,0:0|2:1,0:0:0:0:
226,34,70954,6,0,B|238:118|238:118|258:104|285:98,1,125.999996154785,2|0,0:0|0:0,0:0:0:0:
311,99,71298,1,8,0:0:0:0:
132,80,71471,1,2,0:0:0:0:
132,80,71557,1,8,0:0:0:0:
132,80,71643,1,8,2:1:0:0:
246,195,71816,1,8,2:1:0:0:
437,149,71988,2,0,P|424:222|418:298,1,125.999996154785,8|0,0:0|0:0,0:0:0:0:
376,359,72333,6,0,P|311:366|265:296,1,125.999996154785,12|0,2:1|0:0,0:0:0:0:
164,288,72678,2,0,B|182:268|216:270|216:270|198:287|189:316,1,83.9999974365235,8|0,0:0|0:0,0:0:0:0:
282,178,73023,1,12,2:1:0:0:
139,132,73195,1,0,0:0:0:0:
68,278,73367,2,0,P|75:320|78:362,1,83.9999974365235,8|0,0:0|0:0,0:0:0:0:
22,132,73712,5,12,0:0:0:0:
22,132,73798,1,8,0:0:0:0:
22,132,73885,1,8,0:0:0:0:
181,44,74057,5,8,0:0:0:0:
181,44,74143,1,8,0:0:0:0:
181,44,74230,1,8,0:0:0:0:
282,178,74402,5,8,0:0:0:0:
282,178,74488,1,8,0:0:0:0:
282,178,74575,1,8,0:0:0:0:
46,44,74747,6,0,L|102:50,1,41.9999987182618,8|8,0:0|0:0,0:0:0:0:
139,226,74919,2,0,L|195:219,1,41.9999987182618,8|8,0:0|0:0,0:0:0:0:
298,59,75092,6,0,B|344:18|394:36|410:81|410:81|391:102|395:137,1,167.999994873047,12|8,2:1|0:0,0:0:0:0:
486,229,75609,2,0,B|491:263|437:289|437:289|389:249|409:216,1,167.999994873047,2|0,0:0|0:0,0:0:0:0:
315,317,76126,2,0,P|274:310|232:307,1,83.9999974365235,8|8,0:0|2:1,0:0:0:0:
72,221,76471,5,2,0:0:0:0:
154,366,76643,1,8,2:1:0:0:
298,219,76816,1,8,0:0:0:0:
169,124,76988,2,0,B|219:169|202:230|202:230|173:241|163:263,1,167.999994873047,2|8,0:0|2:1,0:0:0:0:
0,122,77505,2,0,P|41:115|83:112,1,83.9999974365235,8|0,0:0|0:0,0:0:0:0:
306,98,77850,6,0,B|294:11|294:11|268:30|224:41,1,125.999996154785,10|0,2:1|0:0,0:0:0:0:
225,40,78195,1,8,0:0:0:0:
195,204,78367,2,0,P|276:191|362:185,1,167.999994873047,2|8,2:1|2:1,0:0:0:0:
425,39,78885,2,0,P|404:66|402:117,1,83.9999974365235,8|8,0:0|2:1,0:0:0:0:
350,273,79230,5,2,0:0:0:0:
500,186,79402,1,8,2:1:0:0:
424,140,79574,1,8,0:0:0:0:
470,345,79747,1,0,0:0:0:0:
350,273,79919,2,0,P|319:268|286:265,2,41.9999987182618,8|8|8,2:1|2:1|2:1,0:0:0:0:
206,361,80264,1,8,0:0:0:0:
206,361,80350,1,8,0:0:0:0:
206,361,80436,1,8,2:3:0:0:
20,242,80609,6,0,B|69:235|69:235|72:241|72:241|118:236,1,83.9999974365235,14|8,1:2|2:1,0:0:0:0:
163,144,80954,1,10,1:2:0:0:
211,266,81126,1,8,2:1:0:0:
312,67,81298,2,0,B|277:39|277:39|235:45,1,83.9999974365235,10|8,1:2|2:1,0:0:0:0:
16,158,81643,2,0,L|74:150,1,41.9999987182618,10|8,1:2|2:1,0:0:0:0:
191,142,81816,1,8,2:1:0:0:
84,0,81988,6,0,P|105:27|106:78,1,83.9999974365235,10|8,1:2|2:1,0:0:0:0:
124,236,82333,1,10,1:2:0:0:
252,47,82505,1,8,2:1:0:0:
303,272,82678,1,10,1:2:0:0:
191,142,82850,1,8,2:1:0:0:
369,51,83023,1,10,1:2:0:0:
400,40,83109,1,8,2:3:0:0:
434,44,83195,1,4,2:3:0:0:
462,62,83281,1,4,2:3:0:0:
479,91,83367,6,0,P|472:132|469:174,1,83.9999974365235,14|8,1:2|2:1,0:0:0:0:
333,372,83712,2,0,P|330:330|322:288,1,83.9999974365235,10|8,1:2|2:1,0:0:0:0:
300,130,84057,1,10,1:2:0:0:
452,319,84230,1,8,2:1:0:0:
232,362,84402,1,10,1:2:0:0:
398,202,84574,1,8,2:1:0:0:
177,74,84747,5,14,1:2:0:0:
226,242,84919,1,8,2:1:0:0:
398,202,85092,1,14,1:2:0:0:
349,34,85264,1,8,2:1:0:0:
300,145,85436,1,10,1:2:0:0:
300,145,85523,1,8,0:0:0:0:
300,145,85609,2,0,L|291:216,1,41.9999987182618,8|4,2:3|2:3,0:0:0:0:
140,235,85781,1,10,1:2:0:0:
140,235,85868,1,8,2:3:0:0:
140,235,85954,2,0,L|131:163,1,41.9999987182618,4|4,2:3|2:3,0:0:0:0:
103,37,86126,5,12,0:0:0:0:
42,195,86298,2,0,B|47:241|47:241|53:243|53:243|58:288,1,83.9999974365235,12|8,2:1|2:1,0:0:0:0:
264,261,86643,5,12,0:0:0:0:
100,134,86816,2,0,P|73:113|22:112,1,83.9999974365235,12|8,2:1|2:1,0:0:0:0:
159,350,87161,5,12,0:0:0:0:
300,145,87333,2,0,P|333:121|375:122,1,83.9999974365235,12|8,2:1|2:1,0:0:0:0:
341,322,87678,5,12,0:0:0:0:
203,105,87850,2,0,B|198:59|198:59|192:57|192:57|187:12,1,83.9999974365235,12|8,2:1|2:1,0:0:0:0:
424,52,88195,5,12,0:0:0:0:
351,291,88367,1,4,2:3:0:0:
351,291,88454,1,4,2:3:0:0:
351,291,88540,1,12,0:0:0:0:
163,197,88712,6,0,B|137:189|121:170|115:136|115:136|86:123|86:123|103:158|65:159|70:148|68:117|68:117|44:159|9:137|-6:95|58:83|58:83|20:77|16:-5|92:27|85:65|85:65|118:8|152:37|161:78|112:85|112:85|134:97|149:99|147:134|109:111,1,630.00001538086,12|8,2:1|0:0,0:0:0:0:
101,250,90982,6,0,P|152:240|219:235,1,115.49999647522,4|0,2:3|0:0,0:0:0:0:
