osu file format v14

[General]
AudioFilename: pray.ogg
AudioLeadIn: 0
PreviewTime: 52850
Countdown: 0
SampleSet: Soft
StackLeniency: 0
Mode: 0
LetterboxInBreaks: 0
WidescreenStoryboard: 1

[Editor]
DistanceSpacing: 1
BeatDivisor: 4
GridSize: 32
TimelineZoom: 3

[Metadata]
Title:pray
TitleUnicode:pray
Artist:Shimotsuki Haruka
ArtistUnicode:霜月はるか
Creator:Hakusui Sama
Version:salvation
Source:れじぇくろ! ~レジェンド・クローバー~
Tags:Japanese JP Jpop J-pop pop Techcross Sound Corps Legeclo! ~Legend Clover~ Eroge OP Opening Short Version Hakusui3820 Teages kanpakyin Surac Mimiliaa Hojo Karen Hitsukuya Suzuhara Lulu Mimilie dahkjdas
BeatmapID:3834019
BeatmapSetID:1864352

[Difficulty]
HPDrainRate:7.2
CircleSize:4.2
OverallDifficulty:9.1
ApproachRate:9.3
SliderMultiplier:1.75
SliderTickRate:1

[Events]
//Background and Video events
0,0,"BG.jpg",0,0
Video,0,"OP.mp4"
//Break Periods
//Storyboard Layer 0 (Background)
//Storyboard Layer 1 (Fail)
//Storyboard Layer 2 (Pass)
//Storyboard Layer 3 (Foreground)
//Storyboard Layer 4 (Overlay)
//Storyboard Sound Samples

[TimingPoints]
-770,344.827586206897,4,2,1,60,1,0
609,-250,4,2,2,40,0,0
6126,-166.666666666667,4,2,1,50,0,0
17161,-125,4,2,1,60,0,0
21298,-250,4,2,1,60,0,0
22678,-166.666666666667,4,2,1,60,0,0
25436,-125,4,2,1,60,0,0
28195,-100,4,2,1,70,0,0
29574,-71.4285714285714,4,2,1,70,0,0
29919,-100,4,2,1,70,0,0
31471,-71.4285714285714,4,2,1,70,0,0
31988,-166.666666666667,4,2,1,70,0,0
32333,-100,4,2,1,70,0,0
32850,-71.4285714285714,4,2,1,70,0,0
33367,-166.666666666667,4,2,1,70,0,0
33712,-100,4,2,1,70,0,0
36988,-71.4285714285714,4,2,1,70,0,0
37505,-166.666666666667,4,2,1,70,0,0
37850,-100,4,2,1,70,0,0
38367,-71.4285714285714,4,2,1,70,0,0
38885,-166.666666666667,4,2,1,70,0,0
39230,-100,4,2,1,70,0,0
40609,-71.4285714285714,4,2,1,70,0,0
41988,-250,4,2,1,50,0,0
47505,-166.666666666667,4,2,1,50,0,0
50264,-95.2380952380952,4,2,1,60,0,0
50954,-71.4285714285714,4,2,1,60,0,0
51643,-35.7142857142857,4,2,1,70,0,0
51988,-47.6190476190476,4,2,1,70,0,0
52333,-71.4285714285714,4,2,1,70,0,0
53023,-41.6666666666667,4,2,1,80,0,1
53066,-41.6666666666667,4,2,1,80,0,0
53367,-83.3333333333333,4,2,1,80,0,0
62678,-62.5,4,2,1,80,0,0
64057,-41.6666666666667,4,2,1,80,0,1
64100,-41.6666666666667,4,2,1,80,0,0
64402,-83.3333333333333,4,2,1,80,0,0
75092,-41.6666666666667,4,2,1,80,0,1
75135,-41.6666666666667,4,2,1,80,0,0
75436,-83.3333333333333,4,2,1,80,0,0
77850,-62.5,4,2,1,80,0,0
78367,-83.3333333333333,4,2,1,80,0,0
78885,-50,4,2,1,80,0,0
79230,-41.6666666666667,4,2,1,80,0,0
79574,-83.3333333333333,4,2,1,80,0,0
80264,-62.5,4,2,1,80,0,0
80609,-41.6666666666667,4,2,1,90,0,1
80954,-83.3333333333333,4,2,1,90,0,1
83367,-41.6666666666667,4,2,1,90,0,1
83712,-62.5,4,2,1,90,0,1
84057,-83.3333333333333,4,2,1,90,0,1
84402,-62.5,4,2,1,90,0,1
84747,-83.3333333333333,4,2,1,90,0,1
85436,-62.5,4,2,1,90,0,1
85954,-83.3333333333333,4,2,1,90,0,1
86083,-83.3333333333333,4,2,1,90,0,0
86126,-62.5,4,2,1,90,0,1
86212,-62.5,4,2,1,90,0,0
86298,-41.6666666666667,4,2,1,90,0,1
86471,-41.6666666666667,4,2,1,90,0,0
86643,-62.5,4,2,1,90,0,1
86730,-62.5,4,2,1,90,0,0
86816,-41.6666666666667,4,2,1,90,0,1
86988,-41.6666666666667,4,2,1,90,0,0
87161,-62.5,4,2,1,90,0,1
87247,-62.5,4,2,1,90,0,0
87333,-41.6666666666667,4,2,1,90,0,1
87505,-41.6666666666667,4,2,1,90,0,0
87678,-62.5,4,2,1,90,0,1
87764,-62.5,4,2,1,90,0,0
87850,-41.6666666666667,4,2,1,90,0,1
88023,-41.6666666666667,4,2,1,90,0,0
88195,-83.3333333333333,4,2,1,90,0,1
88540,-41.6666666666667,4,2,1,90,0,0
88712,-166.666666666667,4,2,1,80,0,1
88755,-166.666666666667,4,2,1,80,0,0
90982,-83.3333333333333,4,2,1,70,0,0
91298,-83.3333333333333,4,2,99,10,0,0

[Colours]
Combo1 : 191,191,191
Combo2 : 255,217,128
Combo3 : 128,191,255
Combo4 : 255,128,191
Combo5 : 191,128,255

[HitObjects]
108,58,609,5,2,0:0:0:0:
136,53,781,1,0,0:0:0:0:
162,62,954,1,0,0:0:0:0:
180,82,1126,1,0,0:0:0:0:
241,108,1298,5,0,0:0:0:0:
232,82,1471,1,0,0:0:0:0:
206,91,1643,1,0,0:0:0:0:
215,117,1988,53,2,0:0:0:0:
253,188,2333,5,0,0:0:0:0:
256,242,2678,5,0,0:0:0:0:
250,269,3023,5,0,0:0:0:0:
330,211,3367,21,2,0:0:0:0:
428,200,4747,5,2,0:0:0:0:
428,200,5436,37,0,0:0:0:0:
454,209,5609,1,0,0:0:0:0:
445,235,5781,1,0,0:0:0:0:
419,226,5954,1,0,0:0:0:0:
372,142,6126,6,0,P|378:91|408:46,1,104.999996795654,4|0,0:0|0:0,0:0:0:0:
411,51,6643,2,0,L|312:15,1,104.999996795654,2|0,0:0|0:0,0:0:0:0:
316,19,7161,1,2,0:0:0:0:
249,65,7505,5,2,0:0:0:0:
253,69,7678,1,0,0:0:0:0:
292,139,8023,6,0,P|217:142|173:79,1,157.499995193482,2|0,0:0|0:0,0:0:0:0:
181,213,8885,6,0,P|130:207|85:177,1,104.999996795654,2|0,0:0|0:0,0:0:0:0:
90,182,9402,2,0,L|54:281,1,104.999996795654,2|0,0:0|0:0,0:0:0:0:
58,284,9919,1,2,0:0:0:0:
83,361,10264,6,0,B|136:365|136:365|177:333,1,104.999996795654,2|0,0:0|0:0,0:0:0:0:
182,330,10781,2,0,L|281:366,1,104.999996795654,2|0,0:0|0:0,0:0:0:0:
285,370,11298,1,2,0:0:0:0:
355,330,11643,6,0,P|361:279|391:234,1,104.999996795654,2|0,0:0|0:0,0:0:0:0:
394,239,12161,2,0,L|295:203,1,104.999996795654,2|0,0:0|0:0,0:0:0:0:
299,207,12678,1,2,0:0:0:0:
249,131,13023,5,2,0:0:0:0:
253,135,13195,1,0,0:0:0:0:
176,159,13540,6,0,P|191:83|262:55,1,157.499995193482,2|0,0:0|0:0,0:0:0:0:
150,97,14402,6,0,P|99:91|54:61,1,104.999996795654,2|0,0:0|0:0,0:0:0:0:
59,66,14919,2,0,L|23:165,1,104.999996795654,2|0,0:0|0:0,0:0:0:0:
27,168,15436,1,2,0:0:0:0:
52,245,15781,6,0,B|105:249|105:249|146:217,1,104.999996795654,2|0,0:0|0:0,0:0:0:0:
151,214,16298,2,0,L|250:250,1,104.999996795654,2|0,0:0|0:0,0:0:0:0:
167,324,16816,1,8,0:0:0:0:
180,287,16902,2,0,L|189:263,1,26.2499991989136,8|8,0:0|2:3,0:0:0:0:
306,375,17161,6,0,B|372:351|372:351|348:285,1,140,12|0,2:1|0:0,0:0:0:0:
272,258,17678,2,0,P|321:209|387:215,1,140,2|0,0:0|0:0,0:0:0:0:
433,281,18195,2,0,L|457:347,1,70,2|0,0:0|0:0,0:0:0:0:
479,175,18540,5,8,2:1:0:0:
512,187,18712,1,0,0:0:0:0:
500,220,18885,1,0,0:0:0:0:
467,208,19057,1,0,0:0:0:0:
431,109,19230,6,0,L|419:76,2,35,2|0|0,0:0|0:0|0:0,0:0:0:0:
391,180,19574,6,0,L|325:156,1,70,2|8,0:0|2:1,0:0:0:0:
291,39,19919,22,0,B|225:63|225:63|249:129,1,140,8|0,2:1|0:0,0:0:0:0:
325,156,20436,2,0,P|276:205|210:199,2,140,2|0|0,0:0|0:0|0:0,0:0:0:0:
359,248,21298,6,0,L|395:347,2,105,8|0|0,2:1|0:0|0:0,0:0:0:0:
363,252,22505,1,8,2:1:0:0:
283,274,22678,54,0,L|239:237,1,52.4999983978272,8|0,2:1|0:0,0:0:0:0:
222,248,23023,2,0,L|185:292,1,52.4999983978272,2|0,0:0|0:0,0:0:0:0:
196,309,23367,2,0,L|240:346,1,52.4999983978272,2|0,0:0|0:0,0:0:0:0:
257,335,23712,2,0,L|294:291,1,52.4999983978272,2|0,0:0|0:0,0:0:0:0:
189,288,24057,6,0,L|152:332,1,52.4999983978272,8|0,2:1|0:0,0:0:0:0:
142,233,24402,2,0,L|186:270,1,52.4999983978272,2|0,0:0|0:0,0:0:0:0:
87,280,24747,2,0,L|124:236,1,52.4999983978272,2|0,0:0|0:0,0:0:0:0:
134,335,25092,2,0,L|90:298,1,52.4999983978272,2|8,0:0|2:1,0:0:0:0:
257,335,25436,6,0,P|306:286|300:220,1,140,8|0,2:1|0:0,0:0:0:0:
351,157,25954,1,2,0:0:0:0:
355,161,26126,2,0,L|421:185,1,70
501,181,26471,2,0,L|435:157,1,70
336,121,26816,5,8,2:1:0:0:
326,79,27161,1,0,0:0:0:0:
335,33,27505,1,8,2:1:0:0:
339,37,27764,5,8,0:0:0:0:
308,102,27850,1,8,0:0:0:0:
267,43,27936,1,8,0:0:0:0:
247,297,28195,5,12,2:1:0:0:
311,190,28367,1,0,0:0:0:0:
140,233,28540,5,8,0:0:0:0:
204,126,28712,1,0,0:0:0:0:
252,318,28885,5,8,2:1:0:0:
199,105,29057,1,0,0:0:0:0:
332,185,29230,5,8,0:0:0:0:
119,238,29402,1,0,0:0:0:0:
353,180,29574,22,0,L|417:164,1,61.2499981307984,12|0,2:1|0:0,0:0:0:0:
245,207,29747,2,0,L|181:223,1,61.2499981307984,8|0,0:0|0:0,0:0:0:0:
312,255,29919,53,8,2:3:0:0:
316,259,30092,1,4,2:3:0:0:
279,123,30264,21,4,2:3:0:0:
283,127,30350,2,0,L|272:83,1,43.75,8|4,0:0|2:3,0:0:0:0:
312,255,30609,37,8,2:3:0:0:
316,259,30781,1,4,2:3:0:0:
210,332,30954,6,0,B|167:348|167:348|87:319,1,131.25,12|0,2:1|0:0,0:0:0:0:
231,325,31298,1,8,0:0:0:0:
252,318,31471,6,0,B|294:203|294:203|175:160,1,244.999992523194,8|8,2:1|2:1,0:0:0:0:
98,165,31988,38,0,L|148:183,1,52.4999983978272,8|0,0:0|0:0,0:0:0:0:
299,157,32333,38,0,B|315:114|315:114|286:34,1,131.25,8|0,2:1|0:0,0:0:0:0:
291,178,32678,1,8,0:0:0:0:
283,199,32850,6,0,B|168:241|168:241|125:122,1,244.999992523194,8|8,2:1|2:1,0:0:0:0:
130,45,33367,6,0,L|148:95,1,52.4999983978272,8|0,0:0|0:0,0:0:0:0:
52,270,33712,6,0,P|104:233|168:241,1,131.25,8|0,2:1|0:0,0:0:0:0:
43,350,34057,1,8,0:0:0:0:
47,354,34230,2,0,P|39:311|54:267,1,87.5,8|0,2:1|0:0,0:0:0:0:
168,241,34574,2,0,P|200:271|214:315,1,87.5,8|8,2:1|0:0,0:0:0:0:
118,310,34919,1,0,0:0:0:0:
122,314,35005,1,0,0:0:0:0:
126,318,35092,5,8,2:1:0:0:
94,193,35264,1,0,0:0:0:0:
52,270,35436,5,8,0:0:0:0:
168,241,35609,1,0,0:0:0:0:
81,152,35781,5,8,2:1:0:0:
85,156,35954,1,8,2:1:0:0:
201,127,36126,6,0,P|225:91|230:47,1,87.5,8|0,0:0|0:0,0:0:0:0:
314,179,36471,6,0,B|357:195|357:195|437:166,1,131.25,8|0,2:1|0:0,0:0:0:0:
293,171,36816,1,8,0:0:0:0:
272,163,36988,6,0,B|230:48|230:48|349:5,1,244.999992523194,8|8,2:1|2:1,0:0:0:0:
426,11,37505,38,0,L|376:29,1,52.4999983978272,8|0,0:0|0:0,0:0:0:0:
230,48,37850,38,0,B|273:32|273:32|353:61,1,131.25,8|0,2:1|0:0,0:0:0:0:
209,56,38195,1,8,0:0:0:0:
188,64,38367,6,0,B|146:179|146:179|265:222,1,244.999992523194,8|8,2:1|2:1,0:0:0:0:
342,216,38885,6,0,L|288:196,1,52.4999983978272,8|0,0:0|0:0,0:0:0:0:
422,182,39230,6,0,P|423:248|380:295,1,131.25,8|0,2:1|0:0,0:0:0:0:
412,163,39574,1,8,0:0:0:0:
454,251,39747,1,0,0:0:0:0:
458,255,39833,1,0,0:0:0:0:
462,259,39919,2,0,P|468:307|448:351,1,87.5,8|8,2:1|2:1,0:0:0:0:
364,379,40264,1,8,0:0:0:0:
301,294,40436,1,0,0:0:0:0:
296,304,40523,1,0,0:0:0:0:
291,314,40609,6,0,L|260:373,1,61.2499981307984,12|0,2:1|0:0,0:0:0:0:
197,192,40781,1,0,0:0:0:0:
201,196,40867,1,0,0:0:0:0:
205,200,40954,6,0,L|174:259,1,61.2499981307984,8|0,0:0|0:0,0:0:0:0:
168,334,41126,6,0,L|199:275,1,61.2499981307984,12|0,2:1|0:0,0:0:0:0:
176,117,41298,5,8,2:1:0:0:
156,91,41385,1,8,2:1:0:0:
128,74,41471,1,8,2:1:0:0:
96,69,41557,1,8,2:1:0:0:
64,76,41643,5,8,0:0:0:0:
19,143,41730,5,8,2:3:0:0:
46,219,41816,5,4,2:3:0:0:
125,233,41902,5,4,2:3:0:0:
177,171,41988,22,0,B|244:90|244:90|336:144,1,210,4|0,0:0|0:0,0:0:0:0:
335,143,43367,6,0,P|329:49|240:68,1,210,2|0,0:0|0:0,0:0:0:0:
240,68,44747,5,2,0:0:0:0:
244,90,45092,2,0,L|271:243,1,140
369,241,46126,5,2,0:0:0:0:
347,245,46471,2,0,L|239:264,1,105
233,265,47161,1,0,0:0:0:0:
217,280,47505,22,0,P|211:301|213:336,2,52.4999983978272,12|0|0,2:1|0:0|0:0,0:0:0:0:
185,198,48023,2,0,P|165:208|144:231,2,52.4999983978272,2|0|0,0:0|0:0|0:0,0:0:0:0:
216,113,48540,1,2,0:0:0:0:
220,117,48712,1,8,2:1:0:0:
254,144,48885,5,8,2:1:0:0:
289,170,49230,2,0,P|310:176|345:174,1,52.4999983978272,2|0,0:0|0:0,0:0:0:0:
373,256,49574,2,0,P|393:245|414:222,1,52.4999983978272,2|0,0:0|0:0,0:0:0:0:
489,253,49919,1,2,0:0:0:0:
493,257,50092,1,8,2:1:0:0:
349,167,50264,6,0,B|354:152|353:136|349:121|349:121|340:86|390:53|434:106|403:147|373:143,1,183.749994392395,12|0,2:1|0:0,0:0:0:0:
218,305,50954,6,0,B|211:285|212:264|218:245|218:245|230:198|163:154|104:224|145:279|187:273,1,244.999992523194,12|0,2:1|0:0,0:0:0:0:
378,384,51643,54,0,B|385:364|384:343|378:324|378:324|366:277|433:233|492:303|451:358|409:352,1,244.999992523194,12|0,2:1|0:0,0:0:0:0:
208,288,51988,6,0,B|203:273|204:257|208:242|208:242|217:207|167:174|123:227|154:268|184:264,1,183.749994392395,8|0,0:0|0:0,0:0:0:0:
380,143,52333,5,12,2:1:0:0:
408,67,52419,2,0,L|430:6,2,61.2499981307984,8|8|4,0:0|2:3|2:3,0:0:0:0:
318,195,52678,5,8,0:0:0:0:
239,210,52764,5,8,2:3:0:0:
163,183,52850,5,4,2:3:0:0:
111,121,52936,5,4,2:3:0:0:
95,42,53023,22,0,P|186:18|189:108,1,210,12|0,2:1|0:0,0:0:0:0:
49,173,53367,5,8,0:0:0:0:
211,114,53540,2,0,L|312:77,1,104.999996795654,2|8,0:0|2:1,0:0:0:0:
150,199,53885,1,2,0:0:0:0:
227,270,54057,1,8,0:0:0:0:
261,96,54230,6,0,B|360:132|360:132|323:233,1,209.999993591308,8|8,2:1|2:1,0:0:0:0:
132,305,54747,6,0,P|176:276|233:271,1,104.999996795654,8|0,0:0|0:0,0:0:0:0:
359,325,55092,2,0,P|330:281|325:224,1,104.999996795654,2|8,0:0|2:1,0:0:0:0:
458,346,55436,2,0,P|405:348|356:322,1,104.999996795654,8|0,0:0|0:0,0:0:0:0:
360,132,55781,21,8,2:1:0:0:
464,147,55954,1,0,0:0:0:0:
324,230,56126,5,8,0:0:0:0:
427,246,56298,1,0,0:0:0:0:
370,133,56471,5,8,2:1:0:0:
454,146,56643,1,0,0:0:0:0:
334,231,56816,5,8,0:0:0:0:
417,245,56988,1,8,2:1:0:0:
227,270,57161,22,0,B|189:232|189:232|225:134,1,157.499995193482,2|0,0:0|0:0,0:0:0:0:
232,115,57505,1,8,0:0:0:0:
64,239,57678,5,0,0:0:0:0:
68,243,57764,1,0,0:0:0:0:
72,247,57850,2,0,L|108:147,1,104.999996795654,8|8,2:1|2:1,0:0:0:0:
224,224,58195,2,0,L|124:188,1,104.999996795654,8|0,0:0|0:0,0:0:0:0:
75,125,58454,1,0,0:0:0:0:
57,42,58540,53,12,2:1:0:0:
61,46,58712,1,0,0:0:0:0:
151,152,58885,5,8,0:0:0:0:
37,192,59057,5,2,0:0:0:0:
41,196,59230,1,8,2:1:0:0:
45,200,59402,1,0,0:0:0:0:
133,69,59574,5,8,0:0:0:0:
137,73,59747,1,8,2:1:0:0:
224,224,59919,22,0,B|273:242|273:242|306:217|314:175|307:141,1,157.499995193482,4|0,0:0|0:0,0:0:0:0:
343,54,60264,6,0,P|314:95|309:152,1,104.999996795654,8|0,0:0|0:0,0:0:0:0:
477,209,60609,2,0,P|455:162|410:131,1,104.999996795654,2|8,0:0|2:1,0:0:0:0:
275,248,60954,2,0,P|328:252|376:228,1,104.999996795654,8|0,0:0|0:0,0:0:0:0:
215,61,61298,53,12,2:1:0:0:
309,148,61471,1,0,0:0:0:0:
205,166,61643,5,8,0:0:0:0:
318,44,61816,1,0,0:0:0:0:
275,248,61988,5,12,2:1:0:0:
215,61,62161,1,0,0:0:0:0:
172,265,62333,5,8,0:0:0:0:
318,44,62505,1,0,0:0:0:0:
110,317,62678,5,12,2:1:0:0:
95,321,62764,1,8,2:1:0:0:
76,324,62850,1,8,2:1:0:0:
54,320,62936,1,8,2:1:0:0:
31,307,63023,1,12,0:0:0:0:
12,285,63109,1,8,2:1:0:0:
3,253,63195,1,8,2:1:0:0:
9,217,63281,1,8,2:1:0:0:
46,203,63367,5,8,0:0:0:0:
93,198,63454,5,8,0:0:0:0:
143,219,63540,5,8,0:0:0:0:
198,244,63626,5,8,0:0:0:0:
264,229,63712,21,8,0:0:0:0:
307,168,63798,5,8,2:3:0:0:
352,98,63885,5,4,2:3:0:0:
440,88,63971,5,4,2:3:0:0:
503,160,64057,22,0,P|390:231|357:92,1,314.999990386963,12|0,2:1|0:0,0:0:0:0:
476,252,64402,1,8,0:0:0:0:
309,191,64574,5,0,0:0:0:0:
288,183,64661,1,0,0:0:0:0:
267,175,64747,2,0,L|166:138,1,104.999996795654,8|0,2:1|0:0,0:0:0:0:
311,296,65092,5,8,0:0:0:0:
213,332,65264,1,8,2:1:0:0:
405,329,65436,37,2,0:0:0:0:
409,333,65609,1,8,2:1:0:0:
192,340,65781,5,8,0:0:0:0:
309,191,65954,5,2,0:0:0:0:
302,146,66040,1,8,0:0:0:0:
267,175,66126,1,8,2:1:0:0:
334,220,66298,1,8,2:1:0:0:
153,239,66471,5,8,0:0:0:0:
157,243,66643,1,0,0:0:0:0:
57,42,66816,22,0,B|19:80|19:80|55:178,1,157.499995193482,8|0,2:1|0:0,0:0:0:0:
62,198,67161,1,8,0:0:0:0:
227,93,67333,5,0,0:0:0:0:
231,97,67419,1,0,0:0:0:0:
235,101,67505,2,0,L|198:0,1,104.999996795654,8|8,2:1|2:1,0:0:0:0:
340,158,67850,5,8,0:0:0:0:
344,162,68023,1,8,2:1:0:0:
245,199,68195,37,2,0:0:0:0:
361,58,68367,1,8,2:1:0:0:
424,230,68540,1,8,0:0:0:0:
336,154,68712,1,0,0:0:0:0:
340,158,68798,1,0,0:0:0:0:
344,162,68885,5,8,2:1:0:0:
443,125,69057,1,8,2:1:0:0:
325,267,69230,5,8,0:0:0:0:
437,214,69402,1,0,0:0:0:0:
441,218,69488,1,0,0:0:0:0:
445,222,69574,38,0,P|477:282|413:323,1,157.499995193482,12|0,2:1|0:0,0:0:0:0:
400,319,69919,1,8,0:0:0:0:
246,182,70092,5,0,0:0:0:0:
250,186,70178,1,0,0:0:0:0:
254,190,70264,2,0,P|225:233|221:287,1,104.999996795654,8|8,2:1|2:1,0:0:0:0:
125,199,70609,5,8,0:0:0:0:
228,306,70781,1,8,2:1:0:0:
176,104,70954,37,2,0:0:0:0:
180,108,71126,1,8,2:1:0:0:
184,112,71298,1,8,0:0:0:0:
77,263,71471,5,2,0:0:0:0:
84,308,71557,1,8,0:0:0:0:
119,279,71643,1,8,2:1:0:0:
52,234,71816,1,8,2:1:0:0:
250,186,71988,5,8,0:0:0:0:
254,190,72161,1,0,0:0:0:0:
196,306,72333,37,12,2:1:0:0:
280,155,72505,1,0,0:0:0:0:
289,344,72678,5,8,0:0:0:0:
289,112,72850,1,0,0:0:0:0:
388,356,73023,5,12,2:1:0:0:
280,69,73195,1,0,0:0:0:0:
486,341,73367,5,8,0:0:0:0:
254,34,73540,1,0,0:0:0:0:
289,344,73712,21,12,0:0:0:0:
323,272,73798,1,8,0:0:0:0:
298,195,73885,1,8,0:0:0:0:
101,326,74057,5,8,0:0:0:0:
172,318,74143,1,8,0:0:0:0:
220,265,74230,1,8,0:0:0:0:
205,46,74401,5,8,0:0:0:0:
178,102,74487,1,8,0:0:0:0:
198,162,74574,1,8,0:0:0:0:
294,320,74747,5,8,0:0:0:0:
317,271,74833,1,8,0:0:0:0:
300,219,74920,1,8,0:0:0:0:
82,277,75092,22,0,P|72:139|216:130,1,314.999990386963,12|0,2:1|0:0,0:0:0:0:
24,221,75436,1,8,0:0:0:0:
246,230,75609,5,0,0:0:0:0:
267,222,75695,1,0,0:0:0:0:
285,209,75781,2,0,P|314:165|319:108,1,104.999996795654,8|0,2:1|0:0,0:0:0:0:
412,201,76126,5,8,0:0:0:0:
314,92,76298,1,8,2:1:0:0:
346,280,76471,37,2,0:0:0:0:
350,284,76643,1,8,2:1:0:0:
354,288,76816,1,8,0:0:0:0:
460,137,76988,5,2,0:0:0:0:
453,92,77074,1,8,0:0:0:0:
418,121,77161,1,8,2:1:0:0:
486,165,77333,1,8,2:1:0:0:
281,205,77505,5,8,0:0:0:0:
285,209,77678,1,0,0:0:0:0:
147,51,77850,37,10,2:1:0:0:
169,32,77936,1,0,0:0:0:0:
193,48,78023,1,0,0:0:0:0:
185,75,78109,1,0,0:0:0:0:
121,136,78195,6,0,P|135:103|157:77,1,70,8|0,0:0|0:0,0:0:0:0:
58,258,78367,54,0,B|94:159|94:159|193:195,1,209.999993591309,2|8,2:1|2:1,0:0:0:0:
179,278,78885,6,0,B|93:294|93:294|76:205,1,175,8|8,0:0|2:1,0:0:0:0:
212,74,79230,6,0,B|311:110|311:110|275:209,1,209.999993591309,2|8,0:0|2:1,0:0:0:0:
223,270,79488,1,8,2:1:0:0:
193,195,79574,2,0,B|240:170|240:170|278:211,1,104.999996795654,8|0,0:0|0:0,0:0:0:0:
353,280,79833,5,8,0:0:0:0:
374,287,79919,2,0,P|419:261|427:208,1,104.999996795654,8|8,2:1|2:1,0:0:0:0:
226,137,80264,5,8,0:0:0:0:
150,109,80350,2,0,L|84:85,2,70,8|8|4,0:0|2:3|2:3,0:0:0:0:
306,124,80609,6,0,P|290:27|210:62,1,209.999993591309,14|8,1:2|2:1,0:0:0:0:
244,240,80954,5,10,1:2:0:0:
248,262,81040,1,8,2:1:0:0:
146,204,81212,5,8,2:1:0:0:
124,208,81298,1,10,1:2:0:0:
265,247,81471,5,8,2:1:0:0:
154,309,81643,5,10,1:2:0:0:
226,137,81816,1,8,2:1:0:0:
300,353,81988,5,10,1:2:0:0:
304,357,82161,1,8,2:1:0:0:
332,167,82333,5,10,1:2:0:0:
336,145,82419,1,8,2:1:0:0:
368,265,82592,5,8,2:1:0:0:
390,269,82678,1,10,1:2:0:0:
315,153,82850,5,8,2:1:0:0:
392,356,83023,5,10,1:2:0:0:
396,360,83109,1,8,2:3:0:0:
400,364,83195,1,4,2:3:0:0:
404,368,83281,1,4,2:3:0:0:
408,372,83367,6,0,P|470:303|390:269,1,209.999993591309,14|8,1:2|2:1,0:0:0:0:
141,300,83712,5,10,1:2:0:0:
136,277,83798,2,0,L|124:208,1,70,8|8,0:0|2:1,0:0:0:0:
252,368,84057,5,10,1:2:0:0:
256,372,84230,1,8,2:1:0:0:
281,229,84402,5,10,1:2:0:0:
285,206,84488,2,0,L|297:137,1,70,8|8,0:0|2:1,0:0:0:0:
114,297,84747,21,14,1:2:0:0:
425,195,84919,1,8,2:1:0:0:
46,220,85092,5,14,1:2:0:0:
434,92,85264,1,8,2:1:0:0:
25,119,85436,5,10,1:2:0:0:
20,97,85523,2,0,P|21:62|37:24,2,70,8|8|4,0:0|2:3|2:3,0:0:0:0:
107,171,85781,5,10,1:2:0:0:
111,175,85867,1,8,2:3:0:0:
115,179,85954,1,4,2:3:0:0:
119,183,86040,1,4,2:3:0:0:
123,187,86126,22,0,P|158:182|189:165,1,70,12|0,0:0|0:0,0:0:0:0:
345,18,86298,6,0,P|285:105|285:206,1,209.999993591309,12|8,2:1|2:1,0:0:0:0:
240,16,86643,6,0,P|245:51|262:82,1,70,12|0,0:0|0:0,0:0:0:0:
409,238,86816,6,0,P|322:178|221:178,1,209.999993591309,12|8,2:1|2:1,0:0:0:0:
411,133,87161,22,0,P|376:138|345:155,1,70,12|0,0:0|0:0,0:0:0:0:
189,302,87333,6,0,P|249:215|249:114,1,209.999993591309,12|8,2:1|2:1,0:0:0:0:
294,304,87678,6,0,P|289:269|272:238,1,70,12|0,0:0|0:0,0:0:0:0:
125,82,87850,6,0,P|212:142|313:142,1,209.999993591309,12|8,2:1|2:1,0:0:0:0:
17,90,88195,21,12,0:0:0:0:
31,169,88281,1,8,2:3:0:0:
45,248,88367,1,4,2:3:0:0:
59,327,88454,1,4,2:3:0:0:
107,196,88540,6,0,B|125:146|125:146|190:169,1,104.999996795654,12|0,0:0|0:0,0:0:0:0:
370,356,88712,6,0,B|400:348|416:329|422:295|422:295|451:282|451:282|434:317|472:318|467:307|469:276|469:276|493:318|528:296|543:254|479:242|479:242|517:236|521:154|445:186|452:224|452:224|419:167|385:196|376:237|425:244|425:244|403:256|388:258|390:293|428:270,1,656.24997997284,12|8,2:1|0:0,0:0:0:0:
441,96,90982,22,0,B|353:55|353:55|312:144,1,192.499994125366,4|0,2:3|0:0,0:0:0:0:
