osu file format v14

[General]
AudioFilename: pray.ogg
AudioLeadIn: 0
PreviewTime: 52850
Countdown: 0
SampleSet: Soft
StackLeniency: 0
Mode: 0
LetterboxInBreaks: 0
WidescreenStoryboard: 1

[Editor]
DistanceSpacing: 0.4
BeatDivisor: 8
GridSize: 4
TimelineZoom: 3

[Metadata]
Title:pray
TitleUnicode:pray
Artist:Shimotsuki Haruka
ArtistUnicode:霜月はるか
Creator:Hakusui Sama
Version:mimiliaa's extra
Source:れじぇくろ! ~レジェンド・クローバー~
Tags:Japanese JP Jpop J-pop pop Techcross Sound Corps Legeclo! ~Legend Clover~ Eroge OP Opening Short Version Hakusui3820 Teages kanpakyin Surac Mimiliaa Hojo Karen Hitsukuya Suzuhara Lulu Mimilie dahkjdas
BeatmapID:3856264
BeatmapSetID:1864352

[Difficulty]
HPDrainRate:6
CircleSize:5.5
OverallDifficulty:8
ApproachRate:9
SliderMultiplier:1.4
SliderTickRate:1

[Events]
//Background and Video events
0,0,"BG.jpg",0,0
Video,0,"OP.mp4"
//Break Periods
//Storyboard Layer 0 (Background)
//Storyboard Layer 1 (Fail)
//Storyboard Layer 2 (Pass)
//Storyboard Layer 3 (Foreground)
//Storyboard Layer 4 (Overlay)
//Storyboard Sound Samples

[TimingPoints]
-770,344.827586206897,4,2,1,60,1,0
609,-100,4,2,2,40,0,0
6126,-125,4,2,1,50,0,0
17161,-100,4,2,1,60,0,0
28195,-90.9090909090909,4,2,1,70,0,0
29704,-90.9090909090909,4,2,1,5,0,0
29747,-90.9090909090909,4,2,1,70,0,0
29876,-90.9090909090909,4,2,1,5,0,0
29919,-90.9090909090909,4,2,1,70,0,0
30048,-90.9090909090909,4,2,1,5,0,0
30092,-90.9090909090909,4,2,1,70,0,0
30221,-90.9090909090909,4,2,1,5,0,0
30264,-90.9090909090909,4,2,1,70,0,0
30954,-83.3333333333333,4,2,1,70,0,0
31988,-200,4,2,1,70,0,0
32333,-83.3333333333333,4,2,1,70,0,0
33367,-200,4,2,1,70,0,0
33712,-83.3333333333333,4,2,1,70,0,0
36255,-83.3333333333333,4,2,1,5,0,0
36298,-83.3333333333333,4,2,1,70,0,0
36428,-83.3333333333333,4,2,1,5,0,0
36471,-83.3333333333333,4,2,1,70,0,0
37505,-200,4,2,1,70,0,0
37850,-83.3333333333333,4,2,1,70,0,0
38885,-200,4,2,1,70,0,0
39230,-83.3333333333333,4,2,1,70,0,0
40609,-58.8235294117647,4,2,1,70,0,0
41298,-45.4545454545455,4,2,1,70,0,0
41428,-45.4545454545455,4,2,1,5,0,0
41471,-45.4545454545455,4,2,1,70,0,0
41600,-45.4545454545455,4,2,1,5,0,0
41643,-45.4545454545455,4,2,1,70,0,0
41988,-45.4545454545455,4,2,1,50,0,0
50264,-90.9090909090909,4,2,1,60,0,0
51643,-90.9090909090909,4,2,1,70,0,0
53023,-76.9230769230769,4,2,1,80,0,0
54186,-76.9230769230769,4,2,1,5,0,0
54230,-76.9230769230769,4,2,1,80,0,0
54359,-76.9230769230769,4,2,1,5,0,0
54402,-76.9230769230769,4,2,1,80,0,0
59186,-76.9230769230769,4,2,1,5,0,0
59230,-76.9230769230769,4,2,1,80,0,0
59704,-76.9230769230769,4,2,1,5,0,0
59747,-76.9230769230769,4,2,1,80,0,0
59876,-76.9230769230769,4,2,1,5,0,0
59919,-76.9230769230769,4,2,1,80,0,0
64057,-71.4285714285714,4,2,1,80,0,1
64876,-71.4285714285714,4,2,1,5,0,1
64919,-71.4285714285714,4,2,1,80,0,1
65048,-71.4285714285714,4,2,1,5,0,1
65092,-71.4285714285714,4,2,1,80,0,1
66255,-71.4285714285714,4,2,1,5,0,1
66298,-71.4285714285714,4,2,1,80,0,1
66428,-71.4285714285714,4,2,1,5,0,1
66471,-166.666666666667,4,2,1,80,0,1
66816,-71.4285714285714,4,2,1,80,0,1
68324,-71.4285714285714,4,2,1,5,0,1
68367,-71.4285714285714,4,2,1,80,0,1
68497,-71.4285714285714,4,2,1,5,0,1
68540,-71.4285714285714,4,2,1,80,0,1
68669,-71.4285714285714,4,2,1,5,0,1
68712,-71.4285714285714,4,2,1,80,0,1
68842,-71.4285714285714,4,2,1,5,0,1
68885,-71.4285714285714,4,2,1,80,0,1
70393,-71.4285714285714,4,2,1,5,0,1
70436,-71.4285714285714,4,2,1,80,0,1
70566,-71.4285714285714,4,2,1,5,0,1
70609,-71.4285714285714,4,2,1,80,0,1
71773,-71.4285714285714,4,2,1,5,0,1
71816,-71.4285714285714,4,2,1,80,0,1
71945,-71.4285714285714,4,2,1,5,0,1
71988,-166.666666666667,4,2,1,80,0,1
72333,-71.4285714285714,4,2,1,80,0,1
72635,-71.4285714285714,4,2,1,5,0,1
72678,-200,4,2,1,80,0,1
73023,-50,4,2,1,80,0,1
73324,-50,4,2,1,5,0,1
73367,-200,4,2,1,80,0,1
73712,-100,4,2,1,80,0,1
75092,-71.4285714285714,4,2,1,80,0,1
75911,-71.4285714285714,4,2,1,5,0,1
75954,-71.4285714285714,4,2,1,80,0,1
76083,-71.4285714285714,4,2,1,5,0,1
76126,-71.4285714285714,4,2,1,80,0,1
77290,-71.4285714285714,4,2,1,5,0,1
77333,-71.4285714285714,4,2,1,80,0,1
77462,-71.4285714285714,4,2,1,5,0,1
77505,-166.666666666667,4,2,1,80,0,1
77850,-71.4285714285714,4,2,1,80,0,1
79359,-71.4285714285714,4,2,1,5,0,1
79402,-71.4285714285714,4,2,1,80,0,1
79531,-71.4285714285714,4,2,1,5,0,1
79574,-71.4285714285714,4,2,1,80,0,1
79704,-71.4285714285714,4,2,1,5,0,1
79747,-71.4285714285714,4,2,1,80,0,1
79876,-71.4285714285714,4,2,1,5,0,1
79919,-71.4285714285714,4,2,1,80,0,1
80609,-71.4285714285714,4,2,1,90,0,1
81298,-142.857142857143,4,2,1,90,0,1
86126,-142.857142857143,4,2,1,90,0,0
88195,-66.6666666666667,4,2,1,90,0,0
88712,-66.6666666666667,4,2,1,80,0,0
90982,-66.6666666666667,4,2,1,70,0,0
91298,-66.6666666666667,4,2,99,10,0,0

[Colours]
Combo1 : 191,191,191
Combo2 : 255,217,128
Combo3 : 128,191,255
Combo4 : 255,128,191
Combo5 : 191,128,255

[HitObjects]
34,81,609,5,2,0:0:0:0:
49,66,781,1,0,0:0:0:0:
69,60,954,1,0,0:0:0:0:
169,134,1126,1,0,0:0:0:0:
154,119,1298,1,0,0:0:0:0:
134,113,1471,1,0,0:0:0:0:
65,184,1643,1,0,0:0:0:0:
286,328,1988,5,2,0:0:0:0:
286,328,2333,1,0,0:0:0:0:
286,328,2678,1,0,0:0:0:0:
286,328,3023,1,0,0:0:0:0:
392,279,3367,5,2,0:0:0:0:
392,279,4747,1,2,0:0:0:0:
392,279,5436,5,0,0:0:0:0:
378,255,5609,1,0,0:0:0:0:
379,229,5781,1,0,0:0:0:0:
397,207,5954,1,0,0:0:0:0:
455,161,6126,6,0,P|465:107|424:75,1,112,4|0,0:0|0:0,0:0:0:0:
348,161,6643,2,0,P|395:190|453:154,1,112,2|0,0:0|0:0,0:0:0:0:
346,90,7161,2,0,L|272:102,1,56,2|0,0:0|0:0,0:0:0:0:
23,83,7505,6,0,P|82:75|119:127,1,112,2|0,0:0|0:0,0:0:0:0:
89,204,8023,2,0,B|64:179|64:179|63:137|110:119,1,112,2|0,0:0|0:0,0:0:0:0:
166,201,8540,2,0,L|150:267,1,56,2|0,0:0|0:0,0:0:0:0:
34,319,8885,6,0,B|89:304|84:344|142:334,1,112,2|0,0:0|0:0,0:0:0:0:
224,274,9402,2,0,P|175:272|162:347,1,112,2|0,0:0|0:0,0:0:0:0:
219,359,9919,2,0,L|295:365,1,56,2|0,0:0|0:0,0:0:0:0:
486,309,10264,6,0,P|448:294|386:344,1,112,2|0,0:0|0:0,0:0:0:0:
503,369,10781,2,0,L|521:248,1,112,2|0,0:0|0:0,0:0:0:0:
440,185,11298,1,2,0:0:0:0:
433,195,11471,1,0,0:0:0:0:
258,97,11643,6,0,P|307:74|352:103,1,112,2|0,0:0|0:0,0:0:0:0:
279,203,12161,2,0,P|246:160|267:110,1,112,2|0,0:0|0:0,0:0:0:0:
349,214,12678,2,0,L|334:290,1,56,2|0,0:0|0:0,0:0:0:0:
105,338,13023,6,0,B|127:372|178:373|178:373|202:346,1,112,2|0,0:0|0:0,0:0:0:0:
233,256,13540,2,0,P|192:291|214:345,1,112,2|0,0:0|0:0,0:0:0:0:
279,346,14057,2,0,L|346:332,1,56,2|0,0:0|0:0,0:0:0:0:
449,170,14402,6,0,P|476:209|439:262,1,112,2|0,0:0|0:0,0:0:0:0:
346,241,14919,2,0,P|381:228|435:277,1,112,2|0,0:0|0:0,0:0:0:0:
342,364,15436,2,0,L|353:294,1,56,2|0,0:0|0:0,0:0:0:0:
339,91,15781,6,0,B|282:82|288:123|222:110,1,112,2|0,0:0|0:0,0:0:0:0:
177,43,16298,2,0,P|226:56|223:108,1,112,2|0,0:0|0:0,0:0:0:0:
67,151,16816,1,8,0:0:0:0:
51,121,16902,1,8,0:0:0:0:
64,90,16988,1,8,2:3:0:0:
185,244,17161,6,0,P|148:217|79:237,1,105,12|0,2:1|0:0,0:0:0:0:
68,237,17505,1,2,0:0:0:0:
127,298,17678,2,0,L|209:318,1,70,2|0,0:0|0:0,0:0:0:0:
327,224,18023,1,2,0:0:0:0:
277,180,18195,2,0,P|258:218|283:263,1,70,2|0,0:0|0:0,0:0:0:0:
403,341,18540,5,8,2:1:0:0:
501,297,18712,1,0,0:0:0:0:
414,242,18885,1,2,0:0:0:0:
482,211,19057,1,0,0:0:0:0:
409,161,19230,1,2,0:0:0:0:
412,147,19316,1,0,0:0:0:0:
416,133,19402,1,0,0:0:0:0:
420,119,19488,1,0,0:0:0:0:
424,105,19574,1,2,0:0:0:0:
473,57,19747,1,8,2:1:0:0:
346,120,19919,6,0,B|269:104|269:104|249:134|205:135,1,140,8|0,2:1|0:0,0:0:0:0:
86,246,20436,6,0,P|110:221|115:187,1,70,2|0,0:0|0:0,0:0:0:0:
149,75,20781,2,0,P|181:62|214:71,1,70,2|0,0:0|0:0,0:0:0:0:
35,102,21126,2,0,P|20:95|8:81,1,35,2|0,0:0|0:0,0:0:0:0:
3,68,21298,5,8,2:1:0:0:
101,128,21471,1,0,0:0:0:0:
11,171,21643,1,0,0:0:0:0:
89,254,21816,2,0,B|123:270|152:254|160:234|189:223|224:243,1,140,2|0,0:0|0:0,0:0:0:0:
231,251,22247,1,0,0:0:0:0:
243,257,22333,1,0,0:0:0:0:
256,260,22419,1,0,0:0:0:0:
269,258,22505,1,8,2:1:0:0:
410,343,22678,6,0,P|363:320|304:342,1,105,8|0,2:1|0:0,0:0:0:0:
302,341,23023,1,2,0:0:0:0:
417,271,23195,2,0,L|433:190,1,70,2|0,0:0|0:0,0:0:0:0:
392,83,23540,1,2,0:0:0:0:
351,132,23712,1,0,0:0:0:0:
367,144,23798,1,0,0:0:0:0:
387,148,23885,1,2,0:0:0:0:
302,52,24057,6,0,P|266:32|219:42,1,70,8|0,2:1|0:0,0:0:0:0:
84,104,24402,1,2,0:0:0:0:
143,132,24574,1,0,0:0:0:0:
153,113,24661,1,0,0:0:0:0:
152,92,24747,2,0,L|170:24,1,70,2|0,0:0|0:0,0:0:0:0:
218,190,25092,2,0,L|236:122,1,70,2|8,0:0|2:1,0:0:0:0:
69,208,25436,6,0,B|102:190|136:203|136:203|145:243|186:256,1,140,8|0,2:1|0:0,0:0:0:0:
295,339,25954,2,0,P|260:310|174:355,1,140,2|0,0:0|0:0,0:0:0:0:
124,303,26471,1,2,0:0:0:0:
256,225,26643,1,0,0:0:0:0:
255,231,26730,1,0,0:0:0:0:
255,236,26816,2,0,B|326:233|305:287|397:283,2,140,8|0|8,2:1|0:0|2:1,0:0:0:0:
453,335,27764,1,8,0:0:0:0:
457,321,27850,1,8,0:0:0:0:
466,331,27936,1,8,0:0:0:0:
427,51,28195,6,0,P|361:42|331:86,1,115.50000352478,12|0,2:1|0:0,0:0:0:0:
371,167,28540,6,0,B|388:141|388:141|388:92|330:84,1,115.50000352478,8|0,0:0|0:0,0:0:0:0:
266,77,28885,6,0,P|265:96|282:128,1,38.5000011749268,8|0,2:1|0:0,0:0:0:0:
213,147,29057,2,0,P|224:162|258:175,1,38.5000011749268,2|0,0:0|0:0,0:0:0:0:
217,234,29230,2,0,P|235:238|270:227,1,38.5000011749268,8|0,0:0|0:0,0:0:0:0:
313,210,29402,2,0,L|300:151,1,38.5000011749268,2|0,0:0|0:0,0:0:0:0:
193,82,29574,6,0,P|166:75|139:84,1,57.7500017623902,12|0,2:1|0:0,0:0:0:0:
137,76,29747,2,0,P|165:69|193:77,1,57.7500017623902,8|0,0:0|0:0,0:0:0:0:
273,58,29919,6,0,P|256:34|229:23,1,57.7500017623902,8|0,2:3|0:0,0:0:0:0:
234,16,30092,2,0,P|259:28|275:52,1,57.7500017623902,4|0,2:3|0:0,0:0:0:0:
274,122,30264,5,4,2:3:0:0:
272,127,30350,1,8,0:0:0:0:
57,339,30609,6,0,P|47:322|47:303,1,38.5000011749268,8|8,2:3|2:3,0:0:0:0:
0,256,30781,2,0,P|3:237|15:222,1,38.5000011749268,4|4,2:3|2:3,0:0:0:0:
231,286,30954,6,0,B|201:275|171:300|171:300|144:321|113:307,1,125.999996154785,12|0,2:1|0:0,0:0:0:0:
50,346,31298,6,0,P|39:327|39:307,1,41.9999987182618,8|0,0:0|0:0,0:0:0:0:
103,159,31471,2,0,B|128:152|151:180|151:180|160:227|133:244,1,125.999996154785,8|0,2:1|0:0,0:0:0:0:
70,257,31816,2,0,L|79:213,1,41.9999987182618,8|0,2:1|0:0,0:0:0:0:
180,110,31988,6,0,P|185:83|172:56,1,52.5,8|0,0:0|0:0,0:0:0:0:
170,55,32333,6,0,P|210:102|271:102,1,125.999996154785,8|0,2:1|0:0,0:0:0:0:
314,150,32678,2,0,P|335:144|354:124,1,41.9999987182618,8|0,0:0|0:0,0:0:0:0:
355,4,32850,2,0,L|349:130,1,125.999996154785,8|0,2:1|0:0,0:0:0:0:
388,181,33195,2,0,P|404:168|413:150,1,41.9999987182618,8|0,2:1|0:0,0:0:0:0:
317,221,33367,6,0,P|325:245|320:271,1,52.5,8|0,0:0|0:0,0:0:0:0:
312,275,33712,6,0,P|351:246|422:291,1,125.999996154785,8|0,2:1|0:0,0:0:0:0:
478,273,34057,2,0,P|478:301|461:323,1,41.9999987182618,8|0,0:0|0:0,0:0:0:0:
446,382,34230,2,0,P|401:341|413:282,1,125.999996154785,8|0,2:1|0:0,0:0:0:0:
483,270,34574,2,0,P|483:298|466:320,1,41.9999987182618,8|0,2:1|0:0,0:0:0:0:
382,359,34747,2,0,L|333:349,2,41.9999987182618,8|0|0,0:0|0:0|0:0,0:0:0:0:
284,165,35092,6,0,B|244:150|204:183|204:183|168:211|127:194,2,167.999994873047,8|8|8,2:1|0:0|2:1,0:0:0:0:
449,118,35954,1,8,2:1:0:0:
447,110,36040,1,8,2:1:0:0:
451,100,36126,2,0,P|480:89|523:105,1,62.9999980773926,8|0,0:0|0:0,0:0:0:0:
450,91,36298,2,0,P|479:79|510:87,1,62.9999980773926,2|0,0:0|0:0,0:0:0:0:
380,116,36471,6,0,B|387:91|359:68|359:68|312:59|294:85,1,125.999996154785,8|0,2:1|0:0,0:0:0:0:
240,51,36816,2,0,P|229:75|233:95,1,41.9999987182618,8|0,0:0|0:0,0:0:0:0:
318,256,36988,2,0,P|336:208|282:165,1,125.999996154785,8|0,2:1|0:0,0:0:0:0:
254,229,37333,2,0,L|244:275,1,41.9999987182618,8|0,2:1|0:0,0:0:0:0:
33,336,37505,6,0,P|58:335|78:351,1,52.5,8|0,0:0|0:0,0:0:0:0:
82,360,37850,6,0,P|70:335|134:269,1,125.999996154785,8|0,2:1|0:0,0:0:0:0:
141,205,38195,2,0,P|174:211|185:223,1,41.9999987182618,8|0,0:0|0:0,0:0:0:0:
188,341,38367,2,0,L|179:210,1,125.999996154785,8|0,2:1|0:0,0:0:0:0:
226,165,38712,2,0,P|242:194|240:210,1,41.9999987182618,8|0,2:1|0:0,0:0:0:0:
152,131,38885,6,0,P|160:106|150:83,1,52.5,8|0,0:0|0:0,0:0:0:0:
143,78,39230,6,0,P|185:101|255:59,1,125.999996154785,8|0,2:1|0:0,0:0:0:0:
315,85,39574,2,0,P|323:65|319:39,1,41.9999987182618,8|0,0:0|0:0,0:0:0:0:
251,61,39747,2,0,L|243:182,1,83.9999974365235,2|8,0:0|2:1,0:0:0:0:
346,293,40092,5,8,2:1:0:0:
343,296,40178,1,8,2:1:0:0:
340,299,40264,2,0,P|313:309|284:301,1,41.9999987182618,8|0,0:0|0:0,0:0:0:0:
244,344,40436,2,0,P|218:329|206:302,1,41.9999987182618,2|0,0:0|0:0,0:0:0:0:
148,209,40609,6,0,P|156:237|148:265,1,59.5000011348725,12|0,2:1|0:0,0:0:0:0:
158,268,40781,6,0,P|166:239|157:211,1,59.5000011348725,2|0,0:0|0:0,0:0:0:0:
141,94,40954,6,0,P|165:109|177:136,1,59.5000011348725,8|0,0:0|0:0,0:0:0:0:
186,132,41126,6,0,P|174:105|149:89,1,59.5000011348725,12|0,2:1|0:0,0:0:0:0:
3,135,41298,6,0,P|63:172|104:154,1,115.50000352478,10|0,2:1|0:0,0:0:0:0:
96,149,41471,6,0,L|82:276,1,115.50000352478,10|0,2:1|0:0,0:0:0:0:
21,359,41643,5,8,0:0:0:0:
19,343,41730,1,8,2:3:0:0:
17,327,41816,1,4,2:3:0:0:
15,311,41902,1,4,2:3:0:0:
76,271,41988,5,4,0:0:0:0:
395,221,43367,5,2,0:0:0:0:
97,69,44747,5,2,0:0:0:0:
426,33,46126,5,2,0:0:0:0:
8,46,47505,5,12,2:1:0:0:
33,28,47678,1,0,0:0:0:0:
63,24,47850,1,0,0:0:0:0:
92,34,48023,1,0,0:0:0:0:
176,121,48195,5,2,0:0:0:0:
151,103,48367,1,0,0:0:0:0:
121,99,48540,1,0,0:0:0:0:
92,109,48712,1,8,2:1:0:0:
8,338,48885,5,8,2:1:0:0:
33,356,49057,1,0,0:0:0:0:
63,360,49230,1,0,0:0:0:0:
92,350,49402,1,0,0:0:0:0:
176,263,49574,5,2,0:0:0:0:
151,281,49747,1,0,0:0:0:0:
121,285,49919,1,0,0:0:0:0:
92,275,50092,1,8,2:1:0:0:
180,332,50264,6,0,P|247:347|299:310,1,115.50000352478,12|0,2:1|0:0,0:0:0:0:
347,323,50609,2,0,L|353:267,1,38.5000011749268,2|0,0:0|0:0,0:0:0:0:
362,281,50781,2,0,L|357:319,1,38.5000011749268,2|0,0:0|0:0,0:0:0:0:
180,344,50954,6,0,P|247:359|299:322,1,115.50000352478,12|0,2:1|0:0,0:0:0:0:
357,319,51298,2,0,L|363:263,1,38.5000011749268,2|0,0:0|0:0,0:0:0:0:
372,277,51471,2,0,L|367:315,1,38.5000011749268,2|0,0:0|0:0,0:0:0:0:
180,356,51643,6,0,P|247:371|299:334,1,115.50000352478,12|0,2:1|0:0,0:0:0:0:
377,313,51988,2,0,L|393:183,1,115.50000352478,8|0,0:0|0:0,0:0:0:0:
438,146,52333,5,12,2:1:0:0:
399,129,52419,1,8,0:0:0:0:
357,136,52505,1,8,2:3:0:0:
328,203,52592,5,4,2:3:0:0:
286,210,52678,1,8,0:0:0:0:
247,193,52764,1,8,2:3:0:0:
209,129,52850,6,0,L|220:68,1,38.5000011749268,4|4,2:3|2:3,0:0:0:0:
247,201,53023,6,0,P|249:253|175:294,1,136.499993751526,12|0,2:1|0:0,0:0:0:0:
119,329,53367,2,0,P|97:323|85:294,1,45.4999979171754,8|0,0:0|0:0,0:0:0:0:
254,212,53540,6,0,P|256:264|178:300,1,136.499993751526,2|0,0:0|0:0,0:0:0:0:
113,338,53885,2,0,P|91:332|79:303,1,45.4999979171754,2|0,0:0|0:0,0:0:0:0:
21,275,54057,6,0,P|8:256|26:207,1,68.2499968757631,8|0,0:0|0:0,0:0:0:0:
9,216,54230,6,0,P|-2:247|12:276,1,68.2499968757631,10|0,2:1|0:0,0:0:0:0:
80,239,54402,6,0,L|93:128,1,90.9999958343508,2|8,0:0|2:1,0:0:0:0:
367,56,54747,6,0,P|421:84|414:157,1,136.499993751526,8|0,0:0|0:0,0:0:0:0:
299,98,55092,2,0,P|338:64|410:101,1,136.499993751526,2|0,0:0|0:0,0:0:0:0:
353,136,55436,2,0,L|200:111,1,136.499993751526,8|0,0:0|0:0,0:0:0:0:
90,148,55781,6,0,B|163:141|145:190|227:187,1,136.499993751526,8|0,2:1|0:0,0:0:0:0:
226,191,56126,2,0,P|202:214|198:241,1,45.4999979171754,8|0,0:0|0:0,0:0:0:0:
277,374,56298,1,0,0:0:0:0:
272,378,56385,1,0,0:0:0:0:
269,383,56471,2,0,L|262:244,1,136.499993751526,8|0,2:1|0:0,0:0:0:0:
217,187,56816,2,0,P|193:210|189:237,1,45.4999979171754,8|0,0:0|0:0,0:0:0:0:
132,253,56988,2,0,P|128:286|142:309,1,45.4999979171754,8|0,2:1|0:0,0:0:0:0:
204,343,57161,6,0,L|200:283,1,45.4999979171754,2|0,0:0|0:0,0:0:0:0:
272,229,57333,1,8,2:1:0:0:
270,234,57419,1,8,2:1:0:0:
268,239,57505,2,0,P|296:234|320:245,1,45.4999979171754,8|0,0:0|0:0,0:0:0:0:
375,212,57678,2,0,P|399:226|410:250,1,45.4999979171754,2|0,0:0|0:0,0:0:0:0:
383,355,57850,5,8,2:1:0:0:
372,297,57936,1,8,2:1:0:0:
410,251,58023,1,8,2:1:0:0:
468,257,58109,1,8,2:1:0:0:
446,336,58195,5,8,0:0:0:0:
442,327,58281,1,8,0:0:0:0:
438,318,58367,1,8,0:0:0:0:
435,309,58454,1,8,0:0:0:0:
475,250,58540,6,0,P|491:201|442:133,1,136.499993751526,12|0,2:1|0:0,0:0:0:0:
411,71,58885,2,0,P|388:69|369:81,1,45.4999979171754,8|0,0:0|0:0,0:0:0:0:
297,73,59057,2,0,P|278:100|293:147,1,68.2499968757631,2|0,0:0|0:0,0:0:0:0:
288,142,59230,2,0,L|138:120,1,136.499993751526,8|0,2:1|0:0,0:0:0:0:
88,90,59574,6,0,P|72:60|83:29,1,68.2499968757631,8|0,0:0|0:0,0:0:0:0:
92,27,59747,6,0,P|80:58|95:87,1,68.2499968757631,10|0,2:1|0:0,0:0:0:0:
148,127,59919,6,0,P|172:192|115:248,1,136.499993751526,4|0,0:0|0:0,0:0:0:0:
126,244,60264,6,0,B|174:221|214:237|211:270|242:293|296:277,2,181.999991668702,8|2|8,0:0|0:0|0:0,0:0:0:0:
0,361,61126,1,0,0:0:0:0:
8,360,61212,1,0,0:0:0:0:
15,354,61298,2,0,P|50:296|8:239,1,136.499993751526,12|0,2:1|0:0,0:0:0:0:
11,247,61643,2,0,P|69:277|126:244,1,136.499993751526,8|0,0:0|0:0,0:0:0:0:
149,168,61988,2,0,L|307:189,1,136.499993751526,12|0,2:1|0:0,0:0:0:0:
350,236,62333,2,0,L|403:228,2,45.4999979171754,8|0|0,0:0|0:0|0:0,0:0:0:0:
79,140,62678,6,0,P|110:97|201:115,1,136.499993751526,12|8,2:1|2:1,0:0:0:0:
219,36,63023,2,0,P|259:74|263:125,1,90.9999958343508,12|8,0:0|2:1,0:0:0:0:
98,290,63367,5,8,0:0:0:0:
101,225,63454,1,8,0:0:0:0:
148,182,63540,1,8,0:0:0:0:
211,180,63626,1,8,0:0:0:0:
262,216,63712,2,0,P|276:239|278:273,1,45.4999979171754,8|8,0:0|2:3,0:0:0:0:
341,303,63885,2,0,P|336:329|316:356,1,45.4999979171754,4|4,2:3|2:3,0:0:0:0:
272,210,64057,6,0,P|317:175|417:211,1,146.999995513916,12|0,2:1|0:0,0:0:0:0:
461,161,64402,2,0,P|474:181|477:207,1,48.9999985046387,8|0,0:0|0:0,0:0:0:0:
512,261,64574,2,0,P|505:284|487:302,1,48.9999985046387,2|0,0:0|0:0,0:0:0:0:
412,326,64747,6,0,L|427:253,1,73.4999977569581,10|0,2:1|0:0,0:0:0:0:
432,261,64919,6,0,L|417:332,1,73.4999977569581,10|0,2:1|0:0,0:0:0:0:
269,367,65092,5,8,0:0:0:0:
277,305,65178,1,8,2:1:0:0:
326,345,65264,1,10,2:1:0:0:
55,281,65436,6,0,P|20:236|56:136,1,146.999995513916,2|0,0:0|0:0,0:0:0:0:
6,92,65781,2,0,P|26:78|52:75,1,48.9999985046387,8|0,0:0|0:0,0:0:0:0:
106,41,65954,2,0,P|129:47|147:65,1,48.9999985046387,2|0,0:0|0:0,0:0:0:0:
171,141,66126,6,0,L|98:126,1,73.4999977569581,10|0,2:1|0:0,0:0:0:0:
106,121,66298,6,0,L|177:135,1,73.4999977569581,10|0,2:1|0:0,0:0:0:0:
269,180,66471,6,0,P|237:181|215:205,1,62.9999980773926,8|0,0:0|0:0,0:0:0:0:
265,245,66816,6,0,L|294:81,1,146.999995513916,8|0,2:1|0:0,0:0:0:0:
238,61,67161,2,0,P|255:38|279:33,1,48.9999985046387,8|0,0:0|0:0,0:0:0:0:
380,94,67333,2,0,P|323:112|282:78,1,97.9999970092774,2|8,0:0|2:1,0:0:0:0:
339,45,67592,1,8,2:1:0:0:
403,28,67678,2,0,L|482:47,1,48.9999985046387,8|0,2:1|0:0,0:0:0:0:
479,144,67850,6,0,B|411:136|414:193|319:177,1,146.999995513916,8|0,0:0|0:0,0:0:0:0:
329,262,68195,6,0,P|297:245|262:249,1,73.4999977569581,2|0,0:0|0:0,0:0:0:0:
261,258,68367,6,0,P|296:254|328:270,1,73.4999977569581,10|0,2:1|0:0,0:0:0:0:
437,303,68540,6,0,P|430:267|403:242,1,73.4999977569581,8|0,0:0|0:0,0:0:0:0:
396,246,68712,6,0,P|422:271|430:307,1,73.4999977569581,10|0,2:1|0:0,0:0:0:0:
357,341,68885,6,0,L|293:331,1,48.9999985046387,8|0,2:1|0:0,0:0:0:0:
135,279,69057,5,8,2:1:0:0:
186,234,69143,1,8,2:1:0:0:
202,301,69230,1,8,0:0:0:0:
29,346,69402,1,0,0:0:0:0:
240,173,69574,6,0,P|195:208|95:172,1,146.999995513916,12|0,2:1|0:0,0:0:0:0:
51,222,69919,2,0,P|38:202|35:176,1,48.9999985046387,8|0,0:0|0:0,0:0:0:0:
0,122,70092,2,0,P|7:99|25:81,1,48.9999985046387,2|0,0:0|0:0,0:0:0:0:
100,57,70264,6,0,L|85:130,1,73.4999977569581,10|0,2:1|0:0,0:0:0:0:
80,122,70436,6,0,L|95:51,1,73.4999977569581,10|0,2:1|0:0,0:0:0:0:
243,16,70609,5,8,0:0:0:0:
235,78,70695,1,8,2:1:0:0:
186,38,70781,1,10,2:1:0:0:
389,126,70954,6,0,P|424:171|388:271,1,146.999995513916,2|0,0:0|0:0,0:0:0:0:
438,315,71298,2,0,P|418:329|392:332,1,48.9999985046387,8|0,0:0|0:0,0:0:0:0:
338,366,71471,2,0,P|315:360|297:342,1,48.9999985046387,2|0,0:0|0:0,0:0:0:0:
273,266,71643,6,0,L|346:281,1,73.4999977569581,10|0,2:1|0:0,0:0:0:0:
338,286,71816,6,0,L|267:272,1,73.4999977569581,10|0,2:1|0:0,0:0:0:0:
175,206,71988,6,0,P|206:206|228:184,1,62.9999980773926,8|0,0:0|0:0,0:0:0:0:
177,145,72333,6,0,L|156:315,1,171.499994766236,12|0,2:1|0:0,0:0:0:0:
108,359,72678,6,0,P|91:333|94:306,1,52.5,8|0,0:0|0:0,0:0:0:0:
11,28,73023,6,0,L|37:271,1,245,12|0,2:1|0:0,0:0:0:0:
92,305,73367,6,0,P|103:276|96:251,1,52.5,8|0,0:0|0:0,0:0:0:0:
90,43,73712,5,12,0:0:0:0:
87,56,73798,1,8,0:0:0:0:
82,73,73885,2,0,L|85:119,1,35,8|0,0:0|0:0,0:0:0:0:
146,138,74057,5,8,0:0:0:0:
143,151,74143,1,8,0:0:0:0:
138,168,74230,2,0,L|141:214,1,35,8|0,0:0|0:0,0:0:0:0:
157,72,74402,5,8,0:0:0:0:
184,50,74488,1,8,0:0:0:0:
218,46,74574,1,8,0:0:0:0:
249,62,74661,1,8,0:0:0:0:
268,91,74747,1,8,0:0:0:0:
301,101,74833,1,8,0:0:0:0:
332,85,74919,1,8,0:0:0:0:
508,227,75092,6,0,P|463:192|363:228,1,146.999995513916,12|0,2:1|0:0,0:0:0:0:
319,178,75436,2,0,P|306:198|303:224,1,48.9999985046387,8|0,0:0|0:0,0:0:0:0:
268,278,75609,2,0,P|275:301|293:319,1,48.9999985046387,2|0,0:0|0:0,0:0:0:0:
368,343,75781,6,0,L|353:270,1,73.4999977569581,10|0,2:1|0:0,0:0:0:0:
348,278,75954,6,0,L|363:349,1,73.4999977569581,10|0,2:1|0:0,0:0:0:0:
457,358,76126,5,8,0:0:0:0:
466,319,76212,1,8,2:1:0:0:
440,288,76298,1,10,2:1:0:0:
79,127,76471,6,0,P|124:92|224:128,1,146.999995513916,2|0,0:0|0:0,0:0:0:0:
268,78,76816,2,0,P|282:98|285:123,1,48.9999985046387,8|0,0:0|0:0,0:0:0:0:
319,178,76988,2,0,P|313:201|295:219,1,48.9999985046387,2|0,0:0|0:0,0:0:0:0:
219,243,77161,6,0,L|234:170,1,73.4999977569581,10|0,2:1|0:0,0:0:0:0:
239,178,77333,6,0,L|225:249,1,73.4999977569581,10|0,2:1|0:0,0:0:0:0:
193,357,77505,6,0,P|193:326|174:303,1,62.9999980773926,8|0,0:0|0:0,0:0:0:0:
133,352,77850,6,0,B|210:338|197:382|289:370,1,146.999995513916,10|0,2:1|0:0,0:0:0:0:
317,320,78195,2,0,P|335:335|341:359,1,48.9999985046387,8|0,0:0|0:0,0:0:0:0:
252,306,78367,2,0,P|271:262|318:253,1,97.9999970092774,2|8,2:1|2:1,0:0:0:0:
376,284,78626,1,8,2:1:0:0:
405,344,78712,2,0,L|466:345,1,48.9999985046387,8|0,2:1|0:0,0:0:0:0:
316,246,78885,6,0,L|341:88,1,146.999995513916,8|0,0:0|0:0,0:0:0:0:
365,26,79230,6,0,P|333:9|298:13,1,73.4999977569581,2|0,0:0|0:0,0:0:0:0:
297,22,79402,6,0,P|332:18|364:34,1,73.4999977569581,10|0,2:1|0:0,0:0:0:0:
473,67,79574,6,0,P|466:31|439:6,1,73.4999977569581,8|0,0:0|0:0,0:0:0:0:
432,10,79747,6,0,P|458:35|466:71,1,73.4999977569581,10|0,2:1|0:0,0:0:0:0:
344,97,79919,6,0,L|393:105,1,48.9999985046387,8|0,2:1|0:0,0:0:0:0:
485,157,80092,6,0,L|436:164,1,48.9999985046387,8|0,2:1|0:0,0:0:0:0:
160,197,80264,5,8,0:0:0:0:
201,148,80350,1,8,0:0:0:0:
264,145,80436,1,8,2:3:0:0:
315,183,80523,1,4,2:3:0:0:
316,246,80609,5,14,1:2:0:0:
388,328,80781,1,8,2:1:0:0:
329,369,80954,5,10,1:2:0:0:
399,212,81126,1,8,2:1:0:0:
403,207,81212,1,8,2:1:0:0:
405,202,81298,2,0,P|413:167|396:135,1,73.4999977569581,10|0,1:2|0:0,0:0:0:0:
337,108,81643,5,10,1:2:0:0:
338,103,81730,1,8,2:1:0:0:
339,98,81816,2,0,L|347:55,1,24.4999992523194,8|8,2:1|2:1,0:0:0:0:
340,174,81988,5,10,1:2:0:0:
412,65,82161,1,8,2:1:0:0:
356,9,82333,5,10,1:2:0:0:
181,109,82505,1,8,2:1:0:0:
176,112,82592,1,8,2:1:0:0:
173,115,82678,2,0,P|151:156|162:191,1,73.4999977569581,10|0,1:2|0:0,0:0:0:0:
88,172,83023,6,0,P|97:217|128:237,1,73.4999977569581,10|0,1:2|0:0,0:0:0:0:
183,241,83367,5,14,1:2:0:0:
249,359,83540,1,8,2:1:0:0:
181,348,83712,5,10,1:2:0:0:
287,216,83885,1,8,2:1:0:0:
240,166,84057,5,10,1:2:0:0:
318,337,84230,1,8,2:1:0:0:
367,286,84402,5,10,1:2:0:0:
181,252,84574,1,8,2:1:0:0:
484,101,84747,5,14,1:2:0:0:
442,189,84919,1,8,2:1:0:0:
479,354,85092,5,14,1:2:0:0:
61,115,85436,5,10,1:2:0:0:
70,97,85523,1,8,0:0:0:0:
84,83,85609,1,8,2:3:0:0:
103,79,85695,1,4,2:3:0:0:
119,140,85781,5,10,1:2:0:0:
114,173,85867,1,8,2:3:0:0:
110,207,85954,1,4,2:3:0:0:
106,241,86040,1,4,2:3:0:0:
51,275,86126,5,12,0:0:0:0:
240,181,86298,1,12,2:1:0:0:
41,279,86643,5,12,0:0:0:0:
249,176,86816,1,12,2:1:0:0:
31,283,87161,5,12,0:0:0:0:
258,171,87333,1,12,2:1:0:0:
19,288,87678,5,12,0:0:0:0:
269,165,87850,1,12,2:1:0:0:
204,365,88195,6,0,P|201:342|220:320,1,52.5000020027161,12|8,0:0|2:3,0:0:0:0:
191,263,88367,1,4,2:3:0:0:
193,258,88454,1,4,2:3:0:0:
195,253,88540,2,0,P|217:239|243:239,1,52.5000020027161,12|0,0:0|0:0,0:0:0:0:
354,306,88712,5,12,2:1:0:0:
256,192,88885,12,4,90982,2:3:0:0:
