osu file format v14

[General]
AudioFilename: pray.ogg
AudioLeadIn: 0
PreviewTime: 52850
Countdown: 0
SampleSet: Soft
StackLeniency: 0
Mode: 0
LetterboxInBreaks: 0
WidescreenStoryboard: 1

[Editor]
DistanceSpacing: 1
BeatDivisor: 4
GridSize: 32
TimelineZoom: 3

[Metadata]
Title:pray
TitleUnicode:pray
Artist:Shimotsuki Haruka
ArtistUnicode:霜月はるか
Creator:Hakusui Sama
Version:hard
Source:れじぇくろ! ~レジェンド・クローバー~
Tags:Japanese JP Jpop J-pop pop Techcross Sound Corps Legeclo! ~Legend Clover~ Eroge OP Opening Short Version Hakusui3820 Teages kanpakyin Surac Mimiliaa Hojo Karen Hitsukuya Suzuhara Lulu Mimilie dahkjdas
BeatmapID:3894715
BeatmapSetID:1864352

[Difficulty]
HPDrainRate:5
CircleSize:3.6
OverallDifficulty:6
ApproachRate:8
SliderMultiplier:1.35
SliderTickRate:1

[Events]
//Background and Video events
0,0,"BG.jpg",0,0
Video,0,"OP.mp4"
//Break Periods
2,42188,46755
//Storyboard Layer 0 (Background)
//Storyboard Layer 1 (Fail)
//Storyboard Layer 2 (Pass)
//Storyboard Layer 3 (Foreground)
//Storyboard Layer 4 (Overlay)
//Storyboard Sound Samples

[TimingPoints]
-770,344.827586206897,4,2,1,60,1,0
609,-250,4,2,2,40,0,0
6126,-166.666666666667,4,2,1,50,0,0
17161,-125,4,2,1,60,0,0
21298,-250,4,2,1,60,0,0
22678,-125,4,2,1,60,0,0
28195,-100,4,2,1,70,0,0
41988,-250,4,2,1,50,0,0
47505,-166.666666666667,4,2,1,50,0,0
50264,-125,4,2,1,60,0,0
51643,-100,4,2,1,70,0,0
53023,-83.3333333333333,4,2,1,80,0,1
53066,-83.3333333333333,4,2,1,80,0,0
64057,-83.3333333333333,4,2,1,80,0,1
64100,-83.3333333333333,4,2,1,80,0,0
75092,-83.3333333333333,4,2,1,80,0,1
75135,-83.3333333333333,4,2,1,80,0,0
80609,-83.3333333333333,4,2,1,90,0,1
86083,-83.3333333333333,4,2,1,90,0,0
86126,-83.3333333333333,4,2,1,90,0,1
86212,-83.3333333333333,4,2,1,90,0,0
86298,-83.3333333333333,4,2,1,90,0,1
86471,-83.3333333333333,4,2,1,90,0,0
86643,-83.3333333333333,4,2,1,90,0,1
86730,-83.3333333333333,4,2,1,90,0,0
86816,-83.3333333333333,4,2,1,90,0,1
86988,-83.3333333333333,4,2,1,90,0,0
87161,-83.3333333333333,4,2,1,90,0,1
87247,-83.3333333333333,4,2,1,90,0,0
87333,-83.3333333333333,4,2,1,90,0,1
87505,-83.3333333333333,4,2,1,90,0,0
87678,-83.3333333333333,4,2,1,90,0,1
87764,-83.3333333333333,4,2,1,90,0,0
87850,-83.3333333333333,4,2,1,90,0,1
88023,-83.3333333333333,4,2,1,90,0,0
88195,-83.3333333333333,4,2,1,90,0,1
88540,-83.3333333333333,4,2,1,90,0,0
88712,-166.666666666667,4,2,1,80,0,1
88755,-166.666666666667,4,2,1,80,0,0
90982,-83.3333333333333,4,2,1,70,0,0
91298,-83.3333333333333,4,2,99,10,0,0

[Colours]
Combo1 : 191,191,191
Combo2 : 255,217,128
Combo3 : 128,191,255
Combo4 : 255,128,191
Combo5 : 191,128,255

[HitObjects]
13,179,6126,6,0,L|128:137,2,121.499996292114,4|2|2,0:0|0:0|0:0,0:0:0:0:
13,179,7505,2,0,L|54:194,1,40.4999987640381,2|0,0:0|0:0,0:0:0:0:
51,193,8023,2,0,L|166:151,1,121.499996292114,2|0,0:0|0:0,0:0:0:0:
273,243,8885,6,0,L|231:358,2,121.499996292114,2|2|2,0:0|0:0|0:0,0:0:0:0:
413,219,10264,6,0,L|474:325,2,121.499996292114,2|2|2,0:0|0:0|0:0,0:0:0:0:
311,318,11643,38,0,L|196:276,2,121.499996292114,2|2|2,0:0|0:0|0:0,0:0:0:0:
311,318,13023,2,0,L|270:333,1,40.4999987640381,2|0,0:0|0:0,0:0:0:0:
273,332,13540,2,0,L|158:290,1,121.499996292114,2|0,0:0|0:0,0:0:0:0:
110,157,14402,6,0,L|68:42,2,121.499996292114,2|2|2,0:0|0:0|0:0,0:0:0:0:
250,181,15781,6,0,L|311:75,2,121.499996292114,2|2|8,0:0|0:0|0:0,0:0:0:0:
240,163,16902,2,0,L|224:136,1,20.2499993820191,8|8,0:0|2:3,0:0:0:0:
298,262,17161,38,0,B|379:262|379:262|398:243,1,108,12|0,2:1|0:0,0:0:0:0:
350,162,17678,2,0,B|269:162|269:162|250:181,1,108,2|0,0:0|0:0,0:0:0:0:
203,262,18195,2,0,L|203:316,1,54,2|0,0:0|0:0,0:0:0:0:
155,181,18540,6,0,P|118:142|109:88,1,108,8|0,2:1|0:0,0:0:0:0:
109,90,19230,2,0,L|84:99,2,27,2|0|0,0:0|0:0|0:0,0:0:0:0:
203,99,19574,1,2,0:0:0:0:
55,233,19919,6,0,B|55:152|55:152|74:133,1,108,8|0,2:1|0:0,0:0:0:0:
155,181,20436,2,0,B|155:262|155:262|136:281,2,108,2|0|0,0:0|0:0|0:0,0:0:0:0:
203,99,21298,6,0,L|280:127,2,81,8|0|0,2:1|0:0|0:0,0:0:0:0:
313,219,22678,21,8,2:1:0:0:
313,219,23023,1,0,0:0:0:0:
313,219,23367,2,0,L|332:272,1,54,2|0,0:0|0:0,0:0:0:0:
329,365,23712,2,0,L|348:312,1,54,2|0,0:0|0:0,0:0:0:0:
431,270,24057,5,8,2:1:0:0:
431,270,24402,1,0,0:0:0:0:
431,270,24747,2,0,L|450:217,1,54,2|0,0:0|0:0,0:0:0:0:
447,124,25092,2,0,L|466:177,1,54,2|8,0:0|2:1,0:0:0:0:
353,133,25436,6,0,P|316:94|307:40,1,108,8|0,2:1|0:0,0:0:0:0:
214,19,25954,2,0,P|179:61|127:76,1,108,2|0,0:0|0:0,0:0:0:0:
69,2,26471,2,0,P|52:21|38:51,1,54
60,139,26816,5,8,2:1:0:0:
100,166,27505,1,8,2:1:0:0:
194,272,27764,5,8,0:0:0:0:
186,248,27850,1,8,0:0:0:0:
172,228,27936,1,8,0:0:0:0:
12,306,28195,5,12,2:1:0:0:
16,310,28367,1,0,0:0:0:0:
20,314,28540,2,0,L|68:266,1,67.5,8|0,0:0|0:0,0:0:0:0:
139,337,28885,5,8,2:1:0:0:
143,341,29057,1,0,0:0:0:0:
147,345,29230,2,0,L|195:297,1,67.5,8|0,0:0|0:0,0:0:0:0:
274,376,29574,5,12,2:1:0:0:
261,230,29747,2,0,L|255:163,2,67.5,8|8|4,0:0|2:3|2:3,0:0:0:0:
338,284,30264,2,0,L|365:303,2,33.75,4|8|4,2:3|0:0|2:3,0:0:0:0:
352,190,30609,1,8,2:3:0:0:
356,194,30781,1,4,2:3:0:0:
253,136,30954,38,0,P|188:124|130:159,1,135,12|8,2:1|0:0,0:0:0:0:
83,239,31471,2,0,P|148:251|206:216,1,135,8|8,2:1|2:1,0:0:0:0:
180,75,31988,2,0,L|168:7,1,67.5,8|0,0:0|0:0,0:0:0:0:
253,136,32333,6,0,P|318:148|376:113,1,135,8|8,2:1|0:0,0:0:0:0:
423,33,32850,2,0,P|358:21|300:56,1,135,8|8,2:1|2:1,0:0:0:0:
326,197,33367,2,0,L|338:265,1,67.5,8|0,0:0|0:0,0:0:0:0:
250,313,33712,6,0,L|226:178,1,135,8|8,2:1|0:0,0:0:0:0:
139,230,34230,2,0,L|151:298,1,67.5,8|0,2:1|0:0,0:0:0:0:
80,156,34574,2,0,P|110:140|143:135,1,67.5,8|8,2:1|0:0,0:0:0:0:
226,180,34919,1,2,0:0:0:0:
290,110,35092,6,0,B|354:133|354:133|331:196,2,135,8|8|8,2:1|0:0|2:1,0:0:0:0:
294,114,35954,1,8,2:1:0:0:
385,110,36126,2,0,P|397:79|397:44,1,67.5,8|0,0:0|0:0,0:0:0:0:
368,203,36471,22,0,P|368:270|410:319,1,135,8|8,2:1|0:0,0:0:0:0:
500,287,36988,2,0,P|500:220|458:171,1,135,8|8,2:1|2:1,0:0:0:0:
322,220,37505,2,0,L|258:243,1,67.5,8|0,0:0|0:0,0:0:0:0:
123,194,37850,6,0,P|123:127|165:78,1,135,8|8,2:1|0:0,0:0:0:0:
255,110,38367,2,0,P|255:177|213:226,1,135,8|8,2:1|2:1,0:0:0:0:
77,177,38885,2,0,L|11:153,1,67.5,8|0,0:0|0:0,0:0:0:0:
13,253,39230,6,0,L|142:300,1,135,8|8,2:1|0:0,0:0:0:0:
76,375,39747,2,0,L|10:351,2,67.5,2|8|8,0:0|2:1|2:1,0:0:0:0:
165,344,40264,1,8,0:0:0:0:
169,348,40436,1,0,0:0:0:0:
124,259,40609,6,0,B|155:199|155:199|186:215,1,101.25,12|0,2:1|0:0,0:0:0:0:
209,227,40954,1,8,0:0:0:0:
267,116,41126,2,0,B|327:147|327:147|311:178,1,101.25,12|0,2:1|0:0,0:0:0:0:
299,201,41471,1,8,0:0:0:0:
325,291,41643,1,8,0:0:0:0:
350,301,41730,1,8,2:3:0:0:
377,304,41816,1,4,2:3:0:0:
403,300,41902,1,4,2:3:0:0:
427,288,41988,5,4,0:0:0:0:
427,288,47505,6,0,P|463:240|464:179,2,121.499996292114,12|2|2,2:1|0:0|0:0,0:0:0:0:
403,300,48712,1,8,2:1:0:0:
377,304,48885,5,8,2:1:0:0:
377,304,49230,2,0,L|297:290,2,80.9999975280763,2|2|2,0:0|0:0|0:0,0:0:0:0:
424,291,50092,1,8,2:1:0:0:
457,255,50264,6,0,P|468:202|450:151,1,108,12|0,2:1|0:0,0:0:0:0:
291,163,50954,6,0,P|280:216|298:267,1,108,12|0,2:1|0:0,0:0:0:0:
290,68,51643,6,0,P|267:43|236:26,1,67.5,12|0,2:1|0:0,0:0:0:0:
126,72,51988,2,0,P|116:105|117:140,1,67.5,8|0,0:0|0:0,0:0:0:0:
166,217,52333,1,12,2:1:0:0:
177,209,52419,1,8,0:0:0:0:
187,199,52505,1,8,2:3:0:0:
195,188,52592,1,4,2:3:0:0:
202,176,52678,2,0,P|207:161|211:140,3,33.75,8|8|4|4,0:0|2:3|2:3|2:3,0:0:0:0:
209,117,53023,6,0,P|235:146|274:162,2,80.9999975280763,12|0|8,2:1|0:0|0:0,0:0:0:0:
117,138,53540,2,0,P|90:167|76:207,1,80.9999975280763,2|8,0:0|2:1,0:0:0:0:
115,292,53885,1,2,0:0:0:0:
167,212,54057,1,8,0:0:0:0:
171,216,54230,6,0,B|248:244|248:244|219:323,1,161.999995056153,8|8,2:1|2:1,0:0:0:0:
310,352,54747,2,0,L|366:198,2,161.999995056153,8|2|8,0:0|0:0|0:0,0:0:0:0:
314,356,55609,1,0,0:0:0:0:
371,281,55781,6,0,P|408:263|451:262,1,80.9999975280763,8|0,2:1|0:0,0:0:0:0:
468,169,56126,2,0,P|486:206|487:249,1,80.9999975280763,8|0,0:0|0:0,0:0:0:0:
374,158,56471,2,0,P|387:120|416:89,1,80.9999975280763,8|0,2:1|0:0,0:0:0:0:
338,181,56816,2,0,P|300:168|269:139,1,80.9999975280763,8|8,0:0|2:1,0:0:0:0:
173,77,57161,6,0,P|251:96|315:51,1,161.999995056153,2|8,0:0|0:0,0:0:0:0:
387,121,57678,2,0,L|376:201,2,80.9999975280763,2|8|8,0:0|2:1|2:1,0:0:0:0:
283,184,58195,2,0,L|272:264,1,80.9999975280763,8|0,0:0|0:0,0:0:0:0:
230,98,58540,22,0,P|152:79|88:124,1,161.999995056153,12|8,2:1|0:0,0:0:0:0:
151,249,59057,2,0,P|169:212|170:169,1,80.9999975280763,2|8,0:0|2:1,0:0:0:0:
171,173,59574,2,0,P|153:210|152:253,1,80.9999975280763,8|8,0:0|2:1,0:0:0:0:
202,330,59919,5,4,0:0:0:0:
206,334,60092,1,8,2:1:0:0:
290,291,60264,2,0,L|373:291,1,80.9999975280763,8|0,0:0|0:0,0:0:0:0:
449,198,60609,2,0,L|408:269,1,80.9999975280763,2|8,0:0|2:1,0:0:0:0:
449,383,60954,2,0,L|408:312,1,80.9999975280763,8|0,0:0|0:0,0:0:0:0:
337,192,61298,5,12,2:1:0:0:
341,196,61471,1,0,0:0:0:0:
400,122,61643,2,0,P|363:104|320:103,1,80.9999975280763,8|0,0:0|0:0,0:0:0:0:
243,209,61988,5,12,2:1:0:0:
247,213,62161,1,0,0:0:0:0:
321,272,62333,2,0,P|339:235|340:192,1,80.9999975280763,8|0,0:0|0:0,0:0:0:0:
227,116,62678,21,12,2:1:0:0:
231,120,62850,1,8,2:1:0:0:
259,26,63023,5,12,0:0:0:0:
263,30,63195,1,8,2:1:0:0:
170,47,63367,6,0,L|130:47,3,40.4999987640381,8|8|8|8,0:0|0:0|0:0|0:0,0:0:0:0:
106,47,63712,2,0,L|26:47,1,80.9999975280763,8|4,0:0|2:3,0:0:0:0:
99,141,64057,38,0,P|118:219|73:283,1,161.999995056153,12|8,2:1|0:0,0:0:0:0:
147,223,64574,2,0,P|184:205|226:204,2,80.9999975280763,2|8|0,0:0|2:1|0:0,0:0:0:0:
170,316,65092,2,0,P|210:315|246:297,1,80.9999975280763,8|8,0:0|2:1,0:0:0:0:
290,371,65436,6,0,P|271:293|316:229,1,161.999995056153,2|8,0:0|0:0,0:0:0:0:
458,245,65954,2,0,B|444:325|444:325|365:311,1,161.999995056153,2|8,0:0|2:1,0:0:0:0:
435,154,66471,2,0,P|477:153|515:169,1,80.9999975280763,8|0,0:0|0:0,0:0:0:0:
367,220,66816,6,0,L|422:68,1,161.999995056153,8|8,2:1|0:0,0:0:0:0:
319,74,67333,2,0,L|291:150,2,80.9999975280763,2|8|8,0:0|2:1|2:1,0:0:0:0:
202,118,67850,2,0,L|230:42,1,80.9999975280763,8|8,0:0|2:1,0:0:0:0:
162,131,68195,6,0,B|85:156|85:156|20:105,1,161.999995056153,2|8,0:0|0:0,0:0:0:0:
21,106,68885,2,0,L|36:189,1,80.9999975280763,8|8,2:1|2:1,0:0:0:0:
22,297,69230,2,0,L|7:214,1,80.9999975280763,8|0,0:0|0:0,0:0:0:0:
87,366,69574,22,0,P|165:385|229:340,1,161.999995056153,12|8,2:1|0:0,0:0:0:0:
166,215,70092,2,0,P|148:252|147:295,2,80.9999975280763,2|8|8,0:0|2:1|2:1,0:0:0:0:
272,186,70609,2,0,P|306:207|329:241,1,80.9999975280763,8|8,0:0|2:1,0:0:0:0:
269,315,70954,6,0,P|347:334|411:289,1,161.999995056153,2|8,0:0|0:0,0:0:0:0:
395,147,71471,2,0,B|315:161|315:161|329:240,1,161.999995056153,2|8,0:0|2:1,0:0:0:0:
486,170,71988,2,0,P|487:128|471:90,1,80.9999975280763,8|0,0:0|0:0,0:0:0:0:
416,234,72333,5,12,2:1:0:0:
420,238,72505,1,0,0:0:0:0:
326,169,72678,2,0,L|259:120,1,80.9999975280763,8|0,0:0|0:0,0:0:0:0:
209,230,73023,5,12,2:1:0:0:
213,234,73195,1,0,0:0:0:0:
166,127,73367,2,0,L|132:51,1,80.9999975280763,8|0,0:0|0:0,0:0:0:0:
36,128,73712,6,0,L|2:103,2,40.4999987640381,12|8|8,0:0|0:0|0:0,0:0:0:0:
25,223,74057,1,8,0:0:0:0:
13,239,74143,1,8,0:0:0:0:
1,256,74229,1,8,0:0:0:0:
102,279,74402,2,0,L|77:313,2,40.4999987640381,8|8|8,0:0|0:0|0:0,0:0:0:0:
189,240,74747,1,8,0:0:0:0:
205,252,74833,1,8,0:0:0:0:
222,264,74919,1,8,0:0:0:0:
270,345,75092,6,0,P|315:277|294:203,1,161.999995056153,12|8,2:1|0:0,0:0:0:0:
343,284,75609,2,0,P|370:313|409:329,2,80.9999975280763,2|8|0,0:0|2:1|0:0,0:0:0:0:
398,206,76126,2,0,P|436:222|463:251,1,80.9999975280763,8|8,0:0|2:1,0:0:0:0:
346,288,76471,6,0,P|268:307|204:262,1,161.999995056153,2|8,0:0|0:0,0:0:0:0:
220,120,76988,2,0,B|300:134|300:134|286:213,1,161.999995056153,2|8,0:0|2:1,0:0:0:0:
129,143,77505,2,0,P|128:101|144:63,1,80.9999975280763,8|0,0:0|0:0,0:0:0:0:
195,211,77850,6,0,L|43:156,1,161.999995056153,10|8,2:1|0:0,0:0:0:0:
49,259,78367,2,0,L|125:287,2,80.9999975280763,2|8|8,2:1|2:1|2:1,0:0:0:0:
93,376,78885,2,0,L|17:348,1,80.9999975280763,8|8,0:0|2:1,0:0:0:0:
186,359,79230,6,0,B|262:387|262:387|328:337,1,161.999995056153,2|8,0:0|0:0,0:0:0:0:
327,338,79919,2,0,L|312:255,1,80.9999975280763,8|8,2:1|2:1,0:0:0:0:
381,192,80264,1,8,0:0:0:0:
406,202,80350,1,8,0:0:0:0:
433,205,80436,1,8,2:3:0:0:
459,201,80523,1,4,2:3:0:0:
483,189,80609,22,0,L|468:272,2,80.9999975280763,14|8|10,1:2|2:1|1:2,0:0:0:0:
429,111,81126,1,8,2:1:0:0:
432,95,81212,1,8,2:1:0:0:
435,79,81298,2,0,L|449:-1,1,80.9999975280763,10|8,1:2|2:1,0:0:0:0:
341,62,81643,1,10,1:2:0:0:
256,19,81816,1,8,2:1:0:0:
171,62,81988,6,0,L|88:77,2,80.9999975280763,10|8|10,1:2|2:1|1:2,0:0:0:0:
236,132,82505,1,8,2:1:0:0:
233,148,82592,1,8,2:1:0:0:
231,164,82678,2,0,L|217:244,1,80.9999975280763,10|8,1:2|2:1,0:0:0:0:
325,180,83023,2,0,L|311:260,1,80.9999975280763,10|8,1:2|2:1,0:0:0:0:
406,131,83367,5,14,1:2:0:0:
410,135,83540,1,8,2:1:0:0:
484,195,83712,2,0,P|502:158|503:115,1,80.9999975280763,10|8,1:2|2:1,0:0:0:0:
439,42,84057,5,10,1:2:0:0:
443,46,84230,1,8,2:1:0:0:
354,80,84402,2,0,P|377:114|413:136,1,80.9999975280763,10|8,1:2|2:1,0:0:0:0:
260,104,84747,21,14,1:2:0:0:
264,108,84919,1,8,2:1:0:0:
315,213,85092,5,14,1:2:0:0:
319,217,85264,1,8,2:1:0:0:
197,210,85436,5,10,1:2:0:0:
186,218,85523,1,8,0:0:0:0:
176,228,85609,1,8,2:3:0:0:
168,239,85695,1,4,2:3:0:0:
161,251,85781,2,0,P|156:266|152:291,3,40.4999987640381,10|8|4|4,1:2|2:3|2:3|2:3,0:0:0:0:
154,310,86126,37,12,0:0:0:0:
256,347,86298,2,0,P|285:321|301:282,1,80.9999975280763,12|8,2:1|2:1,0:0:0:0:
395,361,86643,5,12,0:0:0:0:
432,259,86816,2,0,P|406:230|367:214,1,80.9999975280763,12|8,2:1|2:1,0:0:0:0:
446,120,87161,5,12,0:0:0:0:
344,83,87333,2,0,P|315:109|299:148,1,80.9999975280763,12|8,2:1|2:1,0:0:0:0:
205,69,87678,5,12,0:0:0:0:
168,171,87850,2,0,P|194:200|233:216,1,80.9999975280763,12|8,2:1|2:1,0:0:0:0:
90,224,88195,5,12,0:0:0:0:
78,200,88281,1,8,2:3:0:0:
74,174,88367,1,4,2:3:0:0:
77,147,88454,1,4,2:3:0:0:
87,122,88540,1,12,0:0:0:0:
170,77,88712,5,12,2:1:0:0:
256,192,88798,12,4,90982,2:3:0:0:
