osu file format v14

[General]
AudioFilename: pray.ogg
AudioLeadIn: 0
PreviewTime: 52850
Countdown: 0
SampleSet: Soft
StackLeniency: 0.3
Mode: 0
LetterboxInBreaks: 0
WidescreenStoryboard: 1

[Editor]
Bookmarks: 71298
DistanceSpacing: 1.3
BeatDivisor: 4
GridSize: 32
TimelineZoom: 3

[Metadata]
Title:pray
TitleUnicode:pray
Artist:Shimotsuki Haruka
ArtistUnicode:霜月はるか
Creator:Hakusui Sama
Version:dahkjdas' extra
Source:れじぇくろ! ~レジェンド・クローバー~
Tags:Japanese JP Jpop J-pop pop Techcross Sound Corps Legeclo! ~Legend Clover~ Eroge OP Opening Short Version Hakusui3820 Teages kanpakyin Surac Mimiliaa Hojo Karen Hitsukuya Suzuhara Lulu Mimilie dahkjdas
BeatmapID:3894714
BeatmapSetID:1864352

[Difficulty]
HPDrainRate:6.5
CircleSize:4
OverallDifficulty:8.8
ApproachRate:9.3
SliderMultiplier:1.92
SliderTickRate:1

[Events]
//Background and Video events
0,0,"BG.jpg",0,0
Video,0,"OP.mp4"
//Break Periods
//Storyboard Layer 0 (Background)
//Storyboard Layer 1 (Fail)
//Storyboard Layer 2 (Pass)
//Storyboard Layer 3 (Foreground)
//Storyboard Layer 4 (Overlay)
//Storyboard Sound Samples

[TimingPoints]
-770,344.827586206897,4,2,1,60,1,0
609,-200,4,2,2,40,0,0
1988,-166.666666666667,4,2,2,40,0,0
5436,-200,4,2,2,40,0,0
6126,-166.666666666667,4,2,1,50,0,0
17161,-133.333333333333,4,2,1,60,0,0
27850,-100,4,2,1,60,0,0
28195,-100,4,2,1,70,0,0
30954,-111.111111111111,4,2,1,70,0,0
41988,-200,4,2,1,50,0,0
47505,-166.666666666667,4,2,1,50,0,0
50264,-133.333333333333,4,2,1,60,0,0
51643,-100,4,2,1,70,0,0
53023,-83.3333333333333,4,2,1,80,0,1
80609,-83.3333333333333,4,2,1,90,0,1
86126,-76.9230769230769,4,2,1,90,0,0
88195,-83.3333333333333,4,2,1,90,0,0
88712,-83.3333333333333,4,2,1,80,0,0
90982,-200,4,2,1,70,0,0
91298,-200,4,2,99,10,0,0

[Colours]
Combo1 : 191,191,191
Combo2 : 255,217,128
Combo3 : 128,191,255
Combo4 : 255,128,191
Combo5 : 191,128,255

[HitObjects]
75,197,609,6,0,P|65:172|64:149,2,48,2|0|0,0:0|0:0|0:0,0:0:0:0:
196,61,1126,2,0,P|205:85|206:108,2,48
142,155,1643,1,0,0:0:0:0:
142,155,1988,6,0,P|196:144|246:177,1,115.199996484375,2|0,0:0|0:0,0:0:0:0:
371,239,2678,2,0,P|317:228|267:261,1,115.199996484375
256,342,3367,5,2,0:0:0:0:
256,42,4747,1,2,0:0:0:0:
256,42,5436,6,0,L|315:49,1,48
320,130,5781,2,0,L|272:124,1,48
190,103,6126,6,0,L|201:228,1,115.199996484375,4|0,0:0|0:0,0:0:0:0:
127,250,6643,1,2,0:0:0:0:
194,299,6816,2,0,L|319:315,1,115.199996484375,2|0,0:0|0:0,0:0:0:0:
397,238,7333,2,0,L|282:223,2,115.199996484375,2|2|2,0:0|0:0|0:0,0:0:0:0:
469,127,8712,5,2,0:0:0:0:
469,127,8885,2,0,L|338:137,1,115.199996484375,2|0,0:0|0:0,0:0:0:0:
402,44,9402,1,2,0:0:0:0:
402,44,9574,2,0,L|271:54,1,115.199996484375,2|0,0:0|0:0,0:0:0:0:
199,39,10092,1,2,0:0:0:0:
199,39,10264,6,0,L|181:176,1,115.199996484375,2|0,0:0|0:0,0:0:0:0:
272,133,10781,1,2,0:0:0:0:
254,209,10954,2,0,P|200:241|129:218,1,115.199996484375,2|0,0:0|0:0,0:0:0:0:
19,311,11643,6,0,P|14:266|8:233,2,57.5999982421876,2|0|0,0:0|0:0|0:0,0:0:0:0:
87,364,12161,1,2,0:0:0:0:
87,364,12333,2,0,P|122:334|196:343,1,115.199996484375,2|0,0:0|0:0,0:0:0:0:
265,372,12850,2,0,L|279:245,2,115.199996484375,2|2|2,0:0|0:0|0:0,0:0:0:0:
433,157,14230,5,2,0:0:0:0:
433,157,14402,2,0,P|394:123|318:134,1,115.199996484375,2|0,0:0|0:0,0:0:0:0:
172,199,14919,1,2,0:0:0:0:
172,199,15092,2,0,P|221:213|285:171,1,115.199996484375,2|0,0:0|0:0,0:0:0:0:
255,109,15609,1,2,0:0:0:0:
347,10,15781,6,0,L|331:138,1,115.199996484375,2|0,0:0|0:0,0:0:0:0:
276,186,16298,1,2,0:0:0:0:
357,205,16471,2,0,L|427:199,1,57.5999982421876,2|0,0:0|0:0,0:0:0:0:
470,20,16816,1,8,0:0:0:0:
468,31,16902,1,8,0:0:0:0:
466,42,16988,1,8,2:3:0:0:
512,112,17161,6,0,P|460:126|383:60,1,144.000005493164,12|0,2:1|0:0,0:0:0:0:
298,14,17678,2,0,L|309:165,1,144.000005493164,2|0,0:0|0:0,0:0:0:0:
256,229,18195,2,0,P|213:221|159:213,1,72.0000027465821,2|0,0:0|0:0,0:0:0:0:
13,166,18540,5,8,2:1:0:0:
31,242,18712,1,0,0:0:0:0:
90,160,18885,1,0,0:0:0:0:
108,236,19057,1,0,0:0:0:0:
209,131,19230,2,0,L|215:78,2,36.0000013732911,2|0|0,0:0|0:0|0:0,0:0:0:0:
256,204,19574,2,0,P|203:213|163:220,1,72.0000027465821,2|8,0:0|2:1,0:0:0:0:
167,21,19919,6,0,P|198:59|292:54,1,144.000005493164,8|0,2:1|0:0,0:0:0:0:
428,97,20436,2,0,L|328:114,1,72.0000027465821,2|0,0:0|0:0,0:0:0:0:
367,22,20781,2,0,L|438:10,1,72.0000027465821
508,67,21126,1,0,0:0:0:0:
428,97,21298,5,8,2:1:0:0:
508,149,21471,1,0,0:0:0:0:
428,179,21643,1,0,0:0:0:0:
508,67,21816,1,0,0:0:0:0:
428,179,21988,2,0,P|366:187|283:200,1,144.000005493164
179,332,22505,1,8,2:1:0:0:
100,299,22678,6,0,P|138:257|240:274,1,144.000005493164,8|0,2:1|0:0,0:0:0:0:
213,160,23195,2,0,P|220:108|225:75,1,72.0000027465821,2|0,0:0|0:0,0:0:0:0:
314,61,23540,2,0,P|308:96|304:132,1,72.0000027465821,2|0,0:0|0:0,0:0:0:0:
390,109,23885,1,2,0:0:0:0:
279,209,24057,6,0,B|373:220|321:180|419:192,1,144.000005493164,8|0,2:1|0:0,0:0:0:0:
506,169,24574,1,2,0:0:0:0:
506,169,24747,2,0,P|498:219|493:251,1,72.0000027465821,2|0,0:0|0:0,0:0:0:0:
392,271,25092,1,2,0:0:0:0:
507,357,25264,1,8,2:1:0:0:
338,343,25436,6,0,B|306:295|306:295|322:182,1,144.000005493164,8|0,2:1|0:0,0:0:0:0:
239,161,25954,2,0,L|226:247,1,72.0000027465821,2|0,0:0|0:0,0:0:0:0:
126,356,26298,2,0,L|139:270,1,72.0000027465821,2|0,0:0|0:0,0:0:0:0:
224,314,26643,1,2,0:0:0:0:
148,201,26816,6,0,P|141:134|130:38,2,144.000005493164,8|0|8,2:1|0:0|2:1,0:0:0:0:
375,134,27764,1,8,0:0:0:0:
363,146,27850,2,0,L|293:138,1,48,8|8,0:0|0:0,0:0:0:0:
265,72,28023,1,4,2:3:0:0:
327,225,28195,5,12,2:1:0:0:
182,112,28367,1,0,0:0:0:0:
353,42,28540,1,8,0:0:0:0:
165,110,28712,1,0,0:0:0:0:
421,246,28885,5,8,2:1:0:0:
240,205,29057,1,0,0:0:0:0:
349,137,29230,1,8,0:0:0:0:
308,318,29402,1,0,0:0:0:0:
137,239,29574,5,12,2:1:0:0:
112,363,29747,2,0,P|172:354|238:346,1,96,8|8,0:0|2:3,0:0:0:0:
378,207,30092,1,4,2:3:0:0:
403,331,30264,2,0,P|343:322|277:314,1,96,4|4,2:3|2:3,0:0:0:0:
221,63,30609,1,8,2:3:0:0:
137,239,30781,1,4,2:3:0:0:
463,173,30954,6,0,P|422:125|314:143,1,172.799994726563,12|8,2:1|0:0,0:0:0:0:
149,266,31471,2,0,P|190:218|298:236,1,172.799994726563,8|8,2:1|2:1,0:0:0:0:
365,292,31988,2,0,P|374:228|383:178,1,86.3999973632813,8|0,0:0|0:0,0:0:0:0:
198,182,32333,6,0,P|139:195|64:94,1,172.799994726563,8|8,2:1|0:0,0:0:0:0:
242,44,32850,1,8,2:1:0:0:
109,2,33023,1,0,0:0:0:0:
152,110,33195,1,8,2:1:0:0:
334,13,33367,2,0,P|328:60|319:131,1,86.3999973632813,8|0,0:0|0:0,0:0:0:0:
285,181,33712,6,0,P|349:187|407:143,1,129.599996044922,8|0,2:1|0:0,0:0:0:0:
407,137,34057,1,8,0:0:0:0:
501,280,34230,2,0,P|460:275|408:269,1,86.3999973632813,8|0,2:1|0:0,0:0:0:0:
353,351,34574,2,0,P|312:346|260:340,1,86.3999973632813,8|8,2:1|0:0,0:0:0:0:
113,210,34919,1,0,0:0:0:0:
286,247,35092,5,8,2:1:0:0:
113,210,35264,1,0,0:0:0:0:
179,316,35436,1,8,0:0:0:0:
219,141,35609,1,0,0:0:0:0:
179,316,35781,6,0,L|33:332,1,129.599996044922,8|0,2:1|0:0,0:0:0:0:
33,332,36126,1,8,0:0:0:0:
198,228,36298,1,0,0:0:0:0:
19,335,36471,6,0,P|8:235|1:146,1,172.799994726563,8|8,2:1|0:0,0:0:0:0:
256,186,36988,2,0,B|144:167|205:217|87:198,1,172.799994726563,8|8,2:1|2:1,0:0:0:0:
230,15,37505,2,0,P|225:64|221:126,1,86.3999973632813,8|0,0:0|0:0,0:0:0:0:
219,268,37850,6,0,P|262:282|346:192,1,172.799994726563,8|8,2:1|0:0,0:0:0:0:
505,173,38367,1,8,2:1:0:0:
361,125,38540,1,0,0:0:0:0:
474,85,38712,1,8,2:1:0:0:
430,224,38885,2,0,P|421:267|410:324,1,86.3999973632813,8|0,0:0|0:0,0:0:0:0:
338,352,39230,6,0,P|309:316|221:323,1,129.599996044922,8|0,2:1|0:0,0:0:0:0:
219,324,39574,1,8,0:0:0:0:
96,226,39747,1,0,0:0:0:0:
37,331,39919,2,0,P|99:322|152:315,1,86.3999973632813,8|8,2:1|2:1,0:0:0:0:
196,224,40264,2,0,P|258:215|311:208,1,86.3999973632813,8|0,0:0|0:0,0:0:0:0:
288,217,40523,1,0,0:0:0:0:
288,217,40609,6,0,L|300:133,1,43.1999986816407,12|0,2:1|0:0,0:0:0:0:
208,91,40781,1,0,0:0:0:0:
208,91,40867,1,0,0:0:0:0:
208,91,40954,2,0,L|215:162,1,43.1999986816407,8|0,0:0|0:0,0:0:0:0:
377,149,41126,2,0,L|384:220,1,43.1999986816407,12|0,2:1|0:0,0:0:0:0:
261,299,41298,1,8,2:1:0:0:
259,311,41385,1,8,2:1:0:0:
257,323,41471,1,8,2:1:0:0:
255,335,41557,1,8,2:1:0:0:
253,347,41643,5,8,0:0:0:0:
184,374,41730,5,8,2:3:0:0:
117,342,41816,5,4,2:3:0:0:
93,272,41902,5,4,2:3:0:0:
127,203,41988,6,0,B|206:162|225:83|179:17|82:22|72:109|110:130,1,288,4|0,0:0|0:0,0:0:0:0:
2,246,43367,6,0,P|75:213|203:342,1,288,2|0,0:0|0:0,0:0:0:0:
303,370,44747,5,2,0:0:0:0:
303,370,45092,2,0,L|292:174,1,192
424,91,46126,5,2,0:0:0:0:
424,91,46471,2,0,L|412:241,1,144
412,247,47161,1,0,0:0:0:0:
451,327,47505,6,0,P|423:331|385:333,2,57.5999982421876,12|0|0,2:1|0:0|0:0,0:0:0:0:
317,368,48023,2,0,P|308:341|299:304,2,57.5999982421876,2|0|0,0:0|0:0|0:0,0:0:0:0:
227,351,48540,1,2,0:0:0:0:
227,351,48712,1,8,2:1:0:0:
280,219,48885,1,8,2:1:0:0:
280,219,49230,6,0,P|254:247|180:249,2,115.199996484375,2|2|2,0:0|0:0|0:0,0:0:0:0:
420,182,50092,1,8,2:1:0:0:
420,182,50264,6,0,P|431:116|445:38,1,144.000005493164,12|0,2:1|0:0,0:0:0:0:
337,51,50954,2,0,P|324:121|312:192,1,144.000005493164,12|0,2:1|0:0,0:0:0:0:
123,253,51471,1,0,0:0:0:0:
123,253,51643,6,0,P|115:204|102:142,1,96,12|0,2:1|0:0,0:0:0:0:
199,118,51988,2,0,P|208:165|216:212,1,96,8|0,0:0|0:0,0:0:0:0:
314,318,52333,1,12,2:1:0:0:
328,315,52419,1,8,0:0:0:0:
342,312,52505,1,8,2:3:0:0:
356,310,52592,1,4,2:3:0:0:
370,308,52678,5,8,0:0:0:0:
437,285,52764,5,8,2:3:0:0:
476,227,52850,5,4,2:3:0:0:
471,156,52936,5,4,2:3:0:0:
419,105,53023,6,0,L|241:125,1,172.799994726563,12|0,2:1|0:0,0:0:0:0:
231,128,53367,1,8,0:0:0:0:
149,325,53540,2,0,P|177:264|208:204,1,115.199996484375,2|8,0:0|2:1,0:0:0:0:
134,144,53885,1,2,0:0:0:0:
297,207,54057,1,8,0:0:0:0:
51,313,54230,6,0,P|97:242|241:298,1,230.39999296875,8|8,2:1|2:1,0:0:0:0:
409,356,54747,2,0,P|339:349|272:336,1,115.199996484375,8|0,0:0|0:0,0:0:0:0:
150,325,55092,1,2,0:0:0:0:
347,259,55264,1,8,2:1:0:0:
155,209,55436,2,0,P|144:147|139:83,1,115.199996484375,8|0,0:0|0:0,0:0:0:0:
0,58,55781,6,0,P|42:120|69:194,1,115.199996484375,8|0,2:1|0:0,0:0:0:0:
281,39,56126,2,0,P|244:104|224:180,1,115.199996484375,8|0,0:0|0:0,0:0:0:0:
29,244,56471,1,8,2:1:0:0:
267,232,56643,1,0,0:0:0:0:
140,96,56816,1,8,0:0:0:0:
154,328,56988,1,8,2:1:0:0:
379,255,57161,6,0,P|325:243|255:230,1,115.199996484375,2|8,0:0|2:1,0:0:0:0:
322,52,57505,1,8,0:0:0:0:
125,150,57678,1,0,0:0:0:0:
125,150,57764,1,0,0:0:0:0:
125,150,57850,2,0,P|179:138|249:125,1,115.199996484375,8|8,2:1|2:1,0:0:0:0:
429,33,58195,2,0,P|414:103|403:170,1,115.199996484375,8|0,0:0|0:0,0:0:0:0:
354,347,58540,6,0,P|302:309|307:193,1,172.799994726563,12|0,2:1|0:0,0:0:0:0:
310,194,58885,1,8,0:0:0:0:
367,338,59057,2,0,B|230:298|286:391|147:352,1,230.39999296875,2|0,0:0|0:0,0:0:0:0:
74,100,59574,1,8,0:0:0:0:
203,273,59747,1,8,2:1:0:0:
24,207,59919,6,0,L|221:180,1,172.799994726563,4|0,0:0|0:0,0:0:0:0:
209,184,60264,2,0,P|225:95|239:39,1,115.199996484375,8|0,0:0|0:0,0:0:0:0:
89,43,60609,2,0,P|101:99|110:156,1,115.199996484375,2|8,0:0|2:1,0:0:0:0:
335,261,60954,2,0,P|322:204|313:147,1,115.199996484375,8|0,0:0|0:0,0:0:0:0:
412,72,61298,5,12,2:1:0:0:
256,319,61471,1,0,0:0:0:0:
128,99,61643,5,8,0:0:0:0:
258,335,61816,1,0,0:0:0:0:
241,117,61988,5,12,2:1:0:0:
144,358,62161,1,0,0:0:0:0:
445,291,62333,5,8,0:0:0:0:
144,358,62505,1,0,0:0:0:0:
350,32,62678,6,0,B|377:69|404:94|404:94|397:129|373:194,1,172.799994726563,12|8,2:1|2:1,0:0:0:0:
392,192,63023,2,0,P|310:203|248:213,1,115.199996484375,12|8,0:0|2:1,0:0:0:0:
41,272,63367,1,8,0:0:0:0:
44,255,63454,1,8,0:0:0:0:
47,238,63540,1,8,0:0:0:0:
51,221,63626,1,8,0:0:0:0:
55,205,63712,5,8,0:0:0:0:
125,181,63798,5,8,2:3:0:0:
196,201,63885,5,4,2:3:0:0:
244,257,63971,5,4,2:3:0:0:
252,330,64057,6,0,L|439:315,1,172.799994726563,12|0,2:1|0:0,0:0:0:0:
437,316,64402,1,8,0:0:0:0:
350,95,64574,1,0,0:0:0:0:
350,95,64661,1,0,0:0:0:0:
350,95,64747,2,0,P|335:170|326:228,1,115.199996484375,8|0,2:1|0:0,0:0:0:0:
73,357,65092,1,8,0:0:0:0:
248,241,65264,1,8,2:1:0:0:
109,119,65436,5,2,0:0:0:0:
248,241,65609,1,8,2:1:0:0:
105,269,65781,1,8,0:0:0:0:
260,87,65954,1,2,0:0:0:0:
260,87,66040,1,8,0:0:0:0:
260,87,66126,1,8,2:1:0:0:
8,178,66298,5,8,2:1:0:0:
248,241,66471,1,8,0:0:0:0:
165,37,66643,1,0,0:0:0:0:
358,216,66816,6,0,P|369:125|381:30,1,172.799994726563,8|0,2:1|0:0,0:0:0:0:
381,30,67161,1,8,0:0:0:0:
144,206,67333,1,0,0:0:0:0:
144,206,67419,1,0,0:0:0:0:
144,206,67505,2,0,P|155:284|162:341,1,115.199996484375,8|8,2:1|2:1,0:0:0:0:
269,355,67850,1,8,0:0:0:0:
60,272,68023,1,8,2:1:0:0:
235,145,68195,5,2,0:0:0:0:
48,72,68367,1,8,2:1:0:0:
144,206,68540,1,8,0:0:0:0:
190,4,68712,1,0,0:0:0:0:
190,4,68798,1,0,0:0:0:0:
190,4,68885,1,8,2:1:0:0:
351,147,69057,1,8,2:1:0:0:
144,206,69230,1,8,0:0:0:0:
442,188,69402,1,0,0:0:0:0:
442,188,69488,1,0,0:0:0:0:
442,188,69574,6,0,P|427:282|413:374,1,172.799994726563,12|0,2:1|0:0,0:0:0:0:
413,375,69919,1,8,0:0:0:0:
198,312,70092,1,0,0:0:0:0:
198,312,70178,1,0,0:0:0:0:
198,312,70264,2,0,P|270:302|335:295,1,115.199996484375,8|8,2:1|2:1,0:0:0:0:
486,73,70609,1,8,0:0:0:0:
341,208,70781,1,8,2:1:0:0:
256,30,70954,5,2,0:0:0:0:
171,208,71126,1,8,2:1:0:0:
26,73,71298,1,8,0:0:0:0:
257,169,71471,5,2,0:0:0:0:
257,169,71557,1,8,0:0:0:0:
257,169,71643,1,8,2:1:0:0:
75,289,71816,1,8,2:1:0:0:
140,115,71988,5,8,0:0:0:0:
194,345,72161,1,0,0:0:0:0:
383,191,72333,5,12,2:1:0:0:
157,265,72505,1,0,0:0:0:0:
269,51,72678,5,8,0:0:0:0:
330,337,72850,1,0,0:0:0:0:
88,193,73023,5,12,2:1:0:0:
378,82,73195,1,0,0:0:0:0:
88,193,73367,5,8,0:0:0:0:
424,288,73540,1,0,0:0:0:0:
164,355,73712,6,0,P|164:320|151:267,1,57.5999982421876,12|8,0:0|0:0,0:0:0:0:
92,100,73885,1,8,0:0:0:0:
92,100,74057,6,0,P|127:100|180:87,1,57.5999982421876,8|8,0:0|0:0,0:0:0:0:
347,28,74230,1,8,0:0:0:0:
347,28,74402,6,0,P|347:63|360:116,1,57.5999982421876,8|8,0:0|0:0,0:0:0:0:
419,283,74574,1,8,0:0:0:0:
419,283,74747,6,0,P|384:283|331:296,1,57.5999982421876,8|8,0:0|0:0,0:0:0:0:
256,192,74919,1,8,0:0:0:0:
137,351,75092,6,0,P|184:291|294:328,1,172.799994726563,12|0,2:1|0:0,0:0:0:0:
283,315,75436,1,8,0:0:0:0:
302,88,75609,1,0,0:0:0:0:
302,88,75695,1,0,0:0:0:0:
302,88,75781,2,0,P|230:101|152:110,1,115.199996484375,8|0,2:1|0:0,0:0:0:0:
256,192,76126,1,8,0:0:0:0:
353,12,76298,1,8,2:1:0:0:
445,275,76471,5,2,0:0:0:0:
256,192,76643,1,8,2:1:0:0:
424,75,76816,1,8,0:0:0:0:
355,236,76988,1,2,0:0:0:0:
355,236,77074,1,8,0:0:0:0:
355,236,77161,5,8,2:1:0:0:
159,148,77333,1,8,2:1:0:0:
212,289,77505,1,8,0:0:0:0:
300,93,77678,1,0,0:0:0:0:
308,326,77850,6,0,P|208:337|102:355,1,172.799994726563,10|0,2:1|0:0,0:0:0:0:
120,351,78195,1,8,0:0:0:0:
159,148,78367,1,2,2:1:0:0:
159,148,78454,1,0,0:0:0:0:
159,148,78540,2,0,P|176:226|185:296,1,115.199996484375,8|8,2:1|2:1,0:0:0:0:
416,261,78885,2,0,P|399:339|390:409,1,115.199996484375,8|8,0:0|2:1,0:0:0:0:
88,259,79230,5,2,0:0:0:0:
256,160,79402,1,8,2:1:0:0:
83,72,79574,1,8,0:0:0:0:
256,256,79747,1,0,0:0:0:0:
256,256,79833,1,8,0:0:0:0:
256,256,79919,1,8,2:1:0:0:
429,72,80092,1,8,2:1:0:0:
376,250,80264,1,8,0:0:0:0:
370,265,80350,1,8,0:0:0:0:
364,281,80436,1,8,2:3:0:0:
359,298,80523,1,4,2:3:0:0:
355,314,80609,6,0,L|340:117,1,172.799994726563,14|0,1:2|0:0,0:0:0:0:
342,121,80954,1,10,1:2:0:0:
127,303,81126,1,8,2:1:0:0:
205,69,81298,5,10,1:2:0:0:
265,354,81471,1,8,2:1:0:0:
205,69,81643,1,10,1:2:0:0:
265,354,81816,1,8,2:1:0:0:
441,125,81988,5,10,1:2:0:0:
108,191,82161,1,8,2:1:0:0:
441,125,82333,1,10,1:2:0:0:
108,191,82505,1,8,2:1:0:0:
430,355,82678,5,10,1:2:0:0:
127,303,82850,1,8,2:1:0:0:
331,70,83023,1,10,1:2:0:0:
290,267,83195,1,4,2:3:0:0:
290,267,83281,1,4,2:3:0:0:
290,267,83367,6,0,P|278:188|267:128,1,115.199996484375,14|8,1:2|2:1,0:0:0:0:
378,188,83712,1,10,1:2:0:0:
224,343,83885,1,8,2:1:0:0:
224,343,83971,1,8,2:1:0:0:
224,343,84057,2,0,P|294:360|346:376,1,115.199996484375,10|8,1:2|2:1,0:0:0:0:
288,41,84402,2,0,P|218:24|166:8,1,115.199996484375,10|8,1:2|2:1,0:0:0:0:
441,248,84747,5,14,1:2:0:0:
70,135,84919,1,8,2:1:0:0:
441,135,85092,5,14,1:2:0:0:
70,248,85264,1,8,2:1:0:0:
349,91,85436,5,10,1:2:0:0:
348,108,85523,1,8,0:0:0:0:
347,125,85609,1,8,2:3:0:0:
346,142,85695,1,4,2:3:0:0:
345,159,85781,2,0,L|340:256,1,57.5999982421876,10|8,1:2|2:3,0:0:0:0:
251,251,85954,2,0,L|256:154,1,57.5999982421876,4|4,2:3|2:3,0:0:0:0:
71,69,86126,6,0,P|107:79|148:85,1,62.3999971435548,12|0,0:0|0:0,0:0:0:0:
173,160,86298,2,0,P|111:169|50:183,1,124.79999428711,12|8,2:1|2:1,0:0:0:0:
448,68,86643,6,0,P|412:78|371:84,1,62.3999971435548,12|0,0:0|0:0,0:0:0:0:
345,159,86816,2,0,P|406:168|467:182,1,124.79999428711,12|8,2:1|2:1,0:0:0:0:
128,362,87161,6,0,P|151:358|198:349,1,62.3999971435548,12|0,0:0|0:0,0:0:0:0:
427,267,87333,2,0,P|385:259|301:243,1,124.79999428711,12|8,2:1|2:1,0:0:0:0:
384,362,87678,6,0,P|361:358|314:349,1,62.3999971435548,12|0,0:0|0:0,0:0:0:0:
85,267,87850,2,0,P|126:259|210:243,1,124.79999428711,12|8,2:1|2:1,0:0:0:0:
299,85,88195,6,0,L|290:168,1,57.5999982421876,12|8,0:0|2:3,0:0:0:0:
207,162,88367,2,0,L|216:79,1,57.5999982421876,4|4,2:3|2:3,0:0:0:0:
202,22,88540,1,12,0:0:0:0:
310,362,88712,1,12,2:1:0:0:
256,192,88798,12,8,90867,0:0:0:0:
367,181,90982,6,0,P|360:223|353:270,1,88,4|0,2:3|0:0,0:0:0:0:
