osu file format v14

[General]
AudioFilename: audio.ogg
AudioLeadIn: 0
PreviewTime: 11447
Countdown: 0
SampleSet: Soft
StackLeniency: 0.7
Mode: 3
LetterboxInBreaks: 0
SpecialStyle: 0
WidescreenStoryboard: 0

[Editor]
Bookmarks: 197,32864,54197
DistanceSpacing: 0.4
BeatDivisor: 16
GridSize: 32
TimelineZoom: 4.099998

[Metadata]
Title:Yumemoyou ~Hikari~
TitleUnicode:夢模様 ~光~
Artist:Shimotsuki Haruka
ArtistUnicode:霜月はるか
Creator:Ihram-San
Version:Cosmosphere Collaboration
Source:アルトネリコ2 ~世界に響く少女たちの創造詩~
Tags:eZmmR Onta_Bekasi chen_sawthis01 Dream Sights ~Light~ Ar tonelico II: Melody of Metafalica Sekai ni Hibiku Shoujo Shōjo-tachi no Metafalica ガスト Gust Folk Video Game Hymmnos Conlang constructed language
BeatmapID:4270321
BeatmapSetID:2045772

[Difficulty]
HPDrainRate:8
CircleSize:4
OverallDifficulty:8
ApproachRate:5
SliderMultiplier:1.4
SliderTickRate:1

[Events]
//Background and Video events
0,0,"Fantasy.jpg",0,0
//Break Periods
//Storyboard Layer 0 (Background)
//Storyboard Layer 1 (Fail)
//Storyboard Layer 2 (Pass)
//Storyboard Layer 3 (Foreground)
//Storyboard Layer 4 (Overlay)
//Storyboard Sound Samples

[TimingPoints]
864,666.666666666667,4,2,1,40,1,0
11530,-100,4,2,1,40,0,1
32864,-100,4,2,1,40,0,0
64280,705.882352941176,4,2,1,40,1,0
64280,-94.3396226415094,4,2,1,40,0,0
65398,666.666666666667,4,2,1,40,1,0
68267,666.666666666667,4,2,1,40,1,0
71169,697.674418604651,4,2,1,40,1,0
71169,-95.2380952380952,4,2,1,40,0,0
72566,666.666666666667,4,2,1,40,1,0
74088,769.230769230769,4,2,1,40,1,0
74088,-86.9565217391304,4,2,1,40,0,0
75626,666.666666666667,4,2,1,40,1,0
79059,851.063829787234,4,2,1,40,1,0
79059,-78.125,4,2,1,40,0,0
79485,1016.94915254237,4,2,1,40,1,0
79485,-65.359477124183,4,2,1,40,0,0
80502,666.666666666667,4,2,1,40,1,0

[HitObjects]
320,192,197,128,0,280:0:0:0:0:
448,192,197,128,0,363:0:0:0:0:
192,192,530,128,0,614:0:0:0:0:
320,192,530,128,0,697:0:0:0:0:
64,192,864,128,0,1197:0:0:0:53:LR_Drum J Hit Med Bass.wav
192,192,864,128,0,1530:0:0:0:0:
448,192,864,1,0,0:0:0:0:
320,192,1197,1,0,0:0:0:0:
64,192,1530,128,0,1697:0:0:0:0:
448,192,1530,128,0,1614:0:0:0:0:
64,192,1864,128,0,1947:0:0:0:60:LR_J Hit Edge F.wav
192,192,1864,128,0,2086:0:0:0:0:
320,192,1947,1,0,0:0:0:60:LR_J Hit Edge F.wav
448,192,2086,1,0,0:0:0:60:LR_J Hit Edge F.wav
192,192,2197,128,0,2280:0:0:0:60:LR_J Hit Edge F.wav
320,192,2197,128,0,2530:0:0:0:0:
64,192,2530,128,0,2697:0:0:0:60:LR_J Hit Edge F.wav
448,192,2530,128,0,2864:0:0:0:0:
192,192,2864,128,0,3030:0:0:0:0:
320,192,2864,128,0,2947:0:0:0:0:
64,192,3197,128,0,3364:0:0:0:0:
192,192,3197,128,0,3280:0:0:0:0:
320,192,3364,1,0,0:0:0:53:LR_Chm Med.wav
192,192,3530,128,0,3614:0:0:0:53:LR_Chm Med.wav
320,192,3530,1,0,0:0:0:0:
448,192,3530,128,0,3697:0:0:0:0:
64,192,3864,128,0,3947:0:0:0:53:LR_Chm Med.wav
192,192,3864,1,0,0:0:0:0:
320,192,3864,128,0,4030:0:0:0:0:
64,192,4197,128,0,4530:0:0:0:0:
192,192,4197,128,0,4364:0:0:0:0:
320,192,4530,128,0,4697:0:0:0:0:
448,192,4530,128,0,4864:0:0:0:0:
64,192,4864,128,0,5197:0:0:0:0:
192,192,4864,128,0,5530:0:0:0:0:
320,192,5530,128,0,5697:0:0:0:0:
448,192,5530,128,0,5614:0:0:0:0:
64,192,5864,1,0,0:0:0:53:LR_Drum J Hit Med Bass.wav
192,192,5864,128,0,6030:0:0:0:0:
320,192,5864,128,0,5947:0:0:0:0:
64,192,6197,128,0,6864:0:0:0:53:LR_Drum J Hit Med Bass.wav
192,192,6197,128,0,6530:0:0:0:0:
320,192,6197,1,0,0:0:0:0:
448,192,6530,1,0,0:0:0:0:
192,192,6864,128,0,6947:0:0:0:0:
320,192,6864,128,0,7030:0:0:0:0:
320,192,7197,128,0,7280:0:0:0:60:LR_J Hit Edge F.wav
448,192,7197,128,0,7419:0:0:0:0:
192,192,7280,1,0,0:0:0:60:LR_J Hit Edge F.wav
64,192,7419,1,0,0:0:0:60:LR_J Hit Edge F.wav
192,192,7530,128,0,7614:0:0:0:60:LR_J Hit Edge F.wav
320,192,7530,128,0,7864:0:0:0:0:
64,192,7864,128,0,8197:0:0:0:60:LR_J Hit Edge F.wav
448,192,7864,128,0,8030:0:0:0:0:
192,192,8197,128,0,8364:0:0:0:0:
320,192,8197,128,0,8280:0:0:0:0:
320,192,8530,128,0,8697:0:0:0:0:
448,192,8530,128,0,8614:0:0:0:0:
192,192,8697,1,0,0:0:0:53:LR_Chm Med.wav
64,192,8864,128,0,9030:0:0:0:53:LR_Chm Med.wav
192,192,8864,1,0,0:0:0:0:
320,192,8864,128,0,8947:0:0:0:0:
192,192,9197,128,0,9364:0:0:0:53:LR_Chm Med.wav
320,192,9197,1,0,0:0:0:0:
448,192,9197,128,0,9280:0:0:0:0:
64,192,9530,128,0,9697:0:0:0:0:
320,192,9530,128,0,9864:0:0:0:0:
192,192,9864,128,0,10197:0:0:0:0:
448,192,9864,128,0,10030:0:0:0:0:
64,192,10197,128,0,11340:0:0:0:0:
320,192,10197,128,0,10614:0:0:0:0:
448,192,10197,128,0,10614:0:0:0:0:
192,192,10614,1,0,0:0:0:0:
320,192,10768,1,0,0:0:0:0:
448,192,10864,1,0,0:0:0:0:
192,192,10959,1,0,0:0:0:0:
320,192,11054,1,0,0:0:0:0:
448,192,11149,1,0,0:0:0:0:
192,192,11244,1,0,0:0:0:0:
320,192,11340,1,0,0:0:0:0:
64,192,11530,128,0,11864:0:0:0:53:LR_Drum J Hit Med Bass.wav
192,192,11530,1,0,0:0:0:40:kick.wav
320,192,11530,128,0,12197:0:0:0:0:
448,192,11864,128,0,12197:0:0:0:0:
64,192,12197,1,0,0:0:0:40:Splash.wav
192,192,12197,1,0,0:0:0:60:LR_J Hit Edge F.wav
320,192,12364,1,0,0:0:0:0:
64,192,12530,1,0,0:0:0:60:LR_J Hit Edge F.wav
448,192,12530,1,0,0:0:0:0:
192,192,12697,1,0,0:0:0:0:
320,192,12864,128,0,13530:0:0:0:40:kick.wav
448,192,12864,128,0,13197:0:0:0:0:
64,192,13197,1,0,0:0:0:53:LR_J Hit Whistle.wav
192,192,13197,128,0,13530:0:0:0:0:
64,192,13530,1,0,0:0:0:40:Splash.wav
448,192,13530,1,0,0:0:0:53:LR_J Hit Whistle.wav
192,192,13864,1,0,0:0:0:40:kick.wav
320,192,14030,1,0,0:0:0:40:kick.wav
64,192,14197,128,0,14864:0:0:0:40:kick.wav
448,192,14197,128,0,14530:0:0:0:0:
192,192,14530,1,0,0:0:0:0:
320,192,14864,128,0,15197:0:0:0:40:Splash.wav
448,192,14864,128,0,15530:0:0:0:0:
192,192,15030,1,0,0:0:0:0:
64,192,15197,1,0,0:0:0:40:kick.wav
320,192,15364,1,0,0:0:0:40:kick.wav
64,192,15530,128,0,16197:0:0:0:40:kick.wav
192,192,15530,128,0,15864:0:0:0:0:
320,192,15697,1,0,0:0:0:0:
448,192,15864,1,0,0:0:0:0:
192,192,16030,1,0,0:0:0:0:
320,192,16197,1,0,0:0:0:40:Splash.wav
448,192,16197,1,0,0:0:0:0:
64,192,16530,1,0,0:0:0:53:LR_Drum J Hit Med Bass.wav
192,192,16530,128,0,16697:0:0:0:40:kick.wav
320,192,16697,128,0,16864:0:0:0:40:kick.wav
448,192,16697,1,0,0:0:0:0:
64,192,16864,128,0,17197:0:0:0:53:LR_Drum J Hit Med Bass.wav
192,192,16864,1,0,0:0:0:40:kick.wav
448,192,16864,128,0,17530:0:0:0:0:
320,192,17197,128,0,17530:0:0:0:0:
64,192,17530,1,0,0:0:0:40:Splash.wav
192,192,17530,1,0,0:0:0:60:LR_J Hit Edge F.wav
320,192,17697,1,0,0:0:0:0:
192,192,17864,1,0,0:0:0:60:LR_J Hit Edge F.wav
448,192,17864,1,0,0:0:0:0:
64,192,18030,1,0,0:0:0:0:
320,192,18197,128,0,18864:0:0:0:40:kick.wav
448,192,18197,128,0,18530:0:0:0:0:
64,192,18530,1,0,0:0:0:53:LR_J Hit Whistle.wav
192,192,18530,128,0,18864:0:0:0:0:
64,192,18864,128,0,19530:0:0:0:40:Splash.wav
448,192,18864,128,0,19197:0:0:0:53:LR_J Hit Whistle.wav
320,192,19197,128,0,19530:0:0:0:40:kick.wav
192,192,19364,1,0,0:0:0:40:kick.wav
192,192,19530,128,0,19864:0:0:0:40:kick.wav
448,192,19530,128,0,21530:0:0:0:0:
64,192,19864,1,0,0:0:0:0:
192,192,20197,1,0,0:0:0:40:Splash.wav
320,192,20197,1,0,0:0:0:0:
64,192,20364,1,0,0:0:0:0:
192,192,20530,1,0,0:0:0:40:kick.wav
320,192,20697,1,0,0:0:0:40:kick.wav
64,192,20864,1,0,0:0:0:40:kick.wav
320,192,21030,1,0,0:0:0:0:
192,192,21197,1,0,0:0:0:0:
64,192,21364,1,0,0:0:0:0:
192,192,21530,1,0,0:0:0:40:Splash.wav
320,192,21530,1,0,0:0:0:0:
448,192,21864,1,0,0:0:0:40:kick.wav
64,192,22030,1,0,0:0:0:40:kick.wav
192,192,22197,128,0,22864:0:0:0:53:LR_Drum J Hit Med Bass.wav
320,192,22197,1,0,0:0:0:40:kick.wav
448,192,22197,128,0,22530:0:0:0:0:
64,192,22530,128,0,22864:0:0:0:0:
320,192,22864,1,0,0:0:0:40:Splash.wav
448,192,22864,1,0,0:0:0:60:LR_J Hit Edge F.wav
192,192,23030,1,0,0:0:0:0:
64,192,23197,1,0,0:0:0:60:LR_J Hit Edge F.wav
448,192,23197,1,0,0:0:0:0:
320,192,23364,1,0,0:0:0:0:
64,192,23530,128,0,23864:0:0:0:40:kick.wav
192,192,23530,128,0,24197:0:0:0:0:
320,192,23864,128,0,24197:0:0:0:53:LR_J Hit Whistle.wav
448,192,23864,1,0,0:0:0:0:
64,192,24197,1,0,0:0:0:53:LR_J Hit Whistle.wav
448,192,24197,1,0,0:0:0:0:
320,192,24530,1,0,0:0:0:40:kick.wav
192,192,24697,1,0,0:0:0:40:kick.wav
64,192,24864,128,0,25197:0:0:0:40:kick.wav
448,192,24864,128,0,25530:0:0:0:0:
320,192,25197,1,0,0:0:0:0:
64,192,25530,128,0,26197:0:0:0:40:Splash.wav
192,192,25530,128,0,25864:0:0:0:0:
320,192,25697,1,0,0:0:0:0:
448,192,25864,1,0,0:0:0:40:kick.wav
192,192,26030,1,0,0:0:0:40:kick.wav
320,192,26197,128,0,26530:0:0:0:40:kick.wav
448,192,26197,128,0,26864:0:0:0:0:
192,192,26364,1,0,0:0:0:0:
64,192,26530,1,0,0:0:0:0:
320,192,26697,1,0,0:0:0:0:
64,192,26864,1,0,0:0:0:40:Splash.wav
192,192,26864,1,0,0:0:0:0:
320,192,27197,128,0,27364:0:0:0:53:LR_Drum J Hit Med Bass.wav
448,192,27197,1,0,0:0:0:40:kick.wav
64,192,27364,1,0,0:0:0:40:kick.wav
192,192,27364,128,0,27530:0:0:0:0:
64,192,27530,128,0,28197:0:0:0:53:LR_Drum J Hit Med Bass.wav
320,192,27530,1,0,0:0:0:40:kick.wav
448,192,27530,128,0,27864:0:0:0:0:
192,192,27864,128,0,28197:0:0:0:0:
320,192,28197,1,0,0:0:0:40:Splash.wav
448,192,28197,1,0,0:0:0:60:LR_J Hit Edge F.wav
192,192,28364,1,0,0:0:0:0:
64,192,28530,1,0,0:0:0:60:LR_J Hit Edge F.wav
320,192,28530,1,0,0:0:0:0:
448,192,28697,1,0,0:0:0:0:
64,192,28864,128,0,29197:0:0:0:40:kick.wav
192,192,28864,128,0,29530:0:0:0:0:
320,192,29197,128,0,29530:0:0:0:53:LR_J Hit Whistle.wav
448,192,29197,1,0,0:0:0:0:
64,192,29530,1,0,0:0:0:40:Splash.wav
448,192,29530,1,0,0:0:0:53:LR_J Hit Whistle.wav
320,192,29864,1,0,0:0:0:40:kick.wav
192,192,30030,1,0,0:0:0:40:kick.wav
64,192,30197,128,0,30530:0:0:0:40:kick.wav
320,192,30197,128,0,30864:0:0:0:0:
448,192,30530,1,0,0:0:0:0:
64,192,30864,128,0,31530:0:0:0:40:Splash.wav
192,192,30864,128,0,31197:0:0:0:0:
448,192,30864,1,0,0:0:0:0:
320,192,31030,1,0,0:0:0:0:
448,192,31197,1,0,0:0:0:40:kick.wav
192,192,31364,1,0,0:0:0:40:kick.wav
320,192,31530,128,0,31864:0:0:0:40:kick.wav
448,192,31530,128,0,32697:0:0:0:0:
192,192,31697,1,0,0:0:0:0:
64,192,31864,1,0,0:0:0:0:
192,192,32030,1,0,0:0:0:0:
64,192,32197,128,0,32530:0:0:0:40:Splash.wav
320,192,32197,1,0,0:0:0:0:
320,192,32530,128,0,32864:0:0:0:40:kick.wav
64,192,32697,1,0,0:0:0:40:kick.wav
192,192,32864,128,0,33530:0:0:0:40:kick.wav
448,192,32864,1,0,0:0:0:0:
320,192,33197,1,0,0:0:0:53:LR_Chm Med.wav
64,192,33530,128,0,34197:0:0:0:40:Splash.wav
320,192,33530,1,0,0:0:0:0:
448,192,33530,1,0,0:0:0:0:
192,192,33697,1,0,0:0:0:0:
320,192,33864,1,0,0:0:0:53:LR_Chm Med.wav
448,192,33864,1,0,0:0:0:0:
192,192,34030,1,0,0:0:0:0:
320,192,34197,1,0,0:0:0:40:kick.wav
448,192,34197,128,0,34530:0:0:0:0:
192,192,34364,1,0,0:0:0:0:
64,192,34530,1,0,0:0:0:53:LR_Chm Med.wav
320,192,34530,128,0,34864:0:0:0:0:
192,192,34697,1,0,0:0:0:0:
64,192,34864,128,0,35197:0:0:0:40:Splash.wav
448,192,34864,1,0,0:0:0:0:
192,192,35197,128,0,35530:0:0:0:53:LR_Chm Med.wav
448,192,35197,1,0,0:0:0:0:
320,192,35364,1,0,0:0:0:0:
64,192,35530,1,0,0:0:0:40:kick.wav
448,192,35530,128,0,36530:0:0:0:0:
192,192,35864,1,0,0:0:0:53:LR_Chm Med.wav
64,192,36197,1,0,0:0:0:40:Splash.wav
320,192,36197,1,0,0:0:0:0:
64,192,36530,1,0,0:0:0:53:LR_Chm Med.wav
192,192,36530,128,0,36864:0:0:0:0:
320,192,36697,1,0,0:0:0:0:
64,192,36864,1,0,0:0:0:40:kick.wav
448,192,36864,1,0,0:0:0:0:
192,192,37030,1,0,0:0:0:0:
320,192,37197,1,0,0:0:0:53:LR_Chm Med.wav
448,192,37197,128,0,37530:0:0:0:0:
64,192,37364,1,0,0:0:0:0:
192,192,37530,128,0,37864:0:0:0:40:Splash.wav
320,192,37530,1,0,0:0:0:0:
64,192,37864,128,0,38197:0:0:0:53:LR_Chm Med.wav
448,192,37864,1,0,0:0:0:0:
320,192,38030,1,0,0:0:0:0:
192,192,38197,1,0,0:0:0:40:kick.wav
448,192,38197,128,0,38864:0:0:0:0:
192,192,38530,1,0,0:0:0:53:LR_Chm Med.wav
64,192,38864,128,0,39530:0:0:0:40:Splash.wav
192,192,38864,1,0,0:0:0:0:
320,192,38864,1,0,0:0:0:0:
320,192,39197,1,0,0:0:0:53:LR_Chm Med.wav
448,192,39197,1,0,0:0:0:0:
192,192,39364,1,0,0:0:0:0:
320,192,39530,1,0,0:0:0:40:kick.wav
448,192,39530,128,0,39864:0:0:0:0:
192,192,39697,1,0,0:0:0:0:
64,192,39864,1,0,0:0:0:53:LR_Chm Med.wav
320,192,39864,128,0,40197:0:0:0:0:
192,192,40030,1,0,0:0:0:0:
64,192,40197,128,0,40530:0:0:0:40:Splash.wav
448,192,40197,1,0,0:0:0:0:
320,192,40530,1,0,0:0:0:53:LR_Chm Med.wav
448,192,40530,128,0,40864:0:0:0:0:
192,192,40697,1,0,0:0:0:0:
64,192,40864,1,0,0:0:0:40:kick.wav
320,192,40864,128,0,42864:0:0:0:0:
192,192,41197,1,0,0:0:0:53:LR_Chm Med.wav
64,192,41530,1,0,0:0:0:40:Splash.wav
448,192,41530,1,0,0:0:0:0:
192,192,41864,1,0,0:0:0:53:LR_Chm Med.wav
448,192,41864,1,0,0:0:0:0:
64,192,42030,1,0,0:0:0:0:
192,192,42197,1,0,0:0:0:40:kick.wav
448,192,42197,1,0,0:0:0:0:
64,192,42364,1,0,0:0:0:0:
192,192,42530,1,0,0:0:0:53:LR_Chm Med.wav
448,192,42697,1,0,0:0:0:0:
64,192,42864,1,0,0:0:0:40:Splash.wav
192,192,42864,1,0,0:0:0:0:
320,192,43197,1,0,0:0:0:53:LR_Chm Med.wav
448,192,43197,128,0,43530:0:0:0:0:
192,192,43364,1,0,0:0:0:0:
64,192,43530,128,0,43864:0:0:0:40:kick.wav
320,192,43530,1,0,0:0:0:0:
320,192,43864,1,0,0:0:0:53:LR_Chm Med.wav
192,192,44030,1,0,0:0:0:0:
64,192,44197,1,0,0:0:0:40:Splash.wav
448,192,44197,128,0,44530:0:0:0:0:
320,192,44364,1,0,0:0:0:0:
64,192,44530,1,0,0:0:0:53:LR_Chm Med.wav
192,192,44530,128,0,44864:0:0:0:0:
320,192,44697,1,0,0:0:0:0:
64,192,44864,128,0,45530:0:0:0:40:kick.wav
448,192,44864,1,0,0:0:0:0:
320,192,45030,1,0,0:0:0:0:
192,192,45197,1,0,0:0:0:53:LR_Chm Med.wav
448,192,45197,1,0,0:0:0:0:
320,192,45364,1,0,0:0:0:0:
192,192,45530,1,0,0:0:0:40:Splash.wav
448,192,45530,128,0,46197:0:0:0:0:
64,192,45864,1,0,0:0:0:53:LR_Chm Med.wav
192,192,46030,1,0,0:0:0:0:
64,192,46197,128,0,46530:0:0:0:40:kick.wav
320,192,46197,1,0,0:0:0:0:
320,192,46530,1,0,0:0:0:53:LR_Chm Med.wav
448,192,46530,128,0,46864:0:0:0:0:
64,192,46864,1,0,0:0:0:40:Splash.wav
192,192,46864,128,0,48197:0:0:0:0:
320,192,47030,1,0,0:0:0:0:
64,192,47197,1,0,0:0:0:53:LR_Chm Med.wav
320,192,47364,1,0,0:0:0:0:
64,192,47530,1,0,0:0:0:40:kick.wav
448,192,47530,1,0,0:0:0:0:
320,192,47697,1,0,0:0:0:0:
64,192,47864,1,0,0:0:0:53:LR_Chm Med.wav
320,192,48030,1,0,0:0:0:0:
64,192,48197,1,0,0:0:0:40:Splash.wav
448,192,48197,1,0,0:0:0:0:
320,192,48530,128,0,48697:0:0:0:53:LR_Chm Med.wav
448,192,48530,1,0,0:0:0:0:
192,192,48697,128,0,48864:0:0:0:0:
64,192,48864,1,0,0:0:0:40:kick.wav
448,192,48864,128,0,49864:0:0:0:0:
320,192,49197,1,0,0:0:0:53:LR_Chm Med.wav
64,192,49530,1,0,0:0:0:40:Splash.wav
192,192,49530,1,0,0:0:0:0:
320,192,49697,1,0,0:0:0:0:
64,192,49864,1,0,0:0:0:53:LR_Chm Med.wav
192,192,49864,128,0,50030:0:0:0:0:
320,192,50030,128,0,50197:0:0:0:0:
64,192,50197,128,0,50864:0:0:0:40:kick.wav
192,192,50197,1,0,0:0:0:0:
448,192,50197,1,0,0:0:0:0:
320,192,50364,1,0,0:0:0:0:
192,192,50530,1,0,0:0:0:53:LR_Chm Med.wav
320,192,50697,1,0,0:0:0:0:
192,192,50864,128,0,51530:0:0:0:40:Splash.wav
448,192,50864,1,0,0:0:0:0:
320,192,51197,1,0,0:0:0:53:LR_Chm Med.wav
448,192,51197,1,0,0:0:0:0:
64,192,51364,1,0,0:0:0:0:
320,192,51530,1,0,0:0:0:40:kick.wav
448,192,51530,128,0,52530:0:0:0:0:
192,192,51864,1,0,0:0:0:53:LR_Chm Med.wav
64,192,52197,1,0,0:0:0:40:Splash.wav
320,192,52197,1,0,0:0:0:0:
64,192,52530,1,0,0:0:0:53:LR_Chm Med.wav
192,192,52530,1,0,0:0:0:0:
320,192,52697,1,0,0:0:0:0:
64,192,52864,1,0,0:0:0:40:kick.wav
448,192,52864,128,0,53197:0:0:0:0:
320,192,53030,1,0,0:0:0:0:
64,192,53197,128,0,53530:0:0:0:53:LR_Chm Med.wav
192,192,53197,1,0,0:0:0:0:
320,192,53364,1,0,0:0:0:0:
192,192,53530,1,0,0:0:0:40:Splash.wav
448,192,53530,128,0,54197:0:0:0:0:
192,192,53864,128,0,54197:0:0:0:70:LR_Chm Med.wav
64,192,54197,128,0,54864:0:0:0:40:kick.wav
320,192,54197,1,0,0:0:0:0:
192,192,54530,128,0,55197:0:0:0:0:
320,192,54864,128,0,55530:0:0:0:0:
448,192,55197,128,0,55864:0:0:0:0:
64,192,55530,128,0,56197:0:0:0:0:
320,192,55864,128,0,56530:0:0:0:0:
192,192,56197,128,0,56864:0:0:0:0:
64,192,56530,128,0,57697:0:0:0:0:
448,192,56864,128,0,58864:0:0:0:0:
192,192,57864,128,0,58030:0:0:0:0:
320,192,58197,128,0,58864:0:0:0:0:
64,192,59197,128,0,60197:0:0:0:0:
320,192,59530,128,0,60864:0:0:0:0:
448,192,59530,128,0,59864:0:0:0:0:
448,192,60197,128,0,61197:0:0:0:0:
64,192,60864,128,0,61530:0:0:0:0:
192,192,60864,128,0,61530:0:0:0:0:
320,192,61530,128,0,61864:0:0:0:0:
448,192,61530,128,0,62197:0:0:0:0:
192,192,61864,128,0,62197:0:0:0:0:
64,192,62197,128,0,63530:0:0:0:0:
320,192,62197,128,0,62864:0:0:0:0:
192,192,62864,128,0,63864:0:0:0:0:
448,192,63530,128,0,64721:0:0:0:0:
320,192,63864,128,0,64721:0:0:0:0:
64,192,64280,128,0,64721:0:0:0:0:
64,192,65280,1,0,0:0:0:0:
192,192,65338,1,0,0:0:0:0:
320,192,65398,1,0,0:0:0:0:
448,192,65398,128,0,66523:0:0:0:0:
192,192,65453,1,0,0:0:0:0:
64,192,65509,1,0,0:0:0:0:
320,192,65564,1,0,0:0:0:0:
64,192,66064,128,0,67064:0:0:0:0:
448,192,66731,128,0,67064:0:0:0:0:
64,192,68175,1,0,0:0:0:0:
192,192,68267,1,0,0:0:0:0:
448,192,68267,128,0,69267:0:0:0:0:
320,192,68322,1,0,0:0:0:0:
192,192,68378,1,0,0:0:0:0:
64,192,68433,1,0,0:0:0:0:
320,192,68489,1,0,0:0:0:0:
64,192,68933,128,0,69933:0:0:0:0:
448,192,69600,128,0,69933:0:0:0:0:
192,192,71169,128,0,72566:0:0:0:0:
320,192,71169,128,0,72389:0:0:0:0:
64,192,72566,128,0,73066:0:0:0:0:
448,192,72566,128,0,72899:0:0:0:0:
192,192,74088,128,0,75434:0:0:0:0:
448,192,75434,1,0,0:0:0:0:
320,192,75626,128,0,77292:0:0:0:0:
64,192,77292,128,0,77626:0:0:0:0:
192,192,77292,128,0,82168:0:0:0:0:
320,192,77626,128,0,77959:0:0:0:0:
448,192,77959,128,0,78292:0:0:0:0:
320,192,78292,128,0,78626:0:0:0:0:
64,192,78626,128,0,79059:0:0:0:0:
448,192,79059,128,0,79484:0:0:0:0:
64,192,79485,128,0,79993:0:0:0:0:
320,192,79993,128,0,80502:0:0:0:0:
64,192,80502,128,0,82168:0:0:0:0:
