osu file format v14

[General]
AudioFilename: audio.mp3
AudioLeadIn: 0
PreviewTime: 11752
Countdown: 0
SampleSet: Soft
StackLeniency: 0.4
Mode: 0
LetterboxInBreaks: 0
WidescreenStoryboard: 1

[Editor]
Bookmarks: 11851,32518,54518,78279
DistanceSpacing: 1.5
BeatDivisor: 4
GridSize: 16
TimelineZoom: 1.7

[Metadata]
Title:Yumemoyou ~Hikari~
TitleUnicode:夢模様~光~
Artist:Shimotsuki Haruka
ArtistUnicode:霜月はるか
Creator:GlaZe
Version:Shurelia's Insane
Source:アルトネリコ2 ~世界に響く少女たちの創造詩~
Tags:Shurelia ImpurePug Chitanda Eru Ar tonelico II: Melody of Metafalica Sekai ni Hibiku Shōjo-tachi no Metafalica Gust Folk Video Game Hymmnos Conlang
BeatmapID:2450663
BeatmapSetID:968103

[Difficulty]
HPDrainRate:6
CircleSize:5
OverallDifficulty:8
ApproachRate:7.5
SliderMultiplier:1.5
SliderTickRate:1

[Events]
//Background and Video events
0,0,"bg.jpg",0,0
//Break Periods
//Storyboard Layer 0 (Background)
//Storyboard Layer 1 (Fail)
//Storyboard Layer 2 (Pass)
//Storyboard Layer 3 (Foreground)
//Storyboard Layer 4 (Overlay)
//Storyboard Sound Samples

[TimingPoints]
1184,666.666666666667,4,2,78,40,1,0
1851,-100,4,2,79,40,0,0
2518,-100,4,2,78,40,0,0
3184,-100,4,2,79,40,0,0
3851,-100,4,2,78,40,0,0
4518,-100,4,2,79,40,0,0
5184,-100,4,2,79,40,0,0
5518,-100,4,2,78,40,0,0
6518,-100,4,2,78,40,0,0
7184,-100,4,2,79,40,0,0
7851,-100,4,2,78,40,0,0
8518,-100,4,2,79,40,0,0
9184,-100,4,2,78,40,0,0
9851,-100,4,2,79,40,0,0
10518,-100,4,2,78,40,0,0
11851,-83.3333333333333,4,2,78,55,0,0
30518,-76.9230769230769,4,2,78,55,0,0
32518,-100,4,2,78,48,0,0
54518,-100,4,2,79,35,0,0
57184,-133.333333333333,4,2,79,35,0,0
58518,-100,4,2,79,35,0,0
59851,-100,4,2,78,35,0,0
60518,-100,4,2,79,35,0,0
61851,-111.111111111111,4,2,79,35,0,0
62518,-125,4,2,78,35,0,0
63184,-100,4,2,79,35,0,0
64659,705.882352941176,4,2,79,35,1,0
65159,-100,4,2,79,35,0,0
65718,666.666666666667,4,2,79,35,1,0
68587,666.666666666667,4,2,79,35,1,0
71489,697.674418604651,4,2,79,35,1,0
72886,666.666666666667,4,2,79,35,1,0
72886,-71.4285714285714,4,2,79,35,0,0
74408,769.230769230769,4,2,79,35,1,0
74408,-117.647058823529,4,2,79,35,0,0
75946,666.666666666667,4,2,79,35,1,0
79379,851.063829787234,4,2,79,35,1,0
79805,1016.94915254237,4,2,79,35,1,0
80822,666.666666666667,4,2,79,35,1,0
80822,-133.333333333333,4,2,79,35,0,0
82655,-133.333333333333,4,2,79,5,0,0

[Colours]
Combo1 : 215,74,74
Combo2 : 192,201,88
Combo3 : 105,137,120

[HitObjects]
84,352,518,5,0,1:0:0:0:
172,335,851,1,0,3:0:0:0:
335,326,1184,2,0,L|261:322,1,75,4|0,3:2|0:0,0:0:0:0:
82,326,1851,5,2,0:0:0:0:
75,236,2184,1,2,0:0:0:0:
68,146,2518,1,8,0:0:0:0:
193,45,2851,5,8,0:0:0:0:
303,67,3184,1,2,0:0:0:0:
413,43,3518,1,2,0:0:0:0:
447,197,3851,5,2,0:0:0:0:
361,223,4184,1,2,0:0:0:0:
427,284,4518,1,2,0:0:0:0:
432,296,4851,1,2,0:0:0:0:
343,310,5184,2,0,L|268:299,1,75,2|0,0:0|0:0,0:0:0:0:
182,273,5851,5,0,1:0:0:0:
97,243,6184,1,0,3:0:0:0:
5,138,6517,2,0,L|12:212,1,75,4|0,3:2|0:0,0:0:0:0:
183,293,7184,5,2,0:0:0:0:
269,318,7517,1,2,0:0:0:0:
355,342,7851,1,8,0:0:0:0:
449,205,8184,5,8,0:0:0:0:
425,95,8517,1,2,0:0:0:0:
348,11,8851,1,2,0:0:0:0:
219,116,9184,5,2,0:0:0:0:
132,92,9517,1,2,0:0:0:0:
43,111,9851,1,2,0:0:0:0:
28,117,10184,1,2,0:0:0:0:
52,231,10518,6,0,P|139:288|38:309,1,262.5,0|0,3:0|0:0,0:0:0:0:
47,302,11851,5,4,3:2:0:0:
154,295,12184,1,0,3:0:0:0:
262,288,12518,1,2,1:3:0:0:
262,288,13184,5,0,3:0:0:0:
364,376,13518,1,8,0:0:0:0:
477,302,13851,1,8,1:2:0:0:
477,302,14518,6,0,L|484:212,1,89.9999972534181,0|0,3:0|0:0,0:0:0:0:
376,206,15184,2,0,L|368:116,1,89.9999972534181,0|0,1:0|0:0,0:0:0:0:
476,105,15851,2,0,L|483:15,1,89.9999972534181,0|0,3:0|0:0,0:0:0:0:
368,116,16518,1,0,1:0:0:0:
368,116,16851,5,8,3:0:0:0:
315,102,17018,1,0,3:0:0:0:
263,87,17184,1,4,3:2:0:0:
160,53,17518,1,0,3:0:0:0:
54,75,17851,1,2,1:3:0:0:
54,75,18518,5,0,3:0:0:0:
26,207,18851,1,8,0:0:0:0:
58,338,19185,1,8,1:2:0:0:
164,326,19518,1,0,3:0:0:0:
262,282,19851,6,0,L|351:293,1,89.9999972534181,0|0,3:0|0:0,0:0:0:0:
378,188,20518,2,0,L|467:176,1,89.9999972534181,0|0,1:0|3:0,0:0:0:0:
460,69,21184,1,0,3:0:0:0:
361,24,21518,1,0,3:0:0:0:
261,65,21851,1,0,1:0:0:0:
261,65,22518,5,4,3:2:0:0:
253,172,22851,1,0,3:0:0:0:
247,279,23184,1,2,1:3:0:0:
247,279,23851,5,0,3:0:0:0:
126,218,24184,1,8,0:0:0:0:
33,316,24518,1,8,1:2:0:0:
33,316,25184,6,0,L|120:336,1,89.9999972534181,0|0,3:0|0:0,0:0:0:0:
150,232,25851,2,0,L|237:211,1,89.9999972534181,0|0,1:0|0:0,0:0:0:0:
287,308,26518,2,0,L|374:328,1,89.9999972534181,0|0,3:0|0:0,0:0:0:0:
448,249,27184,1,0,1:0:0:0:
448,249,27518,5,8,3:0:0:0:
453,195,27684,1,0,3:0:0:0:
461,141,27851,1,4,3:2:0:0:
397,53,28184,1,0,3:0:0:0:
306,112,28518,1,2,1:3:0:0:
306,112,29184,5,0,3:0:0:0:
207,19,29518,1,8,0:0:0:0:
151,141,29851,1,8,1:2:0:0:
151,141,30518,6,0,L|128:235,1,97.4999955368044,0|0,3:2|0:0,0:0:0:0:
256,278,31184,2,0,L|256:375,1,97.4999955368044,0|0,1:0|0:0,0:0:0:0:
361,141,31851,2,0,L|383:235,1,97.4999955368044,0|0,3:0|0:0,0:0:0:0:
256,36,32518,5,0,1:0:0:0:
169,60,32851,1,0,3:0:0:0:
81,82,33184,2,0,L|59:230,1,150,4|2,3:2|1:2,0:0:0:0:
431,356,34518,5,0,3:0:0:0:
410,268,34851,1,8,0:0:0:0:
350,139,35184,1,8,1:2:0:0:
329,227,35517,1,0,3:0:0:0:
304,313,35851,2,0,L|154:302,1,150,4|2,3:0|1:2,0:0:0:0:
16,366,36851,5,2,3:0:0:0:
72,295,37184,1,0,3:0:0:0:
72,295,37518,1,8,0:0:0:0:
25,192,37851,1,8,1:2:0:0:
72,70,38184,1,2,3:0:0:0:
224,18,38518,2,0,L|372:36,1,150,4|2,3:2|1:2,0:0:0:0:
444,347,39851,5,0,3:0:0:0:
356,365,40184,1,8,0:0:0:0:
248,259,40518,1,8,1:2:0:0:
336,277,40851,1,0,3:0:0:0:
423,257,41184,2,0,L|412:107,1,150,4|2,3:3|1:2,0:0:0:0:
310,11,42184,5,0,3:0:0:0:
324,100,42518,1,0,3:0:0:0:
324,100,42851,1,8,0:0:0:0:
259,191,43184,5,8,1:2:0:0:
324,312,43518,1,0,3:0:0:0:
390,191,43851,1,4,3:2:0:0:
390,191,44518,5,2,1:2:0:0:
325,99,44851,1,0,3:0:0:0:
213,110,45184,2,0,L|175:106,1,37.5,0|2,3:2|3:0,0:0:0:0:
127,76,45518,2,0,L|89:79,1,37.5,8|0,0:0|0:0,0:0:0:0:
39,104,45851,5,8,1:2:0:0:
297,353,46518,2,0,L|333:345,1,37.5,4|0,3:3|0:0,0:0:0:0:
388,333,46851,1,2,3:0:0:0:
434,230,47184,2,0,L|446:80,1,150,2|0,1:2|3:0,0:0:0:0:
417,37,48018,1,2,0:0:0:0:
417,37,48184,1,8,0:0:0:0:
305,55,48518,1,8,1:2:0:0:
305,55,48851,6,0,L|267:52,1,37.5,2|0,0:3|3:0,0:0:0:0:
211,47,49184,1,4,3:2:0:0:
270,142,49518,1,2,0:3:0:0:
203,232,49851,1,2,1:2:0:0:
271,320,50184,6,0,L|308:321,1,37.5,2|0,0:3|3:0,0:0:0:0:
242,369,50518,1,0,3:0:0:0:
140,320,50851,1,8,0:0:0:0:
36,364,51184,1,8,1:2:0:0:
63,41,51851,6,0,L|211:23,1,150,4|2,3:3|1:2,0:0:0:0:
447,267,53184,5,4,3:2:0:0:
297,343,53518,1,8,0:0:0:0:
151,261,53851,2,0,L|39:277,1,112.5,8|0,1:2|0:0,0:0:0:0:
34,265,54518,5,2,0:0:0:0:
71,183,54851,1,2,0:0:0:0:
159,168,55184,1,8,1:0:0:0:
122,86,55517,1,8,0:0:0:0:
260,201,55851,1,8,0:0:0:0:
399,88,56184,5,4,0:0:0:0:
432,195,56518,1,8,1:0:0:0:
461,303,56851,1,2,0:0:0:0:
393,354,57184,6,0,L|226:328,1,168.750006437302,8|2,0:0|0:0,0:0:0:0:
394,343,58518,2,0,L|320:329,1,75,8|0,1:0|0:0,0:0:0:0:
320,329,59518,5,2,0:0:0:0:
207,330,59851,2,0,L|59:357,1,150,0|2,3:2|0:0,0:0:0:0:
35,133,61184,2,0,L|145:113,1,112.5,8|0,1:0|0:0,0:0:0:0:
167,61,61851,2,0,L|266:81,1,101.249996910095,2|0,0:0|0:0,0:0:0:0:
296,114,62518,2,0,L|384:96,1,90,0|0,3:2|0:0,0:0:0:0:
404,44,63184,1,2,0:0:0:0:
404,44,63851,6,0,L|413:118,1,75,8|2,0:0|0:0,0:0:0:0:
453,352,64659,1,2,0:0:0:0:
453,352,65718,6,0,L|305:331,1,150,2|4,0:0|0:0,0:0:0:0:
21,278,67051,1,8,0:0:0:0:
453,352,68587,6,0,L|305:331,1,150,2|4,0:0|0:0,0:0:0:0:
21,278,69920,1,8,0:0:0:0:
21,278,71489,6,0,L|245:263,1,225,4|0,0:0|0:0,0:0:0:0:
512,252,72886,1,2,0:0:0:0:
21,278,74408,6,0,L|245:263,1,223.125004255772,2|0,0:0|0:0,0:0:0:0:
197,344,75946,6,0,L|451:185,1,300,8|0,0:0|0:0,0:0:0:0:
356,24,77612,6,0,L|351:98,1,75,8|2,0:1|0:0,0:0:0:0:
268,74,78279,2,0,L|273:149,1,75,2|2,0:0|0:0,0:0:0:0:
185,51,78946,5,8,0:0:0:0:
123,110,79379,1,8,0:0:0:0:
45,74,79805,1,2,0:0:0:0:
9,151,80313,1,2,0:0:0:0:
256,192,80822,12,0,82655,0:0:0:0:
