osu file format v14

[General]
AudioFilename: audio.mp3
AudioLeadIn: 0
PreviewTime: 11752
Countdown: 0
SampleSet: Soft
StackLeniency: 0.4
Mode: 0
LetterboxInBreaks: 0
WidescreenStoryboard: 1

[Editor]
Bookmarks: 11851,32518,54518,78279
DistanceSpacing: 0.3
BeatDivisor: 4
GridSize: 16
TimelineZoom: 1.2

[Metadata]
Title:Yumemoyou ~Hikari~
TitleUnicode:夢模様~光~
Artist:Shimotsuki Haruka
ArtistUnicode:霜月はるか
Creator:GlaZe
Version:Impure's Hard
Source:アルトネリコ2 ~世界に響く少女たちの創造詩~
Tags:Shurelia ImpurePug Chitanda Eru Ar tonelico II: Melody of Metafalica Sekai ni Hibiku Shōjo-tachi no Metafalica Gust Folk Video Game Hymmnos Conlang
BeatmapID:2457469
BeatmapSetID:968103

[Difficulty]
HPDrainRate:5
CircleSize:4
OverallDifficulty:6.5
ApproachRate:7
SliderMultiplier:1.7
SliderTickRate:1

[Events]
//Background and Video events
0,0,"bg.jpg",0,0
//Break Periods
2,54718,58876
2,60384,61543
//Storyboard Layer 0 (Background)
//Storyboard Layer 1 (Fail)
//Storyboard Layer 2 (Pass)
//Storyboard Layer 3 (Foreground)
//Storyboard Layer 4 (Overlay)
//Storyboard Sound Samples

[TimingPoints]
1184,666.666666666667,4,2,78,40,1,0
1851,-100,4,2,79,40,0,0
2518,-100,4,2,78,40,0,0
3184,-100,4,2,79,40,0,0
3851,-100,4,2,78,40,0,0
4518,-100,4,2,79,40,0,0
5518,-100,4,2,78,40,0,0
7184,-100,4,2,79,40,0,0
7851,-100,4,2,78,40,0,0
8518,-100,4,2,79,40,0,0
9184,-100,4,2,78,40,0,0
9851,-100,4,2,79,40,0,0
10518,-100,4,2,78,40,0,0
11851,-100,4,2,78,55,0,0
30518,-83.3333333333333,4,2,78,55,0,0
32518,-100,4,2,78,48,0,0
54518,-100,4,2,79,35,0,0
59851,-100,4,2,78,35,0,0
60518,-100,4,2,79,35,0,0
62518,-166.666666666667,4,2,78,35,0,0
63184,-166.666666666667,4,2,79,35,0,0
64659,705.882352941176,4,2,79,35,1,0
64659,-250,4,2,79,35,0,0
65718,666.666666666667,4,2,79,35,1,0
65718,-250,4,2,79,35,0,0
68587,666.666666666667,4,2,79,35,1,0
68587,-250,4,2,79,35,0,0
71489,697.674418604651,4,2,79,35,1,0
71489,-250,4,2,79,35,0,0
72886,666.666666666667,4,2,79,35,1,0
74408,769.230769230769,4,2,79,35,1,0
74408,-291.666666672743,4,2,79,35,0,0
75946,666.666666666667,4,2,79,35,1,0
75946,-333.333333333333,4,2,79,35,0,0
79379,851.063829787234,4,2,79,35,1,0
79379,-200,4,2,79,35,0,0
79805,1016.94915254237,4,2,79,35,1,0
80313,-200,4,2,79,35,0,0
80822,666.666666666667,4,2,79,35,1,0
82655,-100,4,2,79,5,0,0

[Colours]
Combo1 : 215,74,74
Combo2 : 192,201,88
Combo3 : 105,137,120

[HitObjects]
435,29,518,5,0,1:0:0:0:
356,110,851,1,0,3:0:0:0:
464,159,1184,2,0,P|482:214|418:231,1,127.5,4|0,3:2|0:0,0:0:0:0:
358,195,1851,2,0,B|337:219|345:258|345:258|386:286,1,85,2|2,0:0|0:0,0:0:0:0:
458,318,2518,1,8,0:0:0:0:
360,268,2851,1,8,0:0:0:0:
256,306,3184,2,0,P|203:333|155:325,1,85,2|2,0:0|0:0,0:0:0:0:
71,358,3851,5,2,0:0:0:0:
106,253,4184,1,2,0:0:0:0:
142,148,4518,1,2,0:0:0:0:
45,202,4851,5,2,0:0:0:0:
154,143,5184,2,0,P|198:138|247:204,1,127.5,2|0,0:0|0:0,0:0:0:0:
252,273,5851,2,0,B|285:273|310:243|310:243|348:256,1,85,0|0,1:0|3:0,0:0:0:0:
426,149,6518,6,0,B|326:167|326:167|318:129|295:104,1,170,4|2,3:2|0:0,0:0:0:0:
237,12,7518,1,2,0:0:0:0:
152,85,7851,2,0,P|116:120|52:120,1,85,8|8,0:0|0:0,0:0:0:0:
68,17,8518,2,0,P|90:62|70:122,1,85,2|2,0:0|0:0,0:0:0:0:
0,164,9184,5,2,0:0:0:0:
35,269,9517,1,2,0:0:0:0:
71,374,9851,1,2,0:0:0:0:
24,274,10184,5,2,0:0:0:0:
90,371,10518,2,0,B|124:379|155:363|165:336|165:331|166:325|177:279|226:275|261:300|261:300|237:316|218:310,1,255,0|0,3:0|0:0,0:0:0:0:
170,210,11851,6,0,P|168:168|197:122,1,85,4|0,3:2|3:0,0:0:0:0:
322,233,12518,2,0,P|281:221|246:180,1,85,2|2,1:3|0:3,0:0:0:0:
250,76,13184,5,0,3:0:0:0:
323,147,13518,1,8,0:0:0:0:
376,19,13851,2,0,P|433:-5|482:17,1,85,8|0,1:2|0:0,0:0:0:0:
425,112,14518,6,0,P|390:42|456:0,2,170,0|0|0,3:0|1:0|3:0,0:0:0:0:
502,191,16184,1,0,0:0:0:0:
425,112,16518,1,0,1:0:0:0:
506,202,16851,5,8,3:0:0:0:
505,214,17018,1,0,3:0:0:0:
500,225,17184,2,0,L|405:206,1,85,4|0,3:2|3:0,0:0:0:0:
306,287,17851,2,0,L|211:268,1,85,2|2,1:3|0:3,0:0:0:0:
326,291,18518,5,0,3:0:0:0:
243,166,18851,1,8,0:0:0:0:
222,270,19185,1,8,1:2:0:0:
347,187,19518,1,0,3:0:0:0:
334,308,19851,6,0,P|312:361|209:336,1,170,0|0,3:0|1:0,0:0:0:0:
133,365,20851,2,0,P|137:313|172:273,1,85,0|0,3:0|3:0,0:0:0:0:
233,264,21518,1,0,3:0:0:0:
133,365,21851,2,0,P|89:335|72:285,1,85,0|2,1:0|0:3,0:0:0:0:
63,307,22351,1,0,3:0:0:0:
50,305,22518,6,0,P|54:252|89:213,1,85,4|0,3:2|3:0,0:0:0:0:
220,305,23184,2,0,P|167:301|128:266,1,85,2|2,1:3|0:3,0:0:0:0:
234,223,23851,1,0,3:0:0:0:
145,156,24184,1,8,0:0:0:0:
246,233,24518,2,0,L|314:283,1,85,8|0,1:2|0:0,0:0:0:0:
145,156,25184,6,0,P|117:113|209:66,2,170,0|0|0,3:0|1:0|3:0,0:0:0:0:
252,129,26851,1,0,0:0:0:0:
275,21,27184,1,0,1:0:0:0:
255,141,27518,5,8,3:0:0:0:
263,151,27685,1,0,3:0:0:0:
274,157,27851,2,0,P|314:134|384:133,1,85,4|0,3:2|3:0,0:0:0:0:
483,40,28518,2,0,P|443:63|373:64,1,85,2|2,1:3|0:3,0:0:0:0:
452,186,29184,5,0,3:0:0:0:
405,68,29518,1,8,0:0:0:0:
459,201,29851,2,0,P|451:246|383:268,1,85,8|2,1:2|0:3,0:0:0:0:
295,243,30518,6,0,B|273:206|290:164|290:164|303:181,1,101.999996887207,0|0,3:2|0:0,0:0:0:0:
328,328,31184,2,0,B|371:327|398:363|398:363|377:365,1,101.999996887207,0|0,1:0|0:0,0:0:0:0:
237,314,31851,2,0,B|215:351|171:357|171:357|179:338,1,101.999996887207,0|2,3:0|0:3,0:0:0:0:
173,323,32351,1,2,0:3:0:0:
165,312,32518,2,0,L|157:253,1,42.5,0|0,1:0|0:0,0:0:0:0:
92,232,32851,2,0,L|84:173,1,42.5,0|0,3:0|0:0,0:0:0:0:
12,164,33184,6,0,B|1:75|1:75|-11:123,1,127.5,4|0,3:2|0:0,0:0:0:0:
22,171,33851,2,0,P|70:163|86:117,1,85,2|0,1:2|0:0,0:0:0:0:
191,6,34518,5,0,3:0:0:0:
157,87,34851,1,8,0:0:0:0:
238,121,35184,1,8,1:2:0:0:
271,40,35518,1,0,3:0:0:0:
239,133,35851,6,0,P|320:183|373:143,1,170,4|2,3:0|1:2,0:0:0:0:
435,57,36851,2,0,P|480:27|526:32,1,85,2|0,0:3|3:0,0:0:0:0:
342,175,37518,6,0,P|287:172|253:141,1,85,8|8,0:0|1:2,0:0:0:0:
346,73,38184,1,2,3:0:0:0:
416,198,38518,6,0,L|457:272,1,85,4|0,3:2|0:0,0:0:0:0:
383,313,39184,2,0,L|457:272,1,85,2|0,1:2|0:0,0:0:0:0:
326,376,39851,5,0,3:0:0:0:
301,295,40184,1,8,0:0:0:0:
241,236,40517,1,8,1:2:0:0:
161,211,40851,1,0,3:0:0:0:
78,226,41184,6,0,P|52:283|132:280,1,170,4|2,3:3|1:2,0:0:0:0:
136,172,42184,1,0,3:0:0:0:
31,135,42518,2,0,P|2:90|14:34,2,85,0|8|8,3:0|0:0|1:2,0:0:0:0:
86,72,43518,1,0,3:0:0:0:
245,27,43851,6,0,B|195:15|207:41|160:30,1,85,4|0,3:2|0:0,0:0:0:0:
242,106,44518,1,2,1:2:0:0:
263,27,44851,1,0,3:0:0:0:
236,117,45184,6,0,P|229:160|276:214,1,85,0|8,3:2|0:0,0:0:0:0:
340,80,45851,2,0,P|378:99|444:71,1,85,8|0,1:2|3:0,0:0:0:0:
503,20,46518,5,4,3:3:0:0:
503,20,46684,1,2,0:3:0:0:
503,20,46851,2,0,L|485:75,1,42.5,2|0,3:0|0:0,0:0:0:0:
417,93,47184,2,0,L|379:200,1,85,2|0,1:2|0:0,0:0:0:0:
470,263,47851,2,0,P|476:198|379:181,1,170,0|8,3:0|1:2,0:0:0:0:
246,132,48851,5,2,0:3:0:0:
236,140,49017,1,0,3:0:0:0:
230,152,49184,2,0,P|231:194|259:224,2,85,4|2|2,3:2|0:3|1:2,0:0:0:0:
294,68,50184,6,0,P|299:88|297:110,1,42.5,2|0,0:3|3:0,0:0:0:0:
230,152,50517,2,0,P|192:138|169:81,1,85,0|8,3:0|0:0,0:0:0:0:
140,0,51184,2,0,P|126:38|69:61,1,85,8|2,1:2|0:3,0:0:0:0:
0,103,51851,6,0,P|38:117|61:174,2,85,4|0|2,3:3|0:0|1:2,0:0:0:0:
0,103,52851,1,0,3:0:0:0:
24,253,53184,6,0,L|72:241,1,42.5,4|0,3:2|0:0,0:0:0:0:
137,286,53518,2,0,L|150:238,1,42.5,8|0,0:0|0:0,0:0:0:0:
222,204,53851,2,0,B|197:167|158:161|158:161|86:188,1,127.5,8|0,1:2|0:0,0:0:0:0:
113,177,54518,5,2,0:0:0:0:
473,328,59851,6,0,B|467:324|467:324|473:321|473:321|465:319|465:319|470:317|470:317|462:315|462:315|468:312|468:312|463:309|463:309|436:257,1,85,0|0,3:0|0:0,0:0:0:0:
181,117,62518,6,0,B|153:59|104:48|63:68|63:68|83:103|113:102,1,203.999993774414,0|8,3:2|0:0,0:0:0:0:
137,207,64184,5,2,0:0:0:0:
106,284,64659,6,0,P|70:300|36:269,1,85,2|0,0:0|0:0,0:0:0:0:
11,261,65718,6,0,B|-11:193|70:216|43:135,1,136,2|0,0:0|0:0,0:0:0:0:
467,139,68587,6,0,B|441:216|523:193|501:261,1,136,2|0,0:0|0:0,0:0:0:0:
170,53,71489,6,0,P|166:106|212:129,1,102,4|0,0:0|0:0,0:0:0:0:
203,129,72886,1,2,0:0:0:0:
308,129,74408,6,0,P|348:101|342:53,1,102,2|0,0:0|0:0,0:0:0:0:
342,40,75946,6,0,P|300:14|258:39,1,102,8|0,0:0|0:0,0:0:0:0:
242,44,77612,5,8,0:1:0:0:
207,127,77946,1,2,0:0:0:0:
285,176,78279,5,2,0:0:0:0:
312,244,78612,1,2,0:0:0:0:
247,285,78946,5,8,0:0:0:0:
297,345,79379,6,0,P|323:350|352:342,1,42.5,8|2,0:0|0:0,0:0:0:0:
423,364,80313,6,0,P|454:347|463:328,1,42.5,2|4,0:0|0:0,0:0:0:0:
256,192,80988,12,0,82655,0:0:0:0:
