osu file format v14

[General]
AudioFilename: audio.mp3
AudioLeadIn: 0
PreviewTime: 11752
Countdown: 0
SampleSet: Soft
StackLeniency: 0.7
Mode: 0
LetterboxInBreaks: 0
WidescreenStoryboard: 0

[Editor]
Bookmarks: 11851,32518,54518,82655
DistanceSpacing: 0.4
BeatDivisor: 4
GridSize: 32
TimelineZoom: 1

[Metadata]
Title:Yumemoyou ~Hikari~
TitleUnicode:夢模様~光~
Artist:Shimotsuki Haruka
ArtistUnicode:霜月はるか
Creator:GlaZe
Version:Cosmosphere
Source:アルトネリコ2 ~世界に響く少女たちの創造詩~
Tags:Shurelia ImpurePug Chitanda Eru Ar tonelico II: Melody of Metafalica Sekai ni Hibiku Shōjo-tachi no Metafalica Gust Folk Video Game Hymmnos Conlang
BeatmapID:2025840
BeatmapSetID:968103

[Difficulty]
HPDrainRate:6
CircleSize:6
OverallDifficulty:8
ApproachRate:8
SliderMultiplier:1.5
SliderTickRate:1

[Events]
//Background and Video events
0,0,"bg.jpg",0,0
//Break Periods
//Storyboard Layer 0 (Background)
//Storyboard Layer 1 (Fail)
//Storyboard Layer 2 (Pass)
//Storyboard Layer 3 (Foreground)
//Storyboard Layer 4 (Overlay)
//Storyboard Sound Samples

[TimingPoints]
1184,666.666666666667,4,2,78,40,1,0
1851,-100,4,2,79,40,0,0
2518,-100,4,2,78,40,0,0
3184,-100,4,2,79,40,0,0
3851,-100,4,2,78,40,0,0
4518,-100,4,2,79,40,0,0
5184,-153.846153846153,4,2,79,40,0,0
5518,-153.846153846153,4,2,78,40,0,0
6518,-100,4,2,78,40,0,0
7184,-100,4,2,79,40,0,0
7851,-100,4,2,78,40,0,0
8518,-100,4,2,79,40,0,0
9184,-100,4,2,78,40,0,0
9851,-100,4,2,79,40,0,0
10518,-133.333333333333,4,2,78,40,0,0
11851,-133.333333333333,4,2,78,55,0,0
14518,-100,4,2,78,55,0,0
17851,-133.333333333333,4,2,78,55,0,0
25184,-100,4,2,78,55,0,0
28518,-133.333333333333,4,2,78,55,0,0
30518,-83.3333333333333,4,2,78,55,0,0
32518,-83.3333333333333,4,2,78,48,0,0
33184,-100,4,2,78,48,0,0
54518,-100,4,2,79,35,0,0
57184,-111.111111111111,4,2,79,35,0,0
58518,-99.9999999999999,4,2,79,35,0,0
59851,-133.333333333333,4,2,78,35,0,0
60518,-133.333333333333,4,2,79,35,0,0
61184,-100,4,2,79,35,0,0
61851,-111.111111111111,4,2,79,35,0,0
62518,-125,4,2,78,35,0,0
63184,-125,4,2,79,35,0,0
64659,705.882352941176,4,2,79,35,1,0
65718,666.666666666667,4,2,79,35,1,0
65718,-153.846153846153,4,2,79,35,0,0
68587,666.666666666667,4,2,79,35,1,0
68587,-153.846153846154,4,2,79,35,0,0
71489,697.674418604651,4,2,79,35,1,0
72886,666.666666666667,4,2,79,35,1,0
74408,769.230769230769,4,2,79,35,1,0
74408,-117.647058823529,4,2,79,35,0,0
75946,666.666666666667,4,2,79,35,1,0
77612,-125,4,2,79,35,0,0
78279,-166.666666666667,4,2,79,35,0,0
79379,851.063829787234,4,2,79,35,1,0
79805,1016.94915254237,4,2,79,35,1,0
80822,666.666666666667,4,2,79,35,1,0
80822,-333.333333333333,4,2,79,35,0,0
82655,-100,4,2,79,5,0,0

[Colours]
Combo1 : 215,74,74
Combo2 : 192,201,88
Combo3 : 105,137,120

[HitObjects]
63,303,518,5,0,1:0:0:0:
84,383,851,1,0,3:0:0:0:
0,248,1184,2,0,P|9:209|12:169,1,75,4|0,3:2|0:0,0:0:0:0:
63,303,1851,5,2,0:0:0:0:
84,383,2184,1,2,0:0:0:0:
171,383,2518,1,8,0:0:0:0:
294,222,2851,5,8,0:0:0:0:
411,212,3185,1,2,0:0:0:0:
449,322,3518,1,2,0:0:0:0:
290,280,3851,5,2,0:0:0:0:
229,300,4184,1,2,0:0:0:0:
229,364,4518,1,2,0:0:0:0:
290,384,4851,1,2,0:0:0:0:
222,377,5184,2,0,P|200:369|176:364,1,48.7499977684022,2|0,0:0|0:0,0:0:0:0:
112,384,5851,5,0,1:0:0:0:
149,267,6184,1,0,3:0:0:0:
290,323,6518,2,0,P|324:309|361:301,1,75,4|0,3:2|0:0,0:0:0:0:
499,384,7184,5,2,0:0:0:0:
481,316,7517,1,2,0:0:0:0:
414,305,7851,1,8,0:0:0:0:
325,183,8184,5,8,0:0:0:0:
349,104,8517,1,2,0:0:0:0:
432,95,8851,1,2,0:0:0:0:
278,0,9184,5,2,0:0:0:0:
219,57,9518,1,2,0:0:0:0:
167,17,9851,1,2,0:0:0:0:
160,77,10184,1,2,0:0:0:0:
104,112,10518,6,0,P|21:92|49:7,1,196.875007510186,0|0,3:0|0:0,0:0:0:0:
75,60,11851,5,4,3:2:0:0:
106,174,12184,1,0,3:0:0:0:
135,288,12518,2,0,L|150:346,1,56.2500021457673,2|2,1:3|0:3,0:0:0:0:
14,339,13184,5,0,3:0:0:0:
135,288,13517,1,8,0:0:0:0:
255,236,13851,2,0,L|309:211,1,56.2500021457673,8|0,1:2|0:0,0:0:0:0:
452,340,14518,6,0,P|409:334|382:299,1,75,0|0,3:0|0:0,0:0:0:0:
488,243,15184,2,0,P|460:218|423:215,1,75,0|0,1:0|0:0,0:0:0:0:
452,340,15851,2,0,P|409:334|382:299,1,75,0|0,3:0|0:0,0:0:0:0:
441,275,16518,1,0,1:0:0:0:
441,275,16851,5,8,3:0:0:0:
425,216,17018,1,0,3:0:0:0:
406,155,17184,1,4,3:2:0:0:
300,104,17517,1,0,3:0:0:0:
192,56,17851,2,0,L|138:31,1,56.2500021457673,2|2,1:3|0:3,0:0:0:0:
129,169,18518,5,0,3:0:0:0:
192,56,18851,1,8,0:0:0:0:
321,18,19184,1,8,1:2:0:0:
192,56,19518,1,0,3:0:0:0:
68,17,19851,6,0,P|40:7|14:-1,1,56.2500021457673,0|0,3:0|0:0,0:0:0:0:
93,90,20518,1,0,1:0:0:0:
181,17,20851,2,0,P|209:7|234:0,1,56.2500021457673,0|0,3:0|3:0,0:0:0:0:
313,46,21518,1,0,3:0:0:0:
405,11,21851,1,0,1:0:0:0:
405,11,22184,5,2,0:3:0:0:
396,48,22351,1,0,3:0:0:0:
387,88,22517,1,4,3:2:0:0:
268,118,22850,1,0,3:0:0:0:
200,214,23184,2,0,L|169:269,1,56.2500021457673,2|2,1:3|0:3,0:0:0:0:
130,121,23851,5,0,3:0:0:0:
268,118,24184,1,8,0:0:0:0:
355,218,24518,2,0,L|392:268,1,56.2500021457673,8|0,1:2|0:0,0:0:0:0:
225,349,25184,6,0,P|268:343|295:308,1,75,0|0,3:0|0:0,0:0:0:0:
165,255,25850,2,0,P|202:257|230:282,1,75,0|0,1:0|0:0,0:0:0:0:
108,346,26517,2,0,P|145:344|173:320,1,75,0|0,3:0|0:0,0:0:0:0:
121,283,27184,1,0,1:0:0:0:
121,283,27518,5,8,3:0:0:0:
105,224,27684,1,0,3:0:0:0:
86,163,27851,1,4,3:2:0:0:
191,226,28184,1,0,3:0:0:0:
298,156,28518,2,0,L|357:117,1,56.2500021457673,2|2,1:3|0:3,0:0:0:0:
459,315,29184,5,0,3:0:0:0:
328,246,29518,1,8,0:0:0:0:
187,314,29851,1,8,1:2:0:0:
176,187,30184,1,2,0:3:0:0:
194,190,30351,1,0,3:0:0:0:
209,199,30518,6,0,P|238:232|247:275,1,89.9999972534181,0|0,3:2|0:0,0:0:0:0:
377,151,31184,2,0,P|335:167|308:202,1,89.9999972534181,0|0,1:0|0:0,0:0:0:0:
109,84,31851,2,0,P|148:104|172:142,1,89.9999972534181,0|0,3:0|0:0,0:0:0:0:
101,306,32518,5,0,1:0:0:0:
59,233,32851,1,0,3:0:0:0:
32,361,33184,2,0,P|104:340|177:327,1,150,4|2,3:2|1:2,0:0:0:0:
399,320,34518,5,0,3:0:0:0:
423,383,34851,1,8,0:0:0:0:
511,276,35184,1,8,1:2:0:0:
441,265,35518,1,0,3:0:0:0:
423,197,35851,2,0,P|448:134|516:153,1,150,4|2,3:0|1:2,0:0:0:0:
487,213,36851,5,2,3:0:0:0:
487,213,37184,1,0,3:0:0:0:
455,143,37518,5,8,0:0:0:0:
505,45,37851,1,8,1:2:0:0:
375,8,38184,1,2,3:0:0:0:
338,1,38351,1,0,3:0:0:0:
300,0,38518,2,0,P|211:8|141:24,1,150,4|2,3:2|1:2,0:0:0:0:
6,137,39851,5,0,3:0:0:0:
52,193,40184,1,8,0:0:0:0:
46,70,40518,1,8,1:2:0:0:
70,0,40851,1,0,3:0:0:0:
111,105,41184,2,0,P|177:147|237:82,1,150,4|2,3:3|1:2,0:0:0:0:
171,77,42184,5,0,3:0:0:0:
255,169,42518,1,0,3:0:0:0:
269,158,42684,1,2,3:0:0:0:
281,145,42851,1,8,0:0:0:0:
287,128,43018,1,2,3:0:0:0:
288,111,43184,1,8,1:2:0:0:
371,194,43518,5,0,3:0:0:0:
507,98,43851,1,4,3:2:0:0:
507,98,44518,5,2,1:2:0:0:
429,160,44851,1,0,3:0:0:0:
495,244,45184,1,0,3:2:0:0:
505,262,45351,1,2,3:0:0:0:
512,284,45517,1,8,0:0:0:0:
510,307,45683,1,2,3:0:0:0:
502,327,45850,1,8,1:2:0:0:
432,286,46184,1,0,3:0:0:0:
361,367,46518,6,0,P|378:356|393:348,1,37.5,4|0,3:3|0:0,0:0:0:0:
332,295,46851,2,0,P|314:284|299:276,1,37.5,2|0,3:0|0:0,0:0:0:0:
258,345,47184,2,0,P|188:371|121:344,1,150,2|0,1:2|3:0,0:0:0:0:
91,277,48184,1,8,0:0:0:0:
23,283,48518,1,8,1:2:0:0:
146,223,48851,5,2,0:3:0:0:
170,228,49018,1,0,3:0:0:0:
195,234,49184,1,4,3:2:0:0:
257,203,49518,1,2,0:3:0:0:
257,203,49851,1,2,1:2:0:0:
129,154,50184,5,2,0:3:0:0:
104,158,50351,1,0,3:0:0:0:
79,163,50517,1,0,3:0:0:0:
25,197,50851,1,8,0:0:0:0:
0,113,51184,1,8,1:2:0:0:
0,113,51518,1,2,0:3:0:0:
44,26,51851,6,0,P|120:30|198:24,1,150,4|2,3:3|1:2,0:0:0:0:
260,0,52851,1,0,3:0:0:0:
260,0,53184,5,4,3:2:0:0:
193,165,53518,1,8,0:0:0:0:
320,301,53851,2,0,P|383:317|424:308,1,75,8|0,1:2|0:0,0:0:0:0:
301,384,54518,5,2,0:0:0:0:
247,358,54851,1,2,0:0:0:0:
189,362,55184,1,8,1:0:0:0:
343,308,55518,5,8,0:0:0:0:
268,289,55851,1,8,0:0:0:0:
491,225,56184,5,4,0:0:0:0:
393,245,56517,1,8,1:0:0:0:
309,192,56851,1,2,0:0:0:0:
210,216,57184,2,0,P|121:250|61:176,1,202.499993820191,8|2,0:0|0:0,0:0:0:0:
0,327,58518,2,0,P|31:306|68:301,1,75,8|0,1:0|0:0,0:0:0:0:
56,364,59518,5,2,0:0:0:0:
56,364,59851,2,0,P|109:380|166:382,1,112.500004291535,0|2,3:2|0:0,0:0:0:0:
437,282,61184,2,0,P|384:299|328:302,1,112.500004291535,8|0,1:0|0:0,0:0:0:0:
272,238,61851,2,0,P|254:193|206:186,1,101.249996910095,2|0,0:0|0:0,0:0:0:0:
137,111,62518,2,0,P|181:119|226:120,1,90,0|0,3:2|0:0,0:0:0:0:
333,68,63184,1,2,0:0:0:0:
333,68,63851,6,0,P|365:73|397:80,1,60,8|2,0:0|0:0,0:0:0:0:
512,0,64659,1,2,0:0:0:0:
512,0,65718,6,0,P|508:48|502:96,2,97.4999955368044,2|4|8,0:0|0:0|0:0,0:0:0:0:
0,0,68587,6,0,P|4:48|10:96,2,97.4999955368044,2|4|8,0:0|0:0|0:0,0:0:0:0:
187,262,71489,6,0,P|111:320|85:227,1,225,4|0,0:0|0:0,0:0:0:0:
0,384,72886,1,2,0:0:0:0:
253,98,74408,6,0,P|331:41|358:133,1,223.125004255772,2|0,0:0|0:0,0:0:0:0:
454,90,75946,2,0,P|419:236|398:384,1,300,8|0,0:0|0:0,0:0:0:0:
332,308,77612,6,0,P|302:303|275:293,1,60,8|2,0:1|0:0,0:0:0:0:
197,232,78279,2,0,P|175:238|153:241,1,44.999998626709,2|2,0:0|0:0,0:0:0:0:
76,196,78946,5,8,0:0:0:0:
3,219,79379,1,8,0:0:0:0:
0,287,79805,1,2,0:0:0:0:
58,259,80313,1,2,0:0:0:0:
58,259,80822,2,0,L|48:383,1,123.75000377655,4|0,0:0|0:0,0:0:0:0:
