osu file format v14

[General]
AudioFilename: audio.mp3
AudioLeadIn: 0
PreviewTime: 11752
Countdown: 0
SampleSet: Soft
StackLeniency: 0.7
Mode: 0
LetterboxInBreaks: 0
WidescreenStoryboard: 1

[Editor]
Bookmarks: 11851,32518,54518
DistanceSpacing: 1.3
BeatDivisor: 4
GridSize: 16
TimelineZoom: 1

[Metadata]
Title:Yumemoyou ~Hikari~
TitleUnicode:夢模様~光~
Artist:Shimotsuki Haruka
ArtistUnicode:霜月はるか
Creator:GlaZe
Version:Chitanda's Normal
Source:アルトネリコ2 ~世界に響く少女たちの創造詩~
Tags:Shurelia ImpurePug Chitanda Eru Ar tonelico II: Melody of Metafalica Sekai ni Hibiku Shōjo-tachi no Metafalica Gust Folk Video Game Hymmnos Conlang
BeatmapID:2456039
BeatmapSetID:968103

[Difficulty]
HPDrainRate:4
CircleSize:3
OverallDifficulty:3
ApproachRate:5
SliderMultiplier:1.4
SliderTickRate:1

[Events]
//Background and Video events
0,0,"bg.jpg",0,0
//Break Periods
2,54718,58531
//Storyboard Layer 0 (Background)
//Storyboard Layer 1 (Fail)
//Storyboard Layer 2 (Pass)
//Storyboard Layer 3 (Foreground)
//Storyboard Layer 4 (Overlay)
//Storyboard Sound Samples

[TimingPoints]
1184,666.666666666667,4,2,78,40,1,0
1851,-100,4,2,79,40,0,0
2518,-100,4,2,78,40,0,0
3184,-100,4,2,79,40,0,0
3851,-100,4,2,78,40,0,0
4518,-100,4,2,79,40,0,0
5518,-100,4,2,78,40,0,0
7184,-100,4,2,79,40,0,0
7851,-100,4,2,78,40,0,0
8518,-100,4,2,79,40,0,0
9184,-100,4,2,78,40,0,0
9851,-100,4,2,79,40,0,0
10518,-100,4,2,78,40,0,0
11851,-100,4,2,78,55,0,0
32518,-100,4,2,78,48,0,0
54518,-100,4,2,79,35,0,0
59851,-100,4,2,78,35,0,0
60518,-100,4,2,79,35,0,0
62518,-100,4,2,78,35,0,0
63184,-100,4,2,79,35,0,0
64659,705.882352941176,4,2,79,35,1,0
65159,-100,4,2,79,35,0,0
65718,666.666666666667,4,2,79,35,1,0
68587,666.666666666667,4,2,79,35,1,0
71489,697.674418604651,4,2,79,35,1,0
72886,666.666666666667,4,2,79,35,1,0
72886,-100,4,2,79,35,0,0
74408,769.230769230769,4,2,79,35,1,0
75946,666.666666666667,4,2,79,35,1,0
79379,851.063829787234,4,2,79,35,1,0
79805,1016.94915254237,4,2,79,35,1,0
80822,666.666666666667,4,2,79,35,1,0
80822,-100,4,2,79,35,0,0
82655,-100,4,2,79,5,0,0

[Colours]
Combo1 : 215,74,74
Combo2 : 192,201,88
Combo3 : 105,137,120

[HitObjects]
83,100,518,6,0,P|143:87|163:60,1,70,0|0,1:0|3:0,0:0:0:0:
217,24,1184,2,0,L|373:27,1,140,4|2,3:2|0:0,0:0:0:0:
448,26,2184,1,2,0:0:0:0:
503,98,2518,2,0,P|506:146|496:173,1,70,8|8,0:0|0:0,0:0:0:0:
437,232,3184,2,0,P|389:235|362:225,1,70,2|2,0:0|0:0,0:0:0:0:
304,163,3851,1,2,0:0:0:0:
213,163,4184,2,0,L|113:166,2,70,2|2|2,0:0|0:0|0:0,0:0:0:0:
304,163,5184,1,2,0:0:0:0:
397,319,5851,6,0,L|414:237,1,70,0|0,1:0|3:0,0:0:0:0:
408,159,6518,2,0,P|348:140|262:166,1,140,4|2,3:2|0:0,0:0:0:0:
214,225,7518,1,2,0:0:0:0:
281,286,7851,2,0,L|278:368,1,70,8|8,0:0|0:0,0:0:0:0:
189,377,8518,2,0,L|107:374,1,70,2|2,0:0|0:0,0:0:0:0:
61,303,9184,1,2,0:0:0:0:
61,211,9518,2,0,P|59:176|43:138,2,70,2|2|2,0:0|0:0|0:0,0:0:0:0:
61,303,10518,1,0,3:0:0:0:
285,16,11851,6,0,P|320:16|353:30,1,70,4|0,3:2|3:0,0:0:0:0:
416,95,12518,1,2,1:3:0:0:
345,152,12851,1,2,0:3:0:0:
417,206,13184,2,0,L|488:210,1,70,0|8,3:0|0:0,0:0:0:0:
476,300,13851,2,0,L|405:296,1,70,8|0,1:2|0:0,0:0:0:0:
327,250,14518,6,0,B|244:209|249:271|178:248,1,140,0|0,3:0|1:0,0:0:0:0:
66,119,15851,1,0,3:0:0:0:
3,185,16184,1,0,0:0:0:0:
49,263,16518,2,0,P|37:300|44:332,1,70,0|8,1:0|3:0,0:0:0:0:
66,375,17018,1,0,3:0:0:0:
66,375,17184,6,0,L|154:371,1,70,4|0,3:2|3:0,0:0:0:0:
226,365,17851,1,2,1:3:0:0:
200,277,18184,1,2,0:3:0:0:
269,217,18518,2,0,P|316:228|351:212,1,70,0|8,3:0|0:0,0:0:0:0:
336,131,19184,2,0,P|289:120|254:136,1,70,8|0,1:2|3:0,0:0:0:0:
187,165,19851,6,0,B|121:159|121:159|100:176|100:176|43:171,1,140,0|0,3:0|1:0,0:0:0:0:
8,92,20851,1,0,3:0:0:0:
74,31,21184,2,0,L|167:30,1,70,0|0,3:0|3:0,0:0:0:0:
234,36,21851,1,0,1:0:0:0:
201,121,22184,1,2,0:3:0:0:
268,181,22518,6,0,P|301:187|342:164,1,70,4|0,3:2|0:0,0:0:0:0:
394,104,23184,1,2,1:3:0:0:
468,156,23518,1,2,0:3:0:0:
419,233,23851,2,0,L|421:322,1,70,0|8,3:0|0:0,0:0:0:0:
343,351,24518,2,0,L|254:353,1,70,8|0,1:2|0:0,0:0:0:0:
182,352,25184,6,0,B|210:266|161:284|181:215,1,140,0|0,3:0|1:0,0:0:0:0:
207,35,26518,1,0,3:0:0:0:
123,0,26851,1,0,0:0:0:0:
49,53,27184,2,0,P|33:110|48:145,1,70,0|8,1:0|3:0,0:0:0:0:
62,161,27684,1,0,3:0:0:0:
62,161,27851,6,0,L|57:260,1,70,4|0,3:2|3:0,0:0:0:0:
71,321,28518,1,2,1:3:0:0:
158,296,28851,1,2,0:3:0:0:
235,348,29184,2,0,P|282:356|317:342,1,70,0|8,3:0|0:0,0:0:0:0:
367,285,29851,2,0,P|375:238|361:203,1,70,8|2,1:2|0:3,0:0:0:0:
312,146,30518,6,0,B|252:144|252:144|224:165|224:165|168:160,2,140,0|0|0,3:2|1:0|3:0,0:0:0:0:
432,4,32518,1,0,1:0:0:0:
493,70,32851,1,0,3:0:0:0:
461,155,33184,6,0,P|473:195|458:241,1,70,4|0,3:2|0:0,0:0:0:0:
429,305,33851,2,0,L|344:308,1,70,2|0,1:2|0:0,0:0:0:0:
269,295,34518,1,0,3:0:0:0:
305,211,34851,1,8,0:0:0:0:
243,143,35184,1,8,1:2:0:0:
288,64,35518,1,0,3:0:0:0:
216,8,35851,6,0,B|118:-16|171:41|80:31,1,140,4|2,3:0|1:2,0:0:0:0:
1,68,36851,2,0,L|6:220,1,140,2|8,3:0|0:0,0:0:0:0:
6,299,37851,1,8,1:2:0:0:
94,276,38184,1,2,3:0:0:0:
166,331,38518,6,0,L|251:336,1,70,4|0,3:2|0:0,0:0:0:0:
323,310,39184,2,0,P|338:263|323:228,1,70,2|0,1:2|0:0,0:0:0:0:
273,175,39851,1,0,3:0:0:0:
322,98,40184,1,8,0:0:0:0:
385,171,40518,1,8,1:2:0:0:
440,98,40851,1,0,3:0:0:0:
487,175,41184,6,0,B|481:235|481:235|462:251|462:251|461:307,1,140,4|2,3:3|1:2,0:0:0:0:
401,374,42184,1,0,3:0:0:0:
332,314,42518,2,0,L|254:311,1,70,0|8,3:0|0:0,0:0:0:0:
197,246,43184,2,0,L|200:168,1,70,8|0,1:2|3:0,0:0:0:0:
207,85,43851,6,0,B|122:53|151:115|50:90,1,140,4|2,3:2|1:2,0:0:0:0:
0,150,44851,1,0,3:0:0:0:
61,218,45184,2,0,P|50:260|66:317,1,70,0|8,3:2|0:0,0:0:0:0:
128,336,45851,2,0,P|170:347|227:331,1,70,8|0,1:2|3:0,0:0:0:0:
250,271,46518,5,0,0:0:0:0:
203,193,46851,1,0,0:0:0:0:
244,112,47184,2,0,B|323:87|296:149|395:126,1,140,2|0,1:2|3:0,0:0:0:0:
469,133,48184,1,8,0:0:0:0:
448,221,48518,2,0,L|449:306,1,70,8|2,1:2|0:3,0:0:0:0:
436,381,49184,6,0,B|373:380|373:380|348:358|348:358|292:362,1,140,4|2,3:2|1:2,0:0:0:0:
214,343,50184,1,2,0:3:0:0:
248,258,50518,2,0,L|251:179,1,70,0|8,3:0|0:0,0:0:0:0:
184,125,51184,2,0,L|105:122,1,70,8|2,1:2|0:3,0:0:0:0:
95,33,51851,6,0,B|178:19|151:68|235:39,1,140,4|2,3:3|1:2,0:0:0:0:
321,24,52851,1,0,3:0:0:0:
359,106,53184,1,0,0:0:0:0:
322,189,53518,1,0,0:0:0:0:
409,215,53851,2,0,P|453:208|492:229,1,70,8|0,1:2|0:0,0:0:0:0:
442,301,54518,5,2,0:0:0:0:
17,244,59851,5,0,3:2:0:0:
256,379,62518,1,0,3:2:0:0:
440,238,65718,6,0,B|464:168|464:168|445:94,2,140,2|4|8,0:0|0:0|0:0,0:0:0:0:
20,232,68587,6,0,B|-4:162|-4:162|15:88,2,140,2|4|8,0:0|0:0|0:0,0:0:0:0:
259,376,71489,6,0,L|251:149,1,210,4|0,0:0|0:0,0:0:0:0:
248,57,72886,1,2,0:0:0:0:
431,1,74408,6,0,L|452:229,1,210,2|0,0:0|0:0,0:0:0:0:
467,313,75946,2,0,B|275:275|375:377|175:346,1,280,8|0,0:0|0:0,0:0:0:0:
256,192,77612,12,0,82655,0:0:0:0:
