osu file format v14

[General]
AudioFilename: youka.mp3
AudioLeadIn: 0
PreviewTime: 143330
Countdown: 0
SampleSet: Soft
StackLeniency: 0.7
Mode: 3
LetterboxInBreaks: 0
SpecialStyle: 0
WidescreenStoryboard: 0

[Editor]
Bookmarks: 21341,21583,21825,22389,23034,24728,25454,32147,69567,90212,100534,110857,179244,189567,210212,225696,246341,266986
DistanceSpacing: 1.1
BeatDivisor: 16
GridSize: 8
TimelineZoom: 2.899999

[Metadata]
Title:Youka to Yumeutsutsu
TitleUnicode:妖花ト夢現
Artist:Shimotsuki Haruka
ArtistUnicode:霜月はるか
Creator:diamant66
Version:Camellia
Source:
Tags:しちごさん。753×ABSOLUTE 753. ABSOLUTE CASTAWAY Another Flower 日山 尚 Hiyama Nao 塚越雄 Tsukagoshi Yuichiro NanosizeMir japanese keysound piano
BeatmapID:2011012
BeatmapSetID:960549

[Difficulty]
HPDrainRate:8
CircleSize:4
OverallDifficulty:7.8
ApproachRate:9.2
SliderMultiplier:1.4
SliderTickRate:1

[Events]
//Background and Video events
0,0,"c2jFANC.jpg",0,0
//Break Periods
//Storyboard Layer 0 (Background)
//Storyboard Layer 1 (Fail)
//Storyboard Layer 2 (Pass)
//Storyboard Layer 3 (Foreground)
//Storyboard Layer 4 (Overlay)
//Storyboard Sound Samples
Sample,16502,0,"G#6S_Ab6S.wav",100
Sample,21744,0,"F7S.wav",100
Sample,26341,0,"F#7S_Gb7S.wav",100
Sample,26663,0,"F#7S_Gb7S.wav",100
Sample,41663,0,"B7S.wav",100
Sample,41986,0,"G#6S_Ab6S.wav",100
Sample,42309,0,"G7S.wav",100
Sample,42631,0,"F6S.wav",100
Sample,44567,0,"G5S.wav",100
Sample,46341,0,"D6S.wav",100
Sample,47147,0,"F5S.wav",100
Sample,51502,0,"A#6S_Bb6S.wav",100
Sample,56179,0,"D6S.wav",100
Sample,57470,0,"G6S.wav",100
Sample,61825,0,"G5S.wav",100
Sample,64405,0,"G5S.wav",100
Sample,66986,0,"A#7S_Bb7S.wav",100
Sample,69567,0,"A#5S_Bb5S.wav",100
Sample,70696,0,"B5S.wav",100
Sample,72147,0,"B5S.wav",100
Sample,73276,0,"A#6S_Bb6S.wav",100
Sample,73599,0,"A#6S_Bb6S.wav",100
Sample,74083,0,"A#6S_Bb6S.wav",100
Sample,74244,0,"A#6S_Bb6S.wav",100
Sample,74405,0,"A#6S_Bb6S.wav",100
Sample,74728,0,"D#5S_Eb5S.wav",100
Sample,76502,0,"G#6S_Ab6S.wav",100
Sample,78760,0,"C#6S_Db6S.wav",100
Sample,79083,0,"C#7S_Db7S.wav",100
Sample,81341,0,"F6S.wav",100
Sample,82470,0,"G#6S_Ab6S.wav",100
Sample,82954,0,"F6S.wav",100
Sample,83599,0,"D#6S_Eb6S.wav",100
Sample,83921,0,"D#7S_Eb7S.wav",70
Sample,84083,0,"G#7S_Ab7S.wav",100
Sample,84405,0,"D#6S_Eb6S.wav",100
Sample,84728,0,"G#4S_Ab4S.wav",100
Sample,88921,0,"A#4S_Bb4S.wav",100
Sample,89567,0,"F#6S_Gb6S.wav",100
Sample,94567,0,"C#6S_Db6S.wav",100
Sample,94889,0,"A#6S_Bb6S.wav",100
Sample,100050,0,"A#6S_Bb6S.wav",100
Sample,100212,0,"F#6S_Gb6S.wav",100
Sample,100373,0,"C#7S_Db7S.wav",100
Sample,100534,0,"G#7S_Ab7S.wav",100
Sample,100857,0,"C#7S_Db7S.wav",100
Sample,101341,0,"C#7S_Db7S.wav",100
Sample,101825,0,"C#7S_Db7S.wav",100
Sample,102309,0,"C#7S_Db7S.wav",100
Sample,102631,0,"F#7S_Gb7S.wav",100
Sample,102954,0,"F#7S_Gb7S.wav",100
Sample,103438,0,"C#7S_Db7S.wav",100
Sample,103921,0,"C#7S_Db7S.wav",100
Sample,104405,0,"C#7S_Db7S.wav",100
Sample,104889,0,"C#7S_Db7S.wav",100
Sample,105212,0,"A#7S_Bb7S.wav",100
Sample,105534,0,"G#7S_Ab7S.wav",100
Sample,105615,0,"G#7S_Ab7S.wav",100
Sample,106018,0,"C#7S_Db7S.wav",100
Sample,106502,0,"C#7S_Db7S.wav",100
Sample,106986,0,"C#7S_Db7S.wav",100
Sample,107470,0,"C#7S_Db7S.wav",100
Sample,107792,0,"F#7S_Gb7S.wav",100
Sample,108115,0,"F#7S_Gb7S.wav",100
Sample,109567,0,"C7S.wav",100
Sample,109728,0,"G6S.wav",100
Sample,110050,0,"C6S.wav",100
Sample,111179,0,"D#5S_Eb5S.wav",100
Sample,111986,0,"D#5S_Eb5S.wav",100
Sample,112309,0,"D#5S_Eb5S.wav",100
Sample,114889,0,"D5S.wav",100
Sample,115050,0,"A#4S_Bb4S.wav",100
Sample,115696,0,"D5S.wav",100
Sample,116341,0,"D#4S_Eb4S.wav",100
Sample,117147,0,"D4S.wav",100
Sample,119405,0,"G#5S_Ab5S.wav",100
Sample,119728,0,"D5S.wav",100
Sample,120212,0,"F5S.wav",100
Sample,120373,0,"D6S.wav",100
Sample,121018,0,"D6S.wav",100
Sample,123760,0,"D6S.wav",100
Sample,125857,0,"D6S.wav",100
Sample,127147,0,"D6S.wav",100
Sample,128438,0,"D#6S_Eb6S.wav",100
Sample,131179,0,"D6S.wav",100
Sample,133599,0,"G6S.wav",100
Sample,134083,0,"F5S.wav",100
Sample,134889,0,"D#6S_Eb6S.wav",100
Sample,135212,0,"C6S.wav",100
Sample,139889,0,"F7S.wav",100
Sample,140534,0,"E7S.wav",100
Sample,141825,0,"G6S.wav",100
Sample,143330,0,"G#3S_Ab3S.wav",100
Sample,143545,0,"A3S.wav",100
Sample,143760,0,"A#3S_Bb3S.wav",100
Sample,144405,0,"A#5S_Bb5S.wav",100
Sample,145534,0,"B5S.wav",100
Sample,146986,0,"B5S.wav",100
Sample,148115,0,"A#6S_Bb6S.wav",100
Sample,148438,0,"A#6S_Bb6S.wav",100
Sample,148921,0,"A#6S_Bb6S.wav",100
Sample,149083,0,"A#6S_Bb6S.wav",100
Sample,149244,0,"A#6S_Bb6S.wav",100
Sample,149567,0,"D#5S_Eb5S.wav",100
Sample,151341,0,"G#6S_Ab6S.wav",100
Sample,153599,0,"C#6S_Db6S.wav",100
Sample,153921,0,"C#7S_Db7S.wav",100
Sample,156179,0,"F6S.wav",100
Sample,157309,0,"G#6S_Ab6S.wav",100
Sample,157792,0,"F6S.wav",100
Sample,158438,0,"D#6S_Eb6S.wav",100
Sample,158760,0,"LR_Tom Hit.wav",70
Sample,162309,0,"D#6S_Eb6S.wav",100
Sample,163034,0,"SK_BD_04.wav",70
Sample,166825,0,"C#5S_Db5S.wav",100
Sample,167470,0,"F#5S_Gb5S.wav",100
Sample,168921,0,"F#7S_Gb7S.wav",100
Sample,169728,0,"SK_BD_04.wav",70
Sample,171018,0,"F#5S_Gb5S.wav",100
Sample,174567,0,"A#4S_Bb4S.wav",100
Sample,174567,0,"LR_CymbalG.wav",50
Sample,175212,0,"B4S.wav",100
Sample,176663,0,"F#7S_Gb7S.wav",100
Sample,177954,0,"F6S.wav",100
Sample,216663,0,"G#5S_Ab5S.wav",100
Sample,217954,0,"A#5S_Bb5S.wav",100
Sample,219889,0,"C#6S_Db6S.wav",100
Sample,222309,0,"F6S.wav",100
Sample,225696,0,"B5S.wav",100
Sample,225696,0,"E5S.wav",100
Sample,226825,0,"C6S.wav",100
Sample,228276,0,"C6S.wav",100
Sample,229405,0,"B6S.wav",100
Sample,229728,0,"B6S.wav",100
Sample,230212,0,"D7S.wav",70
Sample,230373,0,"D7S.wav",70
Sample,230534,0,"D7S.wav",70
Sample,230857,0,"E5S.wav",100
Sample,232631,0,"A6S.wav",100
Sample,234889,0,"D6S.wav",100
Sample,235212,0,"D7S.wav",100
Sample,237147,0,"F#6S_Gb6S.wav",100
Sample,237470,0,"F#6S_Gb6S.wav",100
Sample,238599,0,"A6S.wav",100
Sample,239083,0,"F#6S_Gb6S.wav",100
Sample,239728,0,"E6S.wav",100
Sample,240050,0,"E7S.wav",70
Sample,240212,0,"A7S.wav",100
Sample,240534,0,"E6S.wav",100
Sample,240857,0,"A4S.wav",100
Sample,243599,0,"D#5S_Eb5S.wav",100
Sample,244889,0,"B4S.wav",100
Sample,245050,0,"D#5S_Eb5S.wav",100
Sample,245534,0,"C6S.wav",100
Sample,245696,0,"B5S.wav",100
Sample,245776,0,"A6S.wav",100
Sample,245857,0,"D7S.wav",100
Sample,246179,0,"C7S.wav",100
Sample,246341,0,"B5S.wav",100
Sample,250050,0,"F#6S_Gb6S.wav",50
Sample,250050,0,"B6S.wav",50
Sample,250212,0,"B6S.wav",50
Sample,250373,0,"B6S.wav",50
Sample,250534,0,"B6S.wav",50
Sample,250696,0,"D7S.wav",50
Sample,250696,0,"F#6S_Gb6S.wav",50
Sample,250857,0,"D7S.wav",50
Sample,251018,0,"D7S.wav",50
Sample,253438,0,"D6S.wav",100
Sample,253760,0,"D6S.wav",100
Sample,254244,0,"SK_BD_04.wav",70
Sample,254405,0,"F#6S_Gb6S.wav",100
Sample,255696,0,"A6S.wav",100
Sample,256018,0,"D5S.wav",100
Sample,256126,0,"A5S.wav",100
Sample,259728,0,"F#6S_Gb6S.wav",100
Sample,260373,0,"E6S.wav",100
Sample,260696,0,"LR_Tom Hit.wav",70
Sample,260817,0,"A5S.wav",100
Sample,260857,0,"E6S.wav",100
Sample,266341,0,"G6S.wav",70
Sample,266341,0,"LR_CymbalG.wav",70
Sample,271341,0,"D6S.wav",100
Sample,271663,0,"B6S.wav",100
Sample,276825,0,"B6S.wav",100
Sample,276986,0,"G6S.wav",100
Sample,277147,0,"D7S.wav",100
Sample,277309,0,"A7S.wav",100
Sample,277631,0,"D7S.wav",100
Sample,278115,0,"D7S.wav",100
Sample,278599,0,"D7S.wav",100
Sample,279083,0,"D7S.wav",100
Sample,279405,0,"G7S.wav",100
Sample,279728,0,"G7S.wav",100
Sample,280212,0,"D7S.wav",100
Sample,280696,0,"D7S.wav",100
Sample,281179,0,"D7S.wav",100
Sample,281663,0,"D7S.wav",100
Sample,281986,0,"B7S.wav",100
Sample,282309,0,"A7S.wav",100
Sample,282389,0,"G7S.wav",100
Sample,282470,0,"A7S.wav",100
Sample,282792,0,"D7S.wav",100
Sample,283276,0,"D7S.wav",100
Sample,283760,0,"D7S.wav",100
Sample,284244,0,"D7S.wav",100
Sample,284567,0,"G7S.wav",100
Sample,284889,0,"G7S.wav",100
Sample,285050,0,"A7S.wav",100
Sample,285212,0,"G7S.wav",100
Sample,285373,0,"D7S.wav",100
Sample,285534,0,"A7S.wav",100
Sample,285696,0,"G7S.wav",100
Sample,285857,0,"D7S.wav",100
Sample,286018,0,"A7S.wav",100
Sample,286179,0,"G7S.wav",100
Sample,286663,0,"G7S.wav",100
Sample,286825,0,"D7S.wav",100
Sample,287147,0,"B7S.wav",100
Sample,287631,0,"G6S.wav",100
Sample,287954,0,"G6S.wav",100
Sample,288115,0,"F#6S_Gb6S.wav",100
Sample,288760,0,"D6S.wav",100
Sample,289417,0,"D6S.wav",100
Sample,289759,0,"G5S.wav",100
Sample,289928,0,"D5S.wav",100
Sample,290274,0,"C6S.wav",100
Sample,290846,0,"LR_CymbalRDW.wav",40

[TimingPoints]
1180,322.58064516129,4,2,1,40,1,0
1180,-100,4,2,1,50,0,0
11179,-22.5225,4,2,1,50,0,0
11211,-714.286,4,2,1,50,0,0
11341,-100,4,2,1,50,0,0
68438,-100,4,2,1,15,0,0
69567,-100,4,2,1,70,0,1
82954,-60.241,4,2,1,70,0,1
83082,-178.571,4,2,1,70,0,1
83276,-60.241,4,2,1,70,0,1
83404,-178.571,4,2,1,70,0,1
83599,-60.241,4,2,1,70,0,1
83727,-178.571,4,2,1,70,0,1
83921,-100,4,2,1,70,0,1
87954,-100,4,2,1,70,0,0
90212,-100,4,2,1,60,0,0
100534,-100,4,2,1,50,0,0
144405,-100,4,2,1,50,0,1
157792,-60.241,4,2,1,50,0,1
157921,-178.571,4,2,1,50,0,1
158114,-60.241,4,2,1,50,0,1
158243,-178.571,4,2,1,50,0,1
158437,-60.241,4,2,1,50,0,1
158566,-178.571,4,2,1,50,0,1
158759,-100,4,2,1,50,0,1
163760,-100,4,2,1,50,0,0
179123,-100,4,2,1,20,0,0
183276,-100,4,2,1,25,0,0
184405,-100,4,2,1,30,0,0
185696,-100,4,2,1,35,0,0
186986,-100,4,2,1,40,0,0
187631,-100,4,2,1,45,0,0
188276,-100,4,2,1,50,0,0
188921,-100,4,2,1,60,0,0
210292,-100,4,2,1,20,0,0
214567,-100,4,2,1,50,0,0
214667,-100,4,2,1,50,0,0
225696,-100,4,2,1,70,0,1
239083,-60.241,4,2,1,70,0,1
239212,-178.571,4,2,1,70,0,1
239405,-60.241,4,2,1,70,0,1
239534,-178.571,4,2,1,70,0,1
239728,-60.241,4,2,1,70,0,1
239857,-178.571,4,2,1,70,0,1
240050,-100,4,2,1,70,0,1
245050,-100,4,2,1,70,0,0
246341,-100,4,2,1,70,0,1
259728,-60.241,4,2,1,70,0,1
259857,-178.571,4,2,1,70,0,1
260050,-60.241,4,2,1,70,0,1
260179,-178.571,4,2,1,70,0,1
260373,-60.241,4,2,1,70,0,1
260502,-178.571,4,2,1,70,0,1
260695,-100,4,2,1,70,0,1
265696,-100,4,2,1,70,0,0
266986,-100,4,2,1,60,0,0
279889,-100,4,2,1,40,0,0
289244,347.580645161292,4,2,1,50,1,0
289244,-92.8074245939671,4,2,1,50,0,0
289591,337.080645161292,4,2,1,50,1,0
289591,-95.6983587731466,4,2,1,50,0,0
289928,346.780645161291,4,2,1,50,1,0
289928,-93.0215251809267,4,2,1,50,0,0
290621,-100,4,2,1,70,0,0
290846,400,4,2,1,70,1,0
290846,-80.6451612903226,4,2,1,70,0,0
291421,470.588235294118,4,2,1,70,1,0
291421,-68.5483870967742,4,2,1,70,0,0
292362,461.538461538462,4,2,1,70,1,0
292362,-69.8924731182795,4,2,1,70,0,0
293178,468.75,4,2,1,70,1,0
293178,-68.8172043010753,4,2,1,70,0,0
293417,451.127819548872,4,2,1,70,1,0
293417,-71.5053763440861,4,2,1,70,0,0
293612,480,4,2,1,70,1,0
293612,-67.2043010752688,4,2,1,70,0,0
293755,400,4,2,1,70,1,0
293755,-80.6451612903226,4,2,1,70,0,0
293968,405.405405405405,4,2,1,70,1,0
293968,-79.5698924731184,4,2,1,70,0,0
294132,476.190476190476,4,2,1,70,1,0
294132,-67.741935483871,4,2,1,70,0,0
294470,530.973451327434,4,2,1,70,1,0
294470,-60.752688172043,4,2,1,70,0,0
294772,576.923076923077,4,2,1,70,1,0
294772,-55.9139784946236,4,2,1,70,0,0
295094,697.674418604651,4,2,1,70,1,0
295094,-46.236559139785,4,2,1,70,0,0
295488,789.473684210526,4,2,1,70,1,0
295488,-40.8602150537635,4,2,1,70,0,0
295942,1304.34782608696,4,2,1,70,1,0
295942,-24.7311827956989,4,2,1,70,0,0
296665,2105.26315789474,4,2,1,70,1,0
296665,-15.3225806451613,4,2,1,70,0,0

[HitObjects]
192,192,427,5,0,0:0:0:70:LR_Snare Drum 2.wav
320,192,481,1,0,0:0:0:70:LR_Snare Drum 2.wav
448,192,534,1,0,0:0:0:70:LR_Snare Drum 2.wav
64,192,615,1,0,0:0:0:40:LR_Drum Hit Drop High.wav
192,192,615,1,0,0:0:0:0:
320,192,696,1,0,0:0:0:40:LR_Drum Hit Drop High.wav
448,192,696,1,0,0:0:0:0:
64,192,776,1,0,0:0:0:40:LR_Drum Hit Drop High.wav
192,192,776,1,0,0:0:0:0:
320,192,857,1,0,0:0:0:40:LR_Tom Hit.wav
448,192,938,1,0,0:0:0:40:LR_Tom Hit.wav
192,192,1018,1,0,0:0:0:40:LR_TomR2.wav
320,192,1099,1,0,0:0:0:40:LR_TomR2.wav
64,192,1180,1,0,0:0:0:70:LR_CymbalG.wav
192,192,1180,1,0,0:0:0:70:SK_BD_04.wav
448,192,1180,128,0,3760:0:0:0:0:
64,192,1502,1,0,0:0:0:70:SK_BD_04.wav
192,192,1663,1,0,0:0:0:50:LR_Drum Hit Drop High.wav
320,192,1663,1,0,0:0:0:0:
64,192,1986,1,0,0:0:0:70:SK_BD_04.wav
192,192,2147,1,0,0:0:0:50:LR_Drum Hit Drop High.wav
320,192,2147,1,0,0:0:0:0:
64,192,2470,1,0,0:0:0:70:SK_BD_04.wav
192,192,2631,1,0,0:0:0:50:LR_Drum Hit Drop High.wav
320,192,2631,1,0,0:0:0:0:
320,192,2792,1,0,0:0:0:0:
64,192,2954,1,0,0:0:0:70:SK_BD_04.wav
64,192,3034,1,0,0:0:0:70:SK_BD_04.wav
192,192,3115,1,0,0:0:0:50:LR_Drum Hit Drop High.wav
320,192,3115,1,0,0:0:0:0:
64,192,3276,1,0,0:0:0:70:SK_BD_04.wav
192,192,3438,1,0,0:0:0:50:LR_Drum Hit Drop High.wav
320,192,3438,1,0,0:0:0:0:
64,192,3599,1,0,0:0:0:70:SK_BD_04.wav
64,192,3760,128,0,6341:0:0:0:50:LR_Drum Hit Clap Sn.wav
192,192,3760,1,0,0:0:0:0:
320,192,3760,1,0,0:0:0:0:
448,192,4083,1,0,0:0:0:70:SK_BD_04.wav
192,192,4244,1,0,0:0:0:50:LR_Drum Hit Drop High.wav
320,192,4244,1,0,0:0:0:0:
192,192,4405,1,0,0:0:0:0:
448,192,4567,1,0,0:0:0:70:SK_BD_04.wav
192,192,4728,1,0,0:0:0:50:LR_Drum Hit Drop High.wav
320,192,4728,1,0,0:0:0:0:
448,192,5050,1,0,0:0:0:70:SK_BD_04.wav
192,192,5212,1,0,0:0:0:50:LR_Drum Hit Drop High.wav
320,192,5212,1,0,0:0:0:0:
192,192,5373,1,0,0:0:0:0:
448,192,5534,1,0,0:0:0:70:SK_BD_04.wav
448,192,5615,1,0,0:0:0:70:SK_BD_04.wav
192,192,5696,1,0,0:0:0:50:LR_Drum Hit Drop High.wav
320,192,5696,1,0,0:0:0:0:
448,192,5857,1,0,0:0:0:70:SK_BD_04.wav
192,192,6018,1,0,0:0:0:50:LR_Drum Hit Drop High.wav
320,192,6018,1,0,0:0:0:0:
448,192,6179,1,0,0:0:0:70:SK_BD_04.wav
448,192,6260,1,0,0:0:0:70:SK_BD_04.wav
192,192,6341,128,0,7309:0:0:0:50:LR_Drum Hit Clap Sn.wav
320,192,6341,1,0,0:0:0:0:
320,192,6583,1,0,0:0:0:0:
64,192,6663,1,0,0:0:0:70:SK_BD_04.wav
64,192,6825,128,0,7309:0:0:0:50:LR_Drum Hit Drop High.wav
448,192,6825,1,0,0:0:0:0:
320,192,6986,1,0,0:0:0:0:
448,192,7147,1,0,0:0:0:70:SK_BD_04.wav
320,192,7309,1,0,0:0:0:50:LR_Drum Hit Drop High.wav
448,192,7309,128,0,8921:0:0:0:0:
64,192,7631,1,0,0:0:0:70:SK_BD_04.wav
192,192,7792,1,0,0:0:0:50:LR_Drum Hit Drop High.wav
320,192,7792,1,0,0:0:0:0:
320,192,7954,1,0,0:0:0:0:
64,192,8115,1,0,0:0:0:70:SK_BD_04.wav
64,192,8196,1,0,0:0:0:70:SK_BD_04.wav
192,192,8276,1,0,0:0:0:50:LR_Drum Hit Drop High.wav
320,192,8276,1,0,0:0:0:0:
64,192,8438,1,0,0:0:0:70:SK_BD_04.wav
192,192,8599,1,0,0:0:0:50:LR_Drum Hit Drop High.wav
320,192,8599,1,0,0:0:0:0:
64,192,8760,1,0,0:0:0:70:SK_BD_04.wav
64,192,8921,128,0,10158:0:0:0:50:LR_Drum Hit Drop High.wav
192,192,8921,1,0,0:0:0:0:
320,192,8921,1,0,0:0:0:0:
448,192,9244,1,0,0:0:0:70:SK_BD_04.wav
192,192,9405,1,0,0:0:0:50:LR_Drum Hit Drop High.wav
320,192,9405,1,0,0:0:0:0:
192,192,9567,1,0,0:0:0:0:
448,192,9728,1,0,0:0:0:70:SK_BD_04.wav
192,192,9889,1,0,0:0:0:50:LR_Drum Hit Drop High.wav
320,192,9889,1,0,0:0:0:0:
320,192,10158,128,0,10534:0:0:0:100:G#6S_Ab6S.wav
448,192,10212,1,0,0:0:0:70:SK_BD_04.wav
64,192,10373,1,0,0:0:0:50:LR_Drum Hit Drop High.wav
192,192,10373,1,0,0:0:0:0:
64,192,10534,128,0,10857:0:0:0:100:C#6S_Db6S.wav
320,192,10696,1,0,0:0:0:70:SK_BD_04.wav
320,192,10776,1,0,0:0:0:70:SK_BD_04.wav
192,192,10857,1,0,0:0:0:50:LR_Drum Hit Drop High.wav
448,192,10857,1,0,0:0:0:0:
320,192,10911,128,0,11179:0:0:0:100:G#6S_Ab6S.wav
64,192,11018,1,0,0:0:0:70:SK_BD_04.wav
64,192,11179,1,0,0:0:0:50:LR_Drum Hit Drop High.wav
192,192,11179,1,0,0:0:0:70:LR_CymbalG.wav
448,192,11179,1,0,0:0:0:0:
64,192,11502,128,0,11744:0:0:0:50:LR_Drum Hit Drop High.wav
192,192,11502,1,0,0:0:0:70:LR_CymbalQST.wav
448,192,11502,1,0,0:0:0:100:F#6S_Gb6S.wav
320,192,11663,1,0,0:0:0:100:F6S.wav
64,192,11825,1,0,0:0:0:70:SK_BD_04.wav
192,192,11825,1,0,0:0:0:100:B5S.wav
64,192,11986,128,0,12067:0:0:0:70:LR_Drum Hit Drop High.wav
192,192,11986,1,0,0:0:0:100:F#6S_Gb6S.wav
448,192,11986,1,0,0:0:0:0:
320,192,12147,1,0,0:0:0:100:F6S.wav
64,192,12309,1,0,0:0:0:70:SK_BD_04.wav
192,192,12309,1,0,0:0:0:100:B5S.wav
64,192,12470,128,0,12550:0:0:0:70:LR_Drum Hit Drop High.wav
192,192,12470,1,0,0:0:0:100:F#6S_Gb6S.wav
448,192,12470,1,0,0:0:0:0:
320,192,12631,1,0,0:0:0:100:F6S.wav
64,192,12792,1,0,0:0:0:70:SK_BD_04.wav
192,192,12792,1,0,0:0:0:100:B5S.wav
64,192,12954,128,0,13034:0:0:0:70:LR_Drum Hit Drop High.wav
192,192,12954,1,0,0:0:0:100:F#6S_Gb6S.wav
448,192,12954,1,0,0:0:0:0:
320,192,13115,1,0,0:0:0:100:F6S.wav
64,192,13276,1,0,0:0:0:70:SK_BD_04.wav
192,192,13276,1,0,0:0:0:100:B5S.wav
320,192,13357,1,0,0:0:0:70:SK_BD_04.wav
64,192,13438,128,0,13518:0:0:0:50:LR_Drum Hit Drop High.wav
192,192,13438,1,0,0:0:0:100:F#6S_Gb6S.wav
448,192,13438,1,0,0:0:0:0:
192,192,13599,1,0,0:0:0:70:SK_BD_04.wav
320,192,13599,1,0,0:0:0:100:F6S.wav
64,192,13760,128,0,13841:0:0:0:50:LR_Drum Hit Drop High.wav
192,192,13760,1,0,0:0:0:100:F#6S_Gb6S.wav
448,192,13760,1,0,0:0:0:0:
192,192,13921,1,0,0:0:0:70:SK_BD_04.wav
320,192,13921,1,0,0:0:0:100:F6S.wav
64,192,14083,1,0,0:0:0:70:LR_Drum Hit Clap Sn.wav
320,192,14083,1,0,0:0:0:100:F#6S_Gb6S.wav
448,192,14083,128,0,14325:0:0:0:0:
192,192,14244,1,0,0:0:0:100:F6S.wav
320,192,14405,1,0,0:0:0:70:SK_BD_04.wav
448,192,14405,1,0,0:0:0:100:B5S.wav
64,192,14567,1,0,0:0:0:70:LR_Drum Hit Drop High.wav
320,192,14567,1,0,0:0:0:100:F#6S_Gb6S.wav
448,192,14567,128,0,14647:0:0:0:0:
192,192,14728,1,0,0:0:0:100:F6S.wav
320,192,14889,1,0,0:0:0:70:SK_BD_04.wav
448,192,14889,1,0,0:0:0:100:B5S.wav
64,192,15050,1,0,0:0:0:70:LR_Drum Hit Drop High.wav
320,192,15050,1,0,0:0:0:100:F#6S_Gb6S.wav
448,192,15050,128,0,15131:0:0:0:0:
192,192,15212,1,0,0:0:0:100:F6S.wav
320,192,15373,1,0,0:0:0:70:SK_BD_04.wav
448,192,15373,1,0,0:0:0:100:B5S.wav
64,192,15534,1,0,0:0:0:70:LR_Drum Hit Drop High.wav
320,192,15534,1,0,0:0:0:100:F#6S_Gb6S.wav
448,192,15534,128,0,15615:0:0:0:0:
192,192,15696,1,0,0:0:0:100:F6S.wav
320,192,15857,1,0,0:0:0:70:SK_BD_04.wav
448,192,15857,1,0,0:0:0:100:B5S.wav
192,192,15938,1,0,0:0:0:70:SK_BD_04.wav
64,192,16018,1,0,0:0:0:70:LR_Drum Hit Drop High.wav
320,192,16018,1,0,0:0:0:100:F#6S_Gb6S.wav
448,192,16018,128,0,16179:0:0:0:0:
192,192,16179,1,0,0:0:0:70:SK_BD_04.wav
320,192,16179,128,0,16341:0:0:0:100:F6S.wav
64,192,16341,1,0,0:0:0:50:LR_Drum Hit Drop High.wav
192,192,16341,1,0,0:0:0:100:F#6S_Gb6S.wav
448,192,16341,1,0,0:0:0:0:
448,192,16502,1,0,0:0:0:70:SK_BD_04.wav
192,192,16583,1,0,0:0:0:70:SK_BD_04.wav
64,192,16663,1,0,0:0:0:70:LR_Drum Hit Drop High.wav
320,192,16663,128,0,16905:0:0:0:100:F#6S_Gb6S.wav
448,192,16663,1,0,0:0:0:0:
192,192,16825,1,0,0:0:0:100:F6S.wav
64,192,16986,1,0,0:0:0:70:SK_BD_04.wav
320,192,16986,1,0,0:0:0:100:A#5S_Bb5S.wav
64,192,17147,1,0,0:0:0:70:LR_Drum Hit Drop High.wav
320,192,17147,128,0,17228:0:0:0:100:F#6S_Gb6S.wav
448,192,17147,1,0,0:0:0:0:
192,192,17309,1,0,0:0:0:100:F6S.wav
64,192,17470,1,0,0:0:0:70:SK_BD_04.wav
320,192,17470,1,0,0:0:0:100:A#5S_Bb5S.wav
64,192,17631,1,0,0:0:0:70:LR_Drum Hit Drop High.wav
320,192,17631,128,0,17712:0:0:0:100:F#6S_Gb6S.wav
448,192,17631,1,0,0:0:0:0:
192,192,17792,1,0,0:0:0:100:F6S.wav
64,192,17954,1,0,0:0:0:70:SK_BD_04.wav
320,192,17954,1,0,0:0:0:100:A#5S_Bb5S.wav
64,192,18115,1,0,0:0:0:70:LR_Drum Hit Drop High.wav
320,192,18115,128,0,18196:0:0:0:100:F#6S_Gb6S.wav
448,192,18115,1,0,0:0:0:0:
192,192,18276,1,0,0:0:0:100:F6S.wav
64,192,18438,1,0,0:0:0:70:SK_BD_04.wav
320,192,18438,1,0,0:0:0:100:A#5S_Bb5S.wav
192,192,18518,1,0,0:0:0:70:SK_BD_04.wav
64,192,18599,1,0,0:0:0:70:LR_Drum Hit Drop High.wav
320,192,18599,128,0,18679:0:0:0:100:A#5S_Bb5S.wav
448,192,18599,1,0,0:0:0:100:F#6S_Gb6S.wav
192,192,18760,1,0,0:0:0:70:SK_BD_04.wav
448,192,18760,1,0,0:0:0:0:
64,192,18921,1,0,0:0:0:70:LR_Drum Hit Drop High.wav
320,192,18921,128,0,19002:0:0:0:0:
320,192,19083,128,0,19163:0:0:0:70:SK_BD_04.wav
64,192,19244,1,0,0:0:0:70:LR_Drum Hit Clap Sn.wav
192,192,19244,128,0,19486:0:0:0:100:F6S.wav
448,192,19244,1,0,0:0:0:0:
320,192,19405,1,0,0:0:0:100:D#6S_Eb6S.wav
192,192,19567,1,0,0:0:0:70:SK_BD_04.wav
448,192,19567,1,0,0:0:0:100:G#5S_Ab5S.wav
64,192,19728,1,0,0:0:0:70:LR_Drum Hit Drop High.wav
192,192,19728,128,0,19809:0:0:0:100:G#5S_Ab5S.wav
448,192,19728,1,0,0:0:0:100:F6S.wav
320,192,19889,1,0,0:0:0:100:D#6S_Eb6S.wav
192,192,20050,1,0,0:0:0:70:SK_BD_04.wav
448,192,20050,1,0,0:0:0:100:G#5S_Ab5S.wav
64,192,20212,1,0,0:0:0:70:LR_Drum Hit Drop High.wav
192,192,20212,128,0,20292:0:0:0:100:G#5S_Ab5S.wav
448,192,20212,1,0,0:0:0:100:F6S.wav
320,192,20373,1,0,0:0:0:100:D#6S_Eb6S.wav
192,192,20534,1,0,0:0:0:70:SK_BD_04.wav
448,192,20534,1,0,0:0:0:100:G#5S_Ab5S.wav
64,192,20696,1,0,0:0:0:70:LR_Drum Hit Drop High.wav
192,192,20696,128,0,20776:0:0:0:100:G#5S_Ab5S.wav
448,192,20696,1,0,0:0:0:100:F6S.wav
320,192,20857,1,0,0:0:0:100:D#6S_Eb6S.wav
192,192,21018,1,0,0:0:0:70:SK_BD_04.wav
448,192,21018,1,0,0:0:0:100:G#5S_Ab5S.wav
448,192,21099,1,0,0:0:0:70:SK_BD_04.wav
64,192,21179,1,0,0:0:0:70:LR_Drum Hit Drop High.wav
320,192,21179,1,0,0:0:0:100:D#6S_Eb6S.wav
320,192,21341,1,0,0:0:0:70:SK_BD_04.wav
448,192,21341,1,0,0:0:0:100:F#6S_Gb6S.wav
192,192,21421,1,0,0:0:0:100:G#6S_Ab6S.wav
64,192,21502,1,0,0:0:0:70:LR_Drum Hit Drop High.wav
320,192,21502,1,0,0:0:0:70:LR_CymbalG.wav
448,192,21502,1,0,0:0:0:100:A#6S_Bb6S.wav
192,192,21583,1,0,0:0:0:100:C#7S_Db7S.wav
64,192,21663,1,0,0:0:0:70:SK_BD_04.wav
448,192,21663,1,0,0:0:0:100:D#7S_Eb7S.wav
320,192,21744,1,0,0:0:0:70:SK_BD_04.wav
64,192,21825,1,0,0:0:0:70:LR_Drum Hit Drop High.wav
192,192,21825,1,0,0:0:0:70:LR_CymbalQST.wav
448,192,21825,1,0,0:0:0:100:F#7S_Gb7S.wav
320,192,21986,1,0,0:0:0:100:F7S.wav
64,192,22147,1,0,0:0:0:70:SK_BD_04.wav
192,192,22147,1,0,0:0:0:100:A#6S_Bb6S.wav
192,192,22309,1,0,0:0:0:70:LR_Drum Hit Drop High.wav
320,192,22309,1,0,0:0:0:100:F#7S_Gb7S.wav
448,192,22309,1,0,0:0:0:0:
64,192,22470,1,0,0:0:0:100:F7S.wav
192,192,22631,1,0,0:0:0:70:SK_BD_04.wav
320,192,22631,1,0,0:0:0:100:A#6S_Bb6S.wav
64,192,22792,1,0,0:0:0:70:LR_Drum Hit Drop High.wav
320,192,22792,1,0,0:0:0:100:F#7S_Gb7S.wav
448,192,22792,1,0,0:0:0:0:
192,192,22954,1,0,0:0:0:100:F7S.wav
320,192,23007,1,0,0:0:0:100:F#7S_Gb7S.wav
192,192,23061,1,0,0:0:0:100:F7S.wav
64,192,23115,1,0,0:0:0:70:SK_BD_04.wav
448,192,23115,1,0,0:0:0:100:A#6S_Bb6S.wav
192,192,23276,1,0,0:0:0:70:LR_Drum Hit Drop High.wav
320,192,23276,1,0,0:0:0:100:F#7S_Gb7S.wav
448,192,23276,1,0,0:0:0:0:
64,192,23438,1,0,0:0:0:100:F7S.wav
320,192,23599,1,0,0:0:0:70:SK_BD_04.wav
448,192,23599,1,0,0:0:0:100:A#6S_Bb6S.wav
64,192,23679,1,0,0:0:0:70:SK_BD_04.wav
192,192,23679,1,0,0:0:0:0:
64,192,23760,1,0,0:0:0:70:LR_Drum Hit Drop High.wav
320,192,23760,1,0,0:0:0:100:F#7S_Gb7S.wav
448,192,23760,1,0,0:0:0:0:
192,192,23921,1,0,0:0:0:70:SK_BD_04.wav
320,192,23921,1,0,0:0:0:100:F7S.wav
64,192,24083,1,0,0:0:0:70:LR_Drum Hit Drop High.wav
192,192,24083,1,0,0:0:0:100:F#7S_Gb7S.wav
448,192,24083,1,0,0:0:0:0:
320,192,24244,1,0,0:0:0:70:SK_BD_04.wav
448,192,24244,1,0,0:0:0:100:F7S.wav
64,192,24405,1,0,0:0:0:70:LR_Drum Hit Clap Sn.wav
192,192,24405,1,0,0:0:0:100:F#7S_Gb7S.wav
320,192,24405,1,0,0:0:0:0:
192,192,24567,1,0,0:0:0:100:F7S.wav
64,192,24728,1,0,0:0:0:70:SK_BD_04.wav
448,192,24728,1,0,0:0:0:100:B6S.wav
64,192,24889,1,0,0:0:0:70:LR_Drum Hit Drop High.wav
192,192,24889,1,0,0:0:0:100:F#7S_Gb7S.wav
448,192,24889,1,0,0:0:0:0:
320,192,25050,1,0,0:0:0:100:F7S.wav
64,192,25212,1,0,0:0:0:70:SK_BD_04.wav
448,192,25212,1,0,0:0:0:100:B6S.wav
192,192,25373,1,0,0:0:0:70:LR_Drum Hit Drop High.wav
320,192,25373,1,0,0:0:0:100:F#7S_Gb7S.wav
448,192,25373,1,0,0:0:0:0:
192,192,25534,1,0,0:0:0:100:F7S.wav
64,192,25588,1,0,0:0:0:100:F#7S_Gb7S.wav
192,192,25642,1,0,0:0:0:100:F7S.wav
320,192,25696,1,0,0:0:0:70:SK_BD_04.wav
448,192,25696,1,0,0:0:0:100:B6S.wav
64,192,25857,1,0,0:0:0:70:LR_Drum Hit Drop High.wav
192,192,25857,1,0,0:0:0:100:F#7S_Gb7S.wav
448,192,25857,1,0,0:0:0:0:
192,192,26018,128,0,26179:0:0:0:70:LR_Hat Synth x2Vlm.wav
320,192,26018,1,0,0:0:0:100:F7S.wav
64,192,26179,1,0,0:0:0:70:SK_BD_04.wav
448,192,26179,1,0,0:0:0:100:B6S.wav
320,192,26341,1,0,0:0:0:30:LR_Drum Hit Drop High.wav
64,192,26421,1,0,0:0:0:50:LR_Drum Hit Drop High.wav
192,192,26421,1,0,0:0:0:0:
320,192,26502,1,0,0:0:0:50:LR_Drum Hit Drop High.wav
448,192,26502,1,0,0:0:0:100:F7S.wav
64,192,26583,1,0,0:0:0:70:LR_Drum Hit Clap Sn.wav
448,192,26583,1,0,0:0:0:0:
320,192,26663,1,0,0:0:0:30:LR_Drum Hit Drop High.wav
64,192,26744,1,0,0:0:0:50:LR_Drum Hit Drop High.wav
192,192,26744,1,0,0:0:0:0:
320,192,26825,1,0,0:0:0:50:LR_Drum Hit Drop High.wav
448,192,26825,1,0,0:0:0:100:F7S.wav
64,192,26905,1,0,0:0:0:70:LR_Drum Hit Clap Sn.wav
448,192,26905,1,0,0:0:0:0:
64,192,26986,128,0,29405:0:0:0:70:LR_Drum Hit Drop High.wav
192,192,26986,1,0,0:0:0:70:LR_CymbalQST.wav
320,192,26986,1,0,0:0:0:100:G7S.wav
448,192,27147,1,0,0:0:0:100:F7S.wav
192,192,27309,1,0,0:0:0:100:A#6S_Bb6S.wav
320,192,27470,1,0,0:0:0:100:G7S.wav
448,192,27470,128,0,29405:0:0:0:0:
192,192,27631,1,0,0:0:0:100:F7S.wav
192,192,27792,1,0,0:0:0:100:A#6S_Bb6S.wav
320,192,27954,1,0,0:0:0:100:G7S.wav
192,192,28115,1,0,0:0:0:100:F7S.wav
192,192,28276,1,0,0:0:0:100:A#6S_Bb6S.wav
320,192,28438,1,0,0:0:0:100:G7S.wav
192,192,28599,1,0,0:0:0:100:F7S.wav
192,192,28760,1,0,0:0:0:100:A#6S_Bb6S.wav
320,192,28841,1,0,0:0:0:100:F7S.wav
192,192,28921,1,0,0:0:0:100:G7S.wav
320,192,29083,1,0,0:0:0:100:F7S.wav
192,192,29244,1,0,0:0:0:100:G7S.wav
320,192,29405,1,0,0:0:0:100:F7S.wav
192,192,29486,1,0,0:0:0:40:hat 15.wav
64,192,29567,1,0,0:0:0:40:hat 15.wav
448,192,29567,1,0,0:0:0:100:A#7S_Bb7S.wav
192,192,29728,1,0,0:0:0:100:D#7S_Eb7S.wav
320,192,29809,1,0,0:0:0:40:hat 15.wav
192,192,29889,1,0,0:0:0:100:D#7S_Eb7S.wav
64,192,30050,1,0,0:0:0:40:hat 15.wav
448,192,30050,1,0,0:0:0:100:A#7S_Bb7S.wav
320,192,30212,1,0,0:0:0:100:D#7S_Eb7S.wav
320,192,30373,1,0,0:0:0:100:D#7S_Eb7S.wav
448,192,30454,1,0,0:0:0:40:hat 15.wav
64,192,30534,1,0,0:0:0:40:hat 15.wav
192,192,30534,1,0,0:0:0:100:A#7S_Bb7S.wav
448,192,30696,1,0,0:0:0:100:D#7S_Eb7S.wav
448,192,30857,1,0,0:0:0:100:D#7S_Eb7S.wav
64,192,31018,1,0,0:0:0:40:hat 15.wav
320,192,31018,1,0,0:0:0:100:A#7S_Bb7S.wav
192,192,31179,1,0,0:0:0:100:D#7S_Eb7S.wav
192,192,31341,1,0,0:0:0:100:D#7S_Eb7S.wav
320,192,31421,1,0,0:0:0:40:hat 15.wav
64,192,31502,1,0,0:0:0:40:hat 15.wav
448,192,31502,1,0,0:0:0:100:A#7S_Bb7S.wav
320,192,31663,1,0,0:0:0:100:D#7S_Eb7S.wav
64,192,31825,1,0,0:0:0:40:hat 15.wav
448,192,31825,1,0,0:0:0:100:A#7S_Bb7S.wav
192,192,31986,1,0,0:0:0:100:D#7S_Eb7S.wav
64,192,32147,1,0,0:0:0:70:SK_BD_04.wav
320,192,32147,1,0,0:0:0:70:LR_CymbalG.wav
448,192,32147,1,0,0:0:0:0:
320,192,32309,1,0,0:0:0:60:LR_Drum Hit Drop High.wav
448,192,32309,1,0,0:0:0:0:
64,192,32389,1,0,0:0:0:60:LR_Drum Hit Drop High.wav
192,192,32389,1,0,0:0:0:0:
448,192,32470,1,0,0:0:0:60:LR_Drum Hit Drop High.wav
64,192,32550,1,0,0:0:0:60:LR_Drum Hit Drop High.wav
192,192,32550,1,0,0:0:0:0:
320,192,32631,1,0,0:0:0:60:LR_Drum Hit Drop High.wav
448,192,32631,1,0,0:0:0:0:
64,192,32712,1,0,0:0:0:60:LR_Drum Hit Drop High.wav
192,192,32712,1,0,0:0:0:0:
320,192,32792,1,0,0:0:0:60:LR_Drum Hit Drop High.wav
448,192,32792,1,0,0:0:0:0:
192,192,32900,1,0,0:0:0:60:LR_Tom Hit.wav
64,192,33007,1,0,0:0:0:60:LR_Tom Hit.wav
64,192,33115,128,0,33330:0:0:0:60:LR_TomR2.wav
448,192,33115,1,0,0:0:0:0:
320,192,33223,1,0,0:0:0:60:LR_TomR2.wav
192,192,33330,1,0,0:0:0:60:LR_TomR2.wav
64,192,33438,1,0,0:0:0:60:LR_TomR2.wav
320,192,33438,1,0,0:0:0:70:LR_CymbalRDW.wav
448,192,33438,1,0,0:0:0:0:
64,192,33760,1,0,0:0:0:70:LR_Snare Drum 2.wav
320,192,33760,1,0,0:0:0:0:
192,192,33921,128,0,33962:0:0:0:0:
448,192,33921,128,0,34728:0:0:0:0:
192,192,34244,1,0,0:0:0:70:SK_BD_04.wav
64,192,34567,1,0,0:0:0:70:LR_Snare Drum 2.wav
320,192,34567,1,0,0:0:0:0:
192,192,34889,1,0,0:0:0:70:SK_BD_04.wav
64,192,35050,1,0,0:0:0:70:LR_Snare Drum 2.wav
448,192,35050,1,0,0:0:0:0:
192,192,35212,128,0,35615:0:0:0:0:
64,192,35373,128,0,35615:0:0:0:0:
448,192,35534,1,0,0:0:0:70:SK_BD_04.wav
64,192,35696,1,0,0:0:0:70:LR_Snare Drum 2.wav
320,192,35696,1,0,0:0:0:0:
448,192,35938,1,0,0:0:0:70:SK_BD_04.wav
64,192,36018,1,0,0:0:0:70:SK_BD_04.wav
64,192,36179,1,0,0:0:0:70:SK_BD_04.wav
320,192,36341,1,0,0:0:0:70:LR_Snare Drum 2.wav
448,192,36341,1,0,0:0:0:0:
64,192,36502,128,0,37470:0:0:0:0:
192,192,36502,128,0,36542:0:0:0:0:
320,192,36663,128,0,37067:0:0:0:0:
448,192,36825,1,0,0:0:0:70:SK_BD_04.wav
192,192,37147,1,0,0:0:0:70:LR_Snare Drum 2.wav
320,192,37147,1,0,0:0:0:0:
448,192,37470,128,0,37631:0:0:0:70:SK_BD_04.wav
64,192,37631,1,0,0:0:0:70:LR_Snare Drum 2.wav
320,192,37631,1,0,0:0:0:0:
192,192,37792,128,0,38196:0:0:0:0:
64,192,37954,128,0,38276:0:0:0:0:
448,192,38115,128,0,38276:0:0:0:70:SK_BD_04.wav
192,192,38276,1,0,0:0:0:70:LR_Snare Drum 2.wav
320,192,38276,1,0,0:0:0:0:
64,192,38518,1,0,0:0:0:70:SK_BD_04.wav
448,192,38599,1,0,0:0:0:70:SK_BD_04.wav
64,192,38921,1,0,0:0:0:70:LR_Snare Drum 2.wav
192,192,38921,1,0,0:0:0:0:
320,192,39083,128,0,39123:0:0:0:0:
448,192,39083,128,0,39728:0:0:0:0:
192,192,39405,128,0,40050:0:0:0:70:SK_BD_04.wav
64,192,39728,128,0,40373:0:0:0:70:LR_Snare Drum 2.wav
320,192,39728,1,0,0:0:0:0:
320,192,40050,128,0,40696:0:0:0:70:SK_BD_04.wav
192,192,40212,1,0,0:0:0:70:LR_Snare Drum 2.wav
448,192,40212,1,0,0:0:0:0:
448,192,40373,128,0,41018:0:0:0:0:
192,192,40696,128,0,41018:0:0:0:70:SK_BD_04.wav
64,192,40857,1,0,0:0:0:70:LR_Snare Drum 2.wav
320,192,40857,1,0,0:0:0:0:
64,192,41018,1,0,0:0:0:0:
320,192,41099,1,0,0:0:0:70:SK_BD_04.wav
320,192,41179,1,0,0:0:0:70:SK_BD_04.wav
192,192,41341,1,0,0:0:0:70:SK_BD_04.wav
64,192,41502,1,0,0:0:0:70:LR_Snare Drum 2.wav
448,192,41502,1,0,0:0:0:0:
192,192,41610,128,0,41717:0:0:0:100:B6S.wav
320,192,41663,128,0,41717:0:0:0:70:SK_BD_04.wav
64,192,41986,128,0,42040:0:0:0:70:SK_BD_04.wav
448,192,42282,128,0,42362:0:0:0:100:G6S.wav
192,192,42309,128,0,42362:0:0:0:70:LR_Snare Drum 2.wav
320,192,42631,128,0,42685:0:0:0:70:SK_BD_04.wav
64,192,42792,1,0,0:0:0:70:LR_Snare Drum 2.wav
448,192,42792,1,0,0:0:0:0:
192,192,42954,128,0,43007:0:0:0:100:D#6S_Eb6S.wav
320,192,43115,1,0,0:0:0:70:LR_TomR2.wav
64,192,43276,128,0,43330:0:0:0:100:D6S.wav
320,192,43357,1,0,0:0:0:40:LR_Drum Hit Drop High.wav
448,192,43438,1,0,0:0:0:40:LR_Drum Hit Drop High.wav
64,192,43518,1,0,0:0:0:40:LR_Drum Hit Drop High.wav
192,192,43518,1,0,0:0:0:50:LR_Drum Hit Clap Sn.wav
320,192,43599,1,0,0:0:0:50:LR_Drum Hit Clap Sn.wav
192,192,43679,1,0,0:0:0:50:LR_Drum Hit Clap Sn.wav
64,192,43760,128,0,44244:0:0:0:70:LR_CymbalG.wav
320,192,43760,1,0,0:0:0:100:C5S.wav
448,192,43760,128,0,44728:0:0:0:100:D#5S_Eb5S.wav
192,192,44083,1,0,0:0:0:70:LR_Snare Drum 2.wav
320,192,44083,1,0,0:0:0:0:
64,192,44405,1,0,0:0:0:100:C5S.wav
192,192,44567,1,0,0:0:0:70:SK_BD_04.wav
192,192,44728,128,0,44889:0:0:0:100:D6S.wav
64,192,44889,128,0,46018:0:0:0:70:LR_Snare Drum 2.wav
320,192,44889,128,0,45373:0:0:0:100:D#6S_Eb6S.wav
192,192,45212,1,0,0:0:0:70:SK_BD_04.wav
192,192,45373,1,0,0:0:0:70:LR_Snare Drum 2.wav
448,192,45373,1,0,0:0:0:0:
448,192,45534,1,0,0:0:0:0:
320,192,45696,1,0,0:0:0:0:
192,192,45857,1,0,0:0:0:70:SK_BD_04.wav
320,192,46018,128,0,46179:0:0:0:70:LR_Snare Drum 2.wav
448,192,46018,1,0,0:0:0:100:D#6S_Eb6S.wav
192,192,46179,1,0,0:0:0:100:G#5S_Ab5S.wav
320,192,46260,1,0,0:0:0:70:SK_BD_04.wav
64,192,46341,128,0,47309:0:0:0:70:SK_BD_04.wav
448,192,46341,128,0,46825:0:0:0:100:A#5S_Bb5S.wav
192,192,46502,1,0,0:0:0:70:SK_BD_04.wav
192,192,46663,1,0,0:0:0:70:LR_Snare Drum 2.wav
320,192,46663,1,0,0:0:0:0:
320,192,46986,1,0,0:0:0:0:
192,192,47147,1,0,0:0:0:70:SK_BD_04.wav
320,192,47309,128,0,47470:0:0:0:100:C6S.wav
192,192,47470,128,0,47954:0:0:0:70:LR_Snare Drum 2.wav
448,192,47470,128,0,48599:0:0:0:100:D6S.wav
64,192,47792,1,0,0:0:0:70:SK_BD_04.wav
64,192,47954,1,0,0:0:0:70:LR_Snare Drum 2.wav
320,192,47954,1,0,0:0:0:0:
320,192,48115,128,0,48518:0:0:0:0:
192,192,48276,128,0,48518:0:0:0:0:
64,192,48438,128,0,48599:0:0:0:70:SK_BD_04.wav
192,192,48599,1,0,0:0:0:70:LR_Snare Drum 2.wav
320,192,48599,1,0,0:0:0:0:
448,192,48841,1,0,0:0:0:70:SK_BD_04.wav
192,192,48921,1,0,0:0:0:70:SK_BD_04.wav
64,192,49244,1,0,0:0:0:70:LR_Snare Drum 2.wav
448,192,49244,1,0,0:0:0:0:
64,192,49405,128,0,49486:0:0:0:100:G#6S_Ab6S.wav
320,192,49405,128,0,49486:0:0:0:100:C7S.wav
448,192,49405,128,0,49728:0:0:0:0:
192,192,49728,1,0,0:0:0:70:SK_BD_04.wav
64,192,50050,1,0,0:0:0:70:LR_Snare Drum 2.wav
320,192,50050,1,0,0:0:0:0:
448,192,50373,1,0,0:0:0:70:SK_BD_04.wav
64,192,50427,128,0,50642:0:0:0:100:D6S.wav
320,192,50534,1,0,0:0:0:70:LR_Snare Drum 2.wav
448,192,50534,1,0,0:0:0:0:
192,192,50642,128,0,50857:0:0:0:100:D#6S_Eb6S.wav
320,192,50857,128,0,51072:0:0:0:100:F6S.wav
64,192,51018,1,0,0:0:0:70:SK_BD_04.wav
448,192,51072,128,0,51287:0:0:0:100:G6S.wav
192,192,51179,1,0,0:0:0:70:LR_Snare Drum 2.wav
320,192,51179,1,0,0:0:0:0:
64,192,51287,128,0,51502:0:0:0:100:G#6S_Ab6S.wav
320,192,51421,1,0,0:0:0:70:SK_BD_04.wav
192,192,51502,128,0,51583:0:0:0:70:SK_BD_04.wav
448,192,51502,128,0,51663:0:0:0:100:G#5S_Ab5S.wav
320,192,51663,1,0,0:0:0:70:SK_BD_04.wav
64,192,51825,1,0,0:0:0:70:LR_Snare Drum 2.wav
192,192,51825,1,0,0:0:0:0:
192,192,51986,128,0,52067:0:0:0:100:G#5S_Ab5S.wav
320,192,51986,128,0,52067:0:0:0:100:A#6S_Bb6S.wav
448,192,51986,128,0,52309:0:0:0:0:
64,192,52309,1,0,0:0:0:70:SK_BD_04.wav
320,192,52631,1,0,0:0:0:70:LR_Snare Drum 2.wav
448,192,52631,1,0,0:0:0:0:
64,192,52732,128,0,52813:0:0:0:100:G6S.wav
192,192,52752,128,0,52833:0:0:0:100:C7S.wav
320,192,52772,128,0,52853:0:0:0:100:D7S.wav
448,192,52792,128,0,52873:0:0:0:100:D#7S_Eb7S.wav
64,192,52954,1,0,0:0:0:70:SK_BD_04.wav
320,192,53115,1,0,0:0:0:70:LR_Snare Drum 2.wav
448,192,53115,128,0,53438:0:0:0:0:
192,192,53276,128,0,53438:0:0:0:0:
64,192,53438,1,0,0:0:0:70:LR_TomR2.wav
320,192,53438,1,0,0:0:0:100:D#5S_Eb5S.wav
192,192,53599,1,0,0:0:0:40:LR_Drum Hit Drop High.wav
64,192,53679,1,0,0:0:0:40:LR_Drum Hit Drop High.wav
320,192,53760,1,0,0:0:0:40:LR_Drum Hit Drop High.wav
448,192,53760,1,0,0:0:0:50:LR_Drum Hit Clap Sn.wav
64,192,53841,1,0,0:0:0:50:LR_Drum Hit Clap Sn.wav
192,192,53841,1,0,0:0:0:0:
320,192,53921,1,0,0:0:0:50:LR_Drum Hit Clap Sn.wav
448,192,53921,1,0,0:0:0:0:
64,192,54002,1,0,0:0:0:50:LR_Drum Hit Clap Sn.wav
192,192,54002,1,0,0:0:0:0:
64,192,54083,1,0,0:0:0:70:LR_CymbalRDW.wav
320,192,54083,1,0,0:0:0:100:G#6S_Ab6S.wav
448,192,54083,1,0,0:0:0:0:
320,192,54244,1,0,0:0:0:0:
192,192,54405,1,0,0:0:0:70:LR_Snare Drum 2.wav
448,192,54405,1,0,0:0:0:0:
64,192,54567,128,0,54809:0:0:0:100:G5S.wav
320,192,54567,128,0,54647:0:0:0:100:G#5S_Ab5S.wav
192,192,54889,1,0,0:0:0:70:SK_BD_04.wav
64,192,55212,1,0,0:0:0:70:LR_Snare Drum 2.wav
448,192,55212,1,0,0:0:0:100:B4S.wav
64,192,55534,1,0,0:0:0:70:SK_BD_04.wav
320,192,55696,128,0,56018:0:0:0:70:LR_Snare Drum 2.wav
448,192,55696,1,0,0:0:0:100:D6S.wav
192,192,55857,128,0,56018:0:0:0:100:B5S.wav
448,192,56018,128,0,56287:0:0:0:100:F6S.wav
64,192,56179,128,0,56341:0:0:0:70:SK_BD_04.wav
320,192,56341,128,0,56502:0:0:0:70:LR_Snare Drum 2.wav
448,192,56341,1,0,0:0:0:100:G#6S_Ab6S.wav
192,192,56502,1,0,0:0:0:0:
192,192,56583,1,0,0:0:0:70:SK_BD_04.wav
64,192,56663,1,0,0:0:0:70:SK_BD_04.wav
448,192,56663,128,0,56825:0:0:0:0:
64,192,56825,1,0,0:0:0:70:SK_BD_04.wav
320,192,56986,1,0,0:0:0:70:LR_Snare Drum 2.wav
448,192,56986,1,0,0:0:0:100:D#6S_Eb6S.wav
192,192,57147,128,0,57228:0:0:0:100:D6S.wav
64,192,57309,1,0,0:0:0:100:G5S.wav
320,192,57470,128,0,57550:0:0:0:70:SK_BD_04.wav
448,192,57631,1,0,0:0:0:0:
64,192,57792,128,0,58599:0:0:0:70:LR_Snare Drum 2.wav
448,192,57792,1,0,0:0:0:100:D6S.wav
448,192,58115,1,0,0:0:0:70:SK_BD_04.wav
192,192,58276,1,0,0:0:0:40:LR_Drum Hit Drop High.wav
320,192,58276,1,0,0:0:0:70:LR_CymbalRDW.wav
448,192,58276,1,0,0:0:0:0:
192,192,58599,1,0,0:0:0:60:LR_Tom Hit.wav
448,192,58599,128,0,58760:0:0:0:0:
64,192,58841,1,0,0:0:0:60:LR_Drum Hit Drop High.wav
192,192,58841,1,0,0:0:0:0:
320,192,58921,1,0,0:0:0:60:LR_Drum Hit Drop High.wav
448,192,58921,1,0,0:0:0:0:
192,192,59083,1,0,0:0:0:40:LR_TomR2.wav
64,192,59163,1,0,0:0:0:40:LR_TomR2.wav
192,192,59244,1,0,0:0:0:40:LR_TomR2.wav
320,192,59244,1,0,0:0:0:70:LR_CymbalG.wav
448,192,59244,128,0,59405:0:0:0:100:D#6S_Eb6S.wav
64,192,59405,1,0,0:0:0:100:G#5S_Ab5S.wav
192,192,59567,1,0,0:0:0:70:SK_BD_04.wav
448,192,59567,128,0,59728:0:0:0:100:D#6S_Eb6S.wav
64,192,59728,1,0,0:0:0:100:G#5S_Ab5S.wav
320,192,59889,1,0,0:0:0:70:SK_BD_04.wav
448,192,59889,128,0,60050:0:0:0:100:D#6S_Eb6S.wav
64,192,60050,1,0,0:0:0:100:G#5S_Ab5S.wav
192,192,60212,1,0,0:0:0:70:SK_BD_04.wav
448,192,60212,128,0,60373:0:0:0:100:D#6S_Eb6S.wav
64,192,60373,1,0,0:0:0:100:G#5S_Ab5S.wav
320,192,60454,1,0,0:0:0:0:
192,192,60534,128,0,60696:0:0:0:70:SK_BD_04.wav
448,192,60534,1,0,0:0:0:100:F6S.wav
64,192,60696,1,0,0:0:0:100:G#5S_Ab5S.wav
192,192,60857,128,0,61018:0:0:0:70:SK_BD_04.wav
320,192,60857,1,0,0:0:0:100:F6S.wav
64,192,61018,1,0,0:0:0:100:G#5S_Ab5S.wav
192,192,61179,128,0,61341:0:0:0:70:SK_BD_04.wav
448,192,61179,1,0,0:0:0:100:F6S.wav
64,192,61341,1,0,0:0:0:100:G#5S_Ab5S.wav
448,192,61421,1,0,0:0:0:0:
192,192,61502,128,0,61583:0:0:0:70:SK_BD_04.wav
320,192,61502,1,0,0:0:0:100:F6S.wav
64,192,61663,1,0,0:0:0:60:LR_Drum Hit Drop High.wav
320,192,61663,1,0,0:0:0:100:G#5S_Ab5S.wav
448,192,61663,1,0,0:0:0:0:
64,192,61825,128,0,62147:0:0:0:70:LR_Snare Drum 2.wav
192,192,61825,128,0,61905:0:0:0:30:LR_CymbalRDW.wav
192,192,62147,1,0,0:0:0:70:SK_BD_04.wav
448,192,62147,1,0,0:0:0:0:
64,192,62309,128,0,62389:0:0:0:100:E5S.wav
320,192,62309,128,0,62631:0:0:0:0:
192,192,62470,1,0,0:0:0:70:SK_BD_04.wav
448,192,62470,1,0,0:0:0:0:
64,192,62792,1,0,0:0:0:70:SK_BD_04.wav
448,192,62792,1,0,0:0:0:0:
192,192,62954,128,0,63276:0:0:0:100:G5S.wav
320,192,62954,128,0,63034:0:0:0:0:
64,192,63115,1,0,0:0:0:70:SK_BD_04.wav
448,192,63115,1,0,0:0:0:0:
192,192,63438,1,0,0:0:0:70:SK_BD_04.wav
320,192,63438,1,0,0:0:0:0:
64,192,63599,128,0,63679:0:0:0:100:E5S.wav
448,192,63599,128,0,64083:0:0:0:0:
64,192,63760,1,0,0:0:0:70:SK_BD_04.wav
192,192,63760,1,0,0:0:0:40:LR_CymbalG.wav
320,192,63921,128,0,64244:0:0:0:0:
64,192,64083,128,0,64163:0:0:0:70:SK_BD_04.wav
192,192,64083,128,0,64405:0:0:0:100:F5S.wav
64,192,64244,128,0,64728:0:0:0:0:
320,192,64405,1,0,0:0:0:70:SK_BD_04.wav
448,192,64405,1,0,0:0:0:40:LR_CymbalQST.wav
192,192,64728,1,0,0:0:0:70:SK_BD_04.wav
448,192,64728,1,0,0:0:0:0:
64,192,64889,1,0,0:0:0:0:
192,192,65050,1,0,0:0:0:70:SK_BD_04.wav
448,192,65050,1,0,0:0:0:0:
64,192,65212,1,0,0:0:0:0:
320,192,65373,1,0,0:0:0:70:SK_BD_04.wav
448,192,65373,1,0,0:0:0:0:
192,192,65534,1,0,0:0:0:0:
64,192,65696,1,0,0:0:0:70:SK_BD_04.wav
320,192,65696,1,0,0:0:0:0:
448,192,65857,1,0,0:0:0:0:
192,192,66018,1,0,0:0:0:70:SK_BD_04.wav
320,192,66018,1,0,0:0:0:0:
64,192,66179,1,0,0:0:0:70:LR_Snare Drum 2.wav
320,192,66179,1,0,0:0:0:100:G6S.wav
448,192,66233,1,0,0:0:0:100:G6S.wav
64,192,66341,1,0,0:0:0:70:SK_BD_04.wav
192,192,66341,1,0,0:0:0:100:G4S.wav
320,192,66448,1,0,0:0:0:100:G6S.wav
192,192,66502,1,0,0:0:0:70:LR_Snare Drum 2.wav
448,192,66502,1,0,0:0:0:100:G6S.wav
64,192,66556,1,0,0:0:0:100:G6S.wav
320,192,66663,1,0,0:0:0:70:SK_BD_04.wav
448,192,66663,1,0,0:0:0:100:G4S.wav
192,192,66771,1,0,0:0:0:100:G6S.wav
64,192,66825,1,0,0:0:0:70:LR_Snare Drum 2.wav
320,192,66825,1,0,0:0:0:0:
448,192,66878,1,0,0:0:0:100:G7S.wav
64,192,66986,1,0,0:0:0:70:SK_BD_04.wav
192,192,66986,1,0,0:0:0:70:LR_Drum Hit Clap Sn.wav
320,192,66986,1,0,0:0:0:100:G7S.wav
320,192,67228,1,0,0:0:0:100:A#7S_Bb7S.wav
192,192,67268,1,0,0:0:0:100:G#7S_Ab7S.wav
64,192,67309,1,0,0:0:0:100:G7S.wav
448,192,67335,1,0,0:0:0:100:F7S.wav
320,192,67362,1,0,0:0:0:100:D#7S_Eb7S.wav
192,192,67389,1,0,0:0:0:100:D7S.wav
64,192,67416,1,0,0:0:0:100:C#7S_Db7S.wav
448,192,67443,1,0,0:0:0:100:C7S.wav
320,192,67470,1,0,0:0:0:100:A#6S_Bb6S.wav
192,192,67497,1,0,0:0:0:100:G#6S_Ab6S.wav
64,192,67524,1,0,0:0:0:100:G6S.wav
448,192,67550,1,0,0:0:0:0:
64,192,67712,1,0,0:0:0:100:G4S.wav
320,192,67792,1,0,0:0:0:100:A#5S_Bb5S.wav
448,192,67792,1,0,0:0:0:100:D#6S_Eb6S.wav
192,192,67873,1,0,0:0:0:60:LR_Drum Hit Drop High.wav
64,192,67954,1,0,0:0:0:60:LR_Tom Hit.wav
64,192,68034,1,0,0:0:0:60:LR_Tom Hit.wav
448,192,68115,1,0,0:0:0:60:LR_TomR2.wav
448,192,68196,1,0,0:0:0:60:LR_TomR2.wav
64,192,68276,128,0,68599:0:0:0:60:LR_TomR2.wav
320,192,68276,1,0,0:0:0:30:LR_CymbalRDW.wav
192,192,68438,128,0,68760:0:0:0:0:
320,192,68599,128,0,68921:0:0:0:0:
448,192,68760,128,0,69083:0:0:0:0:
64,192,68921,128,0,69083:0:0:0:0:
192,192,69002,128,0,69163:0:0:0:0:
320,192,69083,128,0,69244:0:0:0:0:
448,192,69163,128,0,69325:0:0:0:0:
64,192,69244,128,0,69405:0:0:0:0:
192,192,69325,128,0,69486:0:0:0:0:
320,192,69405,128,0,69567:0:0:0:0:
448,192,69486,128,0,69567:0:0:0:0:
64,192,69567,128,0,70534:0:0:0:70:LR_CymbalQST.wav
192,192,69567,1,0,0:0:0:100:D#5S_Eb5S.wav
320,192,69889,1,0,0:0:0:70:LR_Drum Hit Clap Sn.wav
448,192,69889,1,0,0:0:0:0:
192,192,70212,1,0,0:0:0:70:SK_BD_04.wav
192,192,70373,1,0,0:0:0:70:SK_BD_04.wav
320,192,70534,1,0,0:0:0:70:LR_Drum Hit Clap Sn.wav
448,192,70534,128,0,70696:0:0:0:0:
64,192,70696,1,0,0:0:0:70:SK_BD_04.wav
192,192,70696,128,0,71502:0:0:0:100:D#5S_Eb5S.wav
64,192,71018,1,0,0:0:0:70:SK_BD_04.wav
320,192,71179,1,0,0:0:0:70:LR_Drum Hit Clap Sn.wav
448,192,71179,1,0,0:0:0:0:
448,192,71421,1,0,0:0:0:70:SK_BD_04.wav
64,192,71502,1,0,0:0:0:70:SK_BD_04.wav
192,192,71663,1,0,0:0:0:70:SK_BD_04.wav
64,192,71825,1,0,0:0:0:70:LR_Drum Hit Clap Sn.wav
320,192,71825,128,0,72147:0:0:0:100:D#5S_Eb5S.wav
448,192,71825,1,0,0:0:0:100:A#5S_Bb5S.wav
64,192,72147,1,0,0:0:0:70:SK_BD_04.wav
192,192,72147,128,0,72954:0:0:0:100:C#5S_Db5S.wav
320,192,72470,1,0,0:0:0:70:LR_Drum Hit Clap Sn.wav
448,192,72470,1,0,0:0:0:0:
64,192,72792,1,0,0:0:0:70:SK_BD_04.wav
448,192,72954,128,0,73034:0:0:0:70:SK_BD_04.wav
192,192,73115,1,0,0:0:0:70:LR_Drum Hit Clap Sn.wav
448,192,73115,128,0,73276:0:0:0:0:
64,192,73276,1,0,0:0:0:70:SK_BD_04.wav
320,192,73276,128,0,73438:0:0:0:100:F6S.wav
64,192,73438,1,0,0:0:0:100:F6S.wav
192,192,73438,1,0,0:0:0:100:A#6S_Bb6S.wav
64,192,73599,1,0,0:0:0:70:SK_BD_04.wav
192,192,73599,1,0,0:0:0:100:F6S.wav
64,192,73760,1,0,0:0:0:70:LR_Drum Hit Clap Sn.wav
192,192,73760,1,0,0:0:0:100:F6S.wav
448,192,73760,1,0,0:0:0:100:A#6S_Bb6S.wav
64,192,73921,1,0,0:0:0:100:F6S.wav
192,192,73921,1,0,0:0:0:100:A#6S_Bb6S.wav
320,192,74002,1,0,0:0:0:70:SK_BD_04.wav
64,192,74083,1,0,0:0:0:70:SK_BD_04.wav
448,192,74083,1,0,0:0:0:100:F6S.wav
64,192,74244,1,0,0:0:0:70:SK_BD_04.wav
448,192,74244,1,0,0:0:0:100:F6S.wav
64,192,74405,1,0,0:0:0:70:LR_Drum Hit Clap Sn.wav
320,192,74405,1,0,0:0:0:30:LR_CymbalRDW.wav
448,192,74405,1,0,0:0:0:100:F6S.wav
64,192,74728,128,0,75050:0:0:0:70:SK_BD_04.wav
448,192,74728,1,0,0:0:0:70:LR_CymbalG.wav
192,192,75050,128,0,75212:0:0:0:70:LR_Snare Drum 2.wav
448,192,75050,1,0,0:0:0:0:
320,192,75212,128,0,75534:0:0:0:100:D#5S_Eb5S.wav
64,192,75373,1,0,0:0:0:70:SK_BD_04.wav
64,192,75534,1,0,0:0:0:70:SK_BD_04.wav
192,192,75696,1,0,0:0:0:70:LR_Snare Drum 2.wav
448,192,75696,128,0,75776:0:0:0:0:
64,192,75857,1,0,0:0:0:70:SK_BD_04.wav
192,192,75857,128,0,76663:0:0:0:0:
320,192,76179,1,0,0:0:0:70:SK_BD_04.wav
64,192,76341,1,0,0:0:0:70:LR_Snare Drum 2.wav
448,192,76341,1,0,0:0:0:0:
448,192,76502,1,0,0:0:0:100:F6S.wav
448,192,76583,1,0,0:0:0:0:
64,192,76663,128,0,76825:0:0:0:70:SK_BD_04.wav
320,192,76663,1,0,0:0:0:0:
192,192,76825,1,0,0:0:0:70:SK_BD_04.wav
192,192,76986,1,0,0:0:0:70:LR_Snare Drum 2.wav
320,192,76986,128,0,77309:0:0:0:0:
448,192,77147,128,0,77309:0:0:0:0:
64,192,77309,128,0,77631:0:0:0:100:C#5S_Db5S.wav
192,192,77309,1,0,0:0:0:0:
320,192,77631,128,0,77712:0:0:0:70:LR_Snare Drum 2.wav
448,192,77631,1,0,0:0:0:0:
320,192,77792,128,0,78276:0:0:0:100:G#6S_Ab6S.wav
192,192,77873,1,0,0:0:0:70:SK_BD_04.wav
64,192,77954,1,0,0:0:0:70:SK_BD_04.wav
64,192,78115,1,0,0:0:0:70:SK_BD_04.wav
192,192,78276,1,0,0:0:0:70:LR_Snare Drum 2.wav
448,192,78276,128,0,78357:0:0:0:0:
64,192,78438,1,0,0:0:0:70:SK_BD_04.wav
192,192,78438,1,0,0:0:0:0:
448,192,78438,128,0,79405:0:0:0:0:
192,192,78760,1,0,0:0:0:70:SK_BD_04.wav
64,192,78921,1,0,0:0:0:70:LR_Snare Drum 2.wav
320,192,78921,128,0,79083:0:0:0:0:
192,192,79083,128,0,79244:0:0:0:50:LR_Drum Hit Drop High.wav
320,192,79163,1,0,0:0:0:50:LR_Drum Hit Drop High.wav
64,192,79244,128,0,79405:0:0:0:70:SK_BD_04.wav
192,192,79405,1,0,0:0:0:70:LR_Drum Hit Drop High.wav
320,192,79405,1,0,0:0:0:0:
64,192,79486,1,0,0:0:0:70:LR_Drum Hit Drop High.wav
448,192,79486,1,0,0:0:0:0:
320,192,79567,1,0,0:0:0:70:LR_Tom Hit.wav
320,192,79647,1,0,0:0:0:70:LR_Tom Hit.wav
64,192,79728,1,0,0:0:0:70:LR_TomR2.wav
64,192,79809,1,0,0:0:0:70:LR_TomR2.wav
192,192,79889,1,0,0:0:0:70:LR_TomR2.wav
320,192,79889,1,0,0:0:0:50:LR_CymbalQST.wav
448,192,79889,128,0,80212:0:0:0:100:G#3S_Ab3S.wav
320,192,80212,128,0,80292:0:0:0:70:LR_Snare Drum 2.wav
192,192,80373,128,0,80696:0:0:0:100:D#6S_Eb6S.wav
448,192,80373,1,0,0:0:0:100:G#6S_Ab6S.wav
320,192,80534,1,0,0:0:0:70:SK_BD_04.wav
320,192,80696,1,0,0:0:0:70:SK_BD_04.wav
64,192,80857,128,0,80938:0:0:0:70:LR_Snare Drum 2.wav
448,192,80857,1,0,0:0:0:0:
320,192,81018,128,0,81502:0:0:0:70:SK_BD_04.wav
448,192,81018,1,0,0:0:0:100:F6S.wav
192,192,81341,1,0,0:0:0:70:SK_BD_04.wav
64,192,81502,1,0,0:0:0:70:LR_Snare Drum 2.wav
448,192,81502,1,0,0:0:0:0:
448,192,81663,1,0,0:0:0:0:
320,192,81744,1,0,0:0:0:70:LR_Snare Drum 2.wav
64,192,81825,1,0,0:0:0:70:SK_BD_04.wav
192,192,81825,128,0,82309:0:0:0:100:D6S.wav
64,192,81986,1,0,0:0:0:70:SK_BD_04.wav
320,192,82147,1,0,0:0:0:70:LR_Snare Drum 2.wav
448,192,82147,128,0,82309:0:0:0:100:A#6S_Bb6S.wav
64,192,82470,1,0,0:0:0:70:SK_BD_04.wav
448,192,82470,1,0,0:0:0:30:LR_CymbalRDW.wav
320,192,82550,1,0,0:0:0:0:
320,192,82631,1,0,0:0:0:70:LR_Drum Hit Clap Sn.wav
64,192,82712,1,0,0:0:0:70:LR_Drum Hit Clap Sn.wav
192,192,82712,1,0,0:0:0:0:
320,192,82792,1,0,0:0:0:70:LR_Drum Hit Clap Sn.wav
448,192,82792,1,0,0:0:0:0:
64,192,82954,1,0,0:0:0:70:SK_BD_04.wav
192,192,82954,1,0,0:0:0:70:LR_Drum Hit Drop High.wav
448,192,82954,1,0,0:0:0:30:LR_CymbalRDW.wav
64,192,83276,1,0,0:0:0:70:SK_BD_04.wav
320,192,83276,1,0,0:0:0:70:LR_Drum Hit Drop High.wav
448,192,83276,1,0,0:0:0:100:A#5S_Bb5S.wav
64,192,83599,1,0,0:0:0:70:SK_BD_04.wav
192,192,83599,1,0,0:0:0:70:LR_Drum Hit Drop High.wav
320,192,83599,1,0,0:0:0:50:LR_CymbalQST.wav
64,192,83921,1,0,0:0:0:70:SK_BD_04.wav
448,192,83921,1,0,0:0:0:70:LR_Tom Hit.wav
192,192,83962,1,0,0:0:0:100:F7S.wav
320,192,84002,1,0,0:0:0:70:F#7S_Gb7S.wav
448,192,84042,1,0,0:0:0:70:G7S.wav
192,192,84083,1,0,0:0:0:70:LR_Drum Hit Drop High.wav
64,192,84163,1,0,0:0:0:100:D#7S_Eb7S.wav
448,192,84244,1,0,0:0:0:100:C7S.wav
320,192,84325,1,0,0:0:0:100:G#6S_Ab6S.wav
64,192,84405,1,0,0:0:0:70:LR_Tom Hit.wav
192,192,84486,1,0,0:0:0:100:C6S.wav
64,192,84567,1,0,0:0:0:70:LR_Drum Hit Drop High.wav
320,192,84567,1,0,0:0:0:100:D#5S_Eb5S.wav
192,192,84647,1,0,0:0:0:70:LR_Drum Hit Drop High.wav
448,192,84647,1,0,0:0:0:0:
320,192,84728,1,0,0:0:0:70:LR_Tom Hit.wav
320,192,84809,1,0,0:0:0:70:LR_Tom Hit.wav
192,192,84889,1,0,0:0:0:70:LR_TomR2.wav
192,192,84970,1,0,0:0:0:70:LR_TomR2.wav
64,192,85050,1,0,0:0:0:70:LR_TomR2.wav
320,192,85050,1,0,0:0:0:70:LR_CymbalG.wav
448,192,85050,1,0,0:0:0:0:
64,192,85373,128,0,86179:0:0:0:70:LR_Drum Hit Clap Sn.wav
448,192,85373,1,0,0:0:0:0:
320,192,85534,128,0,86179:0:0:0:0:
448,192,85696,1,0,0:0:0:70:SK_BD_04.wav
192,192,85857,1,0,0:0:0:70:SK_BD_04.wav
192,192,86018,1,0,0:0:0:70:LR_Drum Hit Clap Sn.wav
448,192,86018,1,0,0:0:0:0:
192,192,86179,1,0,0:0:0:70:SK_BD_04.wav
448,192,86179,128,0,86986:0:0:0:70:LR_CymbalG.wav
192,192,86502,1,0,0:0:0:70:SK_BD_04.wav
64,192,86663,1,0,0:0:0:70:LR_Drum Hit Clap Sn.wav
320,192,86663,1,0,0:0:0:0:
64,192,86825,1,0,0:0:0:0:
192,192,86905,1,0,0:0:0:0:
320,192,86986,1,0,0:0:0:70:SK_BD_04.wav
64,192,87147,128,0,87954:0:0:0:70:SK_BD_04.wav
320,192,87309,128,0,87792:0:0:0:70:LR_Drum Hit Clap Sn.wav
448,192,87309,1,0,0:0:0:0:
192,192,87470,128,0,87873:0:0:0:70:SK_BD_04.wav
448,192,87470,128,0,87712:0:0:0:70:LR_CymbalG.wav
448,192,87792,1,0,0:0:0:70:SK_BD_04.wav
320,192,87954,1,0,0:0:0:70:LR_Snare Drum 2.wav
448,192,88061,1,0,0:0:0:100:C#5S_Db5S.wav
64,192,88196,1,0,0:0:0:70:SK_BD_04.wav
320,192,88276,1,0,0:0:0:70:LR_Snare Drum 2.wav
448,192,88276,1,0,0:0:0:100:C#5S_Db5S.wav
64,192,88438,1,0,0:0:0:70:SK_BD_04.wav
448,192,88491,1,0,0:0:0:100:C#5S_Db5S.wav
64,192,88599,1,0,0:0:0:70:LR_Snare Drum 2.wav
192,192,88599,1,0,0:0:0:0:
320,192,88706,1,0,0:0:0:100:B4S.wav
192,192,88760,1,0,0:0:0:70:SK_BD_04.wav
64,192,88921,1,0,0:0:0:70:SK_BD_04.wav
320,192,88921,1,0,0:0:0:70:LR_Drum Hit Clap Sn.wav
448,192,88921,1,0,0:0:0:40:LR_CymbalRDW.wav
448,192,89405,1,0,0:0:0:0:
320,192,89459,1,0,0:0:0:0:
192,192,89513,1,0,0:0:0:0:
64,192,89567,128,0,90212:0:0:0:70:SK_BD_04.wav
320,192,89567,128,0,90050:0:0:0:70:LR_Snare Drum 2.wav
448,192,89567,128,0,90050:0:0:0:70:LR_CymbalG.wav
192,192,90212,1,0,0:0:0:70:LR_Drum Hit Drop High.wav
320,192,90212,128,0,90266:0:0:0:70:LR_CymbalQST.wav
448,192,90212,128,0,90319:0:0:0:100:G#6S_Ab6S.wav
64,192,90534,1,0,0:0:0:70:SK_BD_04.wav
320,192,90696,128,0,90749:0:0:0:70:LR_Drum Hit Drop High.wav
448,192,90696,128,0,90803:0:0:0:100:G#6S_Ab6S.wav
64,192,91018,1,0,0:0:0:70:SK_BD_04.wav
320,192,91179,128,0,91233:0:0:0:60:LR_Drum Hit Drop High.wav
448,192,91179,128,0,91287:0:0:0:100:G#6S_Ab6S.wav
64,192,91502,1,0,0:0:0:70:SK_BD_04.wav
320,192,91663,128,0,91717:0:0:0:60:LR_Drum Hit Drop High.wav
448,192,91663,128,0,91771:0:0:0:100:G#6S_Ab6S.wav
64,192,91986,1,0,0:0:0:70:SK_BD_04.wav
64,192,92067,1,0,0:0:0:70:SK_BD_04.wav
320,192,92147,128,0,92201:0:0:0:60:LR_Drum Hit Drop High.wav
448,192,92147,128,0,92255:0:0:0:100:G#6S_Ab6S.wav
64,192,92309,1,0,0:0:0:70:SK_BD_04.wav
320,192,92470,128,0,92524:0:0:0:60:LR_Drum Hit Drop High.wav
448,192,92470,128,0,92577:0:0:0:100:G#6S_Ab6S.wav
64,192,92631,1,0,0:0:0:70:SK_BD_04.wav
192,192,92792,128,0,92846:0:0:0:60:LR_Drum Hit Drop High.wav
448,192,92792,128,0,92900:0:0:0:100:G#6S_Ab6S.wav
64,192,93115,1,0,0:0:0:70:SK_BD_04.wav
192,192,93276,128,0,93330:0:0:0:60:LR_Drum Hit Drop High.wav
448,192,93276,128,0,93384:0:0:0:100:G#6S_Ab6S.wav
64,192,93599,1,0,0:0:0:70:SK_BD_04.wav
192,192,93760,128,0,93814:0:0:0:60:LR_Drum Hit Drop High.wav
448,192,93760,128,0,93868:0:0:0:100:G#6S_Ab6S.wav
64,192,93921,128,0,94405:0:0:0:0:
320,192,94083,128,0,94567:0:0:0:70:SK_BD_04.wav
192,192,94244,1,0,0:0:0:60:LR_Drum Hit Drop High.wav
448,192,94244,1,0,0:0:0:100:G#6S_Ab6S.wav
448,192,94405,128,0,94728:0:0:0:0:
192,192,94567,1,0,0:0:0:70:SK_BD_04.wav
192,192,94647,1,0,0:0:0:70:SK_BD_04.wav
64,192,94728,1,0,0:0:0:60:LR_Drum Hit Drop High.wav
320,192,94728,1,0,0:0:0:100:G#6S_Ab6S.wav
448,192,94889,1,0,0:0:0:70:SK_BD_04.wav
192,192,95050,1,0,0:0:0:60:LR_Drum Hit Drop High.wav
320,192,95050,1,0,0:0:0:100:F#6S_Gb6S.wav
64,192,95212,1,0,0:0:0:70:SK_BD_04.wav
64,192,95292,1,0,0:0:0:70:SK_BD_04.wav
320,192,95373,128,0,95534:0:0:0:60:LR_Drum Hit Drop High.wav
448,192,95373,128,0,95427:0:0:0:100:G#6S_Ab6S.wav
192,192,95534,128,0,95588:0:0:0:100:F#6S_Gb6S.wav
64,192,95696,128,0,95749:0:0:0:70:SK_BD_04.wav
448,192,95696,1,0,0:0:0:100:C#6S_Db6S.wav
320,192,95857,128,0,96018:0:0:0:60:LR_Drum Hit Drop High.wav
448,192,95857,128,0,95911:0:0:0:100:G#6S_Ab6S.wav
192,192,96018,128,0,96072:0:0:0:100:F#6S_Gb6S.wav
64,192,96179,128,0,96233:0:0:0:70:SK_BD_04.wav
448,192,96179,1,0,0:0:0:100:C#6S_Db6S.wav
320,192,96341,128,0,96502:0:0:0:60:LR_Drum Hit Drop High.wav
448,192,96341,128,0,96395:0:0:0:100:G#6S_Ab6S.wav
192,192,96502,128,0,96556:0:0:0:100:F#6S_Gb6S.wav
64,192,96663,128,0,96717:0:0:0:70:SK_BD_04.wav
448,192,96663,1,0,0:0:0:100:C#6S_Db6S.wav
320,192,96825,128,0,96986:0:0:0:60:LR_Drum Hit Drop High.wav
448,192,96825,128,0,96878:0:0:0:100:G#6S_Ab6S.wav
192,192,96986,128,0,97040:0:0:0:100:F#6S_Gb6S.wav
64,192,97147,128,0,97201:0:0:0:70:SK_BD_04.wav
448,192,97147,1,0,0:0:0:100:C#6S_Db6S.wav
192,192,97228,1,0,0:0:0:70:SK_BD_04.wav
320,192,97309,128,0,97470:0:0:0:60:LR_Drum Hit Drop High.wav
448,192,97309,128,0,97362:0:0:0:100:G#6S_Ab6S.wav
64,192,97470,1,0,0:0:0:70:SK_BD_04.wav
192,192,97470,128,0,97524:0:0:0:100:F#6S_Gb6S.wav
320,192,97631,128,0,97792:0:0:0:60:LR_Drum Hit Drop High.wav
448,192,97631,128,0,97685:0:0:0:100:G#6S_Ab6S.wav
64,192,97792,1,0,0:0:0:70:SK_BD_04.wav
192,192,97792,128,0,97846:0:0:0:100:F#6S_Gb6S.wav
320,192,97954,128,0,98007:0:0:0:60:LR_Drum Hit Drop High.wav
448,192,97954,128,0,98115:0:0:0:100:G#6S_Ab6S.wav
192,192,98115,128,0,98169:0:0:0:100:F#6S_Gb6S.wav
64,192,98276,128,0,98330:0:0:0:70:SK_BD_04.wav
320,192,98276,1,0,0:0:0:100:C#6S_Db6S.wav
320,192,98438,128,0,98491:0:0:0:60:LR_Drum Hit Drop High.wav
448,192,98438,128,0,98599:0:0:0:100:G#6S_Ab6S.wav
192,192,98599,128,0,98653:0:0:0:100:F#6S_Gb6S.wav
64,192,98760,128,0,98814:0:0:0:70:SK_BD_04.wav
320,192,98760,1,0,0:0:0:100:C#6S_Db6S.wav
320,192,98921,128,0,98975:0:0:0:60:LR_Drum Hit Drop High.wav
448,192,98921,128,0,99083:0:0:0:100:G#6S_Ab6S.wav
192,192,99083,128,0,99136:0:0:0:100:F#6S_Gb6S.wav
64,192,99244,128,0,99298:0:0:0:70:SK_BD_04.wav
320,192,99244,1,0,0:0:0:100:C#6S_Db6S.wav
320,192,99405,128,0,99459:0:0:0:60:LR_Drum Hit Drop High.wav
448,192,99405,128,0,99567:0:0:0:100:G#6S_Ab6S.wav
192,192,99567,128,0,99620:0:0:0:100:F#6S_Gb6S.wav
64,192,99728,128,0,99782:0:0:0:70:SK_BD_04.wav
448,192,99728,1,0,0:0:0:100:C#6S_Db6S.wav
320,192,99809,1,0,0:0:0:70:SK_BD_04.wav
192,192,99889,1,0,0:0:0:60:LR_Drum Hit Drop High.wav
448,192,99889,128,0,100212:0:0:0:100:G#6S_Ab6S.wav
64,192,100050,128,0,100212:0:0:0:70:SK_BD_04.wav
192,192,100212,128,0,100534:0:0:0:60:LR_Drum Hit Clap Sn.wav
320,192,100212,1,0,0:0:0:70:LR_CymbalG.wav
320,192,100373,1,0,0:0:0:70:SK_BD_04.wav
320,192,100454,1,0,0:0:0:70:SK_BD_04.wav
64,192,100534,128,0,101502:0:0:0:50:LR_Drum Hit Drop High.wav
448,192,100534,1,0,0:0:0:70:LR_CymbalQST.wav
320,192,100696,1,0,0:0:0:100:F#7S_Gb7S.wav
192,192,100857,1,0,0:0:0:70:SK_BD_04.wav
192,192,101018,1,0,0:0:0:50:LR_Drum Hit Drop High.wav
448,192,101018,1,0,0:0:0:100:G#7S_Ab7S.wav
320,192,101179,1,0,0:0:0:100:F#7S_Gb7S.wav
192,192,101341,1,0,0:0:0:70:SK_BD_04.wav
320,192,101502,1,0,0:0:0:50:LR_Drum Hit Drop High.wav
448,192,101502,128,0,104244:0:0:0:100:G#7S_Ab7S.wav
192,192,101663,1,0,0:0:0:100:F#7S_Gb7S.wav
64,192,101717,1,0,0:0:0:100:G#7S_Ab7S.wav
320,192,101771,1,0,0:0:0:100:F#7S_Gb7S.wav
192,192,101825,1,0,0:0:0:70:SK_BD_04.wav
64,192,101986,1,0,0:0:0:50:LR_Drum Hit Drop High.wav
320,192,101986,1,0,0:0:0:100:G#7S_Ab7S.wav
192,192,102147,1,0,0:0:0:100:F#7S_Gb7S.wav
320,192,102201,1,0,0:0:0:100:G#7S_Ab7S.wav
192,192,102255,1,0,0:0:0:100:F#7S_Gb7S.wav
64,192,102309,1,0,0:0:0:70:SK_BD_04.wav
192,192,102389,1,0,0:0:0:70:SK_BD_04.wav
64,192,102470,1,0,0:0:0:50:LR_Drum Hit Drop High.wav
320,192,102470,1,0,0:0:0:100:G#7S_Ab7S.wav
192,192,102631,1,0,0:0:0:70:SK_BD_04.wav
64,192,102792,1,0,0:0:0:50:LR_Drum Hit Drop High.wav
320,192,102792,1,0,0:0:0:100:G#7S_Ab7S.wav
192,192,102954,1,0,0:0:0:70:SK_BD_04.wav
192,192,103115,1,0,0:0:0:50:LR_Drum Hit Drop High.wav
320,192,103115,1,0,0:0:0:100:G#7S_Ab7S.wav
64,192,103276,1,0,0:0:0:100:F#7S_Gb7S.wav
320,192,103438,1,0,0:0:0:70:SK_BD_04.wav
192,192,103599,1,0,0:0:0:50:LR_Drum Hit Drop High.wav
320,192,103599,1,0,0:0:0:100:G#7S_Ab7S.wav
64,192,103760,1,0,0:0:0:100:F#7S_Gb7S.wav
320,192,103921,1,0,0:0:0:70:SK_BD_04.wav
64,192,104083,1,0,0:0:0:50:LR_Drum Hit Drop High.wav
192,192,104083,1,0,0:0:0:100:G#7S_Ab7S.wav
320,192,104244,128,0,104405:0:0:0:100:F#7S_Gb7S.wav
192,192,104405,128,0,104728:0:0:0:70:SK_BD_04.wav
320,192,104567,1,0,0:0:0:50:LR_Drum Hit Drop High.wav
448,192,104567,1,0,0:0:0:100:G#7S_Ab7S.wav
64,192,104728,128,0,104889:0:0:0:100:F#7S_Gb7S.wav
192,192,104889,128,0,105212:0:0:0:70:SK_BD_04.wav
320,192,104970,1,0,0:0:0:70:SK_BD_04.wav
64,192,105050,1,0,0:0:0:50:LR_Drum Hit Drop High.wav
448,192,105050,1,0,0:0:0:100:G#7S_Ab7S.wav
320,192,105212,1,0,0:0:0:70:SK_BD_04.wav
64,192,105373,128,0,105534:0:0:0:50:LR_Drum Hit Drop High.wav
448,192,105373,1,0,0:0:0:100:C#7S_Db7S.wav
448,192,105534,128,0,107954:0:0:0:70:SK_BD_04.wav
192,192,105615,1,0,0:0:0:70:SK_BD_04.wav
64,192,105696,1,0,0:0:0:50:LR_Drum Hit Drop High.wav
320,192,105696,1,0,0:0:0:100:G#7S_Ab7S.wav
192,192,105857,1,0,0:0:0:100:F#7S_Gb7S.wav
64,192,106018,1,0,0:0:0:70:SK_BD_04.wav
192,192,106179,1,0,0:0:0:50:LR_Drum Hit Drop High.wav
320,192,106179,1,0,0:0:0:100:G#7S_Ab7S.wav
192,192,106341,1,0,0:0:0:100:F#7S_Gb7S.wav
64,192,106502,1,0,0:0:0:70:SK_BD_04.wav
64,192,106663,1,0,0:0:0:50:LR_Drum Hit Drop High.wav
192,192,106663,1,0,0:0:0:100:G#7S_Ab7S.wav
192,192,106825,1,0,0:0:0:100:F#7S_Gb7S.wav
320,192,106878,1,0,0:0:0:100:G#7S_Ab7S.wav
64,192,106932,1,0,0:0:0:100:F#7S_Gb7S.wav
192,192,106986,1,0,0:0:0:70:SK_BD_04.wav
64,192,107147,1,0,0:0:0:50:LR_Drum Hit Drop High.wav
320,192,107147,1,0,0:0:0:100:G#7S_Ab7S.wav
192,192,107309,1,0,0:0:0:100:F#7S_Gb7S.wav
64,192,107470,1,0,0:0:0:70:SK_BD_04.wav
192,192,107550,1,0,0:0:0:70:SK_BD_04.wav
64,192,107631,1,0,0:0:0:50:LR_Drum Hit Drop High.wav
320,192,107631,1,0,0:0:0:100:G#7S_Ab7S.wav
64,192,107792,1,0,0:0:0:70:SK_BD_04.wav
192,192,107954,1,0,0:0:0:50:LR_Drum Hit Drop High.wav
320,192,107954,1,0,0:0:0:100:G#7S_Ab7S.wav
64,192,108115,1,0,0:0:0:70:SK_BD_04.wav
64,192,108276,128,0,108438:0:0:0:50:LR_Drum Hit Drop High.wav
320,192,108276,128,0,108317:0:0:0:100:E6S.wav
448,192,108276,128,0,108317:0:0:0:100:G#7S_Ab7S.wav
448,192,108438,1,0,0:0:0:0:
64,192,108599,1,0,0:0:0:70:SK_BD_04.wav
320,192,108599,1,0,0:0:0:100:C#7S_Db7S.wav
64,192,108760,128,0,108800:0:0:0:50:LR_Drum Hit Drop High.wav
192,192,108760,128,0,108800:0:0:0:100:E6S.wav
448,192,108760,128,0,108921:0:0:0:100:G#7S_Ab7S.wav
64,192,108921,1,0,0:0:0:0:
192,192,109083,1,0,0:0:0:70:SK_BD_04.wav
448,192,109083,1,0,0:0:0:100:C#7S_Db7S.wav
64,192,109244,1,0,0:0:0:50:LR_Drum Hit Drop High.wav
320,192,109244,128,0,109889:0:0:0:100:G7S.wav
448,192,109244,128,0,109365:0:0:0:0:
64,192,109567,1,0,0:0:0:70:SK_BD_04.wav
192,192,109728,128,0,109970:0:0:0:50:LR_Drum Hit Drop High.wav
448,192,109728,1,0,0:0:0:50:LR_CymbalQST.wav
64,192,109889,128,0,110050:0:0:0:100:D6S.wav
448,192,110050,1,0,0:0:0:70:LR_Drum Hit Drop High.wav
320,192,110091,1,0,0:0:0:40:LR_Drum Hit Drop High.wav
192,192,110131,1,0,0:0:0:40:LR_Drum Hit Drop High.wav
64,192,110171,1,0,0:0:0:40:LR_Drum Hit Drop High.wav
320,192,110212,1,0,0:0:0:70:LR_Drum Hit Drop High.wav
448,192,110212,128,0,110333:0:0:0:100:G5S.wav
64,192,110373,1,0,0:0:0:70:LR_Drum Hit Drop High.wav
192,192,110454,1,0,0:0:0:70:LR_Drum Hit Drop High.wav
320,192,110494,1,0,0:0:0:70:LR_Drum Hit Drop High.wav
64,192,110534,1,0,0:0:0:70:LR_Tom Hit.wav
448,192,110534,1,0,0:0:0:0:
192,192,110642,1,0,0:0:0:70:LR_TomR2.wav
320,192,110642,1,0,0:0:0:0:
192,192,110749,1,0,0:0:0:70:LR_TomR2.wav
320,192,110749,1,0,0:0:0:0:
64,192,110857,1,0,0:0:0:70:SK_BD_04.wav
320,192,110857,1,0,0:0:0:70:LR_CymbalG.wav
448,192,110857,128,0,111179:0:0:0:100:C4S.wav
64,192,111179,1,0,0:0:0:70:LR_Snare Drum 2.wav
64,192,111502,128,0,111825:0:0:0:100:A#4S_Bb4S.wav
320,192,111502,128,0,111663:0:0:0:100:D#5S_Eb5S.wav
192,192,111663,1,0,0:0:0:70:SK_BD_04.wav
448,192,111986,1,0,0:0:0:70:LR_Snare Drum 2.wav
192,192,112309,1,0,0:0:0:70:SK_BD_04.wav
448,192,112470,1,0,0:0:0:70:LR_Snare Drum 2.wav
192,192,112631,128,0,112792:0:0:0:100:G#4S_Ab4S.wav
320,192,112631,128,0,112954:0:0:0:100:D#5S_Eb5S.wav
64,192,112954,1,0,0:0:0:70:SK_BD_04.wav
448,192,113115,1,0,0:0:0:70:LR_Snare Drum 2.wav
320,192,113357,1,0,0:0:0:0:
64,192,113438,128,0,113518:0:0:0:70:SK_BD_04.wav
64,192,113599,128,0,113760:0:0:0:100:D5S.wav
448,192,113760,1,0,0:0:0:70:LR_Snare Drum 2.wav
192,192,114083,128,0,114567:0:0:0:100:A#4S_Bb4S.wav
448,192,114083,128,0,114244:0:0:0:100:D5S.wav
64,192,114244,1,0,0:0:0:70:SK_BD_04.wav
64,192,114567,128,0,115050:0:0:0:70:LR_Snare Drum 2.wav
448,192,114567,128,0,114647:0:0:0:100:D5S.wav
448,192,114889,128,0,114970:0:0:0:70:SK_BD_04.wav
320,192,115050,1,0,0:0:0:70:LR_Snare Drum 2.wav
192,192,115212,128,0,115534:0:0:0:100:F4S.wav
448,192,115212,128,0,115373:0:0:0:100:D5S.wav
64,192,115534,1,0,0:0:0:70:SK_BD_04.wav
192,192,115696,1,0,0:0:0:70:LR_Snare Drum 2.wav
320,192,115696,128,0,116018:0:0:0:100:A#4S_Bb4S.wav
64,192,116018,128,0,116502:0:0:0:70:SK_BD_04.wav
448,192,116018,1,0,0:0:0:100:G#3S_Ab3S.wav
192,192,116341,128,0,116663:0:0:0:70:LR_Snare Drum 2.wav
448,192,116663,128,0,116986:0:0:0:100:C5S.wav
64,192,116825,1,0,0:0:0:70:SK_BD_04.wav
192,192,116986,128,0,117470:0:0:0:100:G#3S_Ab3S.wav
320,192,117147,128,0,117228:0:0:0:70:LR_Snare Drum 2.wav
64,192,117470,1,0,0:0:0:70:SK_BD_04.wav
320,192,117470,128,0,117550:0:0:0:100:D4S.wav
448,192,117631,1,0,0:0:0:70:LR_Snare Drum 2.wav
320,192,117792,128,0,118438:0:0:0:100:B4S.wav
192,192,117873,1,0,0:0:0:70:SK_BD_04.wav
192,192,118115,1,0,0:0:0:70:SK_BD_04.wav
448,192,118276,128,0,118599:0:0:0:70:LR_Snare Drum 2.wav
64,192,118599,128,0,119889:0:0:0:70:SK_BD_04.wav
192,192,118599,1,0,0:0:0:0:
320,192,118921,1,0,0:0:0:70:LR_Snare Drum 2.wav
320,192,119244,1,0,0:0:0:0:
320,192,119405,128,0,119728:0:0:0:70:SK_BD_04.wav
192,192,119567,128,0,120050:0:0:0:100:G5S.wav
448,192,119728,128,0,120212:0:0:0:70:LR_Snare Drum 2.wav
320,192,119889,128,0,120534:0:0:0:100:B5S.wav
64,192,120050,1,0,0:0:0:70:LR_Tom Hit.wav
64,192,120212,128,0,120373:0:0:0:70:LR_Snare Drum 2.wav
448,192,120373,128,0,120534:0:0:0:70:LR_TomR2.wav
64,192,120534,1,0,0:0:0:70:LR_TomR2.wav
192,192,120534,1,0,0:0:0:100:G5S.wav
320,192,120696,1,0,0:0:0:100:B5S.wav
192,192,120776,1,0,0:0:0:0:
320,192,120857,1,0,0:0:0:70:LR_Drum Hit Clap Sn.wav
448,192,120857,1,0,0:0:0:100:F6S.wav
64,192,120938,1,0,0:0:0:70:LR_Drum Hit Clap Sn.wav
192,192,120938,1,0,0:0:0:0:
448,192,121018,1,0,0:0:0:70:LR_Tom Hit.wav
448,192,121099,1,0,0:0:0:70:LR_Tom Hit.wav
64,192,121179,1,0,0:0:0:70:LR_TomR2.wav
192,192,121179,1,0,0:0:0:0:
320,192,121179,1,0,0:0:0:0:
64,192,121502,128,0,121825:0:0:0:70:SK_BD_04.wav
320,192,121502,128,0,121986:0:0:0:70:LR_CymbalG.wav
448,192,121502,128,0,122147:0:0:0:0:
64,192,121986,128,0,122470:0:0:0:70:SK_BD_04.wav
192,192,121986,128,0,122067:0:0:0:0:
320,192,122147,1,0,0:0:0:0:
192,192,122309,1,0,0:0:0:70:LR_Drum Hit Clap Sn.wav
448,192,122309,1,0,0:0:0:0:
320,192,122631,128,0,122792:0:0:0:70:SK_BD_04.wav
192,192,122792,1,0,0:0:0:70:LR_Drum Hit Clap Sn.wav
448,192,122792,1,0,0:0:0:0:
64,192,122954,128,0,123034:0:0:0:0:
448,192,122994,128,0,123276:0:0:0:0:
192,192,123115,128,0,123169:0:0:0:70:G#5S_Ab5S.wav
64,192,123276,1,0,0:0:0:70:SK_BD_04.wav
320,192,123330,128,0,123384:0:0:0:100:D#6S_Eb6S.wav
64,192,123438,1,0,0:0:0:70:LR_Drum Hit Clap Sn.wav
192,192,123438,1,0,0:0:0:0:
448,192,123545,128,0,123599:0:0:0:100:F6S.wav
192,192,123679,1,0,0:0:0:70:SK_BD_04.wav
64,192,123760,128,0,124083:0:0:0:70:SK_BD_04.wav
320,192,123921,1,0,0:0:0:70:SK_BD_04.wav
192,192,124083,1,0,0:0:0:70:LR_Drum Hit Clap Sn.wav
448,192,124083,1,0,0:0:0:0:
320,192,124244,128,0,124567:0:0:0:0:
192,192,124567,128,0,124647:0:0:0:70:SK_BD_04.wav
448,192,124567,128,0,124889:0:0:0:0:
64,192,124889,128,0,125212:0:0:0:70:LR_Drum Hit Clap Sn.wav
320,192,124889,128,0,124970:0:0:0:0:
192,192,125212,128,0,125373:0:0:0:70:SK_BD_04.wav
64,192,125373,1,0,0:0:0:70:LR_Drum Hit Clap Sn.wav
320,192,125373,128,0,125534:0:0:0:0:
64,192,125534,128,0,125588:0:0:0:100:A#5S_Bb5S.wav
448,192,125534,128,0,125615:0:0:0:0:
192,192,125696,128,0,125749:0:0:0:100:C6S.wav
320,192,125857,128,0,125911:0:0:0:70:SK_BD_04.wav
64,192,126018,128,0,126072:0:0:0:70:LR_Drum Hit Clap Sn.wav
192,192,126018,1,0,0:0:0:100:D#6S_Eb6S.wav
448,192,126179,128,0,126341:0:0:0:100:C7S.wav
320,192,126260,128,0,126663:0:0:0:70:SK_BD_04.wav
64,192,126341,128,0,127147:0:0:0:70:SK_BD_04.wav
192,192,126663,1,0,0:0:0:70:LR_Drum Hit Clap Sn.wav
448,192,126663,1,0,0:0:0:0:
320,192,126825,128,0,127147:0:0:0:0:
192,192,127147,128,0,127201:0:0:0:70:SK_BD_04.wav
320,192,127309,128,0,127362:0:0:0:100:D#6S_Eb6S.wav
64,192,127470,128,0,127524:0:0:0:70:LR_Drum Hit Clap Sn.wav
448,192,127470,128,0,128276:0:0:0:100:A#6S_Bb6S.wav
320,192,127631,128,0,127712:0:0:0:0:
320,192,127792,128,0,127954:0:0:0:70:SK_BD_04.wav
64,192,127954,1,0,0:0:0:70:LR_Drum Hit Clap Sn.wav
192,192,127954,1,0,0:0:0:0:
320,192,128115,128,0,128438:0:0:0:0:
64,192,128276,128,0,128330:0:0:0:100:D6S.wav
192,192,128438,128,0,128491:0:0:0:70:SK_BD_04.wav
320,192,128599,128,0,128653:0:0:0:70:LR_Snare Drum 2.wav
448,192,128599,1,0,0:0:0:100:F6S.wav
64,192,128760,128,0,128814:0:0:0:100:A#6S_Bb6S.wav
192,192,128921,1,0,0:0:0:70:SK_BD_04.wav
320,192,128921,128,0,129244:0:0:0:0:
192,192,129083,1,0,0:0:0:70:SK_BD_04.wav
64,192,129244,1,0,0:0:0:70:LR_Snare Drum 2.wav
448,192,129244,1,0,0:0:0:0:
320,192,129405,128,0,129567:0:0:0:70:SK_BD_04.wav
64,192,129567,128,0,129674:0:0:0:100:A#5S_Bb5S.wav
192,192,129728,1,0,0:0:0:70:SK_BD_04.wav
448,192,129782,128,0,129889:0:0:0:100:C6S.wav
320,192,129997,128,0,130104:0:0:0:100:D6S.wav
64,192,130050,1,0,0:0:0:70:LR_Drum Hit Clap Sn.wav
192,192,130050,1,0,0:0:0:0:
64,192,130212,128,0,130373:0:0:0:100:A#4S_Bb4S.wav
192,192,130232,128,0,130373:0:0:0:100:F5S.wav
448,192,130252,128,0,130373:0:0:0:100:G#6S_Ab6S.wav
320,192,130373,1,0,0:0:0:70:SK_BD_04.wav
64,192,130534,1,0,0:0:0:70:LR_Drum Hit Clap Sn.wav
448,192,130534,1,0,0:0:0:0:
448,192,130696,128,0,130964:0:0:0:100:D#6S_Eb6S.wav
64,192,130857,1,0,0:0:0:70:LR_Tom Hit.wav
192,192,130964,1,0,0:0:0:70:LR_Drum Hit Clap Sn.wav
320,192,130964,1,0,0:0:0:0:
192,192,131072,1,0,0:0:0:70:LR_Drum Hit Clap Sn.wav
448,192,131072,1,0,0:0:0:0:
64,192,131179,1,0,0:0:0:70:LR_TomR2.wav
448,192,131260,1,0,0:0:0:100:D#6S_Eb6S.wav
320,192,131287,1,0,0:0:0:70:LR_Drum Hit Clap Sn.wav
192,192,131341,1,0,0:0:0:100:F6S.wav
448,192,131395,1,0,0:0:0:70:LR_Drum Hit Clap Sn.wav
64,192,131421,1,0,0:0:0:100:G6S.wav
192,192,131502,128,0,131825:0:0:0:70:LR_CymbalRDW.wav
320,192,131502,128,0,131825:0:0:0:100:G#6S_Ab6S.wav
64,192,131825,1,0,0:0:0:70:LR_Drum Hit Clap Sn.wav
448,192,131825,1,0,0:0:0:0:
192,192,131986,128,0,132309:0:0:0:0:
320,192,132026,128,0,132309:0:0:0:0:
64,192,132309,1,0,0:0:0:70:SK_BD_04.wav
64,192,132631,1,0,0:0:0:70:LR_Snare Drum 2.wav
448,192,132631,1,0,0:0:0:100:B6S.wav
192,192,132685,1,0,0:0:0:100:C7S.wav
320,192,132739,1,0,0:0:0:100:C#7S_Db7S.wav
448,192,132792,128,0,133007:0:0:0:100:D6S.wav
192,192,133007,128,0,133276:0:0:0:100:B5S.wav
320,192,133115,1,0,0:0:0:70:LR_Drum Hit Clap Sn.wav
448,192,133115,1,0,0:0:0:0:
64,192,133276,128,0,133599:0:0:0:100:G#5S_Ab5S.wav
320,192,133438,1,0,0:0:0:0:
320,192,133599,1,0,0:0:0:70:SK_BD_04.wav
192,192,133760,128,0,133921:0:0:0:70:LR_Drum Hit Clap Sn.wav
448,192,133760,1,0,0:0:0:100:F6S.wav
448,192,133921,1,0,0:0:0:100:G6S.wav
320,192,134002,1,0,0:0:0:70:SK_BD_04.wav
192,192,134083,128,0,134163:0:0:0:70:SK_BD_04.wav
192,192,134244,128,0,134325:0:0:0:70:SK_BD_04.wav
320,192,134405,1,0,0:0:0:70:LR_Drum Hit Clap Sn.wav
448,192,134405,1,0,0:0:0:100:D#6S_Eb6S.wav
64,192,134567,128,0,134728:0:0:0:100:D6S.wav
192,192,134587,128,0,134728:0:0:0:0:
448,192,134889,128,0,135050:0:0:0:70:SK_BD_04.wav
320,192,134909,128,0,135050:0:0:0:0:
64,192,135050,1,0,0:0:0:0:
64,192,135212,128,0,135534:0:0:0:70:LR_Drum Hit Clap Sn.wav
192,192,135232,128,0,135534:0:0:0:0:
448,192,135252,128,0,135534:0:0:0:0:
320,192,135534,1,0,0:0:0:70:SK_BD_04.wav
64,192,135696,1,0,0:0:0:70:LR_Drum Hit Clap Sn.wav
192,192,135696,1,0,0:0:0:70:LR_CymbalG.wav
448,192,135696,1,0,0:0:0:0:
64,192,135938,1,0,0:0:0:0:
448,192,136018,1,0,0:0:0:60:LR_Tom Hit.wav
64,192,136260,1,0,0:0:0:60:LR_Drum Hit Drop High.wav
192,192,136260,1,0,0:0:0:0:
320,192,136341,1,0,0:0:0:60:LR_Drum Hit Drop High.wav
448,192,136341,1,0,0:0:0:0:
64,192,136502,1,0,0:0:0:40:LR_TomR2.wav
192,192,136583,1,0,0:0:0:40:LR_TomR2.wav
64,192,136663,1,0,0:0:0:70:SK_BD_04.wav
320,192,136663,1,0,0:0:0:70:LR_CymbalQST.wav
448,192,136663,128,0,136825:0:0:0:100:D#6S_Eb6S.wav
192,192,136825,1,0,0:0:0:100:G#5S_Ab5S.wav
64,192,136986,1,0,0:0:0:70:SK_BD_04.wav
448,192,136986,128,0,137147:0:0:0:100:D#6S_Eb6S.wav
192,192,137147,1,0,0:0:0:100:G#5S_Ab5S.wav
320,192,137309,1,0,0:0:0:70:SK_BD_04.wav
448,192,137309,128,0,137470:0:0:0:100:D#6S_Eb6S.wav
192,192,137470,1,0,0:0:0:100:G#5S_Ab5S.wav
64,192,137631,1,0,0:0:0:70:SK_BD_04.wav
448,192,137631,128,0,137792:0:0:0:100:D#6S_Eb6S.wav
64,192,137792,1,0,0:0:0:100:G#5S_Ab5S.wav
192,192,137954,128,0,138115:0:0:0:70:SK_BD_04.wav
448,192,137954,1,0,0:0:0:100:F6S.wav
320,192,138115,1,0,0:0:0:100:G#5S_Ab5S.wav
64,192,138276,1,0,0:0:0:70:SK_BD_04.wav
192,192,138276,128,0,138438:0:0:0:100:F6S.wav
320,192,138438,1,0,0:0:0:100:G#5S_Ab5S.wav
192,192,138599,128,0,138760:0:0:0:70:SK_BD_04.wav
448,192,138599,1,0,0:0:0:100:F6S.wav
320,192,138760,1,0,0:0:0:100:G#5S_Ab5S.wav
64,192,138921,1,0,0:0:0:70:SK_BD_04.wav
192,192,138921,128,0,139244:0:0:0:100:F6S.wav
320,192,139083,1,0,0:0:0:70:LR_Snare Drum 2.wav
448,192,139083,1,0,0:0:0:100:G#5S_Ab5S.wav
64,192,139244,128,0,139298:0:0:0:70:SK_BD_04.wav
320,192,139244,1,0,0:0:0:40:LR_CymbalRDW.wav
448,192,139244,1,0,0:0:0:100:G5S.wav
320,192,139459,128,0,139513:0:0:0:100:G6S.wav
448,192,139459,128,0,139513:0:0:0:100:G7S.wav
64,192,139567,1,0,0:0:0:70:SK_BD_04.wav
320,192,139674,128,0,139728:0:0:0:100:G6S.wav
448,192,139674,128,0,139728:0:0:0:100:G7S.wav
192,192,139889,128,0,139943:0:0:0:70:SK_BD_04.wav
448,192,139889,128,0,139943:0:0:0:100:F6S.wav
192,192,140104,128,0,140158:0:0:0:100:F6S.wav
448,192,140104,128,0,140158:0:0:0:100:F7S.wav
320,192,140212,1,0,0:0:0:70:SK_BD_04.wav
192,192,140319,128,0,140373:0:0:0:100:F6S.wav
448,192,140319,128,0,140373:0:0:0:100:F7S.wav
64,192,140534,128,0,140588:0:0:0:70:SK_BD_04.wav
320,192,140534,128,0,140588:0:0:0:100:E6S.wav
64,192,140749,128,0,140803:0:0:0:100:E6S.wav
320,192,140749,128,0,140803:0:0:0:100:E7S.wav
192,192,140857,1,0,0:0:0:70:SK_BD_04.wav
64,192,140964,128,0,141018:0:0:0:100:E6S.wav
320,192,140964,128,0,141018:0:0:0:100:E7S.wav
64,192,141179,1,0,0:0:0:40:LR_CymbalRDW.wav
320,192,141179,128,0,141233:0:0:0:100:F6S.wav
448,192,141179,128,0,141233:0:0:0:100:F7S.wav
64,192,141395,128,0,141448:0:0:0:100:C6S.wav
448,192,141395,128,0,141448:0:0:0:100:C7S.wav
192,192,141502,1,0,0:0:0:40:LR_CymbalRDW.wav
320,192,141502,1,0,0:0:0:0:
64,192,141610,128,0,141663:0:0:0:100:G#5S_Ab5S.wav
192,192,141610,128,0,141663:0:0:0:100:G#6S_Ab6S.wav
64,192,141825,128,0,142067:0:0:0:70:LR_Drum Hit Clap Sn.wav
192,192,141825,1,0,0:0:0:40:LR_CymbalRDW.wav
448,192,141825,128,0,142147:0:0:0:100:G5S.wav
64,192,142147,1,0,0:0:0:70:LR_Tom Hit.wav
320,192,142147,128,0,142362:0:0:0:100:D6S.wav
192,192,142255,128,0,142470:0:0:0:100:C6S.wav
64,192,142362,128,0,142470:0:0:0:100:G#5S_Ab5S.wav
320,192,142470,1,0,0:0:0:70:LR_Tom Hit.wav
448,192,142470,128,0,142685:0:0:0:100:D5S.wav
320,192,142577,128,0,142792:0:0:0:100:C5S.wav
192,192,142685,128,0,142792:0:0:0:100:G#4S_Ab4S.wav
64,192,142792,128,0,143007:0:0:0:70:LR_Tom Hit.wav
448,192,142792,1,0,0:0:0:100:D4S.wav
192,192,142900,128,0,143115:0:0:0:100:C4S.wav
320,192,143007,128,0,143115:0:0:0:100:G#3S_Ab3S.wav
64,192,143115,128,0,143330:0:0:0:70:LR_Drum Hit Drop High.wav
448,192,143115,128,0,143330:0:0:0:100:G3S.wav
192,192,143330,128,0,143545:0:0:0:70:LR_Drum Hit Clap Sn.wav
320,192,143330,128,0,143545:0:0:0:50:LR_CymbalG.wav
64,192,143545,128,0,143760:0:0:0:70:LR_Drum Hit Clap Sn.wav
448,192,143545,128,0,143760:0:0:0:60:LR_CymbalRDW.wav
192,192,143760,128,0,144083:0:0:0:70:LR_Drum Hit Drop High.wav
320,192,143760,128,0,144083:0:0:0:70:LR_CymbalQST.wav
448,192,144083,128,0,145050:0:0:0:0:
64,192,144405,128,0,145373:0:0:0:70:SK_BD_04.wav
192,192,144405,1,0,0:0:0:70:LR_CymbalQST.wav
320,192,144405,1,0,0:0:0:100:D#5S_Eb5S.wav
192,192,144728,1,0,0:0:0:70:LR_Drum Hit Clap Sn.wav
320,192,144728,1,0,0:0:0:0:
192,192,144970,1,0,0:0:0:0:
320,192,145050,1,0,0:0:0:70:SK_BD_04.wav
320,192,145212,1,0,0:0:0:70:SK_BD_04.wav
192,192,145373,128,0,145534:0:0:0:70:LR_Drum Hit Clap Sn.wav
448,192,145373,1,0,0:0:0:0:
64,192,145534,1,0,0:0:0:70:SK_BD_04.wav
448,192,145534,128,0,146341:0:0:0:100:D#5S_Eb5S.wav
64,192,145857,1,0,0:0:0:70:SK_BD_04.wav
192,192,146018,1,0,0:0:0:70:LR_Drum Hit Clap Sn.wav
320,192,146018,1,0,0:0:0:0:
320,192,146260,1,0,0:0:0:70:SK_BD_04.wav
192,192,146341,1,0,0:0:0:70:SK_BD_04.wav
192,192,146502,1,0,0:0:0:70:SK_BD_04.wav
64,192,146663,128,0,146986:0:0:0:70:LR_Drum Hit Clap Sn.wav
320,192,146663,1,0,0:0:0:100:D#5S_Eb5S.wav
448,192,146663,1,0,0:0:0:100:A#5S_Bb5S.wav
192,192,146986,1,0,0:0:0:70:SK_BD_04.wav
448,192,146986,128,0,147792:0:0:0:100:C#5S_Db5S.wav
64,192,147309,1,0,0:0:0:70:LR_Drum Hit Clap Sn.wav
320,192,147309,1,0,0:0:0:0:
320,192,147550,1,0,0:0:0:0:
64,192,147631,1,0,0:0:0:70:SK_BD_04.wav
192,192,147792,128,0,147873:0:0:0:70:SK_BD_04.wav
64,192,147954,1,0,0:0:0:70:LR_Drum Hit Clap Sn.wav
192,192,147954,128,0,148115:0:0:0:0:
320,192,148115,1,0,0:0:0:70:SK_BD_04.wav
448,192,148115,128,0,148276:0:0:0:100:F6S.wav
192,192,148276,1,0,0:0:0:100:F6S.wav
320,192,148276,1,0,0:0:0:100:A#6S_Bb6S.wav
192,192,148438,1,0,0:0:0:70:SK_BD_04.wav
320,192,148438,1,0,0:0:0:100:F6S.wav
64,192,148599,1,0,0:0:0:70:LR_Drum Hit Clap Sn.wav
320,192,148599,1,0,0:0:0:100:F6S.wav
448,192,148599,1,0,0:0:0:100:A#6S_Bb6S.wav
64,192,148760,1,0,0:0:0:100:F6S.wav
320,192,148760,1,0,0:0:0:100:A#6S_Bb6S.wav
192,192,148841,1,0,0:0:0:70:SK_BD_04.wav
320,192,148921,1,0,0:0:0:70:SK_BD_04.wav
448,192,148921,1,0,0:0:0:100:F6S.wav
320,192,149083,1,0,0:0:0:70:SK_BD_04.wav
448,192,149083,1,0,0:0:0:100:F6S.wav
64,192,149244,1,0,0:0:0:70:LR_Drum Hit Clap Sn.wav
320,192,149244,1,0,0:0:0:30:LR_CymbalRDW.wav
448,192,149244,1,0,0:0:0:100:F6S.wav
64,192,149567,128,0,149889:0:0:0:70:SK_BD_04.wav
320,192,149567,1,0,0:0:0:70:LR_CymbalG.wav
448,192,149728,1,0,0:0:0:0:
192,192,149889,128,0,150050:0:0:0:70:LR_Snare Drum 2.wav
448,192,149889,1,0,0:0:0:0:
320,192,150050,128,0,150373:0:0:0:100:D#5S_Eb5S.wav
64,192,150212,1,0,0:0:0:70:SK_BD_04.wav
64,192,150373,1,0,0:0:0:70:SK_BD_04.wav
192,192,150534,1,0,0:0:0:70:LR_Snare Drum 2.wav
448,192,150534,128,0,150615:0:0:0:0:
192,192,150696,128,0,151502:0:0:0:70:SK_BD_04.wav
320,192,150696,1,0,0:0:0:0:
64,192,151018,1,0,0:0:0:70:SK_BD_04.wav
320,192,151179,1,0,0:0:0:70:LR_Snare Drum 2.wav
448,192,151179,1,0,0:0:0:0:
448,192,151341,1,0,0:0:0:100:F6S.wav
320,192,151421,1,0,0:0:0:0:
64,192,151502,1,0,0:0:0:70:SK_BD_04.wav
64,192,151663,1,0,0:0:0:70:SK_BD_04.wav
448,192,151663,1,0,0:0:0:0:
192,192,151825,1,0,0:0:0:70:LR_Snare Drum 2.wav
320,192,151825,128,0,152147:0:0:0:0:
448,192,151986,128,0,152147:0:0:0:0:
64,192,152147,128,0,152470:0:0:0:100:C#5S_Db5S.wav
192,192,152147,1,0,0:0:0:0:
320,192,152470,128,0,152550:0:0:0:70:LR_Snare Drum 2.wav
448,192,152470,1,0,0:0:0:0:
320,192,152631,128,0,153115:0:0:0:100:G#6S_Ab6S.wav
192,192,152792,1,0,0:0:0:70:SK_BD_04.wav
192,192,152954,1,0,0:0:0:70:SK_BD_04.wav
64,192,153115,1,0,0:0:0:70:LR_Snare Drum 2.wav
448,192,153115,128,0,153196:0:0:0:0:
192,192,153276,1,0,0:0:0:70:SK_BD_04.wav
320,192,153276,1,0,0:0:0:0:
448,192,153276,128,0,154244:0:0:0:0:
192,192,153599,1,0,0:0:0:70:SK_BD_04.wav
64,192,153760,128,0,153921:0:0:0:70:LR_Snare Drum 2.wav
320,192,153760,1,0,0:0:0:0:
192,192,153921,128,0,154083:0:0:0:50:LR_Drum Hit Drop High.wav
64,192,154002,1,0,0:0:0:50:LR_Drum Hit Drop High.wav
320,192,154083,128,0,154244:0:0:0:70:SK_BD_04.wav
64,192,154244,1,0,0:0:0:70:LR_Drum Hit Drop High.wav
192,192,154244,1,0,0:0:0:0:
320,192,154325,1,0,0:0:0:70:LR_Drum Hit Drop High.wav
448,192,154325,1,0,0:0:0:0:
192,192,154405,1,0,0:0:0:70:LR_Tom Hit.wav
192,192,154486,1,0,0:0:0:70:LR_Tom Hit.wav
320,192,154567,1,0,0:0:0:70:LR_TomR2.wav
320,192,154647,1,0,0:0:0:70:LR_TomR2.wav
64,192,154728,1,0,0:0:0:70:LR_TomR2.wav
192,192,154728,1,0,0:0:0:50:LR_CymbalQST.wav
448,192,154728,128,0,155050:0:0:0:100:G#3S_Ab3S.wav
320,192,155050,128,0,155131:0:0:0:70:LR_Snare Drum 2.wav
192,192,155212,128,0,155534:0:0:0:100:D#6S_Eb6S.wav
448,192,155212,1,0,0:0:0:100:G#6S_Ab6S.wav
320,192,155373,1,0,0:0:0:70:SK_BD_04.wav
64,192,155534,128,0,155615:0:0:0:70:SK_BD_04.wav
320,192,155534,1,0,0:0:0:0:
192,192,155615,128,0,155696:0:0:0:0:
320,192,155696,128,0,155776:0:0:0:70:LR_Snare Drum 2.wav
448,192,155776,128,0,155857:0:0:0:0:
64,192,155857,1,0,0:0:0:70:SK_BD_04.wav
320,192,155857,128,0,156341:0:0:0:100:F6S.wav
448,192,156179,1,0,0:0:0:70:SK_BD_04.wav
64,192,156341,1,0,0:0:0:70:LR_Snare Drum 2.wav
192,192,156341,1,0,0:0:0:0:
320,192,156502,1,0,0:0:0:70:A#4S_Bb4S.wav
448,192,156583,1,0,0:0:0:70:LR_Snare Drum 2.wav
64,192,156663,128,0,157268:0:0:0:70:SK_BD_04.wav
192,192,156663,1,0,0:0:0:100:D6S.wav
192,192,156825,1,0,0:0:0:70:SK_BD_04.wav
320,192,156986,1,0,0:0:0:70:LR_Snare Drum 2.wav
448,192,156986,128,0,157309:0:0:0:100:A#6S_Bb6S.wav
192,192,157268,1,0,0:0:0:40:G6S.wav
64,192,157309,1,0,0:0:0:70:SK_BD_04.wav
320,192,157309,1,0,0:0:0:30:LR_CymbalRDW.wav
64,192,157550,1,0,0:0:0:70:LR_Drum Hit Clap Sn.wav
320,192,157631,1,0,0:0:0:70:LR_Drum Hit Clap Sn.wav
448,192,157631,1,0,0:0:0:0:
64,192,157792,1,0,0:0:0:70:SK_BD_04.wav
192,192,157792,1,0,0:0:0:70:LR_Drum Hit Drop High.wav
320,192,157792,1,0,0:0:0:30:LR_CymbalRDW.wav
192,192,158115,1,0,0:0:0:70:SK_BD_04.wav
320,192,158115,1,0,0:0:0:70:LR_Drum Hit Drop High.wav
448,192,158115,1,0,0:0:0:100:A#5S_Bb5S.wav
64,192,158438,1,0,0:0:0:70:SK_BD_04.wav
192,192,158438,1,0,0:0:0:70:LR_Drum Hit Drop High.wav
448,192,158438,128,0,159244:0:0:0:50:LR_CymbalQST.wav
64,192,158760,1,0,0:0:0:70:SK_BD_04.wav
192,192,158921,1,0,0:0:0:70:LR_Drum Hit Drop High.wav
320,192,158921,1,0,0:0:0:0:
192,192,159244,1,0,0:0:0:70:LR_Tom Hit.wav
320,192,159405,1,0,0:0:0:70:LR_Drum Hit Drop High.wav
448,192,159405,1,0,0:0:0:0:
64,192,159486,1,0,0:0:0:70:LR_Drum Hit Drop High.wav
192,192,159486,1,0,0:0:0:0:
448,192,159567,1,0,0:0:0:70:LR_Tom Hit.wav
448,192,159647,1,0,0:0:0:70:LR_Tom Hit.wav
64,192,159728,1,0,0:0:0:70:LR_TomR2.wav
64,192,159809,1,0,0:0:0:70:LR_TomR2.wav
192,192,159889,1,0,0:0:0:70:LR_TomR2.wav
320,192,159889,1,0,0:0:0:70:LR_CymbalG.wav
448,192,159889,1,0,0:0:0:0:
64,192,160212,128,0,161018:0:0:0:70:LR_Drum Hit Clap Sn.wav
448,192,160212,1,0,0:0:0:0:
320,192,160373,128,0,161018:0:0:0:100:A#5S_Bb5S.wav
192,192,160534,1,0,0:0:0:70:SK_BD_04.wav
192,192,160696,1,0,0:0:0:70:SK_BD_04.wav
448,192,160857,1,0,0:0:0:70:LR_Drum Hit Clap Sn.wav
192,192,161018,1,0,0:0:0:70:SK_BD_04.wav
448,192,161018,128,0,161825:0:0:0:70:LR_CymbalQST.wav
192,192,161341,1,0,0:0:0:70:SK_BD_04.wav
64,192,161502,1,0,0:0:0:70:LR_Drum Hit Clap Sn.wav
320,192,161502,1,0,0:0:0:0:
64,192,161663,1,0,0:0:0:100:C#6S_Db6S.wav
192,192,161825,1,0,0:0:0:70:SK_BD_04.wav
320,192,161825,128,0,162309:0:0:0:0:
192,192,161986,1,0,0:0:0:70:SK_BD_04.wav
192,192,162147,128,0,162228:0:0:0:70:LR_Drum Hit Clap Sn.wav
448,192,162147,1,0,0:0:0:0:
64,192,162309,128,0,162631:0:0:0:70:SK_BD_04.wav
448,192,162309,128,0,162954:0:0:0:30:LR_CymbalRDW.wav
192,192,162631,1,0,0:0:0:70:SK_BD_04.wav
64,192,162792,1,0,0:0:0:70:LR_Snare Drum 2.wav
320,192,162792,1,0,0:0:0:0:
64,192,162954,128,0,163034:0:0:0:100:G#6S_Ab6S.wav
192,192,162994,128,0,163034:0:0:0:100:A#6S_Bb6S.wav
320,192,163115,1,0,0:0:0:70:LR_Snare Drum 2.wav
448,192,163115,1,0,0:0:0:0:
64,192,163276,1,0,0:0:0:70:SK_BD_04.wav
320,192,163438,1,0,0:0:0:70:LR_Snare Drum 2.wav
448,192,163438,1,0,0:0:0:0:
64,192,163599,1,0,0:0:0:70:SK_BD_04.wav
64,192,163760,128,0,165050:0:0:0:70:SK_BD_04.wav
192,192,163760,128,0,164889:0:0:0:70:LR_Drum Hit Clap Sn.wav
448,192,163760,128,0,164728:0:0:0:40:LR_CymbalRDW.wav
320,192,165050,1,0,0:0:0:0:
320,192,165373,1,0,0:0:0:0:
320,192,165696,1,0,0:0:0:0:
320,192,166018,128,0,166341:0:0:0:20:LR_CymbalRDW.wav
64,192,166341,128,0,166663:0:0:0:70:SK_BD_04.wav
192,192,166341,128,0,166502:0:0:0:70:LR_CymbalQST.wav
448,192,166341,1,0,0:0:0:100:B4S.wav
192,192,166663,1,0,0:0:0:70:LR_Drum Hit Clap Sn.wav
448,192,166663,1,0,0:0:0:0:
320,192,166825,128,0,166986:0:0:0:70:SK_BD_04.wav
448,192,166825,128,0,167147:0:0:0:70:LR_CymbalG.wav
64,192,167147,1,0,0:0:0:0:
192,192,167309,1,0,0:0:0:70:LR_Drum Hit Clap Sn.wav
320,192,167309,1,0,0:0:0:0:
64,192,167470,128,0,167631:0:0:0:70:SK_BD_04.wav
448,192,167470,128,0,167792:0:0:0:100:LR_CymbalQST.wav
192,192,167792,1,0,0:0:0:70:SK_BD_04.wav
64,192,167954,1,0,0:0:0:70:LR_Drum Hit Clap Sn.wav
320,192,167954,1,0,0:0:0:0:
320,192,168115,1,0,0:0:0:0:
192,192,168196,1,0,0:0:0:0:
64,192,168276,1,0,0:0:0:0:
192,192,168438,1,0,0:0:0:70:SK_BD_04.wav
320,192,168599,1,0,0:0:0:70:LR_Drum Hit Clap Sn.wav
448,192,168599,1,0,0:0:0:0:
64,192,168760,128,0,168814:0:0:0:100:F#6S_Gb6S.wav
320,192,168921,128,0,168975:0:0:0:70:SK_BD_04.wav
448,192,168921,128,0,169029:0:0:0:100:C#7S_Db7S.wav
192,192,169083,128,0,169136:0:0:0:100:B6S.wav
320,192,169163,1,0,0:0:0:70:SK_BD_04.wav
64,192,169244,128,0,169298:0:0:0:70:LR_Drum Hit Clap Sn.wav
448,192,169244,1,0,0:0:0:100:F#6S_Gb6S.wav
192,192,169405,128,0,169674:0:0:0:0:
320,192,169459,128,0,169889:0:0:0:0:
64,192,169567,128,0,169782:0:0:0:0:
448,192,169674,128,0,169997:0:0:0:0:
192,192,169782,128,0,170104:0:0:0:0:
64,192,169889,128,0,170104:0:0:0:70:LR_Drum Hit Clap Sn.wav
320,192,169997,128,0,170104:0:0:0:0:
448,192,170104,128,0,170212:0:0:0:0:
64,192,170212,1,0,0:0:0:70:SK_BD_04.wav
192,192,170212,1,0,0:0:0:50:LR_CymbalQST.wav
320,192,170212,128,0,170373:0:0:0:100:F6S.wav
192,192,170373,128,0,170534:0:0:0:100:F#6S_Gb6S.wav
64,192,170534,1,0,0:0:0:70:LR_Drum Hit Clap Sn.wav
448,192,170534,1,0,0:0:0:0:
192,192,170696,1,0,0:0:0:70:SK_BD_04.wav
320,192,170696,1,0,0:0:0:50:LR_CymbalG.wav
448,192,170696,128,0,171018:0:0:0:100:C#6S_Db6S.wav
64,192,171018,128,0,171179:0:0:0:70:SK_BD_04.wav
448,192,171179,128,0,171260:0:0:0:70:LR_Drum Hit Clap Sn.wav
64,192,171341,1,0,0:0:0:70:SK_BD_04.wav
192,192,171341,1,0,0:0:0:20:LR_CymbalRDW.wav
448,192,171341,128,0,172792:0:0:0:100:C#6S_Db6S.wav
64,192,171663,1,0,0:0:0:70:SK_BD_04.wav
192,192,171825,1,0,0:0:0:70:LR_Drum Hit Clap Sn.wav
320,192,171825,1,0,0:0:0:0:
192,192,171986,1,0,0:0:0:0:
320,192,172067,1,0,0:0:0:0:
64,192,172309,1,0,0:0:0:70:SK_BD_04.wav
192,192,172470,1,0,0:0:0:70:LR_Drum Hit Clap Sn.wav
320,192,172470,1,0,0:0:0:0:
64,192,172712,1,0,0:0:0:0:
320,192,172792,128,0,172954:0:0:0:70:SK_BD_04.wav
192,192,172954,1,0,0:0:0:100:G#5S_Ab5S.wav
448,192,172954,128,0,173034:0:0:0:0:
192,192,173034,1,0,0:0:0:70:SK_BD_04.wav
64,192,173115,1,0,0:0:0:70:LR_Drum Hit Clap Sn.wav
320,192,173115,1,0,0:0:0:0:
64,192,173276,128,0,173357:0:0:0:0:
192,192,173438,1,0,0:0:0:20:LR_CymbalRDW.wav
448,192,173438,128,0,173599:0:0:0:100:C#6S_Db6S.wav
64,192,173599,1,0,0:0:0:0:
192,192,173679,1,0,0:0:0:0:
320,192,173760,1,0,0:0:0:70:LR_Drum Hit Drop High.wav
448,192,173760,1,0,0:0:0:0:
64,192,173841,1,0,0:0:0:70:LR_Drum Hit Drop High.wav
192,192,173841,1,0,0:0:0:0:
320,192,173921,1,0,0:0:0:70:LR_Tom Hit.wav
320,192,174002,1,0,0:0:0:70:LR_Tom Hit.wav
64,192,174083,1,0,0:0:0:70:LR_TomR2.wav
192,192,174083,1,0,0:0:0:50:LR_CymbalQST.wav
448,192,174083,1,0,0:0:0:0:
192,192,174244,128,0,174325:0:0:0:100:G#5S_Ab5S.wav
320,192,174264,128,0,174325:0:0:0:100:C#6S_Db6S.wav
448,192,174284,128,0,174325:0:0:0:100:F#6S_Gb6S.wav
64,192,174405,1,0,0:0:0:70:LR_Drum Hit Clap Sn.wav
192,192,174405,1,0,0:0:0:0:
64,192,174567,128,0,174889:0:0:0:70:SK_BD_04.wav
192,192,174587,128,0,174869:0:0:0:100:C#5S_Db5S.wav
320,192,174607,128,0,174849:0:0:0:100:F#5S_Gb5S.wav
448,192,174889,1,0,0:0:0:70:SK_BD_04.wav
192,192,175050,1,0,0:0:0:70:LR_Drum Hit Clap Sn.wav
448,192,175050,1,0,0:0:0:0:
448,192,175212,128,0,175534:0:0:0:50:LR_CymbalQST.wav
320,192,175232,128,0,175514:0:0:0:100:C#5S_Db5S.wav
64,192,175252,128,0,175494:0:0:0:100:F#5S_Gb5S.wav
192,192,175534,1,0,0:0:0:70:SK_BD_04.wav
64,192,175696,1,0,0:0:0:70:LR_Drum Hit Clap Sn.wav
320,192,175696,128,0,176018:0:0:0:100:B3S.wav
64,192,175857,128,0,176018:0:0:0:100:B2S.wav
448,192,175938,1,0,0:0:0:0:
192,192,176126,128,0,176179:0:0:0:100:G#5S_Ab5S.wav
64,192,176179,1,0,0:0:0:70:SK_BD_04.wav
320,192,176233,128,0,176287:0:0:0:100:C#6S_Db6S.wav
192,192,176341,1,0,0:0:0:70:LR_Drum Hit Clap Sn.wav
448,192,176341,128,0,176395:0:0:0:100:F#6S_Gb6S.wav
64,192,176448,128,0,176502:0:0:0:100:G#6S_Ab6S.wav
192,192,176556,128,0,176610:0:0:0:100:C#7S_Db7S.wav
64,192,176663,128,0,176717:0:0:0:70:SK_BD_04.wav
448,192,176663,128,0,176717:0:0:0:100:A#6S_Bb6S.wav
320,192,176771,128,0,176825:0:0:0:100:B6S.wav
64,192,176878,128,0,176932:0:0:0:100:F#6S_Gb6S.wav
448,192,176905,1,0,0:0:0:70:SK_BD_04.wav
192,192,176986,128,0,177040:0:0:0:70:LR_Drum Hit Clap Sn.wav
320,192,176986,1,0,0:0:0:100:C#6S_Db6S.wav
448,192,177093,128,0,177147:0:0:0:100:D#6S_Eb6S.wav
192,192,177147,128,0,177309:0:0:0:0:
64,192,177309,128,0,177362:0:0:0:100:A#5S_Bb5S.wav
320,192,177309,128,0,177362:0:0:0:100:F#6S_Gb6S.wav
192,192,177416,128,0,177470:0:0:0:100:B5S.wav
448,192,177470,1,0,0:0:0:70:SK_BD_04.wav
64,192,177524,128,0,177577:0:0:0:100:F#5S_Gb5S.wav
192,192,177631,1,0,0:0:0:70:LR_Drum Hit Clap Sn.wav
320,192,177631,128,0,177685:0:0:0:100:C#5S_Db5S.wav
448,192,177846,128,0,177954:0:0:0:100:D#6S_Eb6S.wav
320,192,177900,128,0,177954:0:0:0:100:E6S.wav
64,192,177954,128,0,178115:0:0:0:70:SK_BD_04.wav
192,192,177954,1,0,0:0:0:50:LR_CymbalQST.wav
192,192,178115,128,0,178276:0:0:0:100:F#6S_Gb6S.wav
64,192,178276,128,0,178438:0:0:0:70:LR_Drum Hit Clap Sn.wav
448,192,178276,1,0,0:0:0:100:F6S.wav
192,192,178438,1,0,0:0:0:70:SK_BD_04.wav
320,192,178438,1,0,0:0:0:50:LR_CymbalG.wav
448,192,178438,128,0,178760:0:0:0:100:C#6S_Db6S.wav
64,192,178760,128,0,178841:0:0:0:70:LR_Drum Hit Clap Sn.wav
320,192,178760,1,0,0:0:0:100:F#5S_Gb5S.wav
192,192,178921,1,0,0:0:0:0:
64,192,179083,1,0,0:0:0:70:SK_BD_04.wav
192,192,179083,128,0,181825:0:0:0:50:LR_CymbalQST.wav
320,192,179083,128,0,179405:0:0:0:100:G#5S_Ab5S.wav
448,192,179083,1,0,0:0:0:100:C#6S_Db6S.wav
448,192,179405,1,0,0:0:0:0:
64,192,179567,1,0,0:0:0:0:
320,192,179728,1,0,0:0:0:0:
448,192,180050,1,0,0:0:0:0:
64,192,180212,1,0,0:0:0:0:
448,192,180373,1,0,0:0:0:0:
64,192,180534,1,0,0:0:0:0:
448,192,180696,1,0,0:0:0:0:
64,192,180857,1,0,0:0:0:0:
320,192,181018,1,0,0:0:0:0:
448,192,181341,1,0,0:0:0:0:
320,192,181502,1,0,0:0:0:0:
448,192,181663,1,0,0:0:0:0:
64,192,181825,128,0,183115:0:0:0:0:
448,192,181986,1,0,0:0:0:0:
192,192,182147,1,0,0:0:0:0:
320,192,182309,1,0,0:0:0:0:
192,192,182631,1,0,0:0:0:0:
448,192,182792,1,0,0:0:0:0:
192,192,182954,1,0,0:0:0:0:
448,192,183115,1,0,0:0:0:0:
320,192,183276,1,0,0:0:0:0:
448,192,183438,1,0,0:0:0:0:
64,192,183599,1,0,0:0:0:0:
320,192,183921,1,0,0:0:0:0:
64,192,184083,1,0,0:0:0:0:
192,192,184244,1,0,0:0:0:0:
64,192,184405,1,0,0:0:0:0:
320,192,184567,1,0,0:0:0:0:
192,192,184728,1,0,0:0:0:0:
448,192,184889,1,0,0:0:0:0:
192,192,185050,1,0,0:0:0:0:
192,192,185212,1,0,0:0:0:0:
320,192,185373,1,0,0:0:0:0:
448,192,185534,1,0,0:0:0:0:
448,192,185696,1,0,0:0:0:0:
320,192,185857,1,0,0:0:0:0:
192,192,186018,1,0,0:0:0:0:
64,192,186179,1,0,0:0:0:0:
64,192,186341,1,0,0:0:0:0:
192,192,186502,1,0,0:0:0:0:
320,192,186663,1,0,0:0:0:0:
448,192,186825,1,0,0:0:0:0:
64,192,186986,1,0,0:0:0:30:SK_BD_04.wav
448,192,186986,1,0,0:0:0:0:
320,192,187147,1,0,0:0:0:30:SK_BD_04.wav
448,192,187147,1,0,0:0:0:0:
192,192,187309,1,0,0:0:0:30:SK_BD_04.wav
320,192,187309,1,0,0:0:0:0:
64,192,187470,1,0,0:0:0:30:SK_BD_04.wav
192,192,187470,1,0,0:0:0:0:
64,192,187631,1,0,0:0:0:40:SK_BD_04.wav
448,192,187631,1,0,0:0:0:0:
64,192,187792,1,0,0:0:0:40:SK_BD_04.wav
192,192,187792,1,0,0:0:0:0:
192,192,187954,1,0,0:0:0:40:SK_BD_04.wav
320,192,187954,1,0,0:0:0:0:
320,192,188115,1,0,0:0:0:40:SK_BD_04.wav
448,192,188115,1,0,0:0:0:0:
64,192,188276,1,0,0:0:0:50:SK_BD_04.wav
448,192,188276,1,0,0:0:0:0:
320,192,188438,1,0,0:0:0:50:SK_BD_04.wav
448,192,188438,1,0,0:0:0:0:
192,192,188599,1,0,0:0:0:50:SK_BD_04.wav
320,192,188599,1,0,0:0:0:0:
64,192,188760,1,0,0:0:0:50:SK_BD_04.wav
192,192,188760,1,0,0:0:0:0:
192,192,188921,1,0,0:0:0:70:SK_BD_04.wav
320,192,188921,1,0,0:0:0:0:
64,192,189083,1,0,0:0:0:60:LR_Drum Hit Drop High.wav
192,192,189083,1,0,0:0:0:0:
448,192,189083,128,0,189486:0:0:0:0:
64,192,189244,1,0,0:0:0:65:LR_Drum Hit Drop High.wav
320,192,189244,128,0,189486:0:0:0:0:
64,192,189405,128,0,189486:0:0:0:70:LR_Drum Hit Drop High.wav
192,192,189405,1,0,0:0:0:0:
64,192,189567,1,0,0:0:0:70:LR_CymbalQST.wav
320,192,189567,1,0,0:0:0:100:A#3S_Bb3S.wav
448,192,189567,128,0,191663:0:0:0:0:
320,192,189728,1,0,0:0:0:70:SK_BD_04.wav
192,192,189809,1,0,0:0:0:70:SK_BD_04.wav
64,192,189889,1,0,0:0:0:70:SK_BD_04.wav
192,192,190050,1,0,0:0:0:70:LR_CymbalG.wav
320,192,190050,1,0,0:0:0:100:A#3S_Bb3S.wav
64,192,190373,1,0,0:0:0:70:SK_BD_04.wav
192,192,190454,1,0,0:0:0:70:SK_BD_04.wav
320,192,190534,1,0,0:0:0:70:SK_BD_04.wav
64,192,190696,1,0,0:0:0:70:LR_Drum Hit Drop High.wav
192,192,190696,1,0,0:0:0:70:LR_CymbalQST.wav
320,192,190696,1,0,0:0:0:100:B3S.wav
320,192,191018,1,0,0:0:0:70:SK_BD_04.wav
192,192,191099,1,0,0:0:0:70:SK_BD_04.wav
64,192,191179,1,0,0:0:0:70:SK_BD_04.wav
192,192,191341,1,0,0:0:0:70:LR_CymbalG.wav
320,192,191341,1,0,0:0:0:100:C#4S_Db4S.wav
320,192,191663,128,0,191744:0:0:0:70:SK_BD_04.wav
192,192,191744,128,0,191825:0:0:0:70:SK_BD_04.wav
64,192,191825,128,0,191905:0:0:0:70:SK_BD_04.wav
320,192,191825,1,0,0:0:0:70:LR_Drum Hit Drop High.wav
448,192,191825,1,0,0:0:0:70:LR_CymbalQST.wav
192,192,191986,1,0,0:0:0:70:SK_BD_04.wav
448,192,191986,1,0,0:0:0:0:
192,192,192067,1,0,0:0:0:70:SK_BD_04.wav
64,192,192147,1,0,0:0:0:70:LR_CymbalG.wav
320,192,192147,1,0,0:0:0:100:A#3S_Bb3S.wav
192,192,192309,1,0,0:0:0:70:SK_BD_04.wav
320,192,192470,1,0,0:0:0:70:SK_BD_04.wav
64,192,192631,1,0,0:0:0:70:LR_Drum Hit Drop High.wav
192,192,192631,1,0,0:0:0:70:LR_CymbalQST.wav
448,192,192631,1,0,0:0:0:100:A#3S_Bb3S.wav
448,192,192954,1,0,0:0:0:70:SK_BD_04.wav
320,192,193034,1,0,0:0:0:70:SK_BD_04.wav
192,192,193115,1,0,0:0:0:70:SK_BD_04.wav
64,192,193276,1,0,0:0:0:70:LR_Drum Hit Drop High.wav
320,192,193276,1,0,0:0:0:70:LR_CymbalG.wav
448,192,193276,1,0,0:0:0:100:B3S.wav
320,192,193599,1,0,0:0:0:70:SK_BD_04.wav
192,192,193679,1,0,0:0:0:70:SK_BD_04.wav
64,192,193760,1,0,0:0:0:70:SK_BD_04.wav
192,192,193921,1,0,0:0:0:70:LR_Drum Hit Drop High.wav
320,192,193921,1,0,0:0:0:70:LR_CymbalG.wav
448,192,193921,128,0,194244:0:0:0:100:C#4S_Db4S.wav
64,192,194244,1,0,0:0:0:70:LR_Snare Drum 2.wav
192,192,194244,1,0,0:0:0:0:
320,192,194325,1,0,0:0:0:70:LR_Snare Drum 2.wav
448,192,194325,1,0,0:0:0:0:
64,192,194405,1,0,0:0:0:70:LR_Snare Drum 2.wav
192,192,194405,1,0,0:0:0:0:
320,192,194486,1,0,0:0:0:70:LR_Snare Drum 2.wav
448,192,194486,1,0,0:0:0:0:
64,192,194567,1,0,0:0:0:70:LR_Snare Drum 2.wav
192,192,194567,1,0,0:0:0:0:
320,192,194647,1,0,0:0:0:70:LR_Snare Drum 2.wav
448,192,194647,1,0,0:0:0:0:
64,192,194728,1,0,0:0:0:70:SK_BD_04.wav
192,192,194728,128,0,194889:0:0:0:70:LR_CymbalQST.wav
448,192,194728,1,0,0:0:0:100:G#6S_Ab6S.wav
64,192,195050,1,0,0:0:0:70:LR_Drum Hit Clap Sn.wav
320,192,195050,1,0,0:0:0:70:LR_CymbalQST.wav
448,192,195050,1,0,0:0:0:0:
192,192,195212,128,0,195373:0:0:0:100:G#6S_Ab6S.wav
64,192,195534,1,0,0:0:0:70:SK_BD_04.wav
320,192,195534,1,0,0:0:0:0:
64,192,195696,1,0,0:0:0:0:
192,192,195857,128,0,196018:0:0:0:70:LR_Drum Hit Clap Sn.wav
448,192,195857,1,0,0:0:0:100:G#6S_Ab6S.wav
192,192,196179,128,0,196341:0:0:0:70:SK_BD_04.wav
320,192,196179,1,0,0:0:0:100:G#6S_Ab6S.wav
64,192,196341,128,0,196502:0:0:0:70:LR_Drum Hit Clap Sn.wav
448,192,196341,1,0,0:0:0:100:F#6S_Gb6S.wav
320,192,196502,128,0,196663:0:0:0:100:G#6S_Ab6S.wav
448,192,196663,128,0,196825:0:0:0:100:A#6S_Bb6S.wav
64,192,196744,1,0,0:0:0:70:LR_Drum Hit Clap Sn.wav
192,192,196825,128,0,196986:0:0:0:70:SK_BD_04.wav
320,192,196825,1,0,0:0:0:100:F#6S_Gb6S.wav
64,192,196986,1,0,0:0:0:70:LR_Drum Hit Clap Sn.wav
320,192,196986,128,0,197147:0:0:0:70:LR_CymbalQST.wav
448,192,196986,1,0,0:0:0:100:G#6S_Ab6S.wav
64,192,197228,1,0,0:0:0:70:LR_Drum Hit Clap Sn.wav
192,192,197309,1,0,0:0:0:70:SK_BD_04.wav
320,192,197309,1,0,0:0:0:70:LR_CymbalQST.wav
448,192,197309,128,0,197470:0:0:0:100:G#6S_Ab6S.wav
64,192,197631,1,0,0:0:0:70:LR_Drum Hit Clap Sn.wav
320,192,197631,1,0,0:0:0:70:LR_CymbalQST.wav
448,192,197792,128,0,197954:0:0:0:100:G#6S_Ab6S.wav
192,192,198115,1,0,0:0:0:70:SK_BD_04.wav
320,192,198115,1,0,0:0:0:0:
192,192,198276,1,0,0:0:0:0:
64,192,198438,1,0,0:0:0:70:LR_Drum Hit Clap Sn.wav
448,192,198438,128,0,198599:0:0:0:100:G#6S_Ab6S.wav
64,192,198760,1,0,0:0:0:70:SK_BD_04.wav
448,192,198760,128,0,198921:0:0:0:100:G#6S_Ab6S.wav
192,192,198921,1,0,0:0:0:70:LR_Drum Hit Clap Sn.wav
320,192,198921,128,0,199083:0:0:0:100:F#6S_Gb6S.wav
448,192,199083,128,0,199244:0:0:0:100:G#6S_Ab6S.wav
64,192,199244,128,0,199405:0:0:0:100:C#7S_Db7S.wav
192,192,199325,1,0,0:0:0:70:LR_Drum Hit Clap Sn.wav
320,192,199405,128,0,199567:0:0:0:70:SK_BD_04.wav
448,192,199405,1,0,0:0:0:100:F#6S_Gb6S.wav
64,192,199567,1,0,0:0:0:70:LR_Drum Hit Clap Sn.wav
192,192,199567,128,0,199728:0:0:0:70:LR_CymbalQST.wav
448,192,199567,1,0,0:0:0:100:G#6S_Ab6S.wav
320,192,199809,1,0,0:0:0:70:LR_Drum Hit Clap Sn.wav
64,192,199889,1,0,0:0:0:70:SK_BD_04.wav
192,192,199889,1,0,0:0:0:70:LR_CymbalQST.wav
448,192,199889,128,0,199970:0:0:0:0:
448,192,200050,128,0,200131:0:0:0:0:
64,192,200212,1,0,0:0:0:70:LR_Drum Hit Clap Sn.wav
448,192,200212,128,0,200292:0:0:0:0:
192,192,200373,128,0,200454:0:0:0:0:
192,192,200534,128,0,200615:0:0:0:0:
192,192,200696,128,0,200776:0:0:0:70:SK_BD_04.wav
448,192,200696,1,0,0:0:0:0:
192,192,200857,128,0,200938:0:0:0:0:
64,192,201018,128,0,201099:0:0:0:70:LR_Drum Hit Clap Sn.wav
320,192,201018,1,0,0:0:0:0:
64,192,201179,128,0,201260:0:0:0:0:
64,192,201341,128,0,201421:0:0:0:70:SK_BD_04.wav
448,192,201341,1,0,0:0:0:0:
64,192,201502,128,0,201583:0:0:0:70:LR_Drum Hit Clap Sn.wav
192,192,201502,1,0,0:0:0:0:
320,192,201663,128,0,201744:0:0:0:0:
320,192,201825,128,0,201905:0:0:0:0:
192,192,201905,1,0,0:0:0:70:LR_Drum Hit Clap Sn.wav
64,192,201986,1,0,0:0:0:70:SK_BD_04.wav
320,192,201986,128,0,202067:0:0:0:0:
192,192,202147,128,0,202228:0:0:0:70:LR_Drum Hit Clap Sn.wav
448,192,202147,1,0,0:0:0:0:
192,192,202309,128,0,202389:0:0:0:0:
320,192,202389,1,0,0:0:0:70:LR_Drum Hit Clap Sn.wav
64,192,202470,128,0,202550:0:0:0:70:SK_BD_04.wav
448,192,202470,1,0,0:0:0:0:
64,192,202631,128,0,202712:0:0:0:0:
64,192,202792,128,0,202873:0:0:0:70:LR_Drum Hit Clap Sn.wav
448,192,202792,1,0,0:0:0:0:
320,192,202954,128,0,203034:0:0:0:0:
320,192,203115,128,0,203196:0:0:0:0:
64,192,203276,1,0,0:0:0:70:SK_BD_04.wav
320,192,203276,128,0,203357:0:0:0:0:
320,192,203438,128,0,203518:0:0:0:0:
192,192,203599,1,0,0:0:0:70:LR_Drum Hit Clap Sn.wav
448,192,203599,128,0,203679:0:0:0:0:
448,192,203760,128,0,203841:0:0:0:0:
64,192,203921,1,0,0:0:0:70:SK_BD_04.wav
448,192,203921,128,0,204002:0:0:0:0:
192,192,204083,1,0,0:0:0:70:LR_Drum Hit Clap Sn.wav
320,192,204083,1,0,0:0:0:0:
448,192,204083,128,0,204163:0:0:0:0:
64,192,204244,128,0,204325:0:0:0:0:
64,192,204405,128,0,204486:0:0:0:70:LR_Tom Hit.wav
320,192,204405,1,0,0:0:0:0:
64,192,204567,128,0,204647:0:0:0:70:LR_Drum Hit Drop High.wav
448,192,204567,1,0,0:0:0:0:
192,192,204647,1,0,0:0:0:70:LR_Drum Hit Drop High.wav
320,192,204647,1,0,0:0:0:0:
448,192,204728,1,0,0:0:0:70:LR_Tom Hit.wav
320,192,204809,1,0,0:0:0:70:LR_Tom Hit.wav
192,192,204889,1,0,0:0:0:70:LR_TomR2.wav
448,192,204889,128,0,204970:0:0:0:0:
64,192,204970,1,0,0:0:0:70:LR_TomR2.wav
192,192,205050,1,0,0:0:0:70:SK_BD_04.wav
320,192,205050,128,0,205373:0:0:0:70:LR_CymbalG.wav
448,192,205050,1,0,0:0:0:0:
64,192,205373,128,0,205534:0:0:0:70:LR_Drum Hit Clap Sn.wav
192,192,205373,1,0,0:0:0:70:LR_CymbalQST.wav
448,192,205373,1,0,0:0:0:0:
320,192,205534,128,0,206018:0:0:0:0:
448,192,205696,1,0,0:0:0:0:
64,192,205857,1,0,0:0:0:70:SK_BD_04.wav
192,192,205857,1,0,0:0:0:0:
448,192,206018,128,0,206179:0:0:0:0:
64,192,206179,1,0,0:0:0:70:LR_Drum Hit Clap Sn.wav
192,192,206179,128,0,207631:0:0:0:0:
320,192,206341,1,0,0:0:0:0:
64,192,206421,1,0,0:0:0:0:
320,192,206502,1,0,0:0:0:70:SK_BD_04.wav
448,192,206502,1,0,0:0:0:0:
64,192,206663,1,0,0:0:0:70:LR_Drum Hit Clap Sn.wav
448,192,206663,1,0,0:0:0:0:
320,192,206825,1,0,0:0:0:0:
64,192,206986,1,0,0:0:0:0:
448,192,207067,1,0,0:0:0:70:LR_Drum Hit Clap Sn.wav
64,192,207147,1,0,0:0:0:70:SK_BD_04.wav
320,192,207147,1,0,0:0:0:0:
320,192,207309,1,0,0:0:0:70:LR_Drum Hit Clap Sn.wav
448,192,207309,1,0,0:0:0:0:
64,192,207470,1,0,0:0:0:0:
320,192,207550,1,0,0:0:0:70:LR_Drum Hit Clap Sn.wav
448,192,207631,128,0,207739:0:0:0:70:SK_BD_04.wav
192,192,207712,128,0,207819:0:0:0:0:
320,192,207792,128,0,207900:0:0:0:0:
64,192,207873,128,0,207981:0:0:0:0:
192,192,207954,128,0,208061:0:0:0:70:LR_Drum Hit Clap Sn.wav
320,192,207954,1,0,0:0:0:0:
64,192,208034,128,0,208142:0:0:0:0:
448,192,208115,128,0,208223:0:0:0:0:
192,192,208196,128,0,208303:0:0:0:0:
320,192,208276,128,0,208384:0:0:0:0:
64,192,208357,128,0,208464:0:0:0:0:
192,192,208438,128,0,208545:0:0:0:70:SK_BD_04.wav
448,192,208438,1,0,0:0:0:0:
64,192,208518,128,0,208626:0:0:0:0:
448,192,208599,128,0,208706:0:0:0:0:
320,192,208679,128,0,208787:0:0:0:0:
64,192,208760,1,0,0:0:0:70:LR_Drum Hit Clap Sn.wav
192,192,208760,1,0,0:0:0:70:LR_CymbalG.wav
448,192,208760,128,0,208868:0:0:0:0:
64,192,208921,128,0,209029:0:0:0:0:
320,192,209002,128,0,209110:0:0:0:0:
448,192,209083,128,0,209190:0:0:0:70:SK_BD_04.wav
192,192,209163,128,0,209244:0:0:0:0:
320,192,209244,1,0,0:0:0:70:LR_Drum Hit Clap Sn.wav
448,192,209244,1,0,0:0:0:0:
64,192,209352,1,0,0:0:0:70:LR_Drum Hit Clap Sn.wav
192,192,209352,1,0,0:0:0:0:
320,192,209459,1,0,0:0:0:70:LR_Drum Hit Clap Sn.wav
448,192,209459,1,0,0:0:0:0:
192,192,209567,1,0,0:0:0:70:LR_Tom Hit.wav
64,192,209674,1,0,0:0:0:70:LR_Drum Hit Drop High.wav
320,192,209782,1,0,0:0:0:70:LR_Drum Hit Drop High.wav
448,192,209782,1,0,0:0:0:0:
192,192,209889,1,0,0:0:0:70:LR_TomR2.wav
320,192,209997,1,0,0:0:0:70:LR_Drum Hit Drop High.wav
448,192,209997,1,0,0:0:0:0:
64,192,210104,1,0,0:0:0:70:LR_Drum Hit Drop High.wav
192,192,210104,1,0,0:0:0:0:
64,192,210212,1,0,0:0:0:70:SK_BD_04.wav
320,192,210212,1,0,0:0:0:70:LR_CymbalG.wav
448,192,210212,1,0,0:0:0:0:
448,192,210534,1,0,0:0:0:45:LR_Clap Fast Low.wav
320,192,210696,128,0,210817:0:0:0:0:
448,192,210857,1,0,0:0:0:45:LR_Clap Fast Low.wav
192,192,211018,128,0,211260:0:0:0:0:
448,192,211179,1,0,0:0:0:45:LR_Clap Fast Low.wav
192,192,211341,128,0,211583:0:0:0:0:
448,192,211502,1,0,0:0:0:45:LR_Clap Fast Low.wav
64,192,211663,128,0,211784:0:0:0:0:
320,192,211825,128,0,211946:0:0:0:45:LR_Clap Fast Low.wav
448,192,211825,1,0,0:0:0:0:
192,192,211986,128,0,212107:0:0:0:0:
448,192,212147,1,0,0:0:0:45:LR_Clap Fast Low.wav
64,192,212309,128,0,212470:0:0:0:0:
320,192,212309,128,0,212429:0:0:0:0:
192,192,212470,128,0,212631:0:0:0:45:LR_Clap Fast Low.wav
448,192,212470,1,0,0:0:0:0:
320,192,212792,128,0,212954:0:0:0:45:LR_Clap Fast Low.wav
448,192,212792,1,0,0:0:0:0:
192,192,213115,128,0,213196:0:0:0:45:LR_Clap Fast Low.wav
448,192,213115,1,0,0:0:0:0:
64,192,213276,128,0,213518:0:0:0:0:
448,192,213438,1,0,0:0:0:45:LR_Clap Fast Low.wav
320,192,213599,128,0,213760:0:0:0:0:
448,192,213760,1,0,0:0:0:45:LR_Clap Fast Low.wav
64,192,213921,128,0,214405:0:0:0:0:
192,192,213921,128,0,214002:0:0:0:0:
448,192,214083,1,0,0:0:0:45:LR_Clap Fast Low.wav
320,192,214244,128,0,214325:0:0:0:0:
192,192,214405,128,0,214486:0:0:0:45:LR_Clap Fast Low.wav
448,192,214405,1,0,0:0:0:0:
192,192,214567,1,0,0:0:0:70:SK_BD_04.wav
320,192,214647,1,0,0:0:0:70:SK_BD_04.wav
64,192,214728,1,0,0:0:0:70:LR_Drum Hit Drop High.wav
448,192,214728,1,0,0:0:0:0:
192,192,214889,1,0,0:0:0:70:SK_BD_04.wav
64,192,215050,1,0,0:0:0:70:LR_Drum Hit Drop High.wav
320,192,215050,1,0,0:0:0:40:LR_CymbalRDW.wav
448,192,215050,128,0,215373:0:0:0:0:
64,192,215373,128,0,215615:0:0:0:40:LR_TomR2.wav
192,192,215373,128,0,216421:0:0:0:70:LR_CymbalG.wav
320,192,215373,128,0,216341:0:0:0:100:F#5S_Gb5S.wav
64,192,215696,128,0,215938:0:0:0:70:SK_BD_04.wav
64,192,216018,128,0,216260:0:0:0:70:SK_BD_04.wav
64,192,216341,128,0,216502:0:0:0:70:SK_BD_04.wav
192,192,216502,128,0,217792:0:0:0:0:
320,192,216583,128,0,217712:0:0:0:0:
448,192,216663,128,0,216905:0:0:0:70:SK_BD_04.wav
448,192,216986,128,0,217228:0:0:0:70:SK_BD_04.wav
448,192,217309,128,0,217550:0:0:0:70:SK_BD_04.wav
448,192,217631,128,0,217792:0:0:0:70:SK_BD_04.wav
64,192,217792,1,0,0:0:0:60:LR_Drum Hit Drop High.wav
320,192,217792,1,0,0:0:0:0:
64,192,217954,1,0,0:0:0:70:LR_Snare Drum 2.wav
320,192,217954,1,0,0:0:0:30:LR_CymbalRDW.wav
192,192,218115,1,0,0:0:0:0:
320,192,218276,1,0,0:0:0:70:SK_BD_04.wav
448,192,218276,1,0,0:0:0:0:
64,192,218438,1,0,0:0:0:0:
192,192,218599,1,0,0:0:0:70:SK_BD_04.wav
448,192,218599,1,0,0:0:0:100:A#5S_Bb5S.wav
320,192,218760,1,0,0:0:0:0:
64,192,218921,1,0,0:0:0:70:SK_BD_04.wav
192,192,218921,1,0,0:0:0:0:
448,192,219083,1,0,0:0:0:0:
64,192,219244,1,0,0:0:0:70:SK_BD_04.wav
320,192,219244,1,0,0:0:0:100:D#5S_Eb5S.wav
192,192,219405,1,0,0:0:0:0:
64,192,219567,1,0,0:0:0:70:SK_BD_04.wav
320,192,219567,1,0,0:0:0:0:
448,192,219728,1,0,0:0:0:0:
64,192,219889,1,0,0:0:0:70:SK_BD_04.wav
448,192,219889,128,0,220050:0:0:0:40:LR_CymbalG.wav
320,192,220050,1,0,0:0:0:0:
64,192,220212,128,0,220373:0:0:0:70:SK_BD_04.wav
448,192,220212,1,0,0:0:0:100:F5S.wav
192,192,220373,1,0,0:0:0:0:
192,192,220534,128,0,220857:0:0:0:70:SK_BD_04.wav
320,192,220534,128,0,220803:0:0:0:40:LR_CymbalQST.wav
448,192,220534,128,0,220749:0:0:0:100:A#5S_Bb5S.wav
64,192,220857,1,0,0:0:0:70:SK_BD_04.wav
448,192,220857,1,0,0:0:0:0:
192,192,221018,1,0,0:0:0:0:
64,192,221179,1,0,0:0:0:70:SK_BD_04.wav
448,192,221179,1,0,0:0:0:0:
320,192,221341,1,0,0:0:0:0:
64,192,221502,1,0,0:0:0:70:SK_BD_04.wav
448,192,221502,1,0,0:0:0:0:
192,192,221663,1,0,0:0:0:0:
64,192,221825,1,0,0:0:0:70:SK_BD_04.wav
320,192,221825,1,0,0:0:0:0:
192,192,221986,1,0,0:0:0:0:
320,192,222147,1,0,0:0:0:70:SK_BD_04.wav
448,192,222147,1,0,0:0:0:0:
192,192,222255,1,0,0:0:0:100:F6S.wav
64,192,222309,1,0,0:0:0:70:LR_Snare Drum 2.wav
320,192,222470,1,0,0:0:0:70:SK_BD_04.wav
448,192,222470,1,0,0:0:0:0:
64,192,222577,1,0,0:0:0:100:A#5S_Bb5S.wav
192,192,222631,1,0,0:0:0:70:LR_Snare Drum 2.wav
320,192,222631,1,0,0:0:0:0:
448,192,222685,1,0,0:0:0:100:F6S.wav
64,192,222792,1,0,0:0:0:70:SK_BD_04.wav
192,192,222792,1,0,0:0:0:100:A#5S_Bb5S.wav
448,192,222900,1,0,0:0:0:100:A#5S_Bb5S.wav
192,192,222954,1,0,0:0:0:70:LR_Snare Drum 2.wav
320,192,222954,1,0,0:0:0:0:
64,192,223007,1,0,0:0:0:100:A#6S_Bb6S.wav
192,192,223115,1,0,0:0:0:70:SK_BD_04.wav
320,192,223115,1,0,0:0:0:70:LR_Drum Hit Clap Sn.wav
448,192,223115,1,0,0:0:0:100:A#7S_Bb7S.wav
64,192,224405,128,0,224728:0:0:0:60:LR_TomR2.wav
192,192,224405,1,0,0:0:0:30:LR_CymbalRDW.wav
320,192,224405,1,0,0:0:0:0:
448,192,224405,1,0,0:0:0:0:
192,192,224567,128,0,224889:0:0:0:0:
320,192,224728,128,0,225050:0:0:0:0:
448,192,224889,128,0,225212:0:0:0:0:
64,192,225050,128,0,225212:0:0:0:0:
192,192,225131,128,0,225292:0:0:0:0:
320,192,225212,128,0,225373:0:0:0:0:
448,192,225292,128,0,225454:0:0:0:0:
64,192,225373,128,0,225534:0:0:0:0:
192,192,225454,128,0,225615:0:0:0:0:
320,192,225534,128,0,225696:0:0:0:0:
448,192,225615,128,0,225696:0:0:0:0:
64,192,225696,128,0,226663:0:0:0:70:SK_BD_04.wav
192,192,225696,1,0,0:0:0:70:LR_CymbalQST.wav
192,192,226018,1,0,0:0:0:70:LR_Drum Hit Clap Sn.wav
448,192,226018,1,0,0:0:0:0:
448,192,226260,1,0,0:0:0:70:SK_BD_04.wav
320,192,226341,1,0,0:0:0:70:SK_BD_04.wav
320,192,226502,1,0,0:0:0:70:SK_BD_04.wav
192,192,226663,128,0,226825:0:0:0:70:LR_Drum Hit Clap Sn.wav
448,192,226663,1,0,0:0:0:0:
320,192,226825,1,0,0:0:0:70:SK_BD_04.wav
448,192,226825,128,0,227631:0:0:0:100:E5S.wav
192,192,227147,1,0,0:0:0:70:SK_BD_04.wav
64,192,227309,1,0,0:0:0:70:LR_Drum Hit Clap Sn.wav
320,192,227309,1,0,0:0:0:0:
64,192,227550,1,0,0:0:0:70:SK_BD_04.wav
192,192,227631,1,0,0:0:0:70:SK_BD_04.wav
192,192,227792,1,0,0:0:0:70:SK_BD_04.wav
64,192,227954,1,0,0:0:0:70:LR_Drum Hit Clap Sn.wav
192,192,227954,128,0,228276:0:0:0:100:E5S.wav
448,192,227954,1,0,0:0:0:100:B5S.wav
320,192,228276,128,0,229083:0:0:0:70:SK_BD_04.wav
448,192,228276,1,0,0:0:0:100:D5S.wav
64,192,228599,1,0,0:0:0:70:LR_Drum Hit Clap Sn.wav
192,192,228599,1,0,0:0:0:0:
64,192,228841,1,0,0:0:0:70:SK_BD_04.wav
192,192,228921,1,0,0:0:0:70:SK_BD_04.wav
448,192,229083,128,0,229163:0:0:0:70:SK_BD_04.wav
64,192,229244,128,0,229325:0:0:0:70:LR_Drum Hit Clap Sn.wav
320,192,229244,1,0,0:0:0:0:
192,192,229405,128,0,229567:0:0:0:70:SK_BD_04.wav
448,192,229405,1,0,0:0:0:100:F#6S_Gb6S.wav
320,192,229567,1,0,0:0:0:100:F#6S_Gb6S.wav
448,192,229567,1,0,0:0:0:100:B6S.wav
192,192,229728,1,0,0:0:0:70:SK_BD_04.wav
448,192,229728,1,0,0:0:0:100:F#6S_Gb6S.wav
64,192,229889,1,0,0:0:0:70:LR_Drum Hit Clap Sn.wav
320,192,229889,1,0,0:0:0:100:F#6S_Gb6S.wav
448,192,229889,1,0,0:0:0:100:B6S.wav
64,192,230050,1,0,0:0:0:100:F#6S_Gb6S.wav
448,192,230050,1,0,0:0:0:70:D7S.wav
192,192,230131,1,0,0:0:0:70:SK_BD_04.wav
320,192,230212,1,0,0:0:0:70:SK_BD_04.wav
448,192,230212,1,0,0:0:0:100:F#6S_Gb6S.wav
192,192,230373,1,0,0:0:0:70:SK_BD_04.wav
448,192,230373,1,0,0:0:0:100:F#6S_Gb6S.wav
64,192,230534,1,0,0:0:0:70:LR_Drum Hit Clap Sn.wav
192,192,230534,1,0,0:0:0:30:LR_CymbalRDW.wav
448,192,230534,1,0,0:0:0:100:F#6S_Gb6S.wav
64,192,230857,128,0,231179:0:0:0:70:SK_BD_04.wav
192,192,230857,1,0,0:0:0:70:LR_CymbalG.wav
320,192,231018,1,0,0:0:0:0:
192,192,231179,128,0,231341:0:0:0:70:LR_Snare Drum 2.wav
448,192,231179,1,0,0:0:0:0:
320,192,231341,128,0,231663:0:0:0:100:E5S.wav
448,192,231502,1,0,0:0:0:70:SK_BD_04.wav
192,192,231663,1,0,0:0:0:70:SK_BD_04.wav
64,192,231825,128,0,231905:0:0:0:70:LR_Snare Drum 2.wav
448,192,231825,1,0,0:0:0:0:
192,192,231986,128,0,232792:0:0:0:70:SK_BD_04.wav
448,192,231986,1,0,0:0:0:0:
64,192,232309,1,0,0:0:0:70:SK_BD_04.wav
320,192,232470,1,0,0:0:0:70:LR_Snare Drum 2.wav
448,192,232470,1,0,0:0:0:0:
448,192,232631,1,0,0:0:0:100:F#6S_Gb6S.wav
448,192,232712,1,0,0:0:0:70:SK_BD_04.wav
64,192,232792,128,0,233115:0:0:0:70:SK_BD_04.wav
320,192,232792,1,0,0:0:0:0:
192,192,232954,128,0,233276:0:0:0:70:SK_BD_04.wav
320,192,233115,128,0,233438:0:0:0:70:LR_Snare Drum 2.wav
448,192,233115,1,0,0:0:0:0:
448,192,233276,128,0,233438:0:0:0:0:
64,192,233438,128,0,233760:0:0:0:70:SK_BD_04.wav
192,192,233438,1,0,0:0:0:100:D5S.wav
192,192,233760,1,0,0:0:0:70:LR_Snare Drum 2.wav
320,192,233760,128,0,233841:0:0:0:0:
320,192,233921,128,0,234405:0:0:0:100:A6S.wav
448,192,234002,1,0,0:0:0:70:SK_BD_04.wav
64,192,234083,1,0,0:0:0:70:SK_BD_04.wav
64,192,234244,1,0,0:0:0:70:SK_BD_04.wav
192,192,234405,1,0,0:0:0:70:LR_Snare Drum 2.wav
448,192,234405,128,0,234486:0:0:0:0:
64,192,234567,1,0,0:0:0:70:SK_BD_04.wav
192,192,234567,1,0,0:0:0:0:
448,192,234567,128,0,235534:0:0:0:0:
64,192,234889,1,0,0:0:0:70:SK_BD_04.wav
64,192,235050,1,0,0:0:0:70:LR_Snare Drum 2.wav
192,192,235050,128,0,235212:0:0:0:0:
320,192,235212,128,0,235373:0:0:0:50:LR_Drum Hit Drop High.wav
192,192,235292,1,0,0:0:0:50:LR_Drum Hit Drop High.wav
64,192,235373,128,0,235534:0:0:0:70:SK_BD_04.wav
192,192,235534,1,0,0:0:0:70:LR_Drum Hit Drop High.wav
320,192,235534,1,0,0:0:0:0:
64,192,235615,1,0,0:0:0:70:LR_Drum Hit Drop High.wav
448,192,235615,1,0,0:0:0:0:
320,192,235696,1,0,0:0:0:70:LR_Tom Hit.wav
320,192,235776,1,0,0:0:0:70:LR_Tom Hit.wav
192,192,235857,1,0,0:0:0:70:LR_TomR2.wav
192,192,235938,1,0,0:0:0:70:LR_TomR2.wav
64,192,236018,1,0,0:0:0:70:LR_TomR2.wav
320,192,236018,1,0,0:0:0:50:LR_CymbalQST.wav
448,192,236018,128,0,236341:0:0:0:100:A3S.wav
64,192,236341,128,0,236421:0:0:0:70:LR_Snare Drum 2.wav
320,192,236341,1,0,0:0:0:0:
192,192,236502,128,0,236825:0:0:0:100:E6S.wav
320,192,236502,1,0,0:0:0:100:A6S.wav
448,192,236663,1,0,0:0:0:70:SK_BD_04.wav
64,192,236825,1,0,0:0:0:70:SK_BD_04.wav
448,192,236825,128,0,236905:0:0:0:0:
320,192,236905,128,0,236986:0:0:0:0:
192,192,236986,128,0,237067:0:0:0:70:LR_Snare Drum 2.wav
64,192,237067,128,0,237147:0:0:0:0:
320,192,237147,128,0,237631:0:0:0:70:SK_BD_04.wav
448,192,237470,1,0,0:0:0:70:SK_BD_04.wav
64,192,237631,1,0,0:0:0:70:LR_Snare Drum 2.wav
192,192,237631,1,0,0:0:0:0:
448,192,237792,1,0,0:0:0:0:
320,192,237873,1,0,0:0:0:70:LR_Snare Drum 2.wav
64,192,237954,1,0,0:0:0:70:SK_BD_04.wav
192,192,237954,128,0,238599:0:0:0:100:D#6S_Eb6S.wav
320,192,238115,1,0,0:0:0:70:SK_BD_04.wav
320,192,238276,1,0,0:0:0:70:LR_Snare Drum 2.wav
448,192,238276,128,0,238599:0:0:0:100:B6S.wav
64,192,238599,1,0,0:0:0:70:SK_BD_04.wav
320,192,238599,1,0,0:0:0:30:LR_CymbalRDW.wav
64,192,238841,1,0,0:0:0:70:LR_Drum Hit Clap Sn.wav
320,192,238921,1,0,0:0:0:70:LR_Drum Hit Clap Sn.wav
448,192,238921,1,0,0:0:0:0:
64,192,239083,1,0,0:0:0:70:SK_BD_04.wav
192,192,239083,1,0,0:0:0:70:LR_Drum Hit Drop High.wav
320,192,239083,1,0,0:0:0:30:LR_CymbalRDW.wav
192,192,239405,1,0,0:0:0:70:SK_BD_04.wav
320,192,239405,1,0,0:0:0:70:LR_Drum Hit Drop High.wav
448,192,239405,1,0,0:0:0:100:B5S.wav
64,192,239728,1,0,0:0:0:70:SK_BD_04.wav
192,192,239728,1,0,0:0:0:70:LR_Drum Hit Drop High.wav
448,192,239728,1,0,0:0:0:50:LR_CymbalQST.wav
320,192,240050,1,0,0:0:0:70:SK_BD_04.wav
448,192,240050,1,0,0:0:0:70:LR_Tom Hit.wav
64,192,240091,1,0,0:0:0:70:F#7S_Gb7S.wav
192,192,240131,1,0,0:0:0:100:G7S.wav
320,192,240171,1,0,0:0:0:70:G#7S_Ab7S.wav
448,192,240212,1,0,0:0:0:70:LR_Drum Hit Drop High.wav
320,192,240292,1,0,0:0:0:100:E7S.wav
192,192,240373,1,0,0:0:0:100:C#7S_Db7S.wav
448,192,240454,1,0,0:0:0:100:A6S.wav
64,192,240534,1,0,0:0:0:70:LR_Tom Hit.wav
320,192,240615,1,0,0:0:0:100:C#6S_Db6S.wav
64,192,240696,1,0,0:0:0:70:LR_Drum Hit Drop High.wav
192,192,240696,1,0,0:0:0:100:E5S.wav
320,192,240776,1,0,0:0:0:70:LR_Drum Hit Drop High.wav
448,192,240776,1,0,0:0:0:0:
192,192,240857,1,0,0:0:0:70:LR_Tom Hit.wav
192,192,240938,1,0,0:0:0:70:LR_Tom Hit.wav
448,192,241018,1,0,0:0:0:70:LR_TomR2.wav
448,192,241099,1,0,0:0:0:70:LR_TomR2.wav
64,192,241179,1,0,0:0:0:70:LR_TomR2.wav
192,192,241179,1,0,0:0:0:70:LR_CymbalG.wav
320,192,241179,1,0,0:0:0:0:
192,192,241502,128,0,242309:0:0:0:70:LR_Drum Hit Clap Sn.wav
448,192,241502,1,0,0:0:0:0:
320,192,241663,128,0,242309:0:0:0:100:C5S.wav
448,192,241825,1,0,0:0:0:70:SK_BD_04.wav
64,192,241986,1,0,0:0:0:70:SK_BD_04.wav
64,192,242147,1,0,0:0:0:70:LR_Drum Hit Clap Sn.wav
448,192,242147,1,0,0:0:0:0:
64,192,242309,1,0,0:0:0:70:SK_BD_04.wav
448,192,242309,128,0,243115:0:0:0:70:LR_CymbalG.wav
64,192,242631,1,0,0:0:0:70:SK_BD_04.wav
192,192,242792,1,0,0:0:0:70:LR_Drum Hit Clap Sn.wav
320,192,242792,1,0,0:0:0:0:
64,192,242954,1,0,0:0:0:100:D5S.wav
192,192,243115,1,0,0:0:0:70:SK_BD_04.wav
320,192,243276,128,0,243921:0:0:0:70:SK_BD_04.wav
192,192,243438,128,0,244002:0:0:0:70:LR_Drum Hit Clap Sn.wav
448,192,243438,1,0,0:0:0:0:
64,192,243599,128,0,244083:0:0:0:70:SK_BD_04.wav
448,192,243599,1,0,0:0:0:70:LR_CymbalG.wav
448,192,243921,1,0,0:0:0:70:SK_BD_04.wav
192,192,244083,1,0,0:0:0:70:LR_Snare Drum 2.wav
448,192,244083,1,0,0:0:0:0:
448,192,244244,1,0,0:0:0:0:
320,192,244325,1,0,0:0:0:70:SK_BD_04.wav
64,192,244405,1,0,0:0:0:70:LR_Snare Drum 2.wav
192,192,244405,1,0,0:0:0:0:
448,192,244567,1,0,0:0:0:70:SK_BD_04.wav
64,192,244728,1,0,0:0:0:70:LR_Snare Drum 2.wav
192,192,244728,1,0,0:0:0:0:
448,192,244889,1,0,0:0:0:70:SK_BD_04.wav
64,192,245050,1,0,0:0:0:70:SK_BD_04.wav
192,192,245050,1,0,0:0:0:70:LR_Drum Hit Clap Sn.wav
448,192,245050,128,0,245212:0:0:0:40:LR_CymbalRDW.wav
320,192,245212,1,0,0:0:0:70:SK_BD_04.wav
192,192,245292,1,0,0:0:0:70:SK_BD_04.wav
64,192,245373,1,0,0:0:0:70:LR_Drum Hit Clap Sn.wav
448,192,245373,1,0,0:0:0:0:
320,192,245454,1,0,0:0:0:70:SK_BD_04.wav
192,192,245534,1,0,0:0:0:70:SK_BD_04.wav
64,192,245615,1,0,0:0:0:70:SK_BD_04.wav
320,192,245696,1,0,0:0:0:70:LR_Drum Hit Clap Sn.wav
448,192,245736,1,0,0:0:0:100:F#6S_Gb6S.wav
192,192,245776,1,0,0:0:0:70:SK_BD_04.wav
64,192,245817,1,0,0:0:0:100:B6S.wav
320,192,245857,1,0,0:0:0:70:SK_BD_04.wav
448,192,245938,1,0,0:0:0:70:SK_BD_04.wav
64,192,246018,1,0,0:0:0:70:LR_Drum Hit Clap Sn.wav
192,192,246018,1,0,0:0:0:70:LR_CymbalQST.wav
320,192,246099,1,0,0:0:0:70:LR_Drum Hit Clap Sn.wav
448,192,246099,1,0,0:0:0:0:
64,192,246179,1,0,0:0:0:70:SK_BD_04.wav
192,192,246260,1,0,0:0:0:70:SK_BD_04.wav
64,192,246341,1,0,0:0:0:70:SK_BD_04.wav
320,192,246341,1,0,0:0:0:70:LR_Drum Hit Drop High.wav
448,192,246341,1,0,0:0:0:50:LR_CymbalG.wav
448,192,246502,1,0,0:0:0:0:
64,192,246663,1,0,0:0:0:70:LR_Drum Hit Drop High.wav
192,192,246663,1,0,0:0:0:50:LR_CymbalG.wav
320,192,246663,1,0,0:0:0:0:
448,192,246825,1,0,0:0:0:0:
320,192,246905,1,0,0:0:0:70:SK_BD_04.wav
64,192,246986,1,0,0:0:0:70:LR_Drum Hit Drop High.wav
192,192,246986,1,0,0:0:0:50:LR_CymbalG.wav
448,192,246986,1,0,0:0:0:0:
192,192,247147,1,0,0:0:0:70:SK_BD_04.wav
320,192,247147,1,0,0:0:0:0:
64,192,247309,1,0,0:0:0:70:LR_Drum Hit Drop High.wav
320,192,247309,1,0,0:0:0:50:LR_CymbalG.wav
448,192,247309,1,0,0:0:0:0:
64,192,247470,1,0,0:0:0:70:SK_BD_04.wav
192,192,247470,1,0,0:0:0:100:C6S.wav
192,192,247631,1,0,0:0:0:70:LR_Drum Hit Drop High.wav
320,192,247631,1,0,0:0:0:50:LR_CymbalG.wav
448,192,247631,1,0,0:0:0:0:
64,192,247792,1,0,0:0:0:0:
192,192,247873,1,0,0:0:0:70:SK_BD_04.wav
64,192,247954,1,0,0:0:0:70:LR_Drum Hit Drop High.wav
320,192,247954,1,0,0:0:0:50:LR_CymbalG.wav
448,192,247954,1,0,0:0:0:0:
448,192,248115,1,0,0:0:0:70:SK_BD_04.wav
320,192,248196,1,0,0:0:0:70:SK_BD_04.wav
64,192,248276,1,0,0:0:0:70:LR_Drum Hit Drop High.wav
192,192,248276,1,0,0:0:0:50:LR_CymbalG.wav
448,192,248276,1,0,0:0:0:0:
192,192,248438,1,0,0:0:0:70:SK_BD_04.wav
320,192,248438,1,0,0:0:0:0:
64,192,248599,1,0,0:0:0:70:LR_CymbalQST.wav
320,192,248599,1,0,0:0:0:100:B5S.wav
448,192,248599,1,0,0:0:0:0:
64,192,248760,1,0,0:0:0:70:SK_BD_04.wav
192,192,248760,1,0,0:0:0:0:
64,192,248921,1,0,0:0:0:70:LR_Drum Hit Drop High.wav
320,192,248921,1,0,0:0:0:50:LR_CymbalG.wav
448,192,248921,1,0,0:0:0:100:C6S.wav
192,192,249083,1,0,0:0:0:0:
320,192,249163,1,0,0:0:0:70:SK_BD_04.wav
64,192,249244,1,0,0:0:0:70:LR_Drum Hit Drop High.wav
192,192,249244,1,0,0:0:0:50:LR_CymbalG.wav
448,192,249244,1,0,0:0:0:0:
320,192,249405,1,0,0:0:0:0:
192,192,249486,1,0,0:0:0:70:SK_BD_04.wav
64,192,249567,1,0,0:0:0:70:LR_Drum Hit Drop High.wav
320,192,249567,1,0,0:0:0:50:LR_CymbalG.wav
448,192,249567,1,0,0:0:0:0:
192,192,249728,1,0,0:0:0:70:SK_BD_04.wav
448,192,249728,1,0,0:0:0:0:
64,192,249889,1,0,0:0:0:70:LR_Drum Hit Drop High.wav
192,192,249889,1,0,0:0:0:50:LR_CymbalG.wav
320,192,249889,1,0,0:0:0:0:
192,192,250050,1,0,0:0:0:70:SK_BD_04.wav
448,192,250050,1,0,0:0:0:100:B5S.wav
64,192,250212,1,0,0:0:0:70:LR_Drum Hit Drop High.wav
320,192,250212,1,0,0:0:0:50:LR_CymbalG.wav
448,192,250212,1,0,0:0:0:50:F#6S_Gb6S.wav
320,192,250373,1,0,0:0:0:50:F#6S_Gb6S.wav
64,192,250454,1,0,0:0:0:70:SK_BD_04.wav
192,192,250534,1,0,0:0:0:70:LR_Drum Hit Drop High.wav
320,192,250534,1,0,0:0:0:50:LR_CymbalG.wav
448,192,250534,1,0,0:0:0:50:F#6S_Gb6S.wav
192,192,250696,1,0,0:0:0:70:SK_BD_04.wav
448,192,250776,1,0,0:0:0:70:SK_BD_04.wav
64,192,250857,1,0,0:0:0:70:LR_Drum Hit Drop High.wav
192,192,250857,1,0,0:0:0:50:LR_CymbalG.wav
320,192,250857,1,0,0:0:0:50:F#6S_Gb6S.wav
192,192,251018,1,0,0:0:0:70:SK_BD_04.wav
448,192,251018,1,0,0:0:0:50:F#6S_Gb6S.wav
64,192,251179,1,0,0:0:0:70:LR_CymbalRDW.wav
320,192,251179,1,0,0:0:0:50:F#6S_Gb6S.wav
448,192,251179,1,0,0:0:0:50:D7S.wav
192,192,251341,1,0,0:0:0:70:SK_BD_04.wav
320,192,251341,1,0,0:0:0:0:
64,192,251502,1,0,0:0:0:70:LR_CymbalQST.wav
192,192,251502,1,0,0:0:0:100:E6S.wav
448,192,251502,1,0,0:0:0:0:
64,192,251825,1,0,0:0:0:70:LR_Drum Hit Drop High.wav
192,192,251825,1,0,0:0:0:50:LR_CymbalG.wav
320,192,251825,1,0,0:0:0:100:E6S.wav
448,192,251986,1,0,0:0:0:0:
320,192,252067,1,0,0:0:0:70:SK_BD_04.wav
64,192,252147,1,0,0:0:0:70:LR_Drum Hit Drop High.wav
192,192,252147,1,0,0:0:0:50:LR_CymbalG.wav
448,192,252147,1,0,0:0:0:100:E6S.wav
192,192,252309,1,0,0:0:0:70:SK_BD_04.wav
320,192,252309,1,0,0:0:0:0:
64,192,252470,1,0,0:0:0:70:LR_Drum Hit Drop High.wav
192,192,252470,1,0,0:0:0:50:LR_CymbalG.wav
448,192,252470,1,0,0:0:0:100:E6S.wav
64,192,252631,1,0,0:0:0:70:SK_BD_04.wav
320,192,252631,1,0,0:0:0:0:
192,192,252792,1,0,0:0:0:70:LR_Drum Hit Drop High.wav
320,192,252792,1,0,0:0:0:50:LR_CymbalG.wav
448,192,252792,1,0,0:0:0:100:D6S.wav
64,192,252954,1,0,0:0:0:0:
192,192,253034,1,0,0:0:0:70:SK_BD_04.wav
64,192,253115,1,0,0:0:0:70:LR_Drum Hit Drop High.wav
320,192,253115,1,0,0:0:0:50:LR_CymbalG.wav
448,192,253115,1,0,0:0:0:100:D6S.wav
448,192,253276,1,0,0:0:0:70:SK_BD_04.wav
320,192,253357,1,0,0:0:0:70:SK_BD_04.wav
64,192,253438,128,0,253518:0:0:0:70:LR_Drum Hit Drop High.wav
192,192,253438,128,0,253599:0:0:0:50:LR_CymbalG.wav
320,192,253599,128,0,253760:0:0:0:70:SK_BD_04.wav
448,192,253599,128,0,253679:0:0:0:0:
64,192,253760,128,0,253921:0:0:0:70:LR_Drum Hit Drop High.wav
192,192,253760,128,0,253841:0:0:0:70:LR_CymbalRDW.wav
320,192,253921,128,0,254002:0:0:0:70:SK_BD_04.wav
448,192,254002,128,0,254083:0:0:0:0:
64,192,254083,128,0,254567:0:0:0:70:LR_Drum Hit Drop High.wav
192,192,254083,1,0,0:0:0:50:LR_CymbalG.wav
320,192,254083,1,0,0:0:0:100:F#6S_Gb6S.wav
320,192,254325,1,0,0:0:0:70:SK_BD_04.wav
192,192,254405,1,0,0:0:0:70:LR_Drum Hit Drop High.wav
448,192,254405,1,0,0:0:0:50:LR_CymbalG.wav
192,192,254647,1,0,0:0:0:70:SK_BD_04.wav
64,192,254728,1,0,0:0:0:70:LR_Drum Hit Drop High.wav
320,192,254728,1,0,0:0:0:50:LR_CymbalG.wav
448,192,254728,128,0,255212:0:0:0:100:F#6S_Gb6S.wav
192,192,254889,1,0,0:0:0:70:SK_BD_04.wav
64,192,255050,1,0,0:0:0:70:LR_Drum Hit Drop High.wav
192,192,255050,1,0,0:0:0:50:LR_CymbalG.wav
320,192,255050,1,0,0:0:0:100:F#6S_Gb6S.wav
192,192,255212,1,0,0:0:0:70:SK_BD_04.wav
64,192,255373,1,0,0:0:0:70:SK_BD_04.wav
192,192,255373,1,0,0:0:0:100:G6S.wav
320,192,255373,1,0,0:0:0:0:
448,192,255481,1,0,0:0:0:100:A6S.wav
64,192,255588,1,0,0:0:0:70:LR_Drum Hit Drop High.wav
320,192,255588,1,0,0:0:0:100:G6S.wav
192,192,255696,1,0,0:0:0:70:SK_BD_04.wav
64,192,255803,1,0,0:0:0:70:LR_Drum Hit Drop High.wav
448,192,255803,1,0,0:0:0:100:G6S.wav
192,192,255911,1,0,0:0:0:70:LR_Drum Hit Drop High.wav
320,192,255911,1,0,0:0:0:100:D6S.wav
448,192,256018,1,0,0:0:0:70:SK_BD_04.wav
320,192,256126,1,0,0:0:0:70:LR_Drum Hit Drop High.wav
64,192,256233,1,0,0:0:0:70:LR_Drum Hit Clap Sn.wav
192,192,256233,1,0,0:0:0:100:G5S.wav
320,192,256341,1,0,0:0:0:70:LR_Drum Hit Clap Sn.wav
448,192,256341,1,0,0:0:0:100:A4S.wav
64,192,256448,1,0,0:0:0:70:LR_Drum Hit Clap Sn.wav
192,192,256448,1,0,0:0:0:100:D5S.wav
320,192,256556,1,0,0:0:0:70:LR_Drum Hit Clap Sn.wav
448,192,256556,1,0,0:0:0:100:B4S.wav
64,192,256663,1,0,0:0:0:70:SK_BD_04.wav
192,192,256663,1,0,0:0:0:70:LR_CymbalRDW.wav
320,192,256663,1,0,0:0:0:100:C5S.wav
64,192,256986,1,0,0:0:0:70:LR_Drum Hit Clap Sn.wav
192,192,256986,1,0,0:0:0:0:
448,192,256986,1,0,0:0:0:0:
192,192,257147,1,0,0:0:0:0:
320,192,257228,1,0,0:0:0:0:
64,192,257309,1,0,0:0:0:70:SK_BD_04.wav
448,192,257309,1,0,0:0:0:0:
448,192,257470,1,0,0:0:0:70:SK_BD_04.wav
64,192,257631,1,0,0:0:0:70:LR_Drum Hit Clap Sn.wav
320,192,257631,1,0,0:0:0:0:
192,192,257792,128,0,258276:0:0:0:70:SK_BD_04.wav
64,192,258115,128,0,258357:0:0:0:70:SK_BD_04.wav
448,192,258115,1,0,0:0:0:0:
320,192,258276,1,0,0:0:0:70:LR_Drum Hit Clap Sn.wav
448,192,258276,128,0,258518:0:0:0:0:
320,192,258438,128,0,258760:0:0:0:0:
192,192,258518,1,0,0:0:0:70:LR_Snare Drum 2.wav
64,192,258599,128,0,258841:0:0:0:70:SK_BD_04.wav
448,192,258599,1,0,0:0:0:0:
448,192,258760,128,0,259083:0:0:0:70:SK_BD_04.wav
64,192,258921,1,0,0:0:0:70:LR_Snare Drum 2.wav
320,192,258921,1,0,0:0:0:0:
64,192,259244,1,0,0:0:0:70:SK_BD_04.wav
320,192,259244,1,0,0:0:0:0:
448,192,259244,1,0,0:0:0:0:
192,192,259486,1,0,0:0:0:70:LR_Snare Drum 2.wav
448,192,259486,1,0,0:0:0:0:
64,192,259567,1,0,0:0:0:70:LR_Drum Hit Clap Sn.wav
320,192,259567,1,0,0:0:0:0:
64,192,259728,1,0,0:0:0:70:SK_BD_04.wav
192,192,259728,1,0,0:0:0:70:LR_Drum Hit Drop High.wav
448,192,259728,1,0,0:0:0:30:LR_CymbalRDW.wav
192,192,260050,1,0,0:0:0:70:SK_BD_04.wav
320,192,260050,1,0,0:0:0:70:LR_Drum Hit Drop High.wav
448,192,260050,1,0,0:0:0:100:B5S.wav
64,192,260373,1,0,0:0:0:70:SK_BD_04.wav
192,192,260373,1,0,0:0:0:70:LR_Drum Hit Drop High.wav
320,192,260373,1,0,0:0:0:50:LR_CymbalQST.wav
64,192,260696,1,0,0:0:0:70:SK_BD_04.wav
192,192,260837,128,0,261099:0:0:0:100:C#6S_Db6S.wav
320,192,260857,128,0,261179:0:0:0:70:LR_Drum Hit Drop High.wav
448,192,260877,128,0,261179:0:0:0:0:
64,192,261179,1,0,0:0:0:70:LR_Tom Hit.wav
192,192,261179,1,0,0:0:0:0:
64,192,261341,1,0,0:0:0:70:LR_Drum Hit Drop High.wav
448,192,261341,1,0,0:0:0:0:
192,192,261421,1,0,0:0:0:70:LR_Drum Hit Drop High.wav
320,192,261421,1,0,0:0:0:0:
448,192,261502,1,0,0:0:0:70:LR_Tom Hit.wav
448,192,261583,1,0,0:0:0:70:LR_Tom Hit.wav
64,192,261663,1,0,0:0:0:70:LR_TomR2.wav
64,192,261744,1,0,0:0:0:70:LR_TomR2.wav
192,192,261825,1,0,0:0:0:70:LR_TomR2.wav
320,192,261825,1,0,0:0:0:70:LR_CymbalG.wav
448,192,261825,1,0,0:0:0:0:
64,192,262147,128,0,262954:0:0:0:70:LR_Drum Hit Clap Sn.wav
192,192,262147,1,0,0:0:0:0:
320,192,262309,128,0,262954:0:0:0:100:C4S.wav
448,192,262470,1,0,0:0:0:70:SK_BD_04.wav
192,192,262631,1,0,0:0:0:70:SK_BD_04.wav
192,192,262792,1,0,0:0:0:70:LR_Drum Hit Clap Sn.wav
448,192,262792,1,0,0:0:0:0:
192,192,262954,1,0,0:0:0:70:SK_BD_04.wav
448,192,262954,128,0,263760:0:0:0:70:LR_CymbalG.wav
320,192,263276,1,0,0:0:0:70:SK_BD_04.wav
64,192,263438,1,0,0:0:0:70:LR_Drum Hit Clap Sn.wav
192,192,263438,1,0,0:0:0:0:
320,192,263599,1,0,0:0:0:0:
64,192,263760,1,0,0:0:0:70:SK_BD_04.wav
448,192,263921,128,0,264567:0:0:0:70:SK_BD_04.wav
192,192,264083,128,0,264647:0:0:0:70:LR_Drum Hit Clap Sn.wav
320,192,264083,1,0,0:0:0:0:
64,192,264244,128,0,264728:0:0:0:70:SK_BD_04.wav
320,192,264244,1,0,0:0:0:70:LR_CymbalG.wav
320,192,264567,1,0,0:0:0:70:SK_BD_04.wav
320,192,264728,1,0,0:0:0:70:LR_Snare Drum 2.wav
448,192,264728,1,0,0:0:0:0:
64,192,264970,1,0,0:0:0:70:SK_BD_04.wav
320,192,265050,1,0,0:0:0:70:LR_Snare Drum 2.wav
448,192,265050,1,0,0:0:0:0:
192,192,265212,1,0,0:0:0:70:SK_BD_04.wav
64,192,265373,128,0,265534:0:0:0:70:LR_Snare Drum 2.wav
448,192,265373,1,0,0:0:0:0:
320,192,265534,128,0,265696:0:0:0:70:SK_BD_04.wav
64,192,265696,1,0,0:0:0:70:SK_BD_04.wav
192,192,265696,1,0,0:0:0:70:LR_Drum Hit Clap Sn.wav
448,192,265696,1,0,0:0:0:50:LR_CymbalRDW.wav
64,192,266179,128,0,266663:0:0:0:0:
192,192,266260,128,0,266744:0:0:0:0:
320,192,266341,128,0,266825:0:0:0:70:SK_BD_04.wav
448,192,266341,128,0,266825:0:0:0:70:LR_Drum Hit Drop High.wav
192,192,266986,1,0,0:0:0:70:LR_Drum Hit Drop High.wav
320,192,266986,128,0,267040:0:0:0:70:LR_CymbalQST.wav
448,192,266986,128,0,267093:0:0:0:100:A6S.wav
64,192,267309,1,0,0:0:0:70:SK_BD_04.wav
320,192,267470,128,0,267524:0:0:0:70:LR_Drum Hit Drop High.wav
448,192,267470,128,0,267577:0:0:0:100:A6S.wav
64,192,267792,1,0,0:0:0:70:SK_BD_04.wav
320,192,267954,128,0,268007:0:0:0:60:LR_Drum Hit Drop High.wav
448,192,267954,128,0,268061:0:0:0:100:A6S.wav
64,192,268276,1,0,0:0:0:70:SK_BD_04.wav
320,192,268438,128,0,268491:0:0:0:60:LR_Drum Hit Drop High.wav
448,192,268438,128,0,268545:0:0:0:100:A6S.wav
64,192,268760,1,0,0:0:0:70:SK_BD_04.wav
64,192,268841,1,0,0:0:0:70:SK_BD_04.wav
320,192,268921,128,0,268975:0:0:0:60:LR_Drum Hit Drop High.wav
448,192,268921,128,0,269029:0:0:0:100:A6S.wav
64,192,269083,1,0,0:0:0:70:SK_BD_04.wav
320,192,269244,128,0,269298:0:0:0:60:LR_Drum Hit Drop High.wav
448,192,269244,128,0,269352:0:0:0:100:A6S.wav
64,192,269405,1,0,0:0:0:70:SK_BD_04.wav
192,192,269567,128,0,269620:0:0:0:60:LR_Drum Hit Drop High.wav
448,192,269567,128,0,269674:0:0:0:100:A6S.wav
64,192,269889,1,0,0:0:0:70:SK_BD_04.wav
192,192,270050,128,0,270104:0:0:0:60:LR_Drum Hit Drop High.wav
448,192,270050,128,0,270158:0:0:0:100:A6S.wav
64,192,270373,1,0,0:0:0:70:SK_BD_04.wav
192,192,270534,128,0,270588:0:0:0:60:LR_Drum Hit Drop High.wav
448,192,270534,128,0,270642:0:0:0:100:A6S.wav
64,192,270696,128,0,271179:0:0:0:0:
320,192,270857,128,0,271341:0:0:0:70:SK_BD_04.wav
192,192,271018,1,0,0:0:0:60:LR_Drum Hit Drop High.wav
448,192,271018,1,0,0:0:0:100:A6S.wav
448,192,271179,128,0,271502:0:0:0:0:
192,192,271341,1,0,0:0:0:70:SK_BD_04.wav
64,192,271421,1,0,0:0:0:70:SK_BD_04.wav
192,192,271502,1,0,0:0:0:60:LR_Drum Hit Drop High.wav
320,192,271502,1,0,0:0:0:100:A6S.wav
448,192,271663,1,0,0:0:0:70:SK_BD_04.wav
192,192,271825,1,0,0:0:0:60:LR_Drum Hit Drop High.wav
320,192,271825,1,0,0:0:0:100:G6S.wav
64,192,271986,1,0,0:0:0:70:SK_BD_04.wav
64,192,272067,1,0,0:0:0:70:SK_BD_04.wav
320,192,272147,128,0,272309:0:0:0:60:LR_Drum Hit Drop High.wav
448,192,272147,128,0,272201:0:0:0:100:A6S.wav
192,192,272309,128,0,272362:0:0:0:100:G6S.wav
64,192,272470,128,0,272524:0:0:0:70:SK_BD_04.wav
448,192,272470,1,0,0:0:0:100:D6S.wav
320,192,272631,128,0,272792:0:0:0:60:LR_Drum Hit Drop High.wav
448,192,272631,128,0,272685:0:0:0:100:A6S.wav
192,192,272792,128,0,272846:0:0:0:100:G6S.wav
64,192,272954,128,0,273007:0:0:0:70:SK_BD_04.wav
448,192,272954,1,0,0:0:0:100:D6S.wav
320,192,273115,128,0,273276:0:0:0:60:LR_Drum Hit Drop High.wav
448,192,273115,128,0,273169:0:0:0:100:A6S.wav
192,192,273276,128,0,273330:0:0:0:100:G6S.wav
64,192,273438,128,0,273491:0:0:0:70:SK_BD_04.wav
448,192,273438,1,0,0:0:0:100:D6S.wav
320,192,273599,128,0,273760:0:0:0:60:LR_Drum Hit Drop High.wav
448,192,273599,128,0,273653:0:0:0:100:A6S.wav
192,192,273760,128,0,273814:0:0:0:100:G6S.wav
64,192,273921,128,0,273975:0:0:0:70:SK_BD_04.wav
448,192,273921,1,0,0:0:0:100:D6S.wav
192,192,274002,1,0,0:0:0:70:SK_BD_04.wav
320,192,274083,128,0,274244:0:0:0:60:LR_Drum Hit Drop High.wav
448,192,274083,128,0,274136:0:0:0:100:A6S.wav
64,192,274244,1,0,0:0:0:70:SK_BD_04.wav
192,192,274244,128,0,274298:0:0:0:100:G6S.wav
320,192,274405,128,0,274567:0:0:0:60:LR_Drum Hit Drop High.wav
448,192,274405,128,0,274459:0:0:0:100:A6S.wav
64,192,274567,1,0,0:0:0:70:SK_BD_04.wav
192,192,274567,128,0,274620:0:0:0:100:G6S.wav
320,192,274728,128,0,274782:0:0:0:60:LR_Drum Hit Drop High.wav
448,192,274728,128,0,274889:0:0:0:100:A6S.wav
192,192,274889,128,0,274943:0:0:0:100:G6S.wav
64,192,275050,128,0,275104:0:0:0:70:SK_BD_04.wav
320,192,275050,1,0,0:0:0:100:D6S.wav
320,192,275212,128,0,275266:0:0:0:60:LR_Drum Hit Drop High.wav
448,192,275212,128,0,275373:0:0:0:100:A6S.wav
192,192,275373,128,0,275427:0:0:0:100:G6S.wav
64,192,275534,128,0,275588:0:0:0:70:SK_BD_04.wav
320,192,275534,1,0,0:0:0:100:D6S.wav
320,192,275696,128,0,275749:0:0:0:60:LR_Drum Hit Drop High.wav
448,192,275696,128,0,275857:0:0:0:100:A6S.wav
192,192,275857,128,0,275911:0:0:0:100:G6S.wav
64,192,276018,128,0,276072:0:0:0:70:SK_BD_04.wav
320,192,276018,1,0,0:0:0:100:D6S.wav
320,192,276179,128,0,276233:0:0:0:60:LR_Drum Hit Drop High.wav
448,192,276179,128,0,276341:0:0:0:100:A6S.wav
192,192,276341,128,0,276395:0:0:0:100:G6S.wav
64,192,276502,128,0,276556:0:0:0:70:SK_BD_04.wav
448,192,276502,1,0,0:0:0:100:D6S.wav
320,192,276583,1,0,0:0:0:70:SK_BD_04.wav
448,192,276663,128,0,276932:0:0:0:60:LR_Drum Hit Drop High.wav
192,192,276663,1,0,0:0:0:100:A6S.wav
64,192,276825,128,0,276986:0:0:0:70:SK_BD_04.wav
192,192,276986,128,0,277309:0:0:0:60:LR_Drum Hit Clap Sn.wav
448,192,276986,1,0,0:0:0:70:LR_CymbalG.wav
320,192,277147,128,0,277309:0:0:0:70:SK_BD_04.wav
64,192,277309,1,0,0:0:0:50:LR_Drum Hit Drop High.wav
448,192,277309,1,0,0:0:0:70:LR_CymbalQST.wav
320,192,277470,1,0,0:0:0:100:G7S.wav
192,192,277631,1,0,0:0:0:70:SK_BD_04.wav
64,192,277792,1,0,0:0:0:50:LR_Drum Hit Drop High.wav
448,192,277792,1,0,0:0:0:100:A7S.wav
320,192,277954,1,0,0:0:0:100:G7S.wav
192,192,278115,1,0,0:0:0:70:SK_BD_04.wav
64,192,278276,1,0,0:0:0:50:LR_Drum Hit Drop High.wav
448,192,278276,1,0,0:0:0:100:A7S.wav
320,192,278438,1,0,0:0:0:100:G7S.wav
448,192,278491,1,0,0:0:0:100:A7S.wav
64,192,278545,1,0,0:0:0:100:G7S.wav
192,192,278599,1,0,0:0:0:70:SK_BD_04.wav
64,192,278760,1,0,0:0:0:50:LR_Drum Hit Drop High.wav
448,192,278760,1,0,0:0:0:100:A7S.wav
320,192,278921,1,0,0:0:0:100:G7S.wav
192,192,279083,1,0,0:0:0:70:SK_BD_04.wav
192,192,279163,1,0,0:0:0:70:SK_BD_04.wav
64,192,279244,1,0,0:0:0:50:LR_Drum Hit Drop High.wav
448,192,279244,1,0,0:0:0:100:A7S.wav
320,192,279405,1,0,0:0:0:70:SK_BD_04.wav
64,192,279567,1,0,0:0:0:50:LR_Drum Hit Drop High.wav
448,192,279567,1,0,0:0:0:100:A7S.wav
320,192,279728,1,0,0:0:0:70:SK_BD_04.wav
192,192,279889,1,0,0:0:0:50:LR_Drum Hit Drop High.wav
448,192,279889,1,0,0:0:0:100:A7S.wav
320,192,280050,1,0,0:0:0:100:G7S.wav
64,192,280131,1,0,0:0:0:0:
192,192,280212,1,0,0:0:0:70:SK_BD_04.wav
448,192,280292,1,0,0:0:0:0:
192,192,280373,1,0,0:0:0:50:LR_Drum Hit Drop High.wav
320,192,280373,1,0,0:0:0:100:A7S.wav
64,192,280454,1,0,0:0:0:0:
192,192,280534,1,0,0:0:0:100:G7S.wav
448,192,280615,1,0,0:0:0:0:
320,192,280696,1,0,0:0:0:70:SK_BD_04.wav
192,192,280776,1,0,0:0:0:0:
64,192,280857,1,0,0:0:0:50:LR_Drum Hit Drop High.wav
448,192,280857,1,0,0:0:0:100:A7S.wav
320,192,280938,1,0,0:0:0:0:
448,192,281018,1,0,0:0:0:100:G7S.wav
64,192,281099,1,0,0:0:0:0:
192,192,281179,1,0,0:0:0:70:SK_BD_04.wav
448,192,281260,1,0,0:0:0:0:
192,192,281341,1,0,0:0:0:50:LR_Drum Hit Drop High.wav
320,192,281341,1,0,0:0:0:100:A7S.wav
64,192,281421,1,0,0:0:0:0:
192,192,281502,1,0,0:0:0:100:G7S.wav
320,192,281583,1,0,0:0:0:0:
448,192,281663,1,0,0:0:0:70:SK_BD_04.wav
192,192,281744,1,0,0:0:0:70:SK_BD_04.wav
64,192,281825,1,0,0:0:0:50:LR_Drum Hit Drop High.wav
448,192,281825,1,0,0:0:0:100:A7S.wav
320,192,281905,1,0,0:0:0:0:
448,192,281986,1,0,0:0:0:70:SK_BD_04.wav
64,192,282067,1,0,0:0:0:0:
192,192,282147,1,0,0:0:0:50:LR_Drum Hit Drop High.wav
320,192,282147,1,0,0:0:0:100:D7S.wav
448,192,282228,1,0,0:0:0:0:
320,192,282309,1,0,0:0:0:70:SK_BD_04.wav
64,192,282389,1,0,0:0:0:70:SK_BD_04.wav
448,192,282470,1,0,0:0:0:50:LR_Drum Hit Drop High.wav
192,192,282550,1,0,0:0:0:0:
320,192,282631,1,0,0:0:0:100:G7S.wav
448,192,282712,1,0,0:0:0:0:
192,192,282792,1,0,0:0:0:70:SK_BD_04.wav
64,192,282873,1,0,0:0:0:0:
320,192,282954,1,0,0:0:0:50:LR_Drum Hit Drop High.wav
448,192,282954,1,0,0:0:0:100:A7S.wav
192,192,283034,1,0,0:0:0:0:
448,192,283115,1,0,0:0:0:100:G7S.wav
64,192,283196,1,0,0:0:0:0:
320,192,283276,1,0,0:0:0:70:SK_BD_04.wav
448,192,283357,1,0,0:0:0:0:
64,192,283438,1,0,0:0:0:50:LR_Drum Hit Drop High.wav
192,192,283438,1,0,0:0:0:100:A7S.wav
320,192,283518,1,0,0:0:0:0:
192,192,283599,1,0,0:0:0:100:G7S.wav
448,192,283653,1,0,0:0:0:100:A7S.wav
320,192,283706,1,0,0:0:0:100:G7S.wav
64,192,283760,1,0,0:0:0:70:SK_BD_04.wav
320,192,283841,1,0,0:0:0:0:
192,192,283921,128,0,284083:0:0:0:50:LR_Drum Hit Drop High.wav
448,192,283921,1,0,0:0:0:100:A7S.wav
64,192,284083,128,0,284244:0:0:0:100:G7S.wav
448,192,284244,128,0,284405:0:0:0:70:SK_BD_04.wav
320,192,284325,1,0,0:0:0:70:SK_BD_04.wav
64,192,284405,1,0,0:0:0:50:LR_Drum Hit Drop High.wav
192,192,284405,1,0,0:0:0:100:A7S.wav
448,192,284567,1,0,0:0:0:70:SK_BD_04.wav
64,192,284728,1,0,0:0:0:50:LR_Drum Hit Drop High.wav
192,192,284728,1,0,0:0:0:100:A7S.wav
448,192,284889,1,0,0:0:0:70:SK_BD_04.wav
192,192,285050,128,0,285373:0:0:0:50:LR_Drum Hit Drop High.wav
320,192,285071,128,0,285373:0:0:0:0:
448,192,285091,128,0,285373:0:0:0:0:
64,192,285373,1,0,0:0:0:70:SK_BD_04.wav
320,192,285534,128,0,285857:0:0:0:50:LR_Drum Hit Drop High.wav
192,192,285554,128,0,285938:0:0:0:0:
64,192,285575,128,0,286038:0:0:0:0:
448,192,285857,1,0,0:0:0:70:SK_BD_04.wav
448,192,286018,128,0,286341:0:0:0:50:LR_Drum Hit Drop High.wav
320,192,286059,128,0,286341:0:0:0:0:
64,192,286341,1,0,0:0:0:70:SK_BD_04.wav
192,192,286341,1,0,0:0:0:100:D7S.wav
64,192,286502,1,0,0:0:0:50:LR_Drum Hit Drop High.wav
320,192,286502,1,0,0:0:0:70:LR_CymbalQST.wav
448,192,286502,1,0,0:0:0:100:A7S.wav
192,192,286744,1,0,0:0:0:70:SK_BD_04.wav
320,192,286784,1,0,0:0:0:70:SK_BD_04.wav
448,192,286825,1,0,0:0:0:70:SK_BD_04.wav
64,192,286905,1,0,0:0:0:70:SK_BD_04.wav
192,192,286986,1,0,0:0:0:50:LR_Drum Hit Drop High.wav
320,192,286986,1,0,0:0:0:70:LR_CymbalRDW.wav
448,192,286986,128,0,287107:0:0:0:100:A7S.wav
64,192,287147,1,0,0:0:0:70:SK_BD_04.wav
64,192,287309,128,0,287429:0:0:0:50:LR_Drum Hit Drop High.wav
192,192,287309,1,0,0:0:0:70:LR_CymbalRDW.wav
320,192,287309,1,0,0:0:0:100:G7S.wav
448,192,287470,1,0,0:0:0:70:SK_BD_04.wav
64,192,287530,1,0,0:0:0:100:G5S.wav
192,192,287571,1,0,0:0:0:100:B5S.wav
448,192,287611,1,0,0:0:0:100:E5S.wav
320,192,287631,1,0,0:0:0:70:LR_CymbalQST.wav
64,192,287792,1,0,0:0:0:100:B5S.wav
448,192,287954,1,0,0:0:0:70:LR_Drum Hit Clap Sn.wav
64,192,288095,1,0,0:0:0:100:D5S.wav
192,192,288115,1,0,0:0:0:70:SK_BD_04.wav
320,192,288115,1,0,0:0:0:40:LR_CymbalRDW.wav
448,192,288276,1,0,0:0:0:100:G6S.wav
320,192,288357,1,0,0:0:0:0:
64,192,288438,1,0,0:0:0:100:B5S.wav
64,192,288518,1,0,0:0:0:0:
320,192,288599,1,0,0:0:0:70:LR_Drum Hit Clap Sn.wav
448,192,288599,1,0,0:0:0:100:F#6S_Gb6S.wav
64,192,288760,1,0,0:0:0:70:SK_BD_04.wav
192,192,288760,1,0,0:0:0:40:LR_CymbalRDW.wav
320,192,288800,1,0,0:0:0:100:C5S.wav
448,192,288821,1,0,0:0:0:100:E6S.wav
64,192,289083,1,0,0:0:0:100:G5S.wav
192,192,289244,1,0,0:0:0:70:LR_Drum Hit Clap Sn.wav
448,192,289244,1,0,0:0:0:100:E6S.wav
320,192,289417,1,0,0:0:0:70:SK_BD_04.wav
448,192,289417,1,0,0:0:0:40:LR_CymbalRDW.wav
64,192,289439,1,0,0:0:0:100:B4S.wav
192,192,289591,1,0,0:0:0:100:B5S.wav
320,192,289759,1,0,0:0:0:70:LR_Snare Drum 2.wav
320,192,289843,1,0,0:0:0:70:LR_Snare Drum 2.wav
64,192,289928,1,0,0:0:0:70:SK_BD_04.wav
192,192,289928,1,0,0:0:0:40:LR_CymbalRDW.wav
448,192,289928,1,0,0:0:0:100:B4S.wav
320,192,290101,1,0,0:0:0:70:LR_Drum Hit Clap Sn.wav
320,192,290188,1,0,0:0:0:70:LR_Drum Hit Clap Sn.wav
192,192,290274,128,0,290361:0:0:0:70:SK_BD_04.wav
448,192,290274,128,0,290621:0:0:0:40:LR_CymbalQST.wav
64,192,290846,128,0,291246:0:0:0:100:B5S.wav
320,192,290846,128,0,290946:0:0:0:70:SK_BD_04.wav
64,192,291421,1,0,0:0:0:70:SK_BD_04.wav
192,192,291421,1,0,0:0:0:70:LR_CymbalG.wav
320,192,291421,1,0,0:0:0:100:A5S.wav
448,192,291421,1,0,0:0:0:100:F4S.wav
64,192,292362,1,0,0:0:0:100:F2S.wav
192,192,292823,1,0,0:0:0:100:F3S.wav
320,192,293178,1,0,0:0:0:100:D4S.wav
448,192,293295,1,0,0:0:0:100:E4S.wav
192,192,293417,1,0,0:0:0:100:F4S.wav
64,192,293529,1,0,0:0:0:100:A4S.wav
320,192,293612,1,0,0:0:0:100:D5S.wav
448,192,293672,1,0,0:0:0:100:E5S.wav
192,192,293755,1,0,0:0:0:100:F5S.wav
320,192,293855,1,0,0:0:0:100:A5S.wav
64,192,293968,1,0,0:0:0:100:D6S.wav
192,192,294018,1,0,0:0:0:100:E6S.wav
320,192,294132,1,0,0:0:0:100:F6S.wav
448,192,294251,1,0,0:0:0:100:A6S.wav
192,192,294370,1,0,0:0:0:100:D7S.wav
64,192,294470,1,0,0:0:0:100:E7S.wav
192,192,294602,1,0,0:0:0:100:F5S.wav
64,192,294772,1,0,0:0:0:100:A6S.wav
192,192,294916,1,0,0:0:0:100:D7S.wav
320,192,295094,1,0,0:0:0:100:E7S.wav
64,192,295268,1,0,0:0:0:100:F6S.wav
320,192,295488,1,0,0:0:0:100:A7S.wav
448,192,295685,1,0,0:0:0:100:D8S.wav
64,192,295942,1,0,0:0:0:100:E8S.wav
320,192,296268,1,0,0:0:0:100:G8S.wav
192,192,296665,1,0,0:0:0:100:C8S.wav
448,192,297191,1,0,0:0:0:100:A8S.wav
320,192,297980,128,0,304559:0:0:0:100:D8S.wav
