osu file format v14

[General]
AudioFilename: audio.mp3
AudioLeadIn: 0
PreviewTime: 179889
Countdown: 0
SampleSet: Soft
StackLeniency: 0.2
Mode: 0
LetterboxInBreaks: 0
WidescreenStoryboard: 0

[Editor]
DistanceSpacing: 0.8
BeatDivisor: 4
GridSize: 32
TimelineZoom: 1.7

[Metadata]
Title:Youka to Yumeutsutsu
TitleUnicode:妖花ト夢現
Artist:Shimotsuki Haruka
ArtistUnicode:霜月はるか
Creator:Kagayaki
Version:Despair
Source:
Tags:japanese pop j-pop しちごさん。 753. absolute castaway
BeatmapID:2990689
BeatmapSetID:1454822

[Difficulty]
HPDrainRate:5
CircleSize:4.3
OverallDifficulty:8
ApproachRate:9
SliderMultiplier:1.6
SliderTickRate:1

[Events]
//Background and Video events
0,0,"bg.jpg",0,0
//Break Periods
//Storyboard Layer 0 (Background)
//Storyboard Layer 1 (Fail)
//Storyboard Layer 2 (Pass)
//Storyboard Layer 3 (Foreground)
//Storyboard Layer 4 (Overlay)
//Storyboard Sound Samples

[TimingPoints]
-110,322.58064516129,4,2,1,50,1,0
11502,-90.9090909090909,4,2,1,65,0,0
21825,-83.3333333333333,4,2,1,80,0,0
26986,-83.3333333333333,4,2,1,65,0,0
33438,-100,4,2,1,55,0,0
33922,-76.9230769230769,4,2,1,55,0,0
34406,-100,4,2,1,55,0,0
35696,-149.253731343284,4,2,1,55,0,0
36019,-100,4,2,1,55,0,0
36502,-76.9230769230769,4,2,1,55,0,0
36986,-100,4,2,1,55,0,0
38277,-149.253731343284,4,2,1,55,0,0
38599,-100,4,2,1,55,0,0
39083,-76.9230769230769,4,2,1,55,0,0
40857,-149.253731343284,4,2,1,55,0,0
41180,-100,4,2,1,55,0,0
41664,-149.253731343284,4,2,1,55,0,0
43277,-100,4,2,1,55,0,0
46019,-149.253731343284,4,2,1,55,0,0
46341,-100,4,2,1,55,0,0
48599,-149.253731343284,4,2,1,55,0,0
48922,-100,4,2,1,55,0,0
54083,-90.9090909090909,4,2,1,65,0,0
59244,-100,4,2,1,60,0,0
61825,-76.9230769230769,4,2,1,60,0,0
62148,-100,4,2,1,60,0,0
63760,-76.9230769230769,4,2,1,60,0,0
64406,-76.9230769230769,4,2,1,70,0,0
66986,-90.9090909090909,4,2,1,60,0,0
69567,-76.9230769230769,4,2,1,80,0,1
74406,-76.9230769230769,4,2,1,80,0,0
74728,-90.9090909090909,4,2,1,70,0,1
79406,-90.9090909090909,4,2,1,70,0,0
79889,-83.3333333333333,4,2,1,75,0,1
82954,-41.6666666666667,4,2,1,75,0,1
83035,-41.6666666666667,4,2,1,5,0,1
83277,-41.6666666666667,4,2,1,75,0,1
83357,-41.6666666666667,4,2,1,5,0,1
83599,-76.9230769230769,4,2,1,80,0,1
85051,-83.3333333333333,4,2,1,75,0,1
87470,-76.9230769230769,4,2,1,80,0,1
88922,-83.3333333333333,4,2,1,75,0,0
90212,-83.3333333333333,4,2,1,75,0,1
100212,-83.3333333333333,4,2,1,75,0,0
100535,-76.9230769230769,4,2,1,80,0,1
110857,-125,4,2,1,45,0,0
121180,-149.253731343284,4,2,1,55,0,0
121422,-149.253731343284,4,2,1,5,0,0
121502,-76.9230769230769,4,2,1,55,0,0
121986,-100,4,2,1,55,0,0
130212,-76.9230769230769,4,2,1,55,0,0
130535,-100,4,2,1,55,0,0
131502,-90.9090909090909,4,2,1,65,0,0
136664,-100,4,2,1,60,0,0
139244,-76.9230769230769,4,2,1,60,0,0
139728,-100,4,2,1,60,0,0
141180,-76.9230769230769,4,2,1,60,0,0
141825,-76.9230769230769,4,2,1,70,0,0
144406,-76.9230769230769,4,2,1,80,0,1
149244,-76.9230769230769,4,2,1,80,0,0
149567,-90.9090909090909,4,2,1,70,0,1
154244,-90.9090909090909,4,2,1,70,0,0
154728,-83.3333333333333,4,2,1,75,0,1
157793,-41.6666666666667,4,2,1,75,0,1
157873,-83.3333333333333,4,2,1,5,0,1
158115,-41.6666666666667,4,2,1,75,0,1
158196,-83.3333333333333,4,2,1,5,0,1
158438,-76.9230769230769,4,2,1,80,0,1
159889,-83.3333333333333,4,2,1,75,0,1
162309,-76.9230769230769,4,2,1,80,0,1
163760,-125,4,2,1,55,0,0
166341,-90.9090909090909,4,2,1,70,0,0
170212,-76.9230769230769,4,2,1,80,0,0
171825,-90.9090909090909,4,2,1,70,0,0
177954,-76.9230769230769,4,2,1,80,0,0
179083,-125,4,2,1,80,0,0
179406,-76.9230769230769,4,2,1,45,0,0
180212,-125,4,2,1,45,0,0
183680,-125,4,2,1,50,0,0
185454,-125,4,2,1,55,0,0
186744,-125,4,2,1,60,0,0
188841,-125,4,2,1,70,0,0
189567,-83.3333333333333,4,2,1,75,0,0
193922,-58.8235294117647,4,2,1,75,0,0
194728,-76.9230769230769,4,2,1,80,0,0
208760,-66.6666666666667,4,2,1,80,0,0
210212,-125,4,2,1,45,0,0
214728,-100,4,2,1,55,0,0
215373,-90.9090909090909,4,2,1,60,0,0
217954,-76.9230769230769,4,2,1,60,0,0
218438,-90.9090909090909,4,2,1,60,0,0
219889,-76.9230769230769,4,2,1,60,0,0
220535,-76.9230769230769,4,2,1,70,0,0
225696,-76.9230769230769,4,2,1,80,0,1
230535,-76.9230769230769,4,2,1,80,0,0
230857,-90.9090909090909,4,2,1,70,0,1
235535,-90.9090909090909,4,2,1,70,0,0
236019,-83.3333333333333,4,2,1,75,0,1
239083,-41.6666666666667,4,2,1,75,0,1
239164,-41.6666666666667,4,2,1,5,0,1
239406,-41.6666666666667,4,2,1,75,0,1
239486,-41.6666666666667,4,2,1,5,0,1
239728,-76.9230769230769,4,2,1,80,0,1
241180,-83.3333333333333,4,2,1,75,0,1
243599,-76.9230769230769,4,2,1,75,0,1
245696,-83.3333333333333,4,2,1,75,0,0
246341,-71.4285714285714,4,2,1,80,0,1
255373,-71.4285714285714,4,2,1,80,0,0
256664,-83.3333333333333,4,2,1,75,0,1
259728,-41.6666666666667,4,2,1,75,0,1
259809,-41.6666666666667,4,2,1,5,0,1
260051,-41.6666666666667,4,2,1,75,0,1
260131,-41.6666666666667,4,2,1,5,0,1
260373,-76.9230769230769,4,2,1,80,0,1
261825,-83.3333333333333,4,2,1,75,0,1
264244,-76.9230769230769,4,2,1,80,0,1
265696,-83.3333333333333,4,2,1,75,0,0
266986,-83.3333333333333,4,2,1,75,0,1
276986,-83.3333333333333,4,2,1,75,0,0
277309,-76.9230769230769,4,2,1,80,0,1
287631,-83.3333333333333,4,2,1,75,0,0
289244,340.909090909091,4,2,1,75,1,0
289244,-83.3333333333333,4,2,1,75,0,0
290267,282.352941176471,4,2,1,70,1,0
290831,294.840294840295,4,2,1,75,1,0
291420,300,4,2,1,80,1,0
304620,-100,4,2,1,5,0,0

[Colours]
Combo1 : 255,255,153
Combo2 : 250,250,250
Combo3 : 76,171,255

[HitObjects]
151,66,454,5,8,3:0:0:0:
154,73,535,1,8,3:0:0:0:
181,41,615,1,8,3:0:0:0:
222,33,696,1,8,3:0:0:0:
259,51,777,1,8,3:0:0:0:
274,90,857,5,0,3:0:0:0:
250,131,938,1,0,3:0:0:0:
264,176,1019,1,0,3:0:0:0:
305,199,1099,1,0,3:0:0:0:
351,186,1180,6,0,P|443:184|501:246,1,160,4|0,1:0|1:0,0:0:0:0:
236,279,1664,2,0,P|192:360|109:379,1,160,8|0,0:0|1:0,0:0:0:0:
214,132,2148,2,0,P|166:53|191:-27,1,160,8|0,0:0|1:0,0:0:0:0:
92,173,2631,2,0,P|54:175|4:147,1,80,8|0,0:0|0:0,0:0:0:0:
78,72,2954,5,0,1:0:0:0:
78,72,3035,1,0,1:0:0:0:
78,72,3115,1,8,0:0:0:0:
173,111,3277,1,0,1:0:0:0:
92,173,3438,1,8,0:0:0:0:
187,212,3599,1,0,1:0:0:0:
341,199,3760,6,0,L|315:368,1,160,8|0,0:0|1:0,0:0:0:0:
173,111,4244,2,0,L|147:280,1,160,8|0,0:0|1:0,0:0:0:0:
365,40,4728,2,0,L|339:209,1,160,8|0,0:0|1:0,0:0:0:0:
185,31,5212,2,0,L|170:127,1,80,8|0,0:0|0:0,0:0:0:0:
80,179,5535,5,0,1:0:0:0:
80,179,5615,1,0,1:0:0:0:
80,179,5696,1,8,0:0:0:0:
162,279,5857,1,0,1:0:0:0:
30,301,6019,1,8,0:0:0:0:
90,255,6180,5,0,1:0:0:0:
90,255,6260,1,0,1:0:0:0:
90,255,6341,2,0,B|162:242|162:242|169:238|169:238|256:222,1,160,10|0,0:0|1:0,0:0:0:0:
186,47,6825,2,0,B|258:60|258:60|265:64|265:64|352:80,1,160,10|0,0:0|1:0,0:0:0:0:
500,145,7309,2,0,P|524:195|468:308,1,160,8|0,0:0|1:0,0:0:0:0:
332,216,7793,2,0,P|291:215|226:251,1,80,8|0,0:0|0:0,0:0:0:0:
91,306,8115,5,0,1:0:0:0:
91,306,8196,1,0,1:0:0:0:
91,306,8277,2,0,B|86:280|86:280|75:263|75:263|70:232,1,80,8|0,0:0|1:0,0:0:0:0:
187,276,8599,2,0,B|181:249|181:249|170:232|170:232|165:201,1,80,8|0,0:0|1:0,0:0:0:0:
0,124,8922,6,0,P|92:124|147:74,1,160,8|0,0:0|1:0,0:0:0:0:
187,276,9406,2,0,P|279:276|334:326,1,160,8|0,0:0|1:0,0:0:0:0:
285,132,9889,2,0,P|320:184|410:195,1,120,8|2,0:0|0:0,0:0:0:0:
372,201,10212,1,0,1:0:0:0:
368,0,10373,2,0,P|313:16|286:61,1,80,8|0,0:0|0:0,0:0:0:0:
373,102,10696,5,0,1:0:0:0:
373,102,10777,1,0,1:0:0:0:
373,102,10857,1,8,0:0:0:0:
242,73,11019,1,0,1:0:0:0:
112,44,11180,1,12,0:0:0:0:
122,130,11502,6,0,B|208:122|208:122|216:118|216:118|301:109,1,176.000005371094,14|0,0:0|1:0,0:0:0:0:
466,90,11986,1,8,0:0:0:0:
393,261,12148,2,2,L|436:157,1,88.000002685547,2|2,0:0|1:2,0:0:0:0:
487,103,12470,1,8,0:0:0:0:
373,249,12632,2,0,L|441:159,1,88.000002685547,2|0,0:0|1:0,0:0:0:0:
504,121,12954,1,8,0:0:0:0:
356,232,13115,2,0,L|445:163,1,88.000002685547,2|0,0:0|1:0,0:0:0:0:
438,187,13357,5,0,1:0:0:0:
438,187,13438,2,0,L|368:240,1,88.000002685547,10|0,0:0|1:0,0:0:0:0:
368,11,13760,2,0,L|437:64,1,88.000002685547,10|0,0:0|1:0,0:0:0:0:
290,133,14083,6,0,B|179:137|241:62|107:64,1,176.000005371094,10|0,0:0|1:0,0:0:0:0:
212,219,14567,1,8,0:0:0:0:
116,194,14728,2,0,P|71:191|27:206,1,88.000002685547,2|0,0:0|1:0,0:0:0:0:
212,219,15051,1,8,0:0:0:0:
142,289,15212,2,0,P|117:325|108:372,1,88.000002685547,2|0,0:0|1:0,0:0:0:0:
212,219,15535,1,10,0:0:0:0:
237,314,15696,2,0,P|256:353|292:384,1,88.000002685547,2|0,0:0|1:0,0:0:0:0:
288,382,15938,1,0,1:0:0:0:
288,382,16019,1,10,0:0:0:0:
338,261,16180,5,0,1:0:0:0:
460,325,16341,1,8,0:0:0:0:
385,122,16502,1,2,1:2:0:0:
385,122,16583,1,0,1:0:0:0:
385,122,16664,6,0,B|333:126|333:126|303:149|303:149|269:132|269:132|189:139,1,176.000005371094,10|0,0:0|1:0,0:0:0:0:
106,281,17148,1,8,0:0:0:0:
49,104,17309,2,0,L|88:225,1,88.000002685547,2|0,0:0|1:0,0:0:0:0:
81,285,17631,1,8,0:0:0:0:
71,99,17793,2,0,L|77:225,1,88.000002685547,2|0,0:0|1:0,0:0:0:0:
56,284,18115,1,10,0:0:0:0:
94,101,18277,2,0,L|67:225,1,88.000002685547,0|0,0:0|1:0,0:0:0:0:
75,187,18519,5,0,1:0:0:0:
75,187,18599,1,10,0:0:0:0:
159,160,18760,1,0,1:0:0:0:
140,245,18922,1,0,1:0:0:0:
11,130,19083,1,0,1:0:0:0:
175,75,19244,5,8,0:0:0:0:
262,128,19406,2,0,B|278:168|278:168|270:218,1,88.000002685547,2|0,0:0|1:0,0:0:0:0:
167,69,19728,5,8,0:0:0:0:
256,20,19890,2,0,B|298:26|298:26|337:58,1,88.000002685547,2|0,0:0|1:0,0:0:0:0:
159,63,20211,5,8,0:0:0:0:
156,164,20373,2,0,B|129:197|129:197|82:215,1,88.000002685547,2|0,0:0|1:0,0:0:0:0:
151,57,20696,5,8,0:0:0:0:
225,101,20857,1,2,0:0:0:0:
299,145,21019,1,0,1:0:0:0:
299,145,21099,1,0,1:0:0:0:
299,145,21180,1,8,0:0:0:0:
129,62,21341,5,0,1:0:0:0:
320,139,21502,1,12,0:0:0:0:
392,166,21825,5,12,0:0:0:0:
296,281,21986,2,0,P|251:284|200:260,1,95.9999970703126,2|0,0:0|1:0,0:0:0:0:
396,166,22309,5,8,0:0:0:0:
296,51,22470,2,0,P|251:48|200:72,1,95.9999970703126,2|0,0:0|1:0,0:0:0:0:
261,166,22793,5,8,0:0:0:0:
111,179,22954,2,0,P|93:163|84:137,3,31.9999990234375,2|2|2|0,0:0|0:0|0:0|1:0,0:0:0:0:
261,166,23277,5,8,0:0:0:0:
111,153,23438,2,0,P|77:182|57:235,1,95.9999970703126,2|0,0:0|1:0,0:0:0:0:
57,228,23680,1,0,1:0:0:0:
57,228,23760,1,8,0:0:0:0:
194,115,23922,1,0,1:0:0:0:
171,365,24083,1,8,0:0:0:0:
307,251,24244,1,0,1:0:0:0:
182,240,24406,5,8,0:0:0:0:
301,332,24567,2,0,P|353:317|392:250,1,95.9999970703126,2|0,0:0|1:0,0:0:0:0:
177,242,24890,5,8,0:0:0:0:
239,100,25051,2,0,P|291:86|358:125,1,95.9999970703126,2|0,0:0|1:0,0:0:0:0:
284,212,25373,5,8,0:0:0:0:
144,153,25535,2,0,L|129:105,3,31.9999990234375,2|2|2|0,0:0|0:0|0:0|1:0,0:0:0:0:
284,212,25857,5,8,0:0:0:0:
144,271,26019,2,0,L|113:374,1,95.9999970703126,2|0,0:0|1:0,0:0:0:0:
25,226,26341,5,8,3:0:0:0:
57,205,26422,1,8,3:0:0:0:
71,169,26502,1,8,3:0:0:0:
61,131,26583,1,8,3:0:0:0:
31,105,26664,5,8,3:0:0:0:
41,143,26744,1,8,3:0:0:0:
71,169,26824,1,8,3:0:0:0:
110,172,26906,1,8,3:0:0:0:
144,153,26985,5,6,0:0:0:0:
161,78,27147,1,0,0:0:0:0:
277,262,27470,5,2,0:0:0:0:
202,245,27631,1,0,0:0:0:0:
386,129,27954,5,2,0:0:0:0:
369,204,28115,1,0,0:0:0:0:
253,20,28438,5,2,0:0:0:0:
328,37,28599,1,0,0:0:0:0:
144,153,28922,5,2,0:0:0:0:
161,78,29083,1,0,0:0:0:0:
151,77,29244,5,2,0:0:0:0:
153,153,29405,1,0,0:0:0:0:
155,229,29567,5,2,0:0:0:0:
155,229,29648,1,2,0:0:0:0:
155,229,29728,1,0,0:0:0:0:
61,119,30051,5,2,0:0:0:0:
61,119,30132,1,2,0:0:0:0:
61,119,30212,1,0,0:0:0:0:
248,109,30534,5,2,0:0:0:0:
248,109,30615,1,2,0:0:0:0:
248,109,30695,1,0,0:0:0:0:
342,219,31019,5,2,0:0:0:0:
342,219,31100,1,2,0:0:0:0:
342,219,31180,1,0,0:0:0:0:
389,83,31502,5,2,0:0:0:0:
389,83,31664,1,0,0:0:0:0:
330,138,31825,5,2,0:0:0:0:
330,138,31986,1,0,0:0:0:0:
409,234,32148,5,0,1:0:0:0:
405,244,32228,1,0,1:0:0:0:
370,207,32308,1,8,3:0:0:0:
328,212,32389,1,8,3:0:0:0:
301,245,32470,1,0,1:0:0:0:
304,253,32551,1,0,1:0:0:0:
277,286,32632,1,8,3:0:0:0:
235,291,32713,1,8,3:0:0:0:
200,254,32793,5,0,3:0:0:0:
139,207,32900,5,0,3:0:0:0:
186,146,33007,5,0,3:0:0:0:
247,193,33115,5,2,3:2:0:0:
201,262,33223,5,0,3:0:0:0:
130,208,33330,5,0,3:0:0:0:
184,137,33438,6,0,B|245:124|245:124|266:94|266:94|358:74,1,160,6|8,1:2|0:0,0:0:0:0:
429,200,33922,6,0,B|473:251|546:176|498:113|420:106,1,207.999990478516,2|0,0:0|1:0,0:0:0:0:
289,190,34406,5,2,0:0:0:0:
217,176,34567,2,0,B|156:163|156:163|135:133|135:133|43:113,1,160,10|0,0:0|1:0,0:0:0:0:
149,260,35051,2,0,P|151:310|122:341,1,80,8|0,0:0|0:0,0:0:0:0:
67,244,35373,2,0,P|47:278|53:317,1,80,0|0,0:0|1:0,0:0:0:0:
74,120,35696,6,0,P|113:120|144:95,1,80.3999961968996,10|0,0:0|1:0,0:0:0:0:
144,94,36019,6,0,B|243:89|189:156|319:144,1,160,0|8,1:0|0:0,0:0:0:0:
426,79,36502,6,0,B|472:45|451:-16|451:-16|380:-24|361:56,1,207.999990478516,2|0,0:0|1:0,0:0:0:0:
325,136,36986,5,2,0:0:0:0:
392,102,37148,2,0,P|472:132|461:199,1,160,10|0,0:0|1:0,0:0:0:0:
365,275,37631,1,8,0:0:0:0:
254,210,37793,2,0,P|173:197|109:257,1,160,0|0,0:0|1:0,0:0:0:0:
232,366,38277,6,0,L|258:287,1,80.3999961968996,10|0,0:0|1:0,0:0:0:0:
257,289,38599,6,0,B|214:211|305:203|248:112,1,160,2|10,1:2|0:0,0:0:0:0:
121,210,39083,6,0,B|97:221|59:214|42:181|42:181|82:182,1,103.999995239258,2|0,0:0|0:0,0:0:0:0:
155,275,39406,2,0,B|152:301|127:330|90:328|90:328|111:294,1,103.999995239258,2|0,1:2|0:0,0:0:0:0:
267,216,39728,6,0,B|291:204|328:212|346:244|346:244|305:244,1,103.999995239258,10|0,0:0|0:0,0:0:0:0:
232,151,40050,2,0,B|234:124|259:95|296:97|296:97|275:131,1,103.999995239258,2|8,1:2|0:0,0:0:0:0:
158,148,40373,2,0,B|116:122|101:63|134:12|134:12|143:66|110:98,1,207.999990478516,2|0,0:0|1:0,0:0:0:0:
92,209,40857,6,0,B|53:208|38:176|38:176|55:186,1,80.3999961968996,10|0,0:0|1:0,0:0:0:0:
92,209,41180,6,0,B|168:195|168:195|174:191|174:191|253:175,1,160,0|8,1:0|0:0,0:0:0:0:
327,177,41664,6,0,B|328:151|328:151|304:118,1,53.5999974645997,2|0,0:0|0:0,0:0:0:0:
403,209,41986,2,0,B|426:196|426:196|442:159,1,53.5999974645997,2|0,1:2|0:0,0:0:0:0:
346,339,42309,6,0,B|345:365|345:365|369:398,1,53.5999974645997,10|0,0:0|0:0,0:0:0:0:
270,304,42631,2,0,B|246:316|246:316|230:353,1,53.5999974645997,2|8,0:0|0:0,0:0:0:0:
262,220,42954,2,0,B|239:206|239:206|199:210,1,53.5999974645997,2|0,0:0|1:0,0:0:0:0:
351,246,43277,5,0,1:0:0:0:
349,236,43357,1,0,1:0:0:0:
374,216,43438,1,8,3:0:0:0:
406,215,43519,1,8,3:0:0:0:
433,231,43599,1,8,3:0:0:0:
448,258,43680,1,8,3:0:0:0:
443,289,43760,6,0,L|419:129,1,160,6|8,1:2|0:0,0:0:0:0:
419,130,44244,1,0,0:0:0:0:
269,247,44406,2,0,L|349:236,1,80,0|0,0:0|1:0,0:0:0:0:
247,70,44728,5,2,0:0:0:0:
195,127,44889,2,0,P|128:159|37:134,1,160,10|0,0:0|1:0,0:0:0:0:
174,253,45373,2,0,L|194:342,1,80,8|0,0:0|0:0,0:0:0:0:
93,273,45696,2,0,L|110:351,1,80,0|0,0:0|1:0,0:0:0:0:
269,247,46019,6,0,B|277:207|277:207|280:204|280:204|289:166,1,80.3999961968996,10|0,0:0|1:0,0:0:0:0:
288,169,46341,6,0,B|376:157|346:224|432:218,1,160,2|10,1:2|0:0,0:0:0:0:
269,247,46825,2,0,P|186:254|89:273,1,160,2|0,0:0|1:0,0:0:0:0:
215,343,47309,1,2,0:0:0:0:
99,270,47470,6,0,B|66:257|66:257|32:220|53:153|97:126,1,160,10|0,0:0|1:0,0:0:0:0:
194,86,47954,1,8,0:0:0:0:
305,150,48115,2,0,B|328:172|369:175|369:175|399:127|468:126,1,160,0|0,0:0|1:0,0:0:0:0:
495,275,48599,6,0,P|478:235|419:219,1,80.3999961968996,10|0,0:0|1:0,0:0:0:0:
447,219,48922,6,0,B|402:235|386:290|409:331|409:331|422:305,1,160,2|8,1:2|0:0,0:0:0:0:
296,296,49406,2,0,P|305:337|360:363,1,80,2|0,0:0|0:0,0:0:0:0:
278,174,49728,2,0,P|246:202|251:262,1,80,2|0,1:2|0:0,0:0:0:0:
161,350,50051,6,0,P|89:279|27:298,1,160,10|0,0:0|1:0,0:0:0:0:
28,277,50427,6,0,B|56:263|56:263|83:228,1,53.3333333333333,2|8,0:0|0:0,0:0:0:0:
135,220,50642,2,0,B|136:188|136:188|120:147,1,53.3333333333333,2|0,0:0|0:0,0:0:0:0:
139,98,50857,2,0,B|112:80|112:80|69:74,1,53.3333333333333,2|0,0:0|0:0,0:0:0:0:
36,33,51072,1,2,0:0:0:0:
36,33,51180,2,0,B|7:47|7:47|-19:81,1,53.3333333333333,10|0,0:0|0:0,0:0:0:0:
55,104,51395,5,0,1:0:0:0:
55,104,51502,2,0,P|133:96|187:172,1,160,2|10,1:2|0:0,0:0:0:0:
76,267,51986,2,0,P|121:277|162:292,1,80,2|0,1:2|0:0,0:0:0:0:
236,208,52309,2,0,P|281:220|322:233,1,80,2|0,1:2|0:0,0:0:0:0:
412,299,52631,5,10,0:0:0:0:
412,299,52712,1,0,0:0:0:0:
412,299,52793,2,0,P|433:271|434:222,1,80,2|0,0:0|1:0,0:0:0:0:
496,118,53115,6,0,B|434:99|434:99|414:72|414:72|330:45,1,160,8|0,0:0|1:0,0:0:0:0:
233,107,53599,5,0,1:0:0:0:
237,113,53680,1,0,1:0:0:0:
240,119,53760,1,8,3:0:0:0:
268,103,53841,1,8,3:0:0:0:
261,72,53922,1,8,3:0:0:0:
229,68,54002,1,8,3:0:0:0:
216,98,54083,6,0,P|120:117|52:58,1,176.000005371094,6|10,2:0|0:0,0:0:0:0:
6,247,54567,2,0,P|48:225|104:232,1,88.000002685547,2|0,0:0|0:0,0:0:0:0:
178,323,54889,2,0,P|221:323|259:301,1,88.000002685547,2|0,1:2|0:0,0:0:0:0:
355,150,55212,6,0,L|399:336,1,176.000005371094,10|2,0:0|1:2,0:0:0:0:
454,209,55696,1,10,0:0:0:0:
341,243,55857,1,2,0:0:0:0:
368,128,56019,2,0,B|379:106|379:106|446:85,1,88.000002685547,2|0,0:0|1:0,0:0:0:0:
301,23,56341,2,0,P|266:56|220:62,1,88.000002685547,8|2,0:0|0:0,0:0:0:0:
25,86,56664,6,0,B|64:111|77:158|77:158|106:118|161:109,1,176.000005371094,2|10,1:2|0:0,0:0:0:0:
289,181,57148,2,0,B|279:220|279:220|277:224|277:224|267:269,1,88.000002685547,2|0,0:0|0:0,0:0:0:0:
153,210,57470,2,0,B|143:249|143:249|141:253|141:253|131:298,1,88.000002685547,2|0,1:2|0:0,0:0:0:0:
299,366,57793,6,0,P|355:303|437:322,1,176.000005371094,10|2,0:0|1:2,0:0:0:0:
494,212,58277,1,14,0:0:0:0:
379,226,58438,1,2,0:0:0:0:
431,120,58599,2,0,B|448:93|448:93|450:29|401:-5,1,132.00000402832,2|0,1:2|1:0,0:0:0:0:
411,3,58922,1,8,0:0:0:0:
297,91,59083,5,0,1:0:0:0:
297,91,59164,1,0,1:0:0:0:
297,91,59244,2,0,P|224:102|144:54,1,160,6|2,1:2|1:2,0:0:0:0:
233,134,59728,2,0,L|251:218,1,80,2|0,0:0|1:0,0:0:0:0:
344,250,60051,2,0,L|326:334,1,80,0|0,0:0|1:0,0:0:0:0:
214,361,60373,5,2,0:0:0:0:
214,361,60535,2,0,P|164:301|88:309,1,160,2|2,1:2|1:2,0:0:0:0:
19,232,61019,2,0,P|63:224|99:191,1,80,2|0,0:0|1:0,0:0:0:0:
119,106,61341,2,0,L|94:22,1,80,0|0,0:0|1:0,0:0:0:0:
217,152,61664,5,10,0:0:0:0:
311,108,61825,2,0,B|362:95|401:142|401:142|466:153|504:97,1,207.999990478516,6|2,1:2|1:2,0:0:0:0:
317,202,62309,1,2,0:0:0:0:
418,261,62470,2,0,B|453:283|453:283|464:354|402:389,1,160,0|2,1:0|1:2,0:0:0:0:
276,310,62954,5,2,0:0:0:0:
276,310,63115,2,0,B|257:355|199:365|199:365|171:335|126:329,1,160,0|2,1:0|1:2,0:0:0:0:
34,214,63599,1,2,0:0:0:0:
205,171,63760,2,0,B|237:161|259:129|259:129|272:57|193:-6,1,207.999990478516,4|2,1:2|1:2,0:0:0:0:
208,7,64244,1,2,0:0:0:0:
34,214,64406,6,0,B|161:184|97:306|261:260,1,207.999990478516,6|0,1:2|1:0,0:0:0:0:
308,194,64889,5,0,3:0:0:0:
394,216,65051,1,0,1:0:0:0:
268,340,65212,1,0,3:0:0:0:
354,363,65373,1,0,1:0:0:0:
417,301,65535,1,0,3:0:0:0:
246,254,65696,5,0,1:0:0:0:
114,292,65857,1,0,3:0:0:0:
76,160,66019,1,0,1:0:0:0:
208,122,66180,1,8,0:0:0:0:
287,170,66341,5,0,1:0:0:0:
124,80,66502,1,8,0:0:0:0:
34,243,66664,1,0,1:0:0:0:
197,333,66825,1,8,0:0:0:0:
120,62,66986,1,0,1:0:0:0:
120,62,67309,6,0,L|132:99,4,29.3333342285157,2|0|0|0|0,0:0|0:0|0:0|0:0|0:0,0:0:0:0:
240,145,67793,5,2,0:0:0:0:
235,153,67874,1,8,3:0:0:0:
230,161,67955,1,0,3:0:0:0:
210,132,68035,1,0,3:0:0:0:
230,104,68116,1,0,3:0:0:0:
264,114,68197,1,0,3:0:0:0:
264,150,68277,1,2,1:2:0:0:
256,192,68357,12,0,69406,0:0:0:0:
307,113,69567,6,0,P|356:132|421:129,1,103.999995239258,2|0,1:2|0:0,0:0:0:0:
205,271,69889,2,0,P|155:251|91:255,1,103.999995239258,8|0,0:0|0:0,0:0:0:0:
275,135,70212,5,0,1:0:0:0:
315,255,70373,1,0,1:0:0:0:
151,109,70535,1,10,0:0:0:0:
359,39,70696,2,0,B|417:51|417:51|481:124|437:211,1,207.999990478516,2|0,1:2|1:0,0:0:0:0:
315,255,71180,5,8,0:0:0:0:
315,255,71260,1,0,1:0:0:0:
213,157,71422,5,0,1:0:0:0:
213,157,71502,2,0,P|163:133|87:148,1,103.999995239258,0|0,1:0|1:0,0:0:0:0:
97,312,71825,2,0,P|47:336|-29:321,1,103.999995239258,10|0,0:0|0:0,0:0:0:0:
254,374,72148,6,0,L|234:271,1,103.999995239258,2|0,1:2|0:0,0:0:0:0:
411,101,72470,2,0,L|430:203,1,103.999995239258,8|0,0:0|0:0,0:0:0:0:
213,157,72793,5,0,1:0:0:0:
333,118,72954,1,0,1:0:0:0:
182,278,73115,1,10,0:0:0:0:
304,241,73277,5,2,0:0:0:0:
90,193,73438,1,2,1:2:0:0:
240,33,73599,1,2,1:2:0:0:
213,157,73760,5,10,0:0:0:0:
213,157,73922,1,2,0:0:0:0:
120,69,74083,5,2,1:2:0:0:
333,118,74244,1,2,1:2:0:0:
182,278,74406,1,12,0:0:0:0:
256,219,74728,6,0,P|336:206|425:277,1,176.000005371094,2|8,1:2|0:0,0:0:0:0:
202,282,75212,2,0,P|254:220|369:217,1,176.000005371094,2|0,0:0|1:0,0:0:0:0:
197,366,75696,1,10,0:0:0:0:
85,241,75857,6,0,P|23:187|20:72,1,176.000005371094,2|0,1:2|1:0,0:0:0:0:
199,77,76341,1,8,0:0:0:0:
167,243,76502,6,0,P|85:240|9:155,1,176.000005371094,2|0,0:0|1:0,0:0:0:0:
210,0,76986,2,0,P|256:23|276:93,1,88.000002685547,10|0,0:0|0:0,0:0:0:0:
304,169,77309,6,0,P|363:112|477:119,1,176.000005371094,2|10,1:2|0:0,0:0:0:0:
294,253,77793,2,0,P|303:170|395:103,1,176.000005371094,2|0,0:0|1:0,0:0:0:0:
340,326,78277,1,10,0:0:0:0:
208,212,78438,6,0,P|131:179|27:224,1,176.000005371094,2|0,1:2|1:0,0:0:0:0:
133,342,78922,1,10,0:0:0:0:
235,235,79083,6,0,P|238:217|228:188,2,44.0000013427735,2|0|0,0:0|0:0|1:0,0:0:0:0:
46,205,79406,5,8,3:0:0:0:
49,215,79486,1,8,3:0:0:0:
52,225,79567,1,2,3:2:0:0:
86,230,79648,1,0,3:0:0:0:
115,211,79728,1,0,3:0:0:0:
118,175,79809,1,0,3:0:0:0:
87,152,79889,6,0,B|39:115|39:115|39:37|103:-4,1,191.999994140625,6|10,1:2|0:0,0:0:0:0:
246,97,80373,2,0,P|331:80|407:146,1,191.999994140625,2|0,0:0|1:0,0:0:0:0:
506,58,80857,1,10,0:0:0:0:
406,144,81019,2,0,B|338:193|376:276|376:276|421:256,1,191.999994140625,2|0,1:2|1:0,0:0:0:0:
512,164,81502,5,8,0:0:0:0:
512,164,81583,1,0,1:0:0:0:
405,43,81744,5,0,1:0:0:0:
405,43,81825,2,0,P|367:11|286:17,1,95.9999970703126,2|0,1:2|1:0,0:0:0:0:
138,117,82148,2,0,P|176:85|257:91,1,95.9999970703126,10|0,0:0|0:0,0:0:0:0:
47,258,82470,6,0,P|33:210|71:138,1,95.9999970703126,6|0,0:2|1:0,0:0:0:0:
44,166,82712,1,0,1:0:0:0:
44,166,82793,1,10,0:0:0:0:
226,265,82954,6,0,P|177:253|134:184,1,95.9999970703126,2|0,1:2|0:0,0:0:0:0:
321,113,83277,6,0,P|286:149|205:152,1,95.9999970703126,2|0,1:2|0:0,0:0:0:0:
463,159,83599,6,0,B|510:226|489:314|489:314|457:325|437:362,1,207.999990478516,6|0,1:2|1:0,0:0:0:0:
379,350,84002,5,2,0:0:0:0:
379,350,84083,2,0,P|351:344|304:336,1,51.999997619629,8|0,0:0|0:0,0:0:0:0:
292,273,84244,2,0,P|264:267|217:259,1,51.999997619629,2|0,0:0|0:0,0:0:0:0:
183,310,84406,2,0,P|152:293|83:317,1,103.999995239258,0|8,3:0|3:0,0:0:0:0:
29,270,84648,1,0,3:0:0:0:
29,270,84728,2,0,L|15:192,1,51.999997619629,0|0,3:0|3:0,0:0:0:0:
77,171,84889,2,0,L|63:93,1,51.999997619629,2|0,3:2|3:0,0:0:0:0:
115,59,85051,6,0,B|174:97|174:97|299:60,1,191.999994140625,6|10,1:2|0:0,0:0:0:0:
304,183,85535,1,2,0:0:0:0:
385,214,85696,1,0,1:0:0:0:
372,129,85857,1,0,1:0:0:0:
317,268,86019,1,10,0:0:0:0:
368,332,86180,6,0,P|272:275|173:301,1,191.999994140625,6|0,1:2|1:0,0:0:0:0:
304,183,86664,1,10,0:0:0:0:
196,286,86825,2,0,P|105:288|136:198,1,191.999994140625,2|0,0:0|1:0,0:0:0:0:
269,78,87309,1,10,0:0:0:0:
285,172,87470,6,0,B|161:172|230:81|84:91,1,207.999990478516,6|0,1:2|1:0,0:0:0:0:
41,297,87954,5,8,0:0:0:0:
125,171,88115,1,0,1:0:0:0:
149,381,88277,5,8,0:0:0:0:
195,236,88438,1,0,1:0:0:0:
287,308,88599,5,8,0:0:0:0:
231,90,88760,1,0,1:0:0:0:
447,150,88922,1,14,0:0:0:0:
32,295,89567,5,6,1:2:0:0:
32,295,90212,6,0,P|99:227|223:210,1,191.999994140625,12|0,0:0|1:0,0:0:0:0:
277,29,90696,6,0,P|329:108|415:148,1,191.999994140625,8|0,0:0|1:0,0:0:0:0:
73,246,91180,6,0,P|159:206|282:232,1,191.999994140625,8|0,0:0|1:0,0:0:0:0:
306,83,91664,6,0,P|382:139|476:147,1,191.999994140625,8|0,0:0|1:0,0:0:0:0:
150,68,92148,6,0,P|123:98|128:184,1,95.9999970703126,10|0,0:0|0:0,0:0:0:0:
358,230,92470,2,0,P|385:260|380:346,1,95.9999970703126,10|0,0:0|0:0,0:0:0:0:
216,143,92793,6,0,P|283:75|407:58,1,191.999994140625,8|0,0:0|1:0,0:0:0:0:
234,301,93277,6,0,P|141:276|64:178,1,191.999994140625,8|0,0:0|1:0,0:0:0:0:
178,52,93760,5,8,0:0:0:0:
261,25,93922,1,2,0:0:0:0:
224,194,94083,1,2,1:2:0:0:
306,168,94245,1,10,0:0:0:0:
325,83,94406,5,2,0:0:0:0:
159,135,94567,1,2,1:2:0:0:
159,135,94648,1,0,1:0:0:0:
159,135,94728,1,8,0:0:0:0:
288,253,94889,1,0,1:0:0:0:
454,201,95051,1,10,0:0:0:0:
306,168,95212,5,0,1:0:0:0:
306,168,95293,1,0,1:0:0:0:
306,168,95373,2,0,P|213:190|147:257,1,191.999994140625,8|0,0:0|1:0,0:0:0:0:
198,28,95857,6,0,P|146:107|60:147,1,191.999994140625,8|0,0:0|1:0,0:0:0:0:
250,174,96341,6,0,P|169:225|130:311,1,191.999994140625,8|0,0:0|1:0,0:0:0:0:
171,81,96825,6,0,P|95:137|0:145,1,191.999994140625,8|0,0:0|1:0,0:0:0:0:
287,47,97309,6,0,P|329:41|388:66,1,95.9999970703126,8|0,0:0|0:0,0:0:0:0:
326,298,97631,2,0,P|370:315|417:309,1,95.9999970703126,8|0,0:0|0:0,0:0:0:0:
277,152,97954,6,0,P|201:210|170:299,1,191.999994140625,8|0,0:0|1:0,0:0:0:0:
439,188,98438,6,0,P|425:93|363:20,1,191.999994140625,8|0,0:0|1:0,0:0:0:0:
326,310,98922,6,0,P|413:344|506:327,1,191.999994140625,8|0,0:0|1:0,0:0:0:0:
395,136,99406,5,8,0:0:0:0:
304,161,99567,1,0,0:0:0:0:
326,69,99728,1,0,1:0:0:0:
326,69,99809,1,0,1:0:0:0:
326,69,99889,1,8,0:0:0:0:
372,227,100051,1,2,0:0:0:0:
212,188,100212,1,12,0:0:0:0:
304,161,100373,5,0,1:0:0:0:
304,161,100454,1,0,1:0:0:0:
304,161,100535,1,12,0:0:0:0:
190,282,100696,2,0,P|146:294|70:269,1,103.999995239258,2|0,0:0|1:0,0:0:0:0:
263,247,101019,5,8,0:0:0:0:
101,208,101180,2,0,P|68:175|52:97,1,103.999995239258,2|0,0:0|1:0,0:0:0:0:
168,254,101503,5,8,0:0:0:0:
120,94,101664,2,0,P|132:48|191:-3,1,103.999995239258,2|0,0:0|1:0,0:0:0:0:
114,175,101987,5,8,0:0:0:0:
229,53,102148,2,0,P|273:41|349:66,1,103.999995239258,2|0,0:0|1:0,0:0:0:0:
379,107,102389,1,0,1:0:0:0:
379,107,102470,2,0,L|356:237,1,103.999995239258,8|0,0:0|1:0,0:0:0:0:
132,277,102793,2,0,L|113:174,1,103.999995239258,8|0,0:0|1:0,0:0:0:0:
278,126,103115,5,8,0:0:0:0:
393,249,103277,2,0,P|437:261|513:236,1,103.999995239258,2|0,0:0|1:0,0:0:0:0:
368,133,103599,5,8,0:0:0:0:
319,292,103761,2,0,P|330:336|390:389,1,103.999995239258,2|0,0:0|1:0,0:0:0:0:
407,213,104082,5,8,0:0:0:0:
245,250,104244,2,0,P|212:282|196:360,1,103.999995239258,2|0,0:0|1:0,0:0:0:0:
407,213,104567,5,8,0:0:0:0:
245,176,104729,2,0,P|212:143|196:65,1,103.999995239258,2|2,0:0|1:2,0:0:0:0:
194,89,104970,1,0,1:0:0:0:
194,89,105051,1,8,0:0:0:0:
157,256,105212,1,0,1:0:0:0:
321,205,105373,1,10,0:0:0:0:
253,277,105535,5,2,1:2:0:0:
253,277,105615,1,0,1:0:0:0:
253,277,105696,1,8,0:0:0:0:
127,161,105857,2,0,P|73:151|0:192,1,103.999995239258,2|0,0:0|1:0,0:0:0:0:
169,276,106180,5,8,0:0:0:0:
206,108,106341,2,0,P|187:55|115:12,1,103.999995239258,2|0,0:0|1:0,0:0:0:0:
128,201,106664,5,8,0:0:0:0:
292,149,106825,2,0,P|328:106|329:23,1,103.999995239258,2|0,0:0|1:0,0:0:0:0:
172,127,107148,5,8,0:0:0:0:
299,244,107309,2,0,P|353:254|426:213,1,103.999995239258,2|0,0:0|1:0,0:0:0:0:
432,174,107551,1,0,1:0:0:0:
432,174,107631,2,0,L|445:64,1,103.999995239258,8|0,0:0|1:0,0:0:0:0:
215,10,107954,2,0,L|202:113,1,103.999995239258,8|0,0:0|1:0,0:0:0:0:
259,307,108277,6,0,B|294:237|382:242|382:242|345:255|331:273,1,207.999990478516,8|0,0:0|1:0,0:0:0:0:
132,98,108760,6,0,B|174:163|126:236|126:236|134:198|124:177,1,207.999990478516,8|0,0:0|1:0,0:0:0:0:
376,92,109244,6,0,B|298:96|258:17|258:17|287:43|310:46,1,207.999990478516,8|0,0:0|1:0,0:0:0:0:
246,143,109728,5,14,0:0:0:0:
162,111,109889,1,2,0:0:0:0:
78,79,110051,1,2,0:0:0:0:
14,169,110212,6,0,P|-6:216|-1:267,1,103.999995239258,10|0,0:0|0:0,0:0:0:0:
63,303,110454,2,0,L|114:310,1,51.999997619629,0|2,3:0|3:2,0:0:0:0:
218,246,110642,6,0,L|290:256,1,69.3333301595054,0|0,3:0|3:0,0:0:0:0:
340,204,110857,6,0,P|392:260|468:266,2,128,6|8|0,1:2|0:0|0:0,0:0:0:0:
154,288,111825,5,2,0:0:0:0:
154,288,111986,2,0,P|82:283|25:303,1,128,2|0,1:2|1:0,0:0:0:0:
127,188,112470,1,8,0:0:0:0:
35,141,112631,2,0,B|15:116|15:116|20:57|71:23,1,128,0|0,0:0|1:0,0:0:0:0:
183,115,113115,2,0,P|221:117|255:104,1,64,10|2,0:0|0:0,0:0:0:0:
318,47,113438,6,0,P|390:48|446:101,2,128,0|8|0,1:0|0:0|0:0,0:0:0:0:
164,103,114406,5,2,0:0:0:0:
164,103,114567,2,0,P|105:128|29:104,1,128,10|0,0:0|1:0,0:0:0:0:
142,217,115051,1,8,0:0:0:0:
51,248,115212,2,0,B|-9:282|9:346|9:346|40:337,1,128,0|0,0:0|1:0,0:0:0:0:
145,302,115696,2,0,L|207:315,1,64,10|0,0:0|0:0,0:0:0:0:
296,377,116019,6,0,L|426:350,1,128,2|10,1:2|0:0,0:0:0:0:
294,260,116502,2,0,L|164:233,1,128,2|0,0:0|1:0,0:0:0:0:
168,233,116986,1,2,0:0:0:0:
296,143,117148,6,0,L|426:116,1,128,10|0,0:0|1:0,0:0:0:0:
421,116,117631,1,10,0:0:0:0:
295,26,117794,2,0,L|165:-1,1,128,2|0,0:0|1:0,0:0:0:0:
170,0,118277,1,10,0:0:0:0:
59,78,118438,5,2,0:0:0:0:
59,78,118599,2,0,P|126:103|205:96,2,128,0|8|0,1:0|0:0|0:0,0:0:0:0:
8,140,119406,2,0,P|25:180|21:209,1,64,0|0,1:0|0:0,0:0:0:0:
61,281,119728,2,0,P|87:246|114:235,1,64,8|0,0:0|0:0,0:0:0:0:
156,341,120051,6,0,P|187:345|218:354,1,64,0|8,3:0|0:0,0:0:0:0:
280,284,120373,2,0,P|267:254|260:223,1,64,0|0,0:0|1:0,0:0:0:0:
374,329,120696,5,0,1:0:0:0:
376,337,120777,1,0,1:0:0:0:
378,345,120857,1,8,3:0:0:0:
403,343,120938,1,8,3:0:0:0:
421,325,121019,1,8,3:0:0:0:
439,307,121099,1,8,3:0:0:0:
464,305,121180,6,0,B|478:308|504:326|504:326|485:308|475:288,1,80.3999961968996,2|0,3:2|0:0,0:0:0:0:
447,228,121502,6,0,P|358:230|252:151,1,207.999990478516,12|0,0:0|0:0,0:0:0:0:
261,165,121986,1,0,1:0:0:0:
153,36,122148,5,2,0:0:0:0:
105,108,122309,2,0,B|142:111|174:147|174:147|187:104|225:86,1,160,8|0,0:0|1:0,0:0:0:0:
87,205,122793,2,0,P|45:194|-19:188,1,80,8|0,0:0|0:0,0:0:0:0:
119,306,123115,6,0,P|125:331|133:357,1,53.3333333333333,2|0,0:0|0:0,0:0:0:0:
202,322,123330,1,2,0:0:0:0:
202,322,123438,2,0,P|208:296|216:270,1,53.3333333333333,10|0,0:0|0:0,0:0:0:0:
288,241,123653,5,0,1:0:0:0:
288,241,123760,2,0,B|384:235|324:318|462:300,1,160,0|10,1:0|0:0,0:0:0:0:
357,149,124244,2,0,P|367:103|280:26,1,160,2|0,0:0|1:0,0:0:0:0:
159,123,124728,5,2,0:0:0:0:
87,150,124889,2,0,B|33:171|33:171|70:296,1,160,10|0,0:0|1:0,0:0:0:0:
186,319,125373,2,0,B|192:277|192:277|150:224,1,80,8|0,0:0|0:0,0:0:0:0:
99,363,125696,5,2,0:0:0:0:
183,342,125857,1,2,0:0:0:0:
267,321,126019,1,10,0:0:0:0:
343,356,126180,5,0,1:0:0:0:
343,356,126260,1,0,1:0:0:0:
343,356,126341,2,0,B|381:368|381:368|457:324|397:238,1,160,2|10,1:2|0:0,0:0:0:0:
319,186,126825,2,0,P|287:211|243:215,1,80,2|0,0:0|0:0,0:0:0:0:
119,176,127148,5,2,1:2:0:0:
110,92,127309,1,2,0:0:0:0:
187,126,127470,2,0,B|247:116|247:116|271:87|271:87|358:72,1,160,10|0,0:0|1:0,0:0:0:0:
427,159,127954,2,0,B|438:107|438:107|431:127|416:140,1,80,8|0,0:0|0:0,0:0:0:0:
352,202,128277,5,2,0:0:0:0:
268,186,128438,1,2,1:2:0:0:
184,170,128599,1,10,0:0:0:0:
108,211,128760,5,2,1:2:0:0:
108,211,128841,1,0,1:0:0:0:
108,211,128922,2,0,B|65:252|65:252|60:320|119:360,1,160,2|10,1:2|0:0,0:0:0:0:
227,297,129406,2,0,P|264:319|308:317,1,80,2|0,0:0|0:0,0:0:0:0:
365,207,129728,2,0,P|402:185|422:146,1,80,2|0,1:2|0:0,0:0:0:0:
302,73,130051,5,10,0:0:0:0:
231,105,130212,2,0,B|178:106|145:53|145:53|74:31|28:83,1,207.999990478516,2|8,0:0|0:0,0:0:0:0:
47,66,130696,1,0,0:0:0:0:
107,156,130857,5,0,3:0:0:0:
100,183,130965,1,0,1:0:0:0:
93,210,131072,1,0,1:0:0:0:
0,225,131180,5,0,3:0:0:0:
7,252,131288,1,0,1:0:0:0:
14,279,131395,1,0,1:0:0:0:
53,352,131502,6,0,B|95:347|132:384|132:384|143:332|199:317,1,176.000005371094,6|10,1:2|0:0,0:0:0:0:
266,236,131986,2,0,P|227:205|162:213,1,88.000002685547,2|0,0:0|0:0,0:0:0:0:
103,105,132309,2,0,P|146:99|178:70,1,88.000002685547,2|0,1:2|0:0,0:0:0:0:
309,33,132631,5,10,1:2:0:0:
309,33,132712,1,2,0:0:0:0:
309,33,132793,2,0,B|351:46|351:46|356:49|356:49|405:66,1,88.000002685547,2|0,0:0|1:0,0:0:0:0:
394,88,133035,1,2,0:0:0:0:
394,88,133115,2,0,B|436:101|436:101|441:104|441:104|490:121,1,88.000002685547,8|2,0:0|0:0,0:0:0:0:
405,213,133438,6,0,P|371:193|317:195,1,88.000002685547,2|0,0:0|1:0,0:0:0:0:
377,337,133760,2,0,P|333:337|295:316,1,88.000002685547,10|0,0:0|0:0,0:0:0:0:
176,169,134083,6,0,L|146:343,1,176.000005371094,2|10,1:2|0:0,0:0:0:0:
0,230,134567,2,0,L|124:251,1,88.000002685547,2|0,0:0|0:0,0:0:0:0:
207,200,134889,2,0,L|331:221,1,88.000002685547,2|0,1:2|0:0,0:0:0:0:
186,45,135212,6,0,P|119:109|24:80,1,176.000005371094,2|0,1:2|1:0,0:0:0:0:
207,200,135696,2,0,L|228:324,1,88.000002685547,12|0,0:0|0:0,0:0:0:0:
361,222,136019,5,0,1:0:0:0:
361,222,136099,1,0,1:0:0:0:
377,122,136260,5,0,1:0:0:0:
377,122,136341,1,8,0:0:0:0:
455,185,136502,5,2,1:2:0:0:
455,185,136583,1,0,1:0:0:0:
455,185,136664,2,0,B|498:214|498:214|512:290|450:333,1,160,6|2,1:2|1:2,0:0:0:0:
364,336,137148,2,0,P|323:313|253:309,1,80,2|0,0:0|1:0,0:0:0:0:
199,250,137470,2,0,P|158:274|120:332,1,80,0|0,0:0|1:0,0:0:0:0:
15,208,137793,5,2,0:0:0:0:
80,172,137954,2,0,P|114:121|81:34,1,160,2|2,1:2|1:2,0:0:0:0:
223,103,138438,2,0,L|322:81,1,80,0|0,0:0|1:0,0:0:0:0:
381,18,138760,2,0,P|438:38|460:88,1,80,0|0,0:0|1:0,0:0:0:0:
506,175,139083,5,10,0:0:0:0:
471,243,139244,2,0,B|449:290|394:287|394:287|356:217|251:238,1,207.999990478516,6|2,1:2|1:2,0:0:0:0:
438,318,139728,1,2,0:0:0:0:
302,234,139889,2,0,P|228:278|217:354,1,160,0|2,1:0|1:2,0:0:0:0:
81,269,140373,5,2,0:0:0:0:
81,269,140535,2,0,P|115:189|79:121,1,160,0|2,1:0|1:2,0:0:0:0:
15,321,141019,1,2,0:0:0:0:
136,208,141180,2,0,B|185:163|255:167|303:216|303:216|288:233|253:235,1,207.999990478516,4|2,1:2|1:2,0:0:0:0:
286,228,141664,1,2,0:0:0:0:
134,102,141825,6,0,B|108:148|42:139|42:139|33:72|82:46,1,207.999990478516,4|0,1:2|1:0,0:0:0:0:
196,0,142309,5,0,3:0:0:0:
271,48,142470,1,0,1:0:0:0:
113,128,142631,1,0,3:0:0:0:
186,176,142793,1,0,1:0:0:0:
266,136,142954,1,0,3:0:0:0:
117,39,143115,5,0,3:0:0:0:
393,67,143330,1,4,3:2:0:0:
87,315,143545,1,0,3:0:0:0:
364,344,143760,1,4,3:2:0:0:
137,167,144406,6,0,P|133:115|173:46,1,103.999995239258,0|0,1:0|0:0,0:0:0:0:
375,217,144728,2,0,P|379:269|339:338,1,103.999995239258,8|0,0:0|0:0,0:0:0:0:
147,189,145051,5,0,1:0:0:0:
252,154,145212,1,0,1:0:0:0:
41,223,145373,1,10,0:0:0:0:
252,154,145535,2,0,B|375:164|313:63|479:77,1,207.999990478516,2|0,1:2|1:0,0:0:0:0:
268,21,146019,5,8,0:0:0:0:
268,21,146099,1,0,1:0:0:0:
149,97,146260,5,0,1:0:0:0:
149,97,146341,2,0,L|176:228,1,103.999995239258,0|0,1:0|1:0,0:0:0:0:
359,304,146664,2,0,L|379:202,1,103.999995239258,10|0,0:0|0:0,0:0:0:0:
192,24,146986,6,0,P|152:13|73:54,1,103.999995239258,2|0,1:2|0:0,0:0:0:0:
280,209,147309,2,0,P|320:220|399:179,1,103.999995239258,8|0,0:0|0:0,0:0:0:0:
149,97,147631,5,0,1:0:0:0:
44,130,147792,1,0,1:0:0:0:
253,63,147953,1,10,0:0:0:0:
333,0,148115,5,2,0:0:0:0:
266,157,148277,1,2,1:2:0:0:
357,299,148438,1,2,1:2:0:0:
227,226,148599,5,10,0:0:0:0:
227,226,148760,1,2,0:0:0:0:
100,306,148922,5,2,1:2:0:0:
186,157,149083,1,2,1:2:0:0:
113,6,149244,1,14,0:0:0:0:
177,61,149567,6,0,P|97:48|8:119,1,176.000005371094,2|8,1:2|0:0,0:0:0:0:
231,124,150051,2,0,P|178:62|64:59,1,176.000005371094,2|0,0:0|1:0,0:0:0:0:
217,205,150535,1,10,0:0:0:0:
377,204,150696,6,0,P|457:189|516:91,1,176.000005371094,2|0,1:2|1:0,0:0:0:0:
359,0,151180,1,10,0:0:0:0:
305,164,151341,6,0,P|376:204|484:167,1,176.000005371094,2|0,0:0|1:0,0:0:0:0:
269,53,151825,2,0,P|221:75|195:144,1,88.000002685547,10|0,0:0|0:0,0:0:0:0:
138,210,152148,6,0,P|216:231|266:334,1,176.000005371094,2|8,1:2|0:0,0:0:0:0:
65,244,152631,2,0,P|139:210|243:256,1,176.000005371094,2|0,0:0|1:0,0:0:0:0:
30,316,153115,1,10,0:0:0:0:
153,186,153277,6,0,P|186:111|140:7,1,176.000005371094,2|0,1:2|1:0,0:0:0:0:
14,98,153760,1,10,0:0:0:0:
168,197,153922,6,0,P|180:184|194:157,2,44.0000013427735,2|0|0,0:0|0:0|1:0,0:0:0:0:
158,25,154244,5,8,3:0:0:0:
161,36,154325,1,8,3:0:0:0:
164,47,154406,1,0,3:0:0:0:
194,64,154486,1,0,3:0:0:0:
229,67,154567,1,0,3:0:0:0:
262,54,154648,1,0,3:0:0:0:
285,23,154728,6,0,B|373:35|373:35|361:153,1,191.999994140625,4|8,1:2|0:0,0:0:0:0:
512,221,155212,2,0,B|414:180|424:283|304:235,1,191.999994140625,2|0,0:0|1:0,0:0:0:0:
473,324,155696,1,10,0:0:0:0:
329,243,155857,6,0,P|228:232|158:292,1,191.999994140625,2|0,1:2|1:0,0:0:0:0:
269,360,156341,5,8,0:0:0:0:
269,360,156422,1,0,1:0:0:0:
401,284,156583,5,0,1:0:0:0:
401,284,156664,2,0,P|413:240|371:173,1,95.9999970703126,2|0,1:2|1:0,0:0:0:0:
245,348,156986,2,0,P|207:322|194:244,1,95.9999970703126,10|0,0:0|0:0,0:0:0:0:
370,106,157309,6,0,P|337:73|258:76,1,95.9999970703126,6|0,1:2|0:0,0:0:0:0:
289,65,157551,1,0,1:0:0:0:
289,65,157631,1,10,0:0:0:0:
128,175,157793,6,0,P|172:163|209:93,1,95.9999970703126,2|0,1:2|0:0,0:0:0:0:
28,42,158115,6,0,P|60:74|139:71,1,95.9999970703126,2|0,1:2|0:0,0:0:0:0:
30,182,158438,6,0,P|-8:278|50:407,1,207.999990478516,6|0,1:2|1:0,0:0:0:0:
173,245,158922,2,0,P|225:249|276:302,1,103.999995239258,8|0,0:0|0:0,0:0:0:0:
382,375,159244,2,0,P|434:371|485:318,1,103.999995239258,0|8,3:0|3:0,0:0:0:0:
478,269,159486,1,0,3:0:0:0:
478,269,159567,2,0,L|425:248,1,51.999997619629,0|0,3:0|3:0,0:0:0:0:
407,175,159728,2,0,L|358:155,1,51.999997619629,2|0,3:2|3:0,0:0:0:0:
281,171,159889,6,0,B|179:190|210:100|88:115,1,191.999994140625,6|10,1:2|0:0,0:0:0:0:
45,222,160373,1,2,0:0:0:0:
111,277,160535,1,0,1:0:0:0:
126,192,160696,1,0,1:0:0:0:
34,75,160857,1,10,0:0:0:0:
106,113,161019,6,0,B|208:132|177:42|299:57,1,191.999994140625,6|0,1:2|1:0,0:0:0:0:
127,17,161502,1,10,0:0:0:0:
280,55,161664,2,0,P|356:108|350:202,1,191.999994140625,2|0,0:0|1:0,0:0:0:0:
187,147,162148,1,10,0:0:0:0:
51,207,162309,6,0,P|11:290|69:379,1,207.999990478516,6|0,1:2|1:0,0:0:0:0:
238,279,162793,5,8,0:0:0:0:
183,133,162954,1,0,1:0:0:0:
384,224,163116,5,8,0:0:0:0:
329,78,163277,1,0,1:0:0:0:
336,301,163438,5,8,0:0:0:0:
212,206,163599,1,0,1:0:0:0:
57,245,163760,1,12,0:0:0:0:
256,192,163841,12,2,165051,0:0:0:0:
256,192,165131,12,6,166019,0:0:0:0:
129,141,166341,6,0,P|65:209|93:314,1,176.000005371094,4|8,1:2|0:0,0:0:0:0:
197,67,166825,2,0,P|106:45|29:122,1,176.000005371094,4|0,1:2|1:0,0:0:0:0:
294,87,167309,5,8,0:0:0:0:
326,184,167470,2,0,P|416:205|493:128,1,176.000005371094,4|0,1:2|1:0,0:0:0:0:
242,284,167954,6,0,P|285:285|324:307,1,88.000002685547,8|0,0:0|0:0,0:0:0:0:
91,266,168277,2,0,P|128:243|171:240,1,88.000002685547,0|0,1:0|0:0,0:0:0:0:
27,350,168599,6,0,L|-7:245,1,88.000002685547,8|2,0:0|0:0,0:0:0:0:
28,97,168922,2,0,L|55:180,1,88.000002685547,0|0,0:0|1:0,0:0:0:0:
55,180,169164,1,0,1:0:0:0:
55,180,169244,1,8,0:0:0:0:
174,106,169406,6,0,P|212:92|270:117,1,88.000002685547,2|2,0:0|0:0,0:0:0:0:
314,178,169674,6,0,P|355:190|396:176,1,58.6666684570313,2|2,0:0|0:0,0:0:0:0:
442,131,169889,5,14,0:0:0:0:
442,131,169997,2,0,L|420:60,1,58.6666684570313,2|2,0:0|0:0,0:0:0:0:
292,46,170212,5,6,1:2:0:0:
219,164,170373,1,2,0:0:0:0:
147,283,170535,1,10,0:0:0:0:
308,336,170696,6,0,B|349:366|394:334|402:295|386:227|302:207,1,207.999990478516,6|0,1:2|0:0,0:0:0:0:
141,296,171180,1,8,0:0:0:0:
32,185,171341,6,0,B|-3:156|-6:120|-6:120|14:46|99:20,1,207.999990478516,4|0,1:2|0:0,0:0:0:0:
207,148,171825,6,0,P|216:194|185:251,1,88.000002685547,8|0,0:0|1:0,0:0:0:0:
177,241,172067,1,0,1:0:0:0:
177,241,172148,2,0,P|138:221|114:184,1,88.000002685547,0|0,1:0|1:0,0:0:0:0:
234,55,172470,6,0,P|272:74|296:111,1,88.000002685547,8|0,0:0|0:0,0:0:0:0:
444,137,172793,2,0,P|405:156|381:193,1,88.000002685547,0|0,1:2|1:0,0:0:0:0:
376,216,173035,1,0,1:0:0:0:
376,216,173115,2,0,P|379:258|405:294,1,88.000002685547,8|0,0:0|0:0,0:0:0:0:
306,377,173438,6,0,P|269:353|226:351,1,88.000002685547,4|0,1:2|1:0,0:0:0:0:
157,368,173680,1,0,1:0:0:0:
157,368,173760,2,0,L|131:287,1,44.0000013427735,8|8,0:0|3:0,0:0:0:0:
186,262,173922,2,0,L|172:220,1,44.0000013427735,0|0,3:0|3:0,0:0:0:0:
130,154,174083,6,0,P|93:178|44:179,1,88.000002685547,4|2,1:2|0:0,0:0:0:0:
163,53,174406,1,8,0:0:0:0:
324,86,174567,6,0,P|399:103|458:220,1,176.000005371094,4|0,1:2|1:0,0:0:0:0:
234,119,175051,1,8,0:0:0:0:
313,303,175212,6,0,P|261:360|130:352,1,176.000005371094,4|0,1:2|1:0,0:0:0:0:
126,202,175696,2,0,P|150:237|191:253,1,88.000002685547,8|0,0:0|0:0,0:0:0:0:
55,120,176019,2,0,P|36:159|43:202,1,88.000002685547,0|0,0:0|1:0,0:0:0:0:
146,83,176341,6,0,P|138:60|99:30,2,58.6666684570313,10|2|2,0:0|0:0|0:0,0:0:0:0:
222,79,176664,2,0,P|237:60|244:11,2,58.6666684570313,2|2|2,1:2|0:0|0:0,0:0:0:0:
263,142,176986,2,0,P|286:146|332:127,2,58.6666684570313,10|2|2,0:0|0:0|0:0,0:0:0:0:
228,209,177309,6,0,P|266:224|297:271,1,88.000002685547,2|0,1:2|0:0,0:0:0:0:
413,155,177631,2,0,P|419:195|393:245,1,88.000002685547,8|0,0:0|0:0,0:0:0:0:
197,303,177954,5,6,1:2:0:0:
125,184,178116,1,2,0:0:0:0:
52,66,178277,1,10,0:0:0:0:
235,100,178438,6,0,B|333:127|319:26|431:40,1,207.999990478516,6|8,1:2|0:0,0:0:0:0:
331,176,178922,1,0,3:0:0:0:
413,155,179083,6,0,P|482:180|506:250,2,128,2|2|2,1:2|0:0|0:0,0:0:0:0:
256,192,180212,12,2,183599,0:0:0:0:
256,192,183680,12,2,185373,0:0:0:0:
256,192,185454,12,2,186664,0:0:0:0:
256,192,186744,12,2,188760,0:0:0:0:
150,228,189083,5,8,0:0:0:0:
278,88,189244,1,8,0:0:0:0:
333,269,189406,1,8,0:0:0:0:
210,166,189567,6,0,B|187:143|187:143|127:133|127:133|121:133|121:133|50:122|50:122|80:103,1,191.999994140625,14|2,0:0|3:2,0:0:0:0:
255,9,190051,6,0,B|236:28|236:28|315:44|315:44|334:41|334:41|434:66,1,191.999994140625,10|0,0:0|1:0,0:0:0:0:
421,88,190454,2,0,B|440:102|440:102|496:93,1,47.9999985351563,0|2,1:0|1:2,0:0:0:0:
332,208,190696,6,0,B|268:218|268:218|247:193|247:193|169:177|169:177|134:206,1,191.999994140625,14|0,0:0|1:0,0:0:0:0:
132,219,191099,2,0,B|117:227|117:227|49:220,1,47.9999985351563,0|2,1:0|1:2,0:0:0:0:
210,370,191341,6,0,B|194:360|194:360|245:353|245:353|270:361|270:361|297:340|297:340|385:325,1,191.999994140625,14|0,0:0|1:0,0:0:0:0:
359,340,191744,1,0,1:0:0:0:
361,349,191825,1,8,0:0:0:0:
433,197,191987,5,2,1:2:0:0:
428,208,192067,1,0,1:0:0:0:
424,219,192148,2,0,B|373:203|373:203|349:111|349:111|277:93,1,191.999994140625,10|2,0:0|1:2,0:0:0:0:
195,228,192631,6,0,B|164:252|164:252|101:236|101:236|88:222|88:222|8:201,1,191.999994140625,14|0,0:0|1:0,0:0:0:0:
0,168,193035,2,0,B|2:142|2:142|26:108,1,47.9999985351563,0|2,1:0|1:2,0:0:0:0:
170,21,193277,6,0,B|145:34|145:34|220:56|220:56|244:50|244:50|328:76,1,191.999994140625,14|0,0:0|1:0,0:0:0:0:
341,52,193680,2,0,B|352:47|352:47|402:59,1,47.9999985351563,0|2,1:0|1:2,0:0:0:0:
446,259,193922,6,0,B|478:307|478:307|296:254|296:254|349:240,1,272.000005187988,14|0,0:0|1:0,0:0:0:0:
336,245,194325,1,0,1:0:0:0:
348,289,194406,1,8,3:0:0:0:
323,327,194486,1,8,3:0:0:0:
278,337,194567,1,8,3:0:0:0:
238,312,194648,1,8,3:0:0:0:
230,268,194728,6,0,B|185:235|185:235|69:260|69:260|105:278,1,207.999990478516,6|14,1:2|0:0,0:0:0:0:
172,111,195212,6,0,B|252:92|252:92|272:60|272:60|385:29,1,207.999990478516,2|0,0:0|1:0,0:0:0:0:
187,10,195696,1,6,0:0:0:0:
368,144,195857,6,0,B|432:188|432:188|406:360,1,207.999990478516,10|0,0:0|1:0,0:0:0:0:
512,219,196341,1,14,0:0:0:0:
286,302,196502,5,2,0:0:0:0:
247,213,196664,1,6,0:0:0:0:
247,213,196744,1,8,3:0:0:0:
247,213,196825,1,0,1:0:0:0:
343,225,196986,1,12,0:0:0:0:
176,295,197148,5,2,1:2:0:0:
178,303,197228,1,0,1:0:0:0:
180,312,197309,2,0,B|103:333|103:333|66:199,1,207.999990478516,6|14,1:2|0:0,0:0:0:0:
210,77,197793,6,0,B|235:60|235:60|284:71|284:71|310:92|310:92|341:81|341:81|403:93,1,207.999990478516,2|0,0:0|1:0,0:0:0:0:
326,0,198277,1,6,0:0:0:0:
239,168,198438,6,0,B|193:191|193:191|92:135|92:135|48:157,1,207.999990478516,10|0,0:0|1:0,0:0:0:0:
201,90,198922,1,14,0:0:0:0:
90,239,199083,5,2,0:0:0:0:
176,296,199244,1,6,0:0:0:0:
176,296,199325,1,8,3:0:0:0:
176,296,199406,1,0,1:0:0:0:
273,261,199567,1,12,0:0:0:0:
201,90,199728,5,2,1:2:0:0:
196,81,199809,1,0,1:0:0:0:
191,72,199889,2,0,B|179:49|179:49|269:31|269:31|283:19|283:19|368:3,1,207.999990478516,6|10,1:2|0:0,0:0:0:0:
466,134,200373,5,2,0:0:0:0:
385,104,200535,1,2,0:0:0:0:
450,50,200696,1,0,1:0:0:0:
400,187,200857,1,2,0:0:0:0:
251,143,201019,6,0,B|210:112|210:112|18:135,1,207.999990478516,10|0,0:0|1:0,0:0:0:0:
166,32,201502,1,8,0:0:0:0:
186,206,201664,5,2,0:0:0:0:
103,282,201825,1,2,0:0:0:0:
103,282,201906,1,8,3:0:0:0:
103,282,201986,1,0,1:0:0:0:
164,377,202148,2,0,B|175:341|175:341|193:320|193:320|206:271,1,103.999995239258,8|0,0:0|1:0,0:0:0:0:
273,272,202389,5,0,1:0:0:0:
273,272,202470,2,0,B|298:299|298:299|307:325|307:325|343:361,1,103.999995239258,2|2,0:0|0:0,0:0:0:0:
224,212,202793,1,8,0:0:0:0:
381,234,202954,6,0,B|392:198|392:198|410:176|410:176|423:128,1,103.999995239258,2|2,0:0|0:0,0:0:0:0:
307,198,203277,2,0,B|318:162|318:162|336:140|336:140|345:103,1,103.999995239258,0|0,1:0|0:0,0:0:0:0:
223,11,203599,6,0,B|150:23|150:23|121:46|121:46|87:34|87:34|-7:51,1,207.999990478516,10|0,0:0|1:0,0:0:0:0:
99,167,204083,2,0,B|152:173|152:173|207:133,1,103.999995239258,12|2,0:0|0:0,0:0:0:0:
25,200,204406,2,0,B|-6:242|-6:242|0:309,1,103.999995239258,2|8,3:2|3:0,0:0:0:0:
59,337,204648,5,8,3:0:0:0:
59,337,204728,2,0,B|76:310|76:310|70:253,1,51.999997619629,8|8,3:0|3:0,0:0:0:0:
172,254,204889,6,0,B|169:273|169:273|186:300,1,51.999997619629,8|8,3:0|3:0,0:0:0:0:
270,357,205051,6,0,B|252:350|252:350|314:340|314:340|345:347|345:347|376:317|376:317|468:301,1,207.999990478516,6|8,1:2|0:0,0:0:0:0:
290,171,205535,6,0,B|304:202|304:202|103:151,1,207.999990478516,2|0,0:0|1:0,0:0:0:0:
135,159,206019,1,2,0:0:0:0:
277,39,206180,6,0,B|320:13|320:13|390:34|390:34|395:40|395:40|485:69,1,207.999990478516,10|0,0:0|1:0,0:0:0:0:
311,156,206664,1,8,0:0:0:0:
439,148,206825,5,2,0:0:0:0:
483,246,206986,1,2,0:0:0:0:
483,246,207067,1,8,3:0:0:0:
483,246,207148,1,0,1:0:0:0:
403,318,207309,1,8,0:0:0:0:
252,267,207470,5,0,1:0:0:0:
257,259,207551,1,0,1:0:0:0:
262,251,207631,2,0,B|246:232|246:232|145:216,1,103.999995239258,2|2,1:2|0:0,0:0:0:0:
18,201,207954,1,8,0:0:0:0:
141,338,208115,6,0,B|162:295|162:295|139:220,1,103.999995239258,2|2,0:0|0:0,0:0:0:0:
262,162,208438,2,0,B|235:122|235:122|158:104,1,103.999995239258,0|0,1:0|0:0,0:0:0:0:
33,36,208760,6,0,B|18:55|18:55|113:33|113:33|135:10|135:10|169:13|169:13|261:-11,1,240.000009155274,12|0,0:0|1:0,0:0:0:0:
402,68,209244,5,8,0:0:0:0:
396,94,209352,1,8,0:0:0:0:
390,120,209459,1,8,0:0:0:0:
312,209,209567,5,0,3:0:0:0:
306,183,209674,1,0,3:0:0:0:
300,157,209782,1,0,3:0:0:0:
409,224,209889,5,8,3:0:0:0:
392,298,209997,1,8,3:0:0:0:
336,246,210105,1,8,3:0:0:0:
418,217,210212,6,0,P|474:252|480:325,1,128,6|0,1:2|1:0,0:0:0:0:
386,379,210696,2,0,P|320:358|241:367,1,128,2|0,0:0|0:0,0:0:0:0:
262,361,211180,1,2,1:2:0:0:
181,299,211341,2,0,L|197:228,1,64,2|0,0:0|1:0,0:0:0:0:
104,283,211664,2,0,L|120:212,1,64,0|0,0:0|1:0,0:0:0:0:
136,123,211986,5,2,0:0:0:0:
64,147,212148,2,0,P|32:146|3:133,1,64,2|0,1:2|0:0,0:0:0:0:
124,46,212470,2,0,P|156:47|185:60,1,64,2|0,1:2|0:0,0:0:0:0:
255,157,212793,6,0,P|325:163|384:121,1,128,2|2,1:2|1:2,0:0:0:0:
296,41,213277,2,0,P|351:10|413:18,1,128,2|0,0:0|0:0,0:0:0:0:
413,18,213760,1,2,1:2:0:0:
487,114,213922,2,0,L|473:176,1,64,2|0,0:0|1:0,0:0:0:0:
411,96,214244,2,0,L|397:158,1,64,0|0,0:0|1:0,0:0:0:0:
415,261,214567,5,0,1:0:0:0:
415,261,214648,1,0,1:0:0:0:
415,261,214728,2,0,B|453:285|453:285|495:275,1,80,8|0,0:0|1:0,0:0:0:0:
381,340,215051,2,0,B|343:364|343:364|301:354,1,80,8|2,0:0|0:0,0:0:0:0:
165,275,215373,6,0,P|197:223|322:232,1,176.000005371094,6|0,1:2|1:0,0:0:0:0:
194,203,215857,2,0,P|149:193|115:129,1,88.000002685547,2|0,0:0|1:0,0:0:0:0:
210,89,216180,2,0,P|196:45|234:-16,1,88.000002685547,0|0,0:0|1:0,0:0:0:0:
365,61,216502,5,2,0:0:0:0:
426,105,216664,2,0,P|459:171|422:280,1,176.000005371094,2|0,1:2|1:0,0:0:0:0:
321,311,217148,2,0,P|291:286|236:277,1,88.000002685547,2|0,0:0|1:0,0:0:0:0:
114,327,217470,2,0,L|204:364,1,88.000002685547,0|0,0:0|1:0,0:0:0:0:
148,176,217793,5,10,0:0:0:0:
87,222,217954,2,0,B|64:242|26:238|26:238|-27:169|33:100,1,207.999990478516,6|0,1:2|1:0,0:0:0:0:
144,40,218438,1,2,0:0:0:0:
240,134,218599,2,0,P|312:165|420:117,1,176.000005371094,0|0,1:0|0:0,0:0:0:0:
331,24,219083,5,2,0:0:0:0:
331,24,219244,2,0,B|415:-9|478:60|478:60|472:72|461:80,1,176.000005371094,0|2,1:0|1:2,0:0:0:0:
388,190,219728,1,2,0:0:0:0:
245,143,219889,2,0,B|199:125|199:125|144:127|94:181|99:235,1,207.999990478516,4|2,1:2|1:2,0:0:0:0:
98,229,220373,1,2,0:0:0:0:
321,301,220535,6,0,B|343:341|418:325|445:244|374:175,1,207.999990478516,4|0,1:2|1:0,0:0:0:0:
318,82,221019,5,0,3:0:0:0:
228,49,221180,1,0,1:0:0:0:
172,204,221341,1,0,3:0:0:0:
262,237,221503,1,0,1:0:0:0:
245,142,221664,1,0,3:0:0:0:
189,299,221825,5,0,1:0:0:0:
155,109,221986,1,0,3:0:0:0:
336,174,222148,1,0,1:0:0:0:
189,299,222309,1,8,0:0:0:0:
298,278,222470,5,0,1:0:0:0:
116,213,222631,1,8,0:0:0:0:
264,89,222793,1,0,1:0:0:0:
298,278,222954,1,8,0:0:0:0:
155,109,223115,1,0,1:0:0:0:
372,69,224406,5,6,1:2:0:0:
256,192,224486,12,0,225535,0:0:0:0:
285,289,225696,6,0,P|336:289|380:263,1,103.999995239258,6|0,1:2|0:0,0:0:0:0:
227,95,226019,2,0,P|175:94|131:120,1,103.999995239258,8|0,0:0|0:0,0:0:0:0:
270,274,226341,5,0,1:0:0:0:
366,191,226502,1,0,1:0:0:0:
149,230,226664,1,10,0:0:0:0:
225,19,226825,2,0,P|283:84|420:60,1,207.999990478516,2|0,1:2|1:0,0:0:0:0:
253,170,227309,5,8,0:0:0:0:
253,170,227389,1,0,1:0:0:0:
346,257,227551,5,0,1:0:0:0:
346,257,227631,2,0,P|396:243|462:272,1,103.999995239258,0|0,1:0|1:0,0:0:0:0:
215,355,227954,2,0,P|222:303|275:255,1,103.999995239258,10|0,0:0|0:0,0:0:0:0:
396,78,228277,6,0,P|347:97|279:76,1,103.999995239258,2|0,1:2|0:0,0:0:0:0:
83,224,228599,2,0,P|131:204|199:225,1,103.999995239258,8|0,0:0|0:0,0:0:0:0:
383,270,228922,5,0,1:0:0:0:
294,336,229083,1,0,1:0:0:0:
473,204,229244,1,10,0:0:0:0:
383,175,229406,5,2,0:0:0:0:
260,14,229567,1,2,1:2:0:0:
99,137,229728,1,2,1:2:0:0:
246,116,229889,5,10,0:0:0:0:
246,116,230051,1,2,0:0:0:0:
107,56,230212,5,2,1:2:0:0:
230,217,230373,1,2,1:2:0:0:
391,94,230534,1,14,0:0:0:0:
323,140,230857,6,0,P|260:102|139:133,1,176.000005371094,2|8,1:2|0:0,0:0:0:0:
356,222,231341,2,0,P|332:152|219:98,1,176.000005371094,2|0,0:0|1:0,0:0:0:0:
328,306,231825,1,10,0:0:0:0:
171,237,231986,6,0,P|98:222|-4:293,1,176.000005371094,2|0,1:2|1:0,0:0:0:0:
231,302,232470,1,10,0:0:0:0:
95,205,232631,5,0,1:0:0:0:
95,205,232712,1,0,1:0:0:0:
95,205,232793,2,0,P|52:182|29:111,1,88.000002685547,0|0,1:0|1:0,0:0:0:0:
262,114,233115,2,0,P|259:70|235:34,1,88.000002685547,10|0,0:0|0:0,0:0:0:0:
246,184,233438,6,0,P|287:121|409:99,1,176.000005371094,2|8,1:2|0:0,0:0:0:0:
253,269,233922,2,0,P|244:194|324:99,1,176.000005371094,2|0,0:0|1:0,0:0:0:0:
313,330,234406,1,10,0:0:0:0:
156,242,234567,6,0,P|81:233|-13:313,1,176.000005371094,2|0,1:2|1:0,0:0:0:0:
219,302,235051,1,10,0:0:0:0:
78,217,235212,6,0,P|59:204|39:159,2,44.0000013427735,2|0|0,0:0|0:0|1:0,0:0:0:0:
219,302,235535,5,8,3:0:0:0:
229,292,235615,1,8,3:0:0:0:
239,282,235696,1,0,3:0:0:0:
266,304,235777,1,0,3:0:0:0:
299,315,235857,1,0,3:0:0:0:
333,309,235938,1,0,3:0:0:0:
364,287,236019,6,0,B|378:241|378:241|330:163|388:68,1,191.999994140625,6|10,1:2|0:0,0:0:0:0:
221,201,236502,2,0,P|119:215|46:147,1,191.999994140625,2|0,0:0|1:0,0:0:0:0:
116,298,236986,1,10,0:0:0:0:
53,162,237148,6,0,B|17:83|86:34|86:34|65:61|65:97,1,191.999994140625,2|0,1:2|1:0,0:0:0:0:
208,108,237631,5,8,0:0:0:0:
208,108,237712,1,0,1:0:0:0:
316,35,237873,5,0,1:0:0:0:
316,35,237954,2,0,P|366:37|421:85,1,95.9999970703126,2|0,1:2|1:0,0:0:0:0:
208,108,238277,2,0,P|194:157|223:223,1,95.9999970703126,10|0,0:0|0:0,0:0:0:0:
416,199,238599,6,0,P|388:241|319:264,1,95.9999970703126,6|0,1:2|1:0,0:0:0:0:
348,261,238841,1,0,1:0:0:0:
348,261,238922,1,10,0:0:0:0:
114,216,239083,6,0,P|142:258|211:281,1,95.9999970703126,2|0,1:2|0:0,0:0:0:0:
28,156,239406,6,0,P|6:201|20:272,1,95.9999970703126,2|0,1:2|0:0,0:0:0:0:
43,45,239728,6,0,B|97:51|128:100|128:100|151:42|210:28,1,207.999990478516,6|0,1:2|1:0,0:0:0:0:
342,145,240212,5,10,0:0:0:0:
342,119,240293,1,0,0:0:0:0:
317,111,240374,1,2,0:0:0:0:
302,132,240455,1,0,0:0:0:0:
317,154,240535,2,0,P|288:126|225:119,1,103.999995239258,0|8,3:0|3:0,0:0:0:0:
173,166,240777,1,0,3:0:0:0:
173,166,240857,2,0,P|143:172|111:203,1,51.999997619629,0|0,3:0|3:0,0:0:0:0:
137,253,241019,2,0,P|114:273|101:316,1,51.999997619629,2|0,3:2|3:0,0:0:0:0:
187,321,241180,6,0,P|279:282|388:316,1,191.999994140625,6|10,1:2|0:0,0:0:0:0:
479,248,241664,1,2,0:0:0:0:
410,196,241825,1,0,1:0:0:0:
488,162,241986,1,0,1:0:0:0:
397,58,242148,1,10,0:0:0:0:
346,117,242309,6,0,B|309:141|267:126|267:126|215:70|139:99,1,191.999994140625,6|0,1:2|1:0,0:0:0:0:
305,32,242793,1,10,0:0:0:0:
191,186,242954,6,0,B|171:312|171:312|181:276|208:256,1,191.999994140625,2|0,0:0|1:0,0:0:0:0:
85,164,243438,1,10,0:0:0:0:
204,258,243599,6,0,B|243:286|291:271|291:271|327:210|416:215,1,207.999990478516,6|0,1:2|1:0,0:0:0:0:
265,162,244083,5,8,0:0:0:0:
377,304,244244,1,0,1:0:0:0:
351,131,244406,5,8,0:0:0:0:
495,239,244567,1,0,1:0:0:0:
499,111,244728,5,8,0:0:0:0:
355,219,244889,1,0,1:0:0:0:
285,76,245051,6,0,P|329:50|403:61,1,103.999995239258,10|0,0:0|1:0,0:0:0:0:
422,112,245293,5,2,1:2:0:0:
422,112,245373,2,0,B|427:130|427:130|418:167,1,51.999997619629,8|0,0:0|1:0,0:0:0:0:
355,219,245535,6,0,B|350:237|350:237|359:274,1,51.999997619629,2|0,1:2|1:0,0:0:0:0:
431,314,245696,6,0,L|488:322,1,47.9999985351563,10|0,0:0|1:0,0:0:0:0:
362,366,245857,6,0,L|305:374,1,47.9999985351563,0|2,1:0|1:2,0:0:0:0:
256,293,246019,6,0,P|235:283|178:294,1,47.9999985351563,8|8,0:0|0:0,0:0:0:0:
154,357,246180,6,0,P|133:367|76:356,1,47.9999985351563,2|0,1:2|1:0,0:0:0:0:
115,275,246341,6,0,B|102:261|102:261|93:196|93:196|96:187|96:187|81:81|81:81|68:114,1,223.999993164063,6|12,1:2|0:0,0:0:0:0:
22,262,246825,1,0,1:0:0:0:
0,179,246986,5,12,0:0:0:0:
206,217,247148,1,0,1:0:0:0:
256,293,247309,5,14,0:0:0:0:
411,160,247471,1,2,1:2:0:0:
280,164,247631,6,0,P|243:134|148:143,1,111.999996582031,12|2,0:0|0:0,0:0:0:0:
419,250,247954,2,0,P|463:232|503:146,1,111.999996582031,12|0,0:0|1:0,0:0:0:0:
180,128,248277,6,0,P|166:82|212:-1,1,111.999996582031,12|0,0:0|1:0,0:0:0:0:
332,256,248599,2,0,P|345:301|299:385,1,111.999996582031,14|0,0:0|1:0,0:0:0:0:
239,173,248922,6,0,P|132:190|83:267,1,167.999994873047,14|0,0:0|1:0,0:0:0:0:
95,231,249244,5,12,0:0:0:0:
245,372,249406,1,0,1:0:0:0:
221,296,249567,5,12,0:0:0:0:
419,229,249728,1,0,1:0:0:0:
447,307,249889,5,14,0:0:0:0:
494,105,250051,1,2,1:2:0:0:
314,178,250212,6,0,P|254:181|194:126,1,111.999996582031,12|0,0:0|0:0,0:0:0:0:
366,0,250535,2,0,P|398:50|380:129,1,111.999996582031,12|0,0:0|1:0,0:0:0:0:
131,178,250857,6,0,P|98:127|116:48,1,111.999996582031,12|0,0:0|1:0,0:0:0:0:
307,198,251180,2,0,P|367:194|427:250,1,111.999996582031,14|0,0:0|1:0,0:0:0:0:
245,361,251502,6,0,B|278:346|278:346|51:303,1,223.999993164063,14|14,0:0|0:0,0:0:0:0:
5,163,251986,1,2,1:2:0:0:
7,244,252148,5,12,0:0:0:0:
194,134,252309,1,2,0:0:0:0:
122,99,252470,1,14,0:0:0:0:
246,277,252631,1,2,1:2:0:0:
398,176,252793,6,0,L|367:37,1,111.999996582031,12|0,0:0|0:0,0:0:0:0:
194,134,253115,2,0,L|225:-5,1,111.999996582031,12|0,0:0|1:0,0:0:0:0:
4,115,253438,6,0,L|35:254,1,111.999996582031,12|0,0:0|1:0,0:0:0:0:
211,158,253760,2,0,L|180:297,1,111.999996582031,14|0,0:0|1:0,0:0:0:0:
314,357,254083,6,0,B|338:324|338:324|494:302,1,167.999994873047,14|0,0:0|1:0,0:0:0:0:
463,306,254406,5,14,0:0:0:0:
285,202,254567,1,2,1:2:0:0:
382,213,254728,5,12,0:0:0:0:
507,49,254889,1,0,1:0:0:0:
487,142,255051,5,14,0:0:0:0:
319,23,255212,1,2,1:2:0:0:
154,79,255373,5,6,3:2:0:0:
135,98,255481,1,0,3:2:0:0:
109,105,255588,1,0,3:2:0:0:
84,98,255696,5,6,3:0:0:0:
117,127,255803,1,0,3:0:0:0:
119,172,255911,1,0,3:0:0:0:
90,206,256019,6,0,B|72:214|72:214|-5:199,2,74.6666643880209,6|0|0,3:2|3:0|3:0,0:0:0:0:
159,179,256341,5,10,0:0:0:0:
215,234,256449,1,8,0:0:0:0:
171,296,256556,1,8,0:0:0:0:
97,279,256664,6,0,B|132:262|132:262|301:300,1,191.999994140625,6|10,1:2|0:0,0:0:0:0:
469,234,257148,2,0,B|415:240|387:281|387:281|377:229|323:198,1,191.999994140625,2|0,0:0|1:0,0:0:0:0:
427,98,257631,1,10,0:0:0:0:
334,205,257793,6,0,P|264:229|135:182,1,191.999994140625,2|0,1:2|1:0,0:0:0:0:
261,303,258277,1,8,0:0:0:0:
153,198,258438,1,0,1:0:0:0:
153,198,258519,1,0,1:0:0:0:
153,198,258599,2,0,P|104:176|37:195,1,95.9999970703126,2|0,1:2|1:0,0:0:0:0:
204,356,258922,2,0,P|246:376|293:373,1,95.9999970703126,10|0,0:0|0:0,0:0:0:0:
437,220,259244,6,0,P|431:166|381:118,1,95.9999970703126,6|0,1:2|1:0,0:0:0:0:
407,133,259486,1,0,1:0:0:0:
407,133,259567,1,10,0:0:0:0:
225,51,259728,6,0,P|272:47|315:68,1,95.9999970703126,2|0,1:2|0:0,0:0:0:0:
74,109,260051,6,0,P|94:66|133:39,1,95.9999970703126,2|0,1:2|0:0,0:0:0:0:
253,160,260373,6,0,P|291:256|233:385,1,207.999990478516,6|0,1:2|1:0,0:0:0:0:
97,243,260857,2,0,P|34:249|-13:290,1,103.999995239258,8|0,0:0|0:0,0:0:0:0:
167,381,261180,2,0,P|230:375|277:334,1,103.999995239258,0|8,3:0|3:0,0:0:0:0:
298,286,261422,1,8,3:0:0:0:
298,286,261502,2,0,L|284:234,1,51.999997619629,0|0,3:0|3:0,0:0:0:0:
232,181,261664,2,0,L|218:129,1,51.999997619629,0|0,3:0|3:0,0:0:0:0:
285,78,261825,6,0,B|330:107|330:107|491:74,1,191.999994140625,6|10,1:2|0:0,0:0:0:0:
395,191,262309,1,2,0:0:0:0:
468,243,262470,1,0,1:0:0:0:
477,154,262631,1,0,1:0:0:0:
386,280,262793,1,10,0:0:0:0:
313,228,262954,6,0,B|268:199|268:199|107:232,1,191.999994140625,6|0,1:2|1:0,0:0:0:0:
35,328,263438,1,10,0:0:0:0:
132,226,263599,6,0,B|166:186|166:186|140:45,1,191.999994140625,2|0,0:0|1:0,0:0:0:0:
24,156,264083,1,10,0:0:0:0:
231,82,264244,6,0,P|323:65|426:133,1,207.999990478516,2|0,1:2|1:0,0:0:0:0:
372,301,264728,5,8,0:0:0:0:
307,165,264889,1,0,1:0:0:0:
226,349,265051,5,8,0:0:0:0:
198,200,265212,1,0,1:0:0:0:
42,267,265373,5,8,0:0:0:0:
232,122,265535,1,0,1:0:0:0:
26,48,265696,1,8,0:0:0:0:
186,372,266341,5,2,1:2:0:0:
186,372,266986,6,0,P|258:311|384:304,1,191.999994140625,14|0,0:0|1:0,0:0:0:0:
172,115,267470,6,0,P|248:171|342:179,1,191.999994140625,8|0,0:0|1:0,0:0:0:0:
228,329,267954,6,0,P|316:295|437:333,1,191.999994140625,8|0,0:0|1:0,0:0:0:0:
218,156,268438,6,0,P|308:183|400:158,1,191.999994140625,8|0,0:0|1:0,0:0:0:0:
139,64,268922,6,0,P|98:104|85:148,1,95.9999970703126,8|0,0:0|0:0,0:0:0:0:
299,211,269244,2,0,P|340:251|353:295,1,95.9999970703126,8|0,0:0|0:0,0:0:0:0:
197,143,269567,6,0,P|280:98|375:104,1,191.999994140625,8|0,0:0|1:0,0:0:0:0:
170,290,270051,6,0,P|89:239|47:154,1,191.999994140625,8|0,0:0|1:0,0:0:0:0:
210,69,270535,5,8,0:0:0:0:
290,111,270696,1,2,0:0:0:0:
228,244,270857,1,0,1:0:0:0:
308,286,271018,1,8,0:0:0:0:
372,222,271180,5,2,0:0:0:0:
218,149,271341,1,2,1:2:0:0:
218,149,271422,1,0,1:0:0:0:
218,149,271502,1,8,0:0:0:0:
358,52,271664,1,0,1:0:0:0:
512,125,271825,1,10,0:0:0:0:
365,136,271986,5,0,1:0:0:0:
365,136,272067,1,0,1:0:0:0:
365,136,272148,2,0,P|274:164|212:236,1,191.999994140625,8|0,0:0|1:0,0:0:0:0:
49,89,272631,6,0,P|92:172|85:267,1,191.999994140625,8|0,0:0|1:0,0:0:0:0:
308,146,273115,6,0,P|232:203|199:292,1,191.999994140625,8|0,0:0|1:0,0:0:0:0:
82,136,273599,6,0,P|94:229|55:316,1,191.999994140625,8|0,0:0|1:0,0:0:0:0:
306,244,274083,6,0,P|347:241|404:269,1,95.9999970703126,8|0,0:0|0:0,0:0:0:0:
244,118,274406,2,0,P|203:121|146:93,1,95.9999970703126,8|0,0:0|0:0,0:0:0:0:
332,0,274728,6,0,P|388:74|398:169,1,191.999994140625,8|0,0:0|1:0,0:0:0:0:
130,260,275212,6,0,P|166:173|243:117,1,191.999994140625,8|0,0:0|1:0,0:0:0:0:
457,305,275696,6,0,P|364:317|277:278,1,191.999994140625,8|0,0:0|1:0,0:0:0:0:
397,170,276180,1,8,0:0:0:0:
326,118,276341,1,2,0:0:0:0:
245,153,276502,1,0,1:0:0:0:
245,153,276583,1,0,1:0:0:0:
245,153,276664,1,10,0:0:0:0:
387,257,276825,1,2,1:2:0:0:
406,82,276986,1,14,0:0:0:0:
351,158,277148,5,2,1:2:0:0:
351,158,277228,1,0,1:0:0:0:
351,158,277309,1,12,0:0:0:0:
189,203,277470,2,0,P|141:218|100:304,1,103.999995239258,2|0,0:0|1:0,0:0:0:0:
351,158,277793,5,8,0:0:0:0:
189,113,277954,2,0,P|141:98|100:12,1,103.999995239258,2|0,0:0|1:0,0:0:0:0:
351,158,278277,5,8,0:0:0:0:
171,206,278438,2,0,P|126:229|100:320,1,103.999995239258,2|0,0:0|1:0,0:0:0:0:
351,158,278760,5,8,0:0:0:0:
171,110,278921,2,0,P|126:86|100:-4,1,103.999995239258,2|0,0:0|1:0,0:0:0:0:
179,29,279164,1,0,1:0:0:0:
179,29,279244,2,0,L|283:2,1,103.999995239258,8|0,0:0|1:0,0:0:0:0:
451,131,279567,2,0,L|347:158,1,103.999995239258,8|0,0:0|1:0,0:0:0:0:
190,200,279889,5,8,0:0:0:0:
321,296,280051,2,0,P|375:312|440:293,1,103.999995239258,2|0,0:0|1:0,0:0:0:0:
195,168,280373,5,8,0:0:0:0:
307,285,280535,2,0,P|357:310|424:302,1,103.999995239258,2|0,0:0|1:0,0:0:0:0:
205,137,280857,5,8,0:0:0:0:
295,272,281019,2,0,P|340:305|407:309,1,103.999995239258,2|2,0:0|1:2,0:0:0:0:
205,247,281341,5,8,0:0:0:0:
295,112,281503,2,0,P|340:79|407:75,1,103.999995239258,2|2,0:0|1:2,0:0:0:0:
386,71,281744,1,0,1:0:0:0:
386,71,281825,1,8,0:0:0:0:
225,30,281986,1,0,1:0:0:0:
269,191,282148,1,8,0:0:0:0:
295,112,282309,5,2,1:2:0:0:
295,112,282389,1,0,1:0:0:0:
295,112,282470,1,8,0:0:0:0:
156,204,282631,2,0,P|109:209|43:180,1,103.999995239258,2|0,0:0|1:0,0:0:0:0:
294,122,282954,5,8,0:0:0:0:
155,214,283115,2,0,P|108:219|42:190,1,103.999995239258,2|0,0:0|1:0,0:0:0:0:
293,132,283438,5,8,0:0:0:0:
154,224,283599,2,0,P|107:229|41:200,1,103.999995239258,2|0,0:0|1:0,0:0:0:0:
292,142,283922,5,8,0:0:0:0:
153,234,284083,2,0,P|106:239|40:210,1,103.999995239258,2|0,0:0|1:0,0:0:0:0:
24,153,284325,1,0,1:0:0:0:
24,153,284406,2,0,L|53:28,1,103.999995239258,8|0,0:0|1:0,0:0:0:0:
219,198,284728,2,0,L|190:323,1,103.999995239258,8|0,0:0|1:0,0:0:0:0:
292,142,285051,6,0,B|249:95|186:109|186:109|248:86|300:134,1,207.999990478516,8|0,0:0|1:0,0:0:0:0:
442,232,285535,6,0,B|422:292|466:340|466:340|415:298|431:229,1,207.999990478516,8|0,0:0|1:0,0:0:0:0:
445,57,286019,6,0,B|507:43|526:-18|526:-18|515:46|447:67,1,207.999990478516,8|0,0:0|1:0,0:0:0:0:
292,142,286502,6,0,P|223:108|126:155,1,155.999992858887,8|0,0:0|1:0,0:0:0:0:
98,180,286825,1,0,1:0:0:0:
98,180,286906,1,0,1:0:0:0:
98,180,286986,2,0,L|121:281,1,103.999995239258,12|0,0:0|1:0,0:0:0:0:
331,203,287309,2,0,L|359:83,1,103.999995239258,12|0,0:0|1:0,0:0:0:0:
228,239,287631,6,0,P|326:235|395:330,1,191.999994140625,12|8,0:0|0:0,0:0:0:0:
215,160,288115,6,0,P|169:246|52:259,1,191.999994140625,0|0,1:0|0:0,0:0:0:0:
203,82,288599,1,8,0:0:0:0:
228,239,288760,6,0,P|273:325|390:338,1,191.999994140625,0|0,1:0|0:0,0:0:0:0:
215,160,289244,1,8,0:0:0:0:
330,245,289414,6,0,P|429:253|490:178,1,191.999994140625,0|0,1:0|1:0,0:0:0:0:
452,126,289840,5,0,1:0:0:0:
452,126,289925,2,0,L|352:95,1,95.9999970703126,0|8,1:0|3:0,0:0:0:0:
360,97,290181,1,8,3:0:0:0:
360,97,290267,5,8,0:0:0:0:
190,291,290831,5,8,0:0:0:0:
83,88,291420,5,12,0:0:0:0:
256,192,291495,12,0,304620,0:0:0:0:
