osu file format v14

[General]
AudioFilename: audio.mp3
AudioLeadIn: 0
PreviewTime: 54046
Countdown: 0
SampleSet: Soft
StackLeniency: 0.7
Mode: 0
LetterboxInBreaks: 0
WidescreenStoryboard: 0

[Editor]
Bookmarks: 24314,41457,90743,125028,137885,172171,197885,213957,232171,249314
DistanceSpacing: 1.2
BeatDivisor: 4
GridSize: 4
TimelineZoom: 1

[Metadata]
Title:Utakata
TitleUnicode:泡沫
Artist:Shimotsuki Haruka
ArtistUnicode:霜月はるか
Creator:[Keqing]
Version:Tomorrow
Source:アカイイト
Tags:akai ito akaiito HNMP-0002 『いつかのひかり』 itsuka no hikari いつかのひかり C73 comiket 73 Vocal 万葉 MANYO Little Wing 寺谷 知己 Tomomi Teratani 麓川 智之 Tomoyuki Fumotogawa Transience Success Nushi theme 主 pop violin japanese tanaka ryosuke Ryo Tagami 戻らない幼き時 ryo_tgm visual novel video game anime girl anime_girl jungkyuyoung natsume shiki natsume_shiki scubdomino scub domino 8972308
BeatmapID:2850719
BeatmapSetID:1379586

[Difficulty]
HPDrainRate:5
CircleSize:4
OverallDifficulty:8
ApproachRate:8.5
SliderMultiplier:1.8
SliderTickRate:1

[Events]
//Background and Video events
0,0,"tanaka_ryosuke.jpg",0,0
//Break Periods
2,198107,213170
//Storyboard Layer 0 (Background)
//Storyboard Layer 1 (Fail)
//Storyboard Layer 2 (Pass)
//Storyboard Layer 3 (Foreground)
//Storyboard Layer 4 (Overlay)
//Storyboard Sound Samples

[TimingPoints]
765,535.714285714286,4,2,1,65,1,0
5586,-105.263157894737,4,2,1,65,0,0
7193,-133.333333333333,4,2,2,50,0,0
8265,-153.846153846154,4,2,2,50,0,0
23800,-100,4,2,2,50,0,0
24336,-100,4,2,1,50,0,0
32907,-100,4,2,1,55,0,0
37193,-83.3333333333333,4,2,1,55,0,0
37729,-100,4,2,1,55,0,0
41479,-83.3333333333333,4,2,1,60,0,0
42282,-100,4,2,1,60,0,0
45765,-83.3333333333333,4,2,1,60,0,0
54336,-66.6666666666667,4,2,1,72,0,0
67729,-55.5555555555556,4,2,1,72,0,0
68265,-50,4,2,1,72,0,0
68666,-66.6666666666667,4,2,1,72,0,0
70407,-66.6666666666667,4,2,1,80,0,0
71747,-66.6666666666667,4,2,1,72,0,0
84872,-55.5555555555556,4,2,1,72,0,0
85407,-50,4,2,1,72,0,0
85943,-66.6666666666667,4,2,1,72,0,0
90229,-66.6666666666667,4,2,2,72,0,0
90765,-133.333333333333,4,2,1,55,0,0
91836,-125,4,2,1,55,0,0
95050,-117.647058823529,4,2,1,55,0,0
97193,-111.111111111111,4,2,1,55,0,0
102015,-117.647058823529,4,2,1,55,0,0
104157,-125,4,2,1,55,0,0
106836,-153.846153846153,4,2,1,55,0,0
107372,-100,4,2,1,55,0,0
107907,-83.3333333333333,4,2,1,60,0,0
117550,-76.9230769230769,4,2,1,60,0,0
119693,-83.3333333333333,4,2,1,60,0,0
125050,-83.3333333333333,4,2,1,65,0,0
127193,-100,4,2,1,65,0,0
129336,-83.3333333333333,4,2,1,65,0,0
132550,-100,4,2,1,65,0,0
133622,-76.9230769230769,4,2,1,65,0,0
137907,-66.6666666666667,4,2,1,72,0,0
153979,-66.6666666666667,4,2,1,80,0,0
155319,-66.6666666666667,4,2,1,72,0,0
155586,-76.9230769230769,4,2,1,72,0,0
156122,-66.6666666666667,4,2,1,72,0,0
168443,-55.5555555555556,4,2,1,72,0,0
168979,-50,4,2,1,72,0,0
169515,-66.6666666666667,4,2,1,72,0,0
172193,-100,4,2,1,72,0,0
172327,-100,4,2,1,60,0,0
189872,-100,4,2,1,55,0,0
191479,-111.111111111111,4,2,1,55,0,0
194961,-83.3333333333333,4,2,1,60,0,0
195765,-58.8235294117647,4,2,1,65,0,0
196166,-66.6666666666667,4,2,1,65,0,0
196568,-133.333333333333,4,2,1,60,0,0
213845,-66.6666666666667,4,2,1,60,0,0
213979,-66.6666666666667,4,2,1,72,0,0
214381,-50,4,2,1,72,0,0
214782,-66.6666666666667,4,2,1,72,0,0
231122,-66.6666666666667,4,2,1,80,0,0
232461,-66.6666666666667,4,2,1,72,0,0
248265,-66.6666666666667,4,2,1,80,0,0
249604,-66.6666666666667,4,2,1,72,0,0
262729,-55.5555555555556,4,2,1,72,0,0
263265,-50,4,2,1,72,0,0
263800,-66.6666666666667,4,2,1,72,0,0
265140,-66.6666666666667,4,2,1,76,0,0
265407,-66.6666666666667,4,2,1,80,0,0
265675,-66.6666666666667,4,2,1,70,0,0
266077,-66.6666666666667,4,2,1,60,0,0
266479,-66.6666666666667,4,2,1,60,0,1
266546,-66.6666666666667,4,2,1,50,0,0
268622,-66.6666666666667,4,2,1,50,0,1
268689,-66.6666666666667,4,2,1,40,0,0
270765,-66.6666666666667,4,2,1,40,0,1
270831,-66.6666666666667,4,2,1,30,0,0
272907,-66.6666666666667,4,2,1,30,0,1
272974,-66.6666666666667,4,2,1,20,0,0
275050,-66.6666666666667,4,2,1,20,0,1
275117,-66.6666666666667,4,2,1,20,0,0

[Colours]
Combo1 : 232,206,117
Combo2 : 193,89,89
Combo3 : 131,146,95
Combo4 : 234,153,81
Combo5 : 102,179,145
Combo6 : 191,190,170
Combo7 : 134,156,174
Combo8 : 215,215,215

[HitObjects]
68,339,765,22,0,B|102:393|34:394|-20:325|20:195|87:157,1,270,2|0,2:1|0:0,0:0:0:0:
0,225,1836,2,0,P|81:254|146:197,1,180,2|2,2:0|2:3,0:0:0:0:
222,384,2907,54,0,P|217:316|218:235,2,135,8|0|0,2:0|2:3|2:3,0:0:0:0:
341,272,3979,2,0,B|277:283|267:324|325:370|389:349|368:240|401:161|539:180|508:265,1,360,2|2,2:0|2:1,0:0:0:0:
415,127,5318,53,2,2:0:0:0:
501,121,5586,2,0,P|457:124|413:128,1,85.4999999999999,2|0,2:0|0:0,0:0:0:0:
354,179,6122,2,0,B|206:201|259:152|79:181,1,256.5,2|0,2:3|0:0,0:0:0:0:
85,188,7059,1,0,0:0:0:0:
75,197,7193,70,0,L|58:309,2,101.25,2|0|0,2:0|0:0|0:0,0:0:0:0:
149,260,8265,2,0,P|240:255|302:321,1,175.5,2|0,2:0|0:0,0:0:0:0:
362,363,9336,2,0,P|411:363|450:337,2,87.7499999999999,2|0|0,2:0|0:0|0:0,0:0:0:0:
385,281,10407,2,0,L|403:194,1,87.7499999999999,2|0,2:0|0:0,0:0:0:0:
404,186,10943,2,0,L|391:136,1,29.25,0|0,2:0|0:0,0:0:0:0:
496,83,11479,86,0,P|494:38|514:-7,2,87.7499999999999,2|0|0,2:0|0:0|0:0,0:0:0:0:
436,135,12550,2,0,P|387:135|338:74,1,117,2|0,2:0|0:0,0:0:0:0:
341,88,13622,2,0,P|364:132|353:195,2,87.7499999999999,2|0|0,2:0|0:0|0:0,0:0:0:0:
232,76,14693,2,0,P|196:121|196:178,1,117,2|0,2:0|0:0,0:0:0:0:
200,226,15497,2,0,L|194:177,1,29.2499986610413
196,187,15765,22,0,P|139:179|85:180,2,87.7499999999999,2|0|0,2:0|0:0|0:0,0:0:0:0:
258,231,16836,2,0,P|345:228|436:191,1,175.5,2|0,2:0|0:0,0:0:0:0:
469,124,17907,2,0,P|458:83|477:25,2,87.7499999999999,2|0|0,2:0|0:0|0:0,0:0:0:0:
398,0,18979,2,0,P|351:20|320:70,1,87.7499999999999,2|0,2:0|0:0,0:0:0:0:
323,56,19515,2,0,L|284:65,1,29.25
156,165,20050,86,0,L|143:61,1,87.7499999999999,2|0,2:0|0:0,0:0:0:0:
35,136,20854,1,0,0:0:0:0:
156,165,21122,2,0,L|170:287,1,117,2|0,2:0|0:0,0:0:0:0:
234,323,21925,1,0,0:0:0:0:
293,268,22193,2,0,P|341:271|377:294,1,87.7499999999999,2|0,2:0|0:0,0:0:0:0:
381,301,22729,2,0,P|440:306|493:262,1,117,0|2,0:0|2:0,0:0:0:0:
485,274,23800,6,0,P|424:299|428:384,1,135,0|0,3:0|0:0,0:0:0:0:
508,384,24336,54,0,B|498:314|516:327|504:217,1,135,2|0,1:0|0:0,0:0:0:0:
461,179,24872,2,0,P|462:129|480:61,1,90,2|0,1:2|0:0,0:0:0:0:
359,254,25407,2,0,P|276:242|146:257,1,180,2|2,1:2|1:2,0:0:0:0:
95,300,26211,2,0,L|77:377,1,45,2|0,2:2|0:0,0:0:0:0:
24,265,26479,38,0,L|1:91,1,135,2|2,1:2|2:3,0:0:0:0:
2,123,27015,2,0,P|43:92|115:98,1,90,2|2,1:2|0:3,0:0:0:0:
171,130,27550,2,0,L|326:163,1,135,2|0,1:2|0:0,0:0:0:0:
381,173,28086,1,2,1:2:0:0:
307,148,28220,2,0,L|179:120,1,90,2|0,0:0|0:0,0:0:0:0:
345,44,28622,70,0,P|418:46|483:91,1,135,2|0,1:2|0:0,0:0:0:0:
477,88,29157,2,0,P|477:151|455:183,1,90,2|2,1:2|0:3,0:0:0:0:
493,315,29693,2,0,P|449:259|315:244,1,180,2|2,1:2|1:2,0:0:0:0:
243,278,30497,2,0,L|228:343,1,45,2|0,2:2|0:0,0:0:0:0:
174,374,30765,38,0,P|113:385|28:334,1,135,2|0,1:2|0:0,0:0:0:0:
42,348,31300,2,0,P|50:282|24:231,1,90,2|2,1:2|0:3,0:0:0:0:
157,287,31836,2,0,P|176:339|318:360,1,180,2|2,1:2|1:2,0:0:0:0:
196,213,32640,2,0,L|250:198,1,45,2|0,2:2|0:0,0:0:0:0:
245,192,32907,70,0,B|314:199|292:228|375:239,1,135,2|0,1:2|0:0,0:0:0:0:
369,156,33443,2,0,P|347:116|357:56,1,90,2|2,1:2|0:3,0:0:0:0:
160,69,33979,2,0,P|218:87|240:204,1,180,2|2,1:2|1:2,0:0:0:0:
149,269,34782,2,0,L|87:278,1,45,2|0,2:2|0:0,0:0:0:0:
84,287,35050,38,0,L|228:266,1,135,2|0,1:2|0:0,0:0:0:0:
273,316,35586,2,0,P|307:358|370:367,1,90,2|2,1:2|0:3,0:0:0:0:
389,231,36122,2,0,L|418:74,1,135,2|0,1:2|0:0,0:0:0:0:
490,108,36657,1,2,1:2:0:0:
408,91,36791,2,0,L|299:69,1,90
299,0,37193,70,0,P|285:42|161:70,1,162,2|0,1:2|0:0,0:0:0:0:
123,29,37729,2,0,P|80:-3|7:3,1,90,2|2,1:2|0:3,0:0:0:0:
112,108,38265,2,0,P|99:167|151:251,1,135,2|0,1:2|0:0,0:0:0:0:
176,304,38800,2,0,L|88:320,1,90,2|2,1:2|2:2,0:0:0:0:
354,312,39336,38,0,B|250:331|250:331|299:344,1,135,2|0,1:2|0:0,0:0:0:0:
423,353,39872,2,0,L|528:336,1,90,2|2,1:2|0:3,0:0:0:0:
418,207,40407,37,8,1:1:0:0:
287,146,40675,2,0,L|279:175,2,30,8|0|0,1:3|3:0|3:0,0:0:0:0:
156,122,40943,1,0,3:0:0:0:
156,122,41077,1,0,3:0:0:0:
156,122,41211,1,8,2:3:0:0:
105,340,41479,22,0,B|70:300|70:300|83:360,1,108,4|0,1:0|0:0,0:0:0:0:
0,339,41881,1,8,2:1:0:0:
225,298,42282,2,0,L|239:233,1,45,2|0,1:2|0:0,0:0:0:0:
398,250,42550,21,2,2:0:0:0:
401,244,43086,1,8,2:1:0:0:
508,384,43488,1,4,2:3:0:0:
508,384,43622,2,0,P|469:336|501:252,1,135,0|8,1:0|2:1,0:0:0:0:
260,293,44425,86,0,L|240:406,1,90,2|0,1:2|2:0,0:0:0:0:
260,293,44961,2,0,L|275:204,1,90,2|8,1:3|2:1,0:0:0:0:
77,237,45497,2,0,L|86:295,1,45,2|4,2:0|2:3,0:0:0:0:
11,203,45765,22,0,B|42:144|42:144|-6:178,1,108,2|0,1:3|0:0,0:0:0:0:
9,63,46166,1,8,2:1:0:0:
233,62,46568,2,0,L|151:49,1,54,2|0,1:2|0:0,0:0:0:0:
130,0,46836,1,2,2:0:0:0:
233,62,47104,2,0,L|315:75,1,54,2|0,1:3|0:0,0:0:0:0:
336,124,47372,1,8,2:1:0:0:
496,138,47640,85,2,2:0:0:0:
496,138,47773,1,4,2:3:0:0:
496,138,47907,2,0,P|479:217|487:317,1,162,0|0,1:0|0:0,0:0:0:0:
511,376,48443,2,0,P|458:379|416:348,1,108,8|2,2:1|1:2,0:0:0:0:
275,291,48979,22,0,P|365:282|407:233,1,108,2|2,2:0|1:3,0:0:0:0:
393,197,49381,2,0,L|405:131,1,54,0|8,0:0|3:1,0:0:0:0:
109,240,49782,2,0,L|119:187,1,54,2|0,2:3|0:0,0:0:0:0:
152,113,50050,86,0,P|95:110|46:174,1,108,0|0,1:0|0:0,0:0:0:0:
37,139,50452,2,0,L|19:246,1,108,0|0,1:0|0:0,0:0:0:0:
0,341,50854,22,0,B|96:349|64:300|185:320,1,162,8|0,2:1|0:0,0:0:0:0:
225,358,51390,1,2,1:3:0:0:
353,275,51657,2,0,B|384:239|444:266|444:266|431:303|389:295,1,162,8|4,2:1|2:3,0:0:0:0:
296,108,52193,86,0,B|269:126|238:170|267:243|318:221|333:183|273:190,1,162,4|8,1:3|1:0,0:0:0:0:
475,225,52729,2,0,P|464:249|445:269,1,54,2|0,2:0|0:0,0:0:0:0:
512,384,52997,22,0,L|349:358,1,162,4|8,1:0|2:1,0:0:0:0:
277,342,53532,2,0,L|195:355,1,54,8|0,1:3|0:0,0:0:0:0:
65,330,53800,5,10,3:0:0:0:
98,307,53934,1,4,1:3:0:0:
115,271,54068,1,0,1:3:0:0:
112,231,54202,1,0,1:3:0:0:
90,199,54336,38,0,P|181:193|263:203,1,135,6|2,1:0|3:0,0:0:0:0:
304,217,54738,1,0,0:0:0:0:
377,260,54872,2,0,P|445:263|524:256,1,135,0|2,1:0|2:3,0:0:0:0:
138,177,55407,38,0,P|63:174|-7:188,1,135,0|2,1:0|2:3,0:0:0:0:
201,112,55809,2,0,P|234:113|268:110,1,67.5,0|0,0:0|1:0,0:0:0:0:
16,308,56211,2,0,P|66:306|115:311,1,67.5,2|0,3:0|1:3,0:0:0:0:
189,382,56479,70,0,P|185:323|201:203,1,135,0|2,1:0|3:0,0:0:0:0:
242,182,56881,1,0,0:0:0:0:
275,113,57015,2,0,B|273:50|269:15|269:15|262:48|270:109,1,135,0|2,1:0|2:3,0:0:0:0:
512,259,57550,38,0,P|412:253|273:260,1,202.5,0|0,1:0|0:0,0:0:0:0:
105,191,58086,2,0,P|172:190|239:185,1,135,0|2,1:0|3:0,0:0:0:0:
336,168,58488,1,4,2:3:0:0:
431,146,58622,70,0,P|345:146|208:137,1,202.5,0|0,1:0|0:0,0:0:0:0:
154,102,59157,2,0,P|136:41|185:0,1,135,0|2,1:0|2:3,0:0:0:0:
67,221,59693,38,0,P|112:296|33:389,1,202.5,0|0,1:0|0:0,0:0:0:0:
200,183,60229,2,0,P|182:121|230:80,1,135,0|2,1:0|3:0,0:0:0:0:
305,56,60631,1,4,2:3:0:0:
389,60,60765,70,0,B|435:68|469:54|469:54|433:45|401:53,1,135,0|2,1:0|3:0,0:0:0:0:
305,56,61166,2,0,P|271:55|237:56,1,67.5,0|0,2:0|1:0,0:0:0:0:
170,4,61434,2,0,P|103:15|35:16,1,135,0|0,3:0|3:0,0:0:0:0:
242,150,61836,38,0,P|342:138|443:143,1,202.5,0|0,1:0|2:0,0:0:0:0:
512,217,62372,69,8,1:0:0:0:
440,201,62506,1,0,3:2:0:0:
367,187,62640,1,8,1:3:0:0:
294,177,62773,1,4,2:3:0:0:
221,171,62907,38,0,P|125:173|21:189,1,135,4|2,1:2|3:0,0:0:0:0:
53,249,63309,2,0,P|10:241|-62:241,1,67.5,0|0,0:0|1:0,0:0:0:0:
330,88,63711,2,0,P|287:96|215:96,1,67.5,2|0,2:3|3:0,0:0:0:0:
213,165,63979,70,0,P|215:261|326:252,1,202.5,0|0,1:0|0:0,0:0:0:0:
378,150,64515,2,0,P|447:155|512:150,1,135,0|2,1:0|3:0,0:0:0:0:
512,70,64916,1,4,2:3:0:0:
445,183,65050,38,0,P|376:178|311:183,1,135,0|2,1:3|3:0,0:0:0:0:
236,225,65452,2,0,P|180:226|126:228,1,67.5,0|0,0:0|1:0,0:0:0:0:
83,200,65720,1,0,3:0:0:0:
76,194,65854,2,0,P|8:191|-35:190,1,67.5,2|0,2:3|3:0,0:0:0:0:
0,101,66122,70,0,P|82:106|201:119,1,202.5,0|0,1:0|0:0,0:0:0:0:
375,277,66657,2,0,P|457:272|563:258,1,135,0|2,1:0|3:0,0:0:0:0:
501,186,67059,1,4,2:3:0:0:
512,107,67193,1,0,1:3:0:0:
396,166,67461,38,0,L|320:155,1,67.5,2|0,3:0|0:0,0:0:0:0:
225,4,67729,2,0,B|258:48|253:128|253:128|226:116|189:117,1,162,0|2,1:0|2:3,0:0:0:0:
412,384,68265,2,0,B|349:317|361:237|361:237|390:241|444:265,1,180,0|2,1:0|2:3,0:0:0:0:
446,280,68666,70,0,P|495:281|538:278,1,67.5,0|0,0:0|1:0,0:0:0:0:
175,238,69068,2,0,P|105:236|26:240,1,135,2|0,3:0|1:0,0:0:0:0:
0,316,69470,38,0,P|76:317|123:313,1,67.5,0|2,2:0|3:0,0:0:0:0:
223,372,69738,2,0,B|293:366|360:371|360:371|325:381|290:378,1,202.5,0|2,2:0|2:3,0:0:0:0:
370,372,70273,1,0,3:0:0:0:
506,329,70407,53,4,1:0:0:0:
394,227,70675,85,0,3:0:0:0:
379,153,70809,1,4,1:2:0:0:
234,103,71077,69,0,3:0:0:0:
210,30,71211,1,4,1:0:0:0:
5,61,71479,102,0,P|113:62|204:75,1,135,6|2,1:0|3:0,0:0:0:0:
206,104,71881,2,0,P|266:104|337:103,1,67.5,0|0,0:0|1:0,0:0:0:0:
472,330,72282,2,0,P|412:330|341:331,1,67.5,2|0,2:3|3:0,0:0:0:0:
327,384,72550,22,0,P|324:290|329:201,1,135,0|2,1:0|2:3,0:0:0:0:
369,184,72952,1,0,0:0:0:0:
447,189,73086,2,0,B|479:195|514:184|514:184|469:169|431:182,1,135,0|2,1:0|3:0,0:0:0:0:
387,50,73488,1,0,1:3:0:0:
266,103,73622,86,0,B|224:108|181:96|181:96|118:97,1,135,0|2,1:0|3:0,0:0:0:0:
67,149,74023,2,0,P|-14:145|-56:146,2,67.5,0|0|0,0:0|1:0|3:0,0:0:0:0:
128,70,74425,2,0,P|175:73|227:68,1,67.5,2|0,2:3|3:0,0:0:0:0:
336,56,74693,22,0,B|386:42|439:65|439:65|392:86|299:66,1,202.5,0|0,1:0|0:0,0:0:0:0:
512,152,75229,2,0,P|442:160|347:146,1,135,0|2,1:0|3:0,0:0:0:0:
310,200,75631,1,4,2:3:0:0:
214,239,75765,86,0,P|350:231|417:239,1,202.5,0|0,1:0|0:0,0:0:0:0:
511,281,76300,2,0,P|462:334|484:385,1,135,0|2,1:0|2:3,0:0:0:0:
281,196,76836,22,0,P|354:116|321:40,1,202.5,0|0,1:0|0:0,0:0:0:0:
241,43,77372,2,0,P|208:45|138:46,1,67.5,0|0,1:0|0:0,0:0:0:0:
101,75,77640,2,0,P|67:74|34:75,1,67.5,2|4,3:0|2:3,0:0:0:0:
66,202,77907,86,0,P|70:302|64:383,1,135,0|2,1:0|3:0,0:0:0:0:
133,376,78309,1,0,2:0:0:0:
174,261,78443,2,0,P|172:193|176:126,1,135,0|2,1:0|2:3,0:0:0:0:
360,268,78979,22,0,B|355:317|368:373|368:373|379:315|371:259,1,202.5,0|0,1:0|2:0,0:0:0:0:
512,288,79515,85,8,1:0:0:0:
440,304,79648,1,0,3:2:0:0:
367,318,79782,1,8,1:3:0:0:
294,328,79916,1,4,2:3:0:0:
221,334,80050,22,0,B|224:289|215:260|215:260|229:149,1,135,4|2,1:2|3:0,0:0:0:0:
224,120,80452,2,0,P|298:118|385:130,1,135,0|0,0:0|3:0,0:0:0:0:
152,162,80854,2,0,P|78:164|-9:152,1,135,2|0,2:3|1:0,0:0:0:0:
86,48,81256,86,0,P|132:48|189:56,1,67.5,0|2,3:0|2:3,0:0:0:0:
349,188,81657,2,0,P|414:179|520:185,1,135,0|2,1:0|3:0,0:0:0:0:
512,252,82059,1,4,2:3:0:0:
461,310,82193,22,0,P|393:311|326:302,1,135,0|2,1:3|3:0,0:0:0:0:
246,317,82595,2,0,P|243:357|244:410,1,67.5,0|0,0:0|1:0,0:0:0:0:
340,113,82997,2,0,P|343:153|342:206,1,67.5,2|0,2:3|3:0,0:0:0:0:
272,228,83265,86,0,B|241:232|203:223|203:223|237:203|298:215,1,135,0|2,1:0|2:3,0:0:0:0:
133,256,83666,2,0,P|65:250|-9:253,1,135
11,169,84068,2,0,P|7:136|7:80,1,67.5,2|4,3:0|2:3,0:0:0:0:
206,89,84336,21,0,1:3:0:0:
269,44,84604,1,2,3:0:0:0:
74,69,84872,86,0,B|54:35|76:0|76:0|125:-6|158:26,1,162,0|2,1:0|2:3,0:0:0:0:
460,110,85407,2,0,B|498:148|491:206|491:206|404:257|313:149,1,270,0|0,1:0|0:0,0:0:0:0:
341,93,85943,22,0,P|342:24|340:-35,1,67.5,0|0,1:0|0:0,0:0:0:0:
259,48,86211,1,2,3:0:0:0:
84,141,86479,86,0,P|82:239|87:326,1,135,0|2,1:0|3:0,0:0:0:0:
153,319,86881,2,0,P|221:321|275:322,1,67.5,0|0,2:0|1:0,0:0:0:0:
293,374,87148,1,0,3:0:0:0:
293,374,87282,1,2,2:3:0:0:
398,280,87550,21,4,1:0:0:0:
119,215,87818,69,0,3:0:0:0:
105,141,87952,1,4,1:2:0:0:
325,130,88220,101,0,3:0:0:0:
307,52,88354,1,4,1:0:0:0:
24,4,88622,5,2,1:0:0:0:
256,192,88756,12,2,90229,2:0:0:0:
512,173,90765,22,0,P|506:215|432:257,1,101.25,10|0,2:0|0:0,0:0:0:0:
456,255,91300,2,0,P|405:248|359:253,1,67.5000000000002,0|0,1:0|0:0,0:0:0:0:
322,349,91836,2,0,B|348:342|352:321|352:321|297:294|242:345,1,144,2|0,2:0|1:0,0:0:0:0:
114,365,92640,2,0,P|71:351|61:343,1,36,2|0,0:0|0:0,0:0:0:0:
47,288,92907,38,0,L|30:165,1,108,2|0,2:0|0:0,0:0:0:0:
29,170,93443,2,0,P|58:136|97:133,1,72,0|0,1:0|0:0,0:0:0:0:
181,226,93979,2,0,L|195:332,1,108,2|0,2:0|0:0,0:0:0:0:
212,367,94515,1,0,1:0:0:0:
206,341,94648,2,0,L|197:270,1,72,2|0,0:0|0:0,0:0:0:0:
186,185,95050,70,0,P|230:163|319:173,1,114.75,2|0,2:0|0:0,0:0:0:0:
349,223,95586,2,0,L|447:236,1,76.5000000000003,0|0,1:0|0:0,0:0:0:0:
393,97,96122,2,0,P|332:134|243:124,1,153.000000000001,2|0,2:0|1:0,0:0:0:0:
128,39,96925,2,0,L|135:76,1,38.2500000000001,2|0,0:0|0:0,0:0:0:0:
143,153,97193,38,0,P|165:193|169:148,1,121.5,2|0,2:0|0:0,0:0:0:0:
225,249,97729,2,0,P|190:270|150:272,1,81.0000000000001,0|0,1:0|0:0,0:0:0:0:
74,384,98265,2,0,P|76:315|76:266,1,81.0000000000001,2|0,2:0|0:0,0:0:0:0:
0,192,98800,2,0,L|106:212,1,81.0000000000001,0|2,1:0|2:3,0:0:0:0:
90,211,99202,1,0,2:3:0:0:
170,149,99336,70,0,P|266:133|281:116,1,121.5,2|0,2:0|0:0,0:0:0:0:
283,110,99872,2,0,P|281:78|283:24,1,81.0000000000001,0|0,1:0|0:0,0:0:0:0:
408,138,100407,2,0,B|433:177|478:169|478:169|464:127|425:127,1,121.5,2|0,2:0|0:0,0:0:0:0:
428,68,100943,1,0,1:2:0:0:
350,196,101211,1,2,0:0:0:0:
350,196,101345,1,2,0:0:0:0:
350,196,101479,38,0,P|354:268|349:327,1,121.5,2|0,2:0|0:0,0:0:0:0:
345,323,102015,2,0,P|306:314|267:315,1,76.5000000000003,0|0,1:0|0:0,0:0:0:0:
417,376,102550,2,0,P|473:373|512:333,1,114.75,2|0,2:0|0:0,0:0:0:0:
437,300,103086,1,0,1:0:0:0:
512,323,103220,2,0,P|506:263|480:236,1,76.5000000000003,2|0,0:0|0:0,0:0:0:0:
447,182,103622,70,0,B|439:101|457:127|448:49,1,114.75,2|0,2:0|0:0,0:0:0:0:
452,53,104157,2,0,P|418:55|370:33,1,72,0|0,1:0|0:0,0:0:0:0:
400,160,104693,2,0,P|346:113|276:113,1,144,2|0,2:0|1:0,0:0:0:0:
276,113,105497,1,2,0:0:0:0:
222,279,105765,38,0,P|224:227|222:149,1,108,2|0,2:0|0:0,0:0:0:0:
220,163,106300,1,0,1:0:0:0:
267,54,106568,2,0,P|250:23|224:5,1,36,2|0,0:0|0:0,0:0:0:0:
137,101,106836,2,0,P|134:130|141:158,1,58.4999973220826,2|0,2:0|0:0,0:0:0:0:
142,159,107372,6,0,B|228:164|192:136|305:139,1,135,0|0,1:0|0:0,0:0:0:0:
364,45,107907,54,0,P|413:65|466:58,1,108,2|2,1:1|2:3,0:0:0:0:
508,132,108309,1,0,0:0:0:0:
508,132,108443,1,2,1:2:0:0:
427,221,108711,2,0,P|428:265|430:314,1,54,2|0,2:3|0:0,0:0:0:0:
499,318,108979,54,0,P|396:308|326:374,1,162,2|0,1:2|0:0,0:0:0:0:
279,362,109515,2,0,P|208:346|148:335,1,108,2|2,1:2|2:3,0:0:0:0:
111,303,109916,1,0,0:0:0:0:
69,384,110050,54,0,B|82:289|54:309|80:187,1,162,2|0,1:2|0:0,0:0:0:0:
23,163,110586,2,0,P|73:143|142:188,1,108,2|2,1:2|2:3,0:0:0:0:
76,334,111122,54,0,B|48:350|48:350|73:220,1,162,2|0,1:2|0:0,0:0:0:0:
166,277,111657,1,2,1:2:0:0:
238,250,111791,2,0,P|291:257|328:331,1,108
358,384,112193,54,0,P|354:306|446:232,1,162,2|0,1:2|0:0,0:0:0:0:
406,170,112729,2,0,P|490:170|529:203,1,108,2|2,1:2|2:3,0:0:0:0:
374,5,113265,54,0,P|326:69|229:75,1,162,2|0,1:2|0:0,0:0:0:0:
195,148,113800,2,0,P|268:168|312:151,1,108,2|2,1:2|2:3,0:0:0:0:
249,82,114336,54,0,P|254:182|245:269,1,162,2|0,1:2|0:0,0:0:0:0:
169,302,114872,2,0,B|142:318|142:318|172:234,1,108,2|2,1:2|2:3,0:0:0:0:
380,256,115407,54,0,B|250:283|292:210|118:256,1,216,2|2,1:2|1:2,0:0:0:0:
67,345,116211,1,2,2:3:0:0:
75,333,116345,1,0,0:0:0:0:
67,253,116479,54,0,P|69:189|57:85,1,162,8|0,1:2|0:0,0:0:0:0:
156,27,117015,2,0,P|156:107|166:175,1,108,2|2,1:2|2:3,0:0:0:0:
17,132,117550,54,0,B|75:154|75:154|89:208|152:238|210:209,1,175.5,2|0,1:2|0:0,0:0:0:0:
266,192,118086,1,4,3:3:0:0:
408,304,118354,2,0,P|404:354|399:410,1,58.5,2|0,2:3|0:0,0:0:0:0:
401,379,118622,54,0,P|343:325|230:358,1,175.5,2|0,1:2|0:0,0:0:0:0:
186,378,119157,2,0,P|177:314|219:264,1,117,2|2,1:2|2:3,0:0:0:0:
393,293,119693,54,0,P|343:338|238:327,1,162,2|0,1:2|0:0,0:0:0:0:
266,192,120229,1,4,3:3:0:0:
338,220,120363,2,0,P|391:197|412:148,1,108
427,76,120765,54,0,P|410:55|438:78,1,162,2|0,1:2|0:0,0:0:0:0:
341,95,121300,2,0,P|333:36|351:-9,1,108,2|2,1:2|2:3,0:0:0:0:
258,107,121836,54,0,L|80:147,1,162,2|0,1:2|0:0,0:0:0:0:
266,192,122372,2,0,P|303:251|284:314,1,108,4|2,3:3|2:3,0:0:0:0:
50,384,122907,54,0,P|3:315|32:223,1,162,2|0,1:2|0:0,0:0:0:0:
51,165,123443,2,0,P|58:106|20:49,1,108,2|2,1:2|2:3,0:0:0:0:
102,103,123800,38,0,L|145:107,1,36
158,31,123979,1,2,1:2:0:0:
332,0,124247,21,8,3:1:0:0:
266,192,124515,1,4,3:3:0:0:
266,192,124648,1,8,0:1:0:0:
266,192,124782,1,8,3:3:0:0:
200,383,125050,70,0,B|178:364|184:334|184:334|194:354|225:365,1,108,4|0,1:2|0:0,0:0:0:0:
153,259,125452,1,8,2:1:0:0:
412,332,125854,2,0,L|430:419,1,54,2|0,1:2|0:0,0:0:0:0:
494,354,126122,2,0,B|481:298|481:298|539:371,1,108,2|2,2:0|1:3,0:0:0:0:
512,111,126657,2,0,P|485:119|407:92,1,108,8|2,2:1|2:0,0:0:0:0:
406,90,127059,1,4,2:3:0:0:
376,18,127193,86,0,P|347:-3|363:30,1,90,0|0,1:0|0:0,0:0:0:0:
259,0,127595,1,8,2:1:0:0:
101,148,127997,2,0,P|56:150|13:136,1,90,2|0,1:2|2:0,0:0:0:0:
13,137,128532,2,0,P|58:135|101:149,1,90,2|8,1:3|2:1,0:0:0:0:
143,221,129068,2,0,L|135:283,1,45,2|4,2:0|2:3,0:0:0:0:
33,315,129336,22,0,B|96:296|96:296|45:331,1,108,2|0,1:3|0:0,0:0:0:0:
220,208,129738,1,8,2:1:0:0:
271,342,130140,2,0,L|344:356,1,54,2|0,1:2|0:0,0:0:0:0:
332,355,130407,2,0,P|356:298|331:230,1,108,2|2,2:0|1:3,0:0:0:0:
345,246,130809,1,0,0:0:0:0:
278,194,130943,2,0,P|216:201|170:257,1,108,8|2,2:1|2:0,0:0:0:0:
183,230,131479,86,0,B|211:235|197:273|121:269|146:187|178:129|242:131,1,162,0|0,1:0|0:0,0:0:0:0:
184,66,132015,2,0,P|249:77|276:117,1,108,8|2,2:1|1:2,0:0:0:0:
286,95,132416,1,0,0:0:0:0:
304,84,132550,2,0,L|325:-22,1,90,2|2,2:0|1:3,0:0:0:0:
400,4,132952,2,0,L|389:71,1,45,0|8,0:0|3:1,0:0:0:0:
481,9,133220,1,0,3:0:0:0:
477,31,133354,1,2,2:3:0:0:
503,187,133622,22,0,B|486:255|524:237|505:327,1,117,4|0,1:0|0:0,0:0:0:0:
512,311,134023,2,0,P|451:351|378:319,1,117,0|0,1:0|0:0,0:0:0:0:
392,384,134425,86,0,P|336:311|189:324,1,234,8|2,2:1|1:3,0:0:0:0:
89,358,135229,22,0,B|9:374|9:374|83:318,1,117,8|0,2:1|2:0,0:0:0:0:
77,278,135631,1,4,2:3:0:0:
89,358,135765,2,0,B|168:341|168:341|95:398,1,117,4|0,1:2|0:0,0:0:0:0:
246,384,136166,86,0,L|260:298,1,58.5,8|2,1:0|2:3,0:0:0:0:
162,124,136568,2,0,L|152:181,1,58.5,0|0,3:1|3:1,0:0:0:0:
197,264,136836,37,2,2:0:0:0:
224,240,136970,1,8,2:1:0:0:
259,228,137104,1,8,1:3:0:0:
295,228,137238,1,0,1:0:0:0:
329,241,137372,22,0,P|370:260|412:258,1,58.5,10|4,3:0|1:3,0:0:0:0:
385,180,137640,6,0,P|426:164|455:133,1,58.5,0|0,1:3|1:3,0:0:0:0:
512,105,137907,38,0,P|409:104|319:94,1,135,6|2,1:0|3:0,0:0:0:0:
425,24,138309,1,0,0:0:0:0:
316,43,138443,2,0,P|248:38|181:39,1,135,0|2,1:0|2:3,0:0:0:0:
124,98,138845,1,0,3:0:0:0:
67,45,138979,70,0,P|32:46|-31:48,1,67.5,0|0,1:0|3:0,0:0:0:0:
27,124,139247,1,2,2:3:0:0:
218,164,139515,2,0,B|248:157|290:169|290:169|256:181|209:171,1,135,0|2,1:0|3:0,0:0:0:0:
137,207,139916,1,0,1:3:0:0:
36,233,140050,38,0,P|122:226|220:232,1,135,0|2,1:0|3:0,0:0:0:0:
237,267,140452,2,0,P|296:267|337:260,1,67.5,0|0,0:0|1:0,0:0:0:0:
436,75,140854,2,0,P|436:134|443:175,1,67.5,2|0,2:3|3:0,0:0:0:0:
511,200,141122,70,0,P|518:121|507:42,1,135,0|2,1:0|2:3,0:0:0:0:
461,2,141523,1,0,0:0:0:0:
361,30,141657,2,0,P|355:97|362:164,1,135,0|2,1:0|3:0,0:0:0:0:
418,223,142059,1,4,2:3:0:0:
474,283,142193,38,0,B|483:322|477:376|477:376|474:333|464:279,1,135,0|2,1:0|3:0,0:0:0:0:
233,149,142729,2,0,P|184:189|78:148,1,135,0|2,1:0|2:3,0:0:0:0:
297,328,143265,70,0,P|379:268|509:313,1,202.5,0|0,1:0|0:0,0:0:0:0:
512,374,143800,2,0,P|432:368|317:386,1,135,0|2,1:0|3:0,0:0:0:0:
295,329,144202,1,4,2:3:0:0:
213,367,144336,38,0,B|135:376|69:366|69:366|104:354|167:361,1,202.5,0|0,1:0|2:0,0:0:0:0:
0,284,144872,2,0,P|84:276|169:290,1,135,0|2,1:0|2:3,0:0:0:0:
210,287,145273,1,0,3:0:0:0:
235,209,145407,70,0,P|239:165|228:85,1,67.5,0|0,1:0|3:0,0:0:0:0:
170,99,145675,2,0,P|99:92|4:98,1,135,2|8,2:3|1:0,0:0:0:0:
106,47,146077,1,0,3:2:0:0:
169,0,146211,1,8,1:3:0:0:
363,36,146479,38,0,P|369:115|371:254,1,202.5,4|0,1:2|0:0,0:0:0:0:
305,285,147015,2,0,P|273:287|161:280,1,135,0|2,1:0|2:3,0:0:0:0:
469,276,147550,70,0,P|470:375|390:374,1,202.5,0|0,1:0|0:0,0:0:0:0:
392,286,148086,2,0,P|386:210|387:130,1,135,0|2,1:0|3:0,0:0:0:0:
385,142,148488,1,4,2:3:0:0:
449,65,148622,38,0,P|373:59|293:60,1,135,0|2,1:3|3:0,0:0:0:0:
243,90,149023,2,0,P|188:90|129:83,1,67.5,0|0,0:0|1:0,0:0:0:0:
9,271,149425,2,0,P|43:270|76:272,1,67.5,2|0,2:3|3:0,0:0:0:0:
120,355,149693,70,0,P|106:251|116:141,1,202.5,0|0,1:0|0:0,0:0:0:0:
204,6,150229,2,0,P|190:110|202:202,1,135,0|2,1:0|3:0,0:0:0:0:
269,165,150631,1,4,2:3:0:0:
338,132,150765,1,0,1:3:0:0:
453,256,151032,38,0,L|465:348,1,67.5,2|0,3:0|0:0,0:0:0:0:
464,336,151300,2,0,P|395:377|289:304,1,202.5,0|0,1:0|3:0,0:0:0:0:
196,179,151836,70,0,P|160:161|71:213,1,135,0|2,1:0|2:3,0:0:0:0:
92,293,152238,2,0,P|127:310|217:259,1,135
268,214,152640,2,0,P|309:213|432:218,1,135,2|0,3:0|1:0,0:0:0:0:
512,151,153041,38,0,P|474:149|420:148,1,67.5,0|2,2:0|3:0,0:0:0:0:
365,124,153309,2,0,P|256:123|174:114,1,135,0|0,2:0|3:0,0:0:0:0:
165,76,153711,2,0,P|159:35|160:-13,1,67.5,2|0,2:3|3:0,0:0:0:0:
0,101,153979,101,4,1:0:0:0:
90,263,154247,37,0,3:0:0:0:
71,186,154381,1,4,1:2:0:0:
259,314,154648,21,0,3:0:0:0:
240,237,154782,1,4,1:0:0:0:
428,384,155050,22,0,P|419:272|427:144,1,202.5,6|0,1:0|0:0,0:0:0:0:
473,117,155586,2,0,B|476:63|464:-15,1,117,0|2,1:0|2:3,0:0:0:0:
342,191,156122,22,0,B|286:181|233:197|233:197|279:206|334:201,1,202.5,0|0,1:0|0:0,0:0:0:0:
140,292,156657,2,0,P|68:295|-8:290,1,135,0|2,1:0|3:0,0:0:0:0:
54,218,157059,1,0,1:3:0:0:
151,296,157193,86,0,P|223:299|340:290,1,135,0|2,1:0|3:0,0:0:0:0:
349,338,157595,2,0,P|397:338|449:341,1,67.5,0|0,0:0|1:0,0:0:0:0:
512,156,157997,2,0,P|464:156|412:153,1,67.5,2|0,2:3|3:0,0:0:0:0:
366,114,158265,22,0,B|355:173|368:254|368:254|380:204|371:150,1,202.5,0|0,1:0|0:0,0:0:0:0:
290,383,158800,2,0,P|292:323|281:224,1,135,0|2,1:0|3:0,0:0:0:0:
246,176,159202,1,4,2:3:0:0:
332,145,159336,86,0,P|237:149|121:142,1,202.5,0|0,1:0|0:0,0:0:0:0:
5,189,159872,2,0,B|96:170|96:170|62:256,1,135,0|2,1:0|2:3,0:0:0:0:
370,33,160407,22,0,B|244:65|244:65|294:-30,1,202.5,0|0,1:0|0:0,0:0:0:0:
170,82,160943,2,0,P|111:78|44:79,1,67.5,0|0,1:0|0:0,0:0:0:0:
25,88,161211,1,2,3:0:0:0:
72,288,161479,86,0,P|76:208|69:128,1,135,0|2,1:0|3:0,0:0:0:0:
154,201,161881,1,0,2:0:0:0:
217,250,162015,2,0,P|221:330|214:410,1,135,0|2,1:0|2:3,0:0:0:0:
413,210,162550,22,0,P|417:130|411:-8,1,202.5,0|0,1:0|2:0,0:0:0:0:
432,69,163086,85,8,1:0:0:0:
428,142,163220,1,0,3:2:0:0:
426,217,163354,1,8,1:3:0:0:
430,289,163488,1,4,2:3:0:0:
436,362,163622,22,0,P|343:351|239:364,1,135,4|2,1:2|3:0,0:0:0:0:
252,287,164023,2,0,B|260:251|250:215|250:215|258:130,1,135,0|0,0:0|3:0,0:0:0:0:
37,267,164425,2,0,P|129:256|233:269,1,135,2|0,2:3|1:0,0:0:0:0:
155,175,164827,85,0,3:0:0:0:
169,98,164961,1,2,2:3:0:0:
359,212,165229,2,0,P|350:297|358:381,1,135,0|2,1:0|3:0,0:0:0:0:
512,342,165631,1,4,2:3:0:0:
446,293,165765,22,0,B|331:283|351:304|228:289,1,202.5,0|0,1:3|0:0,0:0:0:0:
172,335,166300,2,0,P|108:340|18:328,1,135,0|2,1:0|2:3,0:0:0:0:
362,206,166836,86,0,B|403:211|430:207|430:207|396:196|346:198,1,135,0|2,1:0|2:3,0:0:0:0:
286,180,167238,2,0,P|228:179|173:177,1,67.5,0|0,0:0|1:0,0:0:0:0:
88,133,167506,2,0,P|146:134|201:136,1,67.5,0|2,0:0|3:0,0:0:0:0:
0,290,167907,22,0,P|112:289|200:295,1,135,0|2,1:3|3:0,0:0:0:0:
200,324,168309,1,0,0:0:0:0:
247,384,168443,86,0,B|228:280|267:326|248:209,1,161.999995056153,0|2,1:0|0:3,0:0:0:0:
507,96,168979,2,0,P|489:187|288:186,1,270,0|0,1:0|0:0,0:0:0:0:
311,153,169515,22,0,P|309:97|308:57,1,67.5,0|0,1:0|0:0,0:0:0:0:
354,21,169782,1,2,3:0:0:0:
132,155,170050,86,0,P|137:240|128:340,1,135,0|2,1:0|3:0,0:0:0:0:
134,376,170452,2,0,P|66:376|14:384,1,67.5,0|0,2:0|1:0,0:0:0:0:
7,321,170720,1,0,3:0:0:0:
7,321,170854,1,2,2:3:0:0:
309,371,171122,21,4,1:0:0:0:
71,277,171390,69,0,3:0:0:0:
144,259,171523,1,4,1:2:0:0:
222,56,171791,101,0,3:0:0:0:
295,74,171925,1,4,1:0:0:0:
368,256,172193,102,0,L|512:235,1,135,6|0,1:0|0:0,0:0:0:0:
507,235,172729,2,0,P|515:182|489:133,2,90,2|0|2,1:2|0:0|2:0,0:0:0:0:
436,193,173398,2,0,P|381:153|297:193,1,135,0|2,0:0|1:2,0:0:0:0:
113,121,174202,1,0,0:0:0:0:
113,121,174336,2,0,P|139:69|75:-19,1,135,2|0,2:0|0:0,0:0:0:0:
58,59,174872,2,0,B|40:72|6:56|6:56|23:30|54:34,1,90,2|0,1:2|0:0,0:0:0:0:
113,121,175407,2,0,P|86:181|113:239,2,90,2|0|2,2:0|0:0|1:2,0:0:0:0:
0,278,176479,6,0,P|42:319|143:290,1,135,2|0,2:0|0:0,0:0:0:0:
121,310,177015,2,0,P|149:335|158:389,2,90,2|0|2,1:2|0:0|2:0,0:0:0:0:
165,241,177684,2,0,P|236:240|281:154,1,135,0|2,0:0|1:2,0:0:0:0:
459,238,178488,1,0,0:0:0:0:
459,238,178622,2,0,L|432:378,1,135,2|0,2:0|0:0,0:0:0:0:
431,380,179157,2,0,P|393:322|354:317,1,90,2|0,1:2|0:0,0:0:0:0:
286,205,179693,101,2,2:0:0:0:
304,277,179827,2,0,L|285:167,1,90,0|0,2:0|0:0,0:0:0:0:
395,155,180229,1,2,1:2:0:0:
377,227,180363,2,0,L|396:117,1,90,0|0,2:0|0:0,0:0:0:0:
410,63,180765,6,0,P|360:34|270:74,1,135,2|0,2:0|0:0,0:0:0:0:
214,83,181300,2,0,P|173:47|181:-15,2,90,2|0|2,1:2|0:0|2:0,0:0:0:0:
201,172,181970,2,0,B|182:134|207:91|207:91|204:134|240:176,1,135,0|2,0:0|1:2,0:0:0:0:
106,294,182773,1,0,0:0:0:0:
106,294,182907,2,0,P|39:293|-3:231,1,135,2|0,2:0|0:0,0:0:0:0:
22,168,183443,2,0,P|49:136|115:127,2,90,2|0|2,1:2|0:0|2:0,0:0:0:0:
70,264,184247,2,0,L|83:340,1,45
80,316,184515,2,0,L|202:335,1,90,2|0,1:2|0:0,0:0:0:0:
308,266,185050,102,0,L|169:244,1,135,2|0,2:0|0:0,0:0:0:0:
165,241,185586,2,0,P|165:186|215:129,2,90,2|0|2,1:2|0:0|2:0,0:0:0:0:
242,209,186256,2,0,P|366:184|397:203,1,135,0|2,0:0|1:2,0:0:0:0:
421,241,186925,1,0,0:0:0:0:
451,329,187193,2,0,B|491:335|511:307|511:307|476:290|448:311,1,135,2|0,2:0|0:0,0:0:0:0:
373,327,187729,2,0,P|326:350|300:407,1,90,2|0,1:2|0:0,0:0:0:0:
194,255,188265,5,2,2:0:0:0:
266,285,188398,2,0,P|269:230|228:182,1,90
140,200,188800,1,2,1:2:0:0:
190,140,188934,2,0,P|149:121|105:126,1,90
40,207,189336,102,0,L|91:30,1,180,2|2,2:1|1:2,0:0:0:0:
165,9,190140,1,0,0:0:0:0:
285,69,190407,1,2,2:0:0:0:
285,69,190541,2,0,L|251:206,1,135,0|2,0:0|1:2,0:0:0:0:
252,200,191211,1,0,0:0:0:0:
284,274,191479,2,0,P|347:289|400:253,2,121.5,2|0|0,2:0|0:0|0:0,0:0:0:0:
395,180,192550,2,0,P|445:195|477:245,1,81.0000000000001,2|0,2:0|0:0,0:0:0:0:
465,215,193086,2,0,L|491:351,1,121.5,2|0,1:2|0:0,0:0:0:0:
490,344,193622,6,0,B|395:340|434:383|329:379,1,162,2|2,2:0|1:2,0:0:0:0:
258,360,194425,1,0,0:0:0:0:
207,300,194693,1,2,2:0:0:0:
194,229,194961,86,0,L|184:149,1,54,2|0,2:3|0:0,0:0:0:0:
326,63,195229,1,0,3:0:0:0:
194,229,195497,70,0,L|204:309,1,54,2|0,2:3|0:0,0:0:0:0:
12,367,195765,38,0,B|35:274|35:274|48:345,1,153,0|8,3:0|2:3,0:0:0:0:
194,229,196166,70,0,B|173:144|173:144|163:195,1,135,2|0,3:0|2:0,0:0:0:0:
106,0,196568,22,0,L|44:339,1,337.500000000001,4|8,1:2|2:0,0:0:0:0:
76,142,213845,86,0,L|69:90,1,33.7500012874604,8|0,1:3|0:0,0:0:0:0:
59,34,213979,1,8,3:1:0:0:
138,264,214247,37,8,2:3:0:0:
0,219,214381,2,0,P|54:284|138:264,1,180,10|4,2:3|1:3,0:0:0:0:
200,150,214782,2,0,L|290:138,1,67.5000025749208,2|0,1:2|0:0,0:0:0:0:
305,33,215050,22,0,P|298:106|307:222,1,135,6|2,1:0|3:0,0:0:0:0:
273,245,215452,1,0,0:0:0:0:
393,285,215586,2,0,B|386:334|397:384|397:384|408:332|402:297,1,135,0|2,1:0|2:3,0:0:0:0:
511,185,216122,5,0,1:0:0:0:
511,185,216256,2,0,B|457:190|457:190|416:178|337:194,1,135,0|0,3:0|0:0,0:0:0:0:
416,73,216657,2,0,B|453:80|481:61|481:61|451:46|416:54,1,135,0|2,1:0|3:0,0:0:0:0:
339,65,217059,1,0,1:3:0:0:
218,103,217193,38,0,P|132:102|-8:112,1,202.5,0|0,1:0|0:0,0:0:0:0:
119,26,217729,2,0,P|116:114|119:184,1,135,0|2,1:0|2:3,0:0:0:0:
150,232,218131,1,0,3:0:0:0:
105,313,218265,70,0,B|92:274|49:269|49:269|44:313|87:335,1,135,0|2,1:0|2:3,0:0:0:0:
223,280,218666,1,0,0:0:0:0:
223,280,218800,2,0,P|288:351|365:383,1,135,0|2,1:0|3:0,0:0:0:0:
333,131,219336,2,0,P|465:97|531:28,1,202.5,0|0,1:0|0:0,0:0:0:0:
313,23,219872,38,0,P|289:78|349:133,1,135,0|2,1:0|2:3,0:0:0:0:
105,313,220407,2,0,P|139:228|14:174,1,202.5,0|0,1:0|0:0,0:0:0:0:
94,82,220943,70,0,P|40:80|-32:82,1,67.5,0|0,1:0|0:0,0:0:0:0:
0,0,221211,1,2,3:0:0:0:
142,164,221479,38,0,P|218:167|335:165,1,135,0|2,1:0|3:0,0:0:0:0:
335,227,221881,1,0,0:0:0:0:
463,250,222015,2,0,P|464:312|470:403,1,135,0|2,1:0|2:3,0:0:0:0:
337,113,222550,70,0,B|340:61|333:11|333:11|321:55|334:87,1,135,0|2,1:0|2:3,0:0:0:0:
327,43,223086,2,0,P|427:44|513:38,1,135,0|2,1:0|3:0,0:0:0:0:
482,126,223488,1,4,2:3:0:0:
369,250,223622,38,0,P|256:248|178:254,1,135,4|2,1:2|3:0,0:0:0:0:
172,297,224023,2,0,P|163:356|205:411,1,67.5,0|0,0:0|1:0,0:0:0:0:
400,350,224425,2,0,P|445:347|503:353,1,67.5,2|0,2:3|3:0,0:0:0:0:
245,337,224693,69,0,1:0:0:0:
245,337,224827,2,0,B|146:351|144:329|37:343,1,202.5,0|0,3:0|1:0,0:0:0:0:
144,229,225497,2,0,P|145:195|145:162,1,67.5,2|4,3:0|2:3,0:0:0:0:
293,142,225765,38,0,B|334:148|391:139|391:139|523:138,1,202.5,0|0,1:3|0:0,0:0:0:0:
512,221,226300,2,0,P|503:285|445:356,1,135,0|2,1:0|2:3,0:0:0:0:
384,123,226836,70,0,B|408:87|397:54|397:54|370:78|372:120,1,135,0|2,1:0|2:3,0:0:0:0:
315,1,227238,2,0,P|295:75|271:183,1,135
282,210,227640,2,0,P|253:239|197:291,1,67.5,2|4,3:0|2:3,0:0:0:0:
208,335,227907,38,0,P|148:353|79:384,1,135,0|2,1:3|3:0,0:0:0:0:
31,107,228443,2,0,P|59:184|191:142,1,202.5,0|0,1:0|3:0,0:0:0:0:
216,82,228979,2,0,P|188:5|56:47,1,202.5,0|0,1:0|0:0,0:0:0:0:
144,89,229515,70,0,P|196:89|252:86,1,67.5,0|0,1:0|0:0,0:0:0:0:
299,56,229782,2,0,P|332:55|366:55,1,67.5,2|4,3:0|2:3,0:0:0:0:
512,0,230050,38,0,B|516:53|508:93|508:93|510:188,1,135,0|2,1:0|3:0,0:0:0:0:
448,182,230452,1,0,2:0:0:0:
398,265,230586,1,0,1:0:0:0:
399,278,230720,1,0,3:0:0:0:
400,289,230854,2,0,P|446:288|504:289,1,67.5,2|0,2:3|3:0,0:0:0:0:
512,379,231122,5,4,1:0:0:0:
309,314,231390,6,0,L|288:257,1,33.75,0|0,3:0|0:0,0:0:0:0:
257,181,231523,1,4,1:2:0:0:
101,169,231791,6,0,L|99:115,1,33.75,0|0,3:0|0:0,0:0:0:0:
91,26,231925,2,0,P|147:28|187:32,1,67.5,4|0,1:0|0:0,0:0:0:0:
0,192,232193,22,0,P|68:194|142:191,1,135,6|2,1:0|3:0,0:0:0:0:
241,96,232595,69,0,0:0:0:0:
396,0,232863,1,0,3:0:0:0:
396,0,232997,2,0,P|396:33|399:67,1,67.5,2|0,2:3|3:0,0:0:0:0:
483,185,233265,38,0,P|478:259|503:189,1,202.5,0|0,1:0|0:0,0:0:0:0:
424,338,233800,2,0,P|365:369|298:364,1,135,0|2,1:0|3:0,0:0:0:0:
219,285,234202,1,0,1:3:0:0:
361,281,234336,38,0,P|219:278|174:284,1,135,0|2,1:0|3:0,0:0:0:0:
154,317,234738,2,0,P|150:359|153:408,1,67.5,0|0,0:0|1:0,0:0:0:0:
70,63,235140,2,0,P|70:97|66:131,1,67.5,2|0,2:3|3:0,0:0:0:0:
0,251,235407,70,0,P|77:263|144:159,1,202.5,0|0,1:0|0:0,0:0:0:0:
306,107,235943,2,0,P|354:23|437:22,1,135,0|2,1:0|3:0,0:0:0:0:
458,43,236345,1,4,2:3:0:0:
505,161,236479,2,0,B|493:262|522:262|508:380,1,202.5,8|0,1:2|0:0,0:0:0:0:
437,375,237015,38,0,P|356:352|344:266,1,135,0|2,1:0|2:3,0:0:0:0:
44,331,237550,2,0,P|135:315|222:420,1,202.5,0|0,1:0|0:0,0:0:0:0:
420,293,238086,2,0,P|339:270|327:184,1,135,0|2,1:0|3:0,0:0:0:0:
56,283,238622,70,0,B|84:296|94:340|72:360|72:360|42:351|34:318|48:294,1,135,0|2,1:0|3:0,0:0:0:0:
159,306,239023,1,0,0:0:0:0:
222,210,239157,2,0,P|199:147|228:86,1,135,0|2,1:0|2:3,0:0:0:0:
305,62,239559,2,0,P|359:68|415:68,1,67.5,0|0,3:0|1:0,0:0:0:0:
505,126,239827,38,0,P|421:105|327:106,1,135,0|0,3:0|0:0,0:0:0:0:
284,151,240229,1,0,1:0:0:0:
75,67,240497,2,0,P|80:129|82:196,1,67.5,2|4,3:0|2:3,0:0:0:0:
3,217,240765,21,2,1:0:0:0:
194,200,241032,37,2,3:0:0:0:
194,200,241166,1,0,0:0:0:0:
345,343,241434,69,0,3:0:0:0:
345,343,241568,1,2,2:3:0:0:
505,216,241836,38,0,P|439:245|511:242,1,202.5,0|0,1:0|0:0,0:0:0:0:
345,343,242372,2,0,B|379:355|420:342|420:342|382:328|347:338,1,135,0|2,1:0|3:0,0:0:0:0:
254,278,242773,1,4,2:3:0:0:
272,202,242907,38,0,P|291:141|300:61,1,135,0|2,1:3|3:0,0:0:0:0:
244,13,243309,1,0,0:0:0:0:
159,91,243443,2,0,P|167:158|187:223,1,135,0|2,1:0|2:3,0:0:0:0:
187,223,243979,70,0,B|128:191|83:105|83:105|72:33,1,202.5,0|0,1:0|0:0,0:0:0:0:
382,41,244515,2,0,B|375:84|375:84|330:169|271:201,1,202.5,0|4,1:0|2:3,0:0:0:0:
378,159,245050,2,0,P|451:161|531:169,1,135,8|2,1:2|3:0,0:0:0:0:
512,374,245586,38,0,P|394:367|280:369,1,202.5,0|0,1:0|3:0,0:0:0:0:
263,211,246122,2,0,P|206:174|145:144,1,135,0|2,1:0|2:3,0:0:0:0:
174,62,246523,2,0,P|160:30|146:0,1,67.5,0|0,0:0|1:0,0:0:0:0:
279,291,246925,2,0,P|312:286|346:283,1,67.5,2|4,3:0|2:3,0:0:0:0:
410,375,247193,69,0,1:0:0:0:
454,150,247461,2,0,P|420:150|387:149,1,67.5,2|0,3:0|2:0,0:0:0:0:
421,67,247729,1,0,1:0:0:0:
421,67,247863,1,0,3:0:0:0:
421,67,247997,2,0,P|419:24|421:-28,1,67.5,2|0,2:3|3:0,0:0:0:0:
220,44,248265,21,4,1:0:0:0:
291,276,248532,54,0,L|290:215,1,33.75,0|0,3:0|0:0,0:0:0:0:
287,133,248666,1,4,1:2:0:0:
44,184,248934,6,0,L|104:183,1,33.75,0|0,3:0|0:0,0:0:0:0:
187,180,249068,1,4,1:0:0:0:
86,384,249336,54,0,P|85:299|85:165,1,202.5,6|0,1:0|0:0,0:0:0:0:
129,108,249872,2,0,B|130:56|127:15|127:15|120:42|123:80,1,135,0|2,1:0|2:3,0:0:0:0:
389,114,250407,85,0,1:0:0:0:
389,114,250541,2,0,B|362:178|362:178|480:126,1,135,0|0,3:0|0:0,0:0:0:0:
512,278,250943,2,0,P|408:258|359:259,1,135,0|2,1:0|3:0,0:0:0:0:
321,310,251345,1,0,1:3:0:0:
169,282,251479,22,0,B|151:314|93:317|73:288|73:288|77:253|141:242|159:278,1,202.5,0|0,1:0|0:0,0:0:0:0:
239,317,252015,2,0,P|244:356|242:385,1,67.5,0|0,1:0|3:0,0:0:0:0:
379,257,252282,1,2,2:3:0:0:
248,125,252550,86,0,P|177:133|94:115,1,135,0|2,1:0|2:3,0:0:0:0:
79,50,252952,1,0,0:0:0:0:
138,0,253086,2,0,P|209:-8|292:10,1,135,0|2,1:0|3:0,0:0:0:0:
512,167,253622,22,0,P|500:267|504:368,1,202.5,8|0,1:2|0:0,0:0:0:0:
413,248,254157,2,0,P|420:180|419:113,1,135,0|2,1:0|2:3,0:0:0:0:
505,382,254693,86,0,B|395:369|417:387|258:371,1,202.5,0|0,1:0|0:0,0:0:0:0:
238,321,255229,2,0,P|192:316|123:322,1,67.5,0|0,1:0|0:0,0:0:0:0:
32,351,255497,2,0,P|78:356|147:350,1,67.5,2|4,3:0|2:3,0:0:0:0:
0,154,255765,22,0,B|46:165|91:153|91:153|53:138|-9:149,1,135,0|2,1:0|3:0,0:0:0:0:
168,149,256166,1,0,2:0:0:0:
175,285,256300,2,0,P|239:280|340:285,1,135,0|2,1:0|2:3,0:0:0:0:
463,63,256836,2,0,P|395:68|328:66,1,135,0|2,1:0|2:3,0:0:0:0:
341,384,257372,85,8,1:0:0:0:
311,308,257506,1,0,3:2:0:0:
331,225,257640,1,8,1:3:0:0:
297,144,257773,1,4,2:3:0:0:
328,66,257907,102,0,P|288:17|204:76,1,135,2|2,1:0|3:0,0:0:0:0:
138,69,258309,2,0,B|74:75|74:75|34:72|-24:84,1,135,0|0,0:0|3:0,0:0:0:0:
218,191,258711,2,0,P|221:157|216:123,1,67.5,2|0,2:3|3:0,0:0:0:0:
396,118,258979,101,0,1:0:0:0:
396,118,259113,2,0,B|448:117|500:130|500:130|478:136|447:129,1,135,0|0,3:0|0:0,0:0:0:0:
293,233,259515,2,0,P|194:227|128:232,1,135,0|2,1:0|3:0,0:0:0:0:
70,304,259916,1,4,2:3:0:0:
228,266,260050,6,0,P|327:260|393:265,1,135,0|2,1:3|3:0,0:0:0:0:
431,307,260452,2,0,P|472:304|530:306,1,67.5,0|0,0:0|1:0,0:0:0:0:
158,228,260854,2,0,P|117:231|59:229,1,67.5,2|0,2:3|3:0,0:0:0:0:
309,250,261122,102,0,P|305:320|312:395,1,135,0|2,1:0|2:3,0:0:0:0:
309,250,261523,2,0,P|313:180|306:105,1,135
244,67,261925,2,0,P|241:33|244:-4,1,67.5,2|4,3:0|2:3,0:0:0:0:
88,39,262193,5,8,1:2:0:0:
46,184,262461,1,2,3:0:0:0:
46,184,262595,1,0,0:0:0:0:
46,184,262729,102,0,B|13:259|79:302|79:302|131:268|116:217,1,162,0|2,1:0|2:3,0:0:0:0:
213,72,263265,2,0,B|209:24|209:24|285:-14|358:30|373:120,1,270,0|0,1:0|0:0,0:0:0:0:
429,298,263800,2,0,P|380:345|278:341,1,135,0|2,1:0|3:0,0:0:0:0:
267,287,264202,1,4,2:3:0:0:
301,214,264336,6,0,P|300:169|300:96,1,67.5,0|0,1:0|2:0,0:0:0:0:
497,234,264604,1,2,3:0:0:0:
378,384,264872,102,0,P|379:296|376:230,1,135,0|2,1:0|2:3,0:0:0:0:
377,240,265229,6,0,P|378:202|378:169,1,45,0|0,3:0|3:0,0:0:0:0:
285,222,265407,101,0,3:0:0:0:
273,269,265541,1,0,3:0:0:0:
196,267,265675,85,8,2:3:0:0:
177,282,265809,1,8,2:3:0:0:
107,260,265943,101,4,1:3:0:0:
94,261,266077,1,4,1:3:0:0:
46,208,266211,85,0,1:0:0:0:
35,200,266345,1,0,1:0:0:0:
12,135,266479,53,6,1:0:0:0:
256,192,266613,12,8,268622,2:0:0:0:
256,192,268756,12,2,270765,2:1:0:0:
256,192,270898,12,8,272907,2:0:0:0:
256,192,273041,12,2,275050,2:1:0:0:
