osu file format v14

[General]
AudioFilename: audio.mp3
AudioLeadIn: 0
PreviewTime: 66177
Countdown: 0
SampleSet: Soft
StackLeniency: 0.7
Mode: 0
LetterboxInBreaks: 0
WidescreenStoryboard: 1

[Editor]
Bookmarks: 17117,32985,48853,56787,64721,66704,82572,100423,116291,132159,148026,155960,163894,165878,181745,197613,213481,219431,225382,229349,237283,245216,251167,267035,282902,291557
DistanceSpacing: 0.8
BeatDivisor: 4
GridSize: 32
TimelineZoom: 1.3

[Metadata]
Title:Tsunagi Chou
TitleUnicode:ツナギ蝶
Artist:Shimotsuki Haruka
ArtistUnicode:霜月はるか
Creator:Lasse
Version:Petal
Source:
Tags:arcane753. japanese folk MANYO 日山尚 Nao Hiyama ツナギ蝶ノ塚 no tsuka
BeatmapID:3595521
BeatmapSetID:1756971

[Difficulty]
HPDrainRate:5.8
CircleSize:4.3
OverallDifficulty:8
ApproachRate:9
SliderMultiplier:1.6
SliderTickRate:1

[Events]
//Background and Video events
0,0,"35v4c5tvser.jpg",0,0
//Break Periods
2,213681,218088
//Storyboard Layer 0 (Background)
//Storyboard Layer 1 (Fail)
//Storyboard Layer 2 (Pass)
//Storyboard Layer 3 (Foreground)
//Storyboard Layer 4 (Overlay)
//Storyboard Sound Samples

[TimingPoints]
1250,495.867768595041,4,2,1,50,1,0
1250,-133.333333333333,4,2,1,50,0,0
17117,-156.25,4,2,1,40,0,0
32241,-156.25,4,2,1,45,0,0
32737,-156.25,4,2,1,42,0,0
32985,-147.058823529412,4,2,1,45,0,0
48853,-111.111111111111,4,2,1,50,0,0
49225,-83.3333333333333,4,2,1,50,0,0
49597,-100,4,2,1,50,0,0
50340,-83.3333333333333,4,2,1,50,0,0
50836,-111.111111111111,4,2,1,50,0,0
51208,-83.3333333333333,4,2,1,50,0,0
51580,-100,4,2,1,50,0,0
52820,-111.111111111111,4,2,1,50,0,0
53192,-83.3333333333333,4,2,1,50,0,0
53564,-100,4,2,1,50,0,0
54307,-83.3333333333333,4,2,1,50,0,0
54803,-111.111111111111,4,2,1,50,0,0
55175,-83.3333333333333,4,2,1,50,0,0
55547,-100,4,2,1,50,0,0
56787,-100,4,2,1,55,0,0
57159,-71.4285714285714,4,2,1,55,0,0
57530,-90.9090909090909,4,2,1,55,0,0
58274,-76.9230769230769,4,2,1,55,0,0
58770,-100,4,2,1,55,0,0
59142,-71.4285714285714,4,2,1,55,0,0
59513,-90.9090909090909,4,2,1,55,0,0
60754,-100,4,2,1,55,0,0
61126,-71.4285714285714,4,2,1,55,0,0
61497,-90.9090909090909,4,2,1,55,0,0
62241,-76.9230769230769,4,2,1,55,0,0
62737,-100,4,2,1,58,0,0
63109,-71.4285714285714,4,2,1,58,0,0
63481,-90.9090909090909,4,2,1,58,0,0
65712,-90.9090909090909,4,2,1,60,0,0
65960,-90.9090909090909,4,2,1,58,0,0
66084,-90.9090909090909,4,2,1,63,0,0
66704,-62.5,4,2,1,70,0,1
72654,-50,4,2,1,70,0,1
74638,-62.5,4,2,1,70,0,1
82510,-62.5,4,2,1,70,0,0
82572,-62.5,4,2,1,70,0,1
88522,-50,4,2,1,70,0,1
90506,-62.5,4,2,1,70,0,1
100423,-71.4285714285714,4,2,1,62,0,0
115175,-71.4285714285714,4,2,1,61,0,0
115299,-71.4285714285714,4,2,1,60,0,0
115423,-71.4285714285714,4,2,1,59,0,0
115547,-71.4285714285714,4,2,1,58,0,0
115671,-71.4285714285714,4,2,1,57,0,0
115795,-71.4285714285714,4,2,1,56,0,0
115919,-71.4285714285714,4,2,1,55,0,0
116043,-71.4285714285714,4,2,1,54,0,0
116291,-156.25,4,2,1,40,0,0
131415,-156.25,4,2,1,45,0,0
131911,-156.25,4,2,1,42,0,0
132159,-147.058823529412,4,2,1,45,0,0
148026,-111.111111111111,4,2,1,50,0,0
148398,-83.3333333333333,4,2,1,50,0,0
148770,-100,4,2,1,50,0,0
149513,-83.3333333333333,4,2,1,50,0,0
150010,-111.111111111111,4,2,1,50,0,0
150382,-83.3333333333333,4,2,1,50,0,0
150754,-100,4,2,1,50,0,0
151993,-111.111111111111,4,2,1,50,0,0
152365,-83.3333333333333,4,2,1,50,0,0
152737,-100,4,2,1,50,0,0
153481,-83.3333333333333,4,2,1,50,0,0
153977,-111.111111111111,4,2,1,50,0,0
154349,-83.3333333333333,4,2,1,50,0,0
154721,-100,4,2,1,50,0,0
155960,-100,4,2,1,55,0,0
156332,-71.4285714285714,4,2,1,55,0,0
156704,-90.9090909090909,4,2,1,55,0,0
157448,-76.9230769230769,4,2,1,55,0,0
157944,-100,4,2,1,55,0,0
158316,-71.4285714285714,4,2,1,55,0,0
158687,-90.9090909090909,4,2,1,55,0,0
159927,-100,4,2,1,55,0,0
160300,-71.4285714285714,4,2,1,55,0,0
160671,-90.9090909090909,4,2,1,55,0,0
161415,-76.9230769230769,4,2,1,55,0,0
161911,-90.9090909090909,4,2,1,58,0,0
162283,-71.4285714285714,4,2,1,58,0,0
162655,-90.9090909090909,4,2,1,54,0,0
162902,-90.9090909090909,4,2,1,56,0,0
163026,-90.9090909090909,4,2,1,57,0,0
163150,-90.9090909090909,4,2,1,58,0,0
163274,-90.9090909090909,4,2,1,59,0,0
163398,-90.9090909090909,4,2,1,60,0,0
163522,-90.9090909090909,4,2,1,61,0,0
163646,-90.9090909090909,4,2,1,62,0,0
164886,-90.9090909090909,4,2,1,60,0,0
165382,-90.9090909090909,4,2,1,62,0,0
165630,-90.9090909090909,4,2,1,64,0,0
165878,-62.5,4,2,1,70,0,1
171828,-50,4,2,1,70,0,1
173811,-62.5,4,2,1,70,0,1
181683,-62.5,4,2,1,70,0,0
181745,-62.5,4,2,1,70,0,1
187696,-50,4,2,1,70,0,1
189679,-62.5,4,2,1,70,0,1
197613,-55.5555555555556,4,2,1,65,0,0
197985,-71.4285714285714,4,2,1,65,0,0
198357,-71.4285714285714,4,2,1,5,0,0
198605,-71.4285714285714,4,2,1,60,0,0
198729,-90.9090909090909,4,2,1,60,0,0
201580,-55.5555555555556,4,2,1,65,0,0
201952,-71.4285714285714,4,2,1,65,0,0
202076,-71.4285714285714,4,2,1,5,0,0
203068,-90.9090909090909,4,2,1,60,0,0
205547,-55.5555555555556,4,2,1,65,0,0
205919,-71.4285714285714,4,2,1,65,0,0
206043,-71.4285714285714,4,2,1,5,0,0
206539,-71.4285714285714,4,2,1,60,0,0
206663,-90.9090909090909,4,2,1,60,0,0
209514,-76.9230769230769,4,2,1,65,0,0
209886,-90.9090909090909,4,2,1,60,0,0
211497,-83.3333333333333,4,2,1,62,0,0
212737,-76.9230769230769,4,2,1,61,0,0
212861,-76.9230769230769,4,2,1,60,0,0
212985,-76.9230769230769,4,2,1,59,0,0
213109,-76.9230769230769,4,2,1,58,0,0
213233,-76.9230769230769,4,2,1,56,0,0
213357,-76.9230769230769,4,2,1,54,0,0
213481,-100,4,2,99,52,0,0
218688,-100,4,2,1,55,0,0
218935,-83.3333333333333,4,2,1,60,0,0
219183,-100,4,2,1,50,0,0
219431,-50,4,2,1,70,0,1
221291,-50,4,2,1,70,0,0
221415,-83.3333333333333,4,2,1,65,0,0
221787,-83.3333333333333,4,2,1,60,0,0
224390,-71.4285714285714,4,2,1,64,0,0
224638,-71.4285714285714,4,2,1,60,0,0
225382,-76.9230769230769,4,2,1,63,0,0
227365,-66.6666666666667,4,2,1,65,0,0
229349,-58.8235294117647,4,2,1,70,0,1
235299,-47.6190476190476,4,2,1,70,0,1
237283,-58.8235294117647,4,2,1,70,0,1
243729,-55.5555555555556,4,2,1,70,0,1
244101,-58.8235294117647,4,2,1,70,0,1
245216,-62.5,4,2,1,70,0,1
247200,-55.5555555555556,4,2,1,70,0,1
247572,-62.5,4,2,1,70,0,1
249183,-58.8235294117647,4,2,1,70,0,1
251167,-76.9230769230769,4,2,1,62,0,0
267035,-83.3333333333333,4,2,1,60,0,0
282902,-100,4,2,1,55,0,0
284390,-200,4,2,1,55,0,0
284514,-125,4,2,1,5,0,0
285382,-125,4,2,1,35,0,0
285878,571.428571428571,4,2,1,40,1,0
285878,-133.333333333333,4,2,1,40,0,0
286020,-125,4,2,1,5,0,0
286878,-125,4,2,1,20,0,0
287020,594.059405940594,4,2,1,32,1,0
287317,731.707317073171,4,2,1,30,1,0
287682,895.522388059701,4,2,1,28,1,0
288129,857.142857142857,4,2,1,26,1,0
288129,-100,4,2,1,26,0,0
288343,-100,4,2,1,5,0,0
291557,-100,4,2,99,7,0,0

[Colours]
Combo1 : 135,215,115
Combo2 : 255,165,165
Combo3 : 255,230,130
Combo4 : 255,170,215
Combo5 : 170,225,155
Combo6 : 255,100,100
Combo7 : 255,220,85
Combo8 : 255,120,190

[HitObjects]
16,225,1250,6,0,B|3:326|93:388|161:365|161:365|120:314|143:254|168:264|166:183|107:150|107:150|173:168|223:127,1,600.000022888184,2|0,2:2|3:0,0:0:0:0:
379,53,4225,6,0,P|370:20|350:-6,1,60.0000022888184,2|0,0:0|0:0,0:0:0:0:
283,34,4721,2,0,P|292:67|312:93,1,60.0000022888184,0|0,3:0|0:0,0:0:0:0:
395,149,5216,102,0,P|452:132|518:127,1,120.000004577637,2|0,0:0|3:0,0:0:0:0:
401,296,6208,2,0,P|344:279|278:274,1,120.000004577637,2|0,0:0|3:0,0:0:0:0:
179,318,6952,5,0,0:0:0:0:
179,318,7076,1,0,0:0:0:0:
179,318,7200,2,0,L|162:394,1,60.0000022888184,2|0,0:0|0:0,0:0:0:0:
78,339,7696,2,0,L|95:263,1,60.0000022888184,0|0,3:0|0:0,0:0:0:0:
133,164,8192,2,0,P|108:174|66:178,1,60.0000022888184,2|0,0:0|0:0,0:0:0:0:
109,61,8688,2,0,P|79:64|51:75,1,60.0000022888184,0|0,3:0|0:0,0:0:0:0:
208,93,9183,102,0,B|350:87|281:9|425:10,1,240.000009155274,2|2,2:2|0:0,0:0:0:0:
455,147,10671,6,0,P|490:134|524:131,1,60.0000022888184,0|0,3:0|0:0,0:0:0:0:
389,203,11167,2,0,P|326:200|249:172,1,120.000004577637,2|0,0:0|3:0,0:0:0:0:
199,141,11911,1,0,0:0:0:0:
141,231,12159,2,0,P|170:223|200:219,1,60.0000022888184,2|0,0:0|0:0,0:0:0:0:
220,312,12654,2,0,P|191:319|161:324,1,60.0000022888184,0|0,3:0|0:0,0:0:0:0:
44,287,13150,102,0,L|28:159,1,120.000004577637,2|0,0:0|3:0,0:0:0:0:
256,32,14142,2,0,L|256:160,1,120.000004577637,2|0,0:0|3:0,0:0:0:0:
468,287,15134,2,0,L|484:159,1,120.000004577637,2|0,0:0|3:0,0:0:0:0:
359,16,16126,6,0,P|388:10|424:8,1,60.0000022888184,2|0,0:0|0:0,0:0:0:0:
350,125,16621,2,0,P|379:122|409:116,1,60.0000022888184,0|0,3:0|0:0,0:0:0:0:
268,65,17117,101,4,1:2:0:0:
154,143,17489,1,0,3:0:0:0:
143,5,17861,1,2,0:0:0:0:
76,40,18357,2,0,L|19:42,2,51.2,0|0|0,0:3|3:0|0:3,0:0:0:0:
227,103,19101,21,2,1:2:0:0:
145,173,19349,1,2,0:0:0:0:
145,173,19473,1,0,3:0:0:0:
246,209,19845,1,2,0:0:0:0:
246,209,20340,85,2,0:0:0:0:
145,173,20588,1,0,3:0:0:0:
227,103,20836,1,0,1:0:0:0:
265,222,21084,22,0,L|249:305,1,76.8,2|0,1:2|3:0,0:0:0:0:
354,373,21828,1,2,0:0:0:0:
429,347,22076,2,0,L|448:246,1,102.4,0|0,2:2|3:0,0:0:0:0:
437,94,23068,86,0,P|474:86|512:82,2,76.8,2|0|0,1:2|3:0|0:0,0:0:0:0:
340,182,24307,2,0,L|330:245,2,51.2,0|0|0,0:0|3:0|1:0,0:0:0:0:
287,60,25051,21,2,1:2:0:0:
217,147,25423,1,0,3:0:0:0:
217,147,25547,1,2,0:0:0:0:
176,41,25795,1,0,3:0:0:0:
176,41,25919,2,0,P|143:29|89:26,1,76.8,2|0,0:0|2:0,0:0:0:0:
4,111,26539,2,0,P|27:100|52:95,1,51.2,0|0,3:0|0:0,0:0:0:0:
152,148,27035,85,2,1:2:0:0:
91,249,27407,1,0,3:0:0:0:
192,310,27778,2,0,L|198:380,2,51.2,2|0|0,0:0|0:0|0:0,0:0:0:0:
253,209,28522,2,0,L|248:157,1,51.2,0|0,3:0|1:0,0:0:0:0:
294,75,29018,21,0,1:0:0:0:
407,112,29390,1,0,3:0:0:0:
407,112,29514,1,2,0:0:0:0:
370,225,29762,1,0,3:0:0:0:
370,225,29886,2,0,L|376:301,1,76.8,2|0,2:0|2:0,0:0:0:0:
294,384,30506,2,0,L|289:332,1,51.2,0|0,3:0|2:0,0:0:0:0:
203,240,31002,101,2,1:2:0:0:
112,310,31373,1,0,3:0:0:0:
96,196,31745,1,2,0:0:0:0:
227,245,31993,21,4,0:0:0:0:
336,168,32241,85,8,0:3:0:0:
329,296,32489,1,4,0:3:0:0:
222,225,32737,1,2,0:3:0:0:
347,150,32985,101,4,1:2:0:0:
425,214,33233,1,2,0:2:0:0:
425,214,33357,1,0,3:0:0:0:
489,136,33729,1,2,0:0:0:0:
459,65,34225,2,0,L|463:7,2,54.4000003320313,0|0|0,0:3|3:0|0:3,0:0:0:0:
367,120,34969,21,2,1:2:0:0:
265,78,35216,1,2,0:0:0:0:
265,78,35340,1,0,3:0:0:0:
223,180,35712,2,0,L|231:247,1,54.4000003320313,2|0,0:0|0:0,0:0:0:0:
140,315,36208,85,2,0:0:0:0:
49,287,36456,1,0,3:0:0:0:
70,379,36704,1,0,1:0:0:0:
147,301,36952,22,0,P|138:270|137:218,1,81.6000004980469,2|0,1:2|3:0,0:0:0:0:
168,90,37696,1,2,0:0:0:0:
168,90,37820,1,0,0:0:0:0:
168,90,37944,2,0,P|136:79|94:74,1,54.4000003320313,0|0,2:2|2:0,0:0:0:0:
222,151,38440,2,0,P|248:145|274:136,1,54.4000003320313,0|0,3:2|2:0,0:0:0:0:
402,78,38935,86,0,P|413:32|427:-7,2,81.6000004980469,2|0|0,1:2|3:0|0:0,0:0:0:0:
443,186,40175,2,0,P|453:210|463:255,2,54.4000003320313,0|0|0,1:0|3:0|2:0,0:0:0:0:
332,129,40919,21,2,1:2:0:0:
258,231,41291,1,0,3:0:0:0:
258,231,41415,1,2,0:0:0:0:
207,116,41663,1,0,3:0:0:0:
207,116,41787,2,0,P|207:81|221:26,1,81.6000004980469,2|0,0:0|2:0,0:0:0:0:
128,94,42407,2,0,P|101:98|74:98,1,54.4000003320313,0|0,3:0|0:0,0:0:0:0:
0,45,42902,85,2,1:2:0:0:
21,177,43274,1,0,3:0:0:0:
42,309,43646,2,0,L|31:382,2,54.4000003320313,2|0|0,0:0|0:0|0:0,0:0:0:0:
150,256,44390,2,0,L|158:202,1,54.4000003320313,0|0,3:0|1:0,0:0:0:0:
230,126,44886,21,0,1:0:0:0:
288,242,45258,1,0,3:0:0:0:
404,184,45630,1,0,3:0:0:0:
491,208,45878,2,0,P|495:178|492:153,1,54.4000003320313,2|0,2:0|2:0,0:0:0:0:
382,270,46373,2,0,P|413:278|437:292,1,54.4000003320313,0|0,3:0|2:0,0:0:0:0:
299,172,46869,85,2,1:2:0:0:
254,292,47241,1,0,3:0:0:0:
133,247,47613,1,0,0:0:0:0:
183,52,48109,37,2,1:3:0:0:
120,6,48357,1,8,0:0:0:0:
87,9,48481,1,8,0:0:0:0:
54,12,48605,1,8,0:3:0:0:
202,68,48853,22,0,P|242:68|282:43,1,71.9999978027344,4|0,1:2|0:0,0:0:0:0:
358,89,49225,2,0,B|424:78|424:78|390:108,1,95.9999970703126,8|0,0:0|0:0,0:0:0:0:
294,161,49597,2,0,B|240:210|268:281|268:281|288:276|311:256,1,160,2|0,3:2|1:0,0:0:0:0:
441,372,50340,2,0,P|400:351|337:349,1,95.9999970703126,8|0,0:0|0:0,0:0:0:0:
179,291,50836,54,0,B|170:314|150:324|150:324|164:308|163:289,1,71.9999978027344,2|0,1:2|0:0,0:0:0:0:
77,202,51208,2,0,B|47:233|65:269|65:269|84:280|106:279,1,95.9999970703126,8|0,0:0|0:0,0:0:0:0:
166,210,51580,2,0,B|141:170|163:133|163:133|147:93,1,120,2|0,3:2|2:0,0:0:0:0:
141,75,52076,1,0,3:0:0:0:
249,110,52324,1,8,0:0:0:0:
369,27,52572,53,0,0:0:0:0:
369,27,52696,1,0,0:0:0:0:
369,27,52820,2,0,L|353:114,1,71.9999978027344,2|0,1:2|0:0,0:0:0:0:
430,160,53192,2,0,B|453:142|490:151|490:151|470:135|451:136,1,95.9999970703126,8|0,0:0|0:0,0:0:0:0:
365,233,53564,2,0,B|329:299|388:348|388:348|382:331|388:304,1,160,2|0,3:2|1:0,0:0:0:0:
278,228,54307,2,0,P|235:209|173:208,1,95.9999970703126,8|0,0:0|0:0,0:0:0:0:
16,252,54803,54,0,P|20:215|39:170,1,71.9999978027344,2|0,1:2|0:0,0:0:0:0:
71,81,55175,2,0,B|78:42|55:18|55:18|59:38|54:54,1,95.9999970703126,8|0,0:0|0:0,0:0:0:0:
160,122,55547,2,0,B|200:127|200:127|241:106,1,80,0|0,1:0|0:0,0:0:0:0:
297,65,55919,1,8,0:0:0:0:
288,45,56043,1,0,1:0:0:0:
198,212,56291,1,12,0:0:0:0:
297,333,56539,53,2,0:0:0:0:
328,325,56663,1,8,0:0:0:0:
359,318,56787,2,0,B|390:312|390:312|406:318|406:318|443:311,1,80,4|0,1:2|0:0,0:0:0:0:
509,239,57159,2,0,B|483:206|491:165|491:165|505:154|520:125,1,111.999996582031,8|0,0:0|0:0,0:0:0:0:
422,84,57530,2,0,B|394:52|343:58|343:58|309:97|247:82,1,176.000005371094,2|0,3:2|1:0,0:0:0:0:
93,138,58274,2,0,B|69:107|28:113|28:113|51:123|60:136,1,103.999995239258,8|0,0:0|0:0,0:0:0:0:
166,266,58770,54,0,P|208:262|240:240,1,80,2|0,1:2|0:0,0:0:0:0:
288,151,59142,2,0,B|252:130|256:83|256:83|271:70|277:57,1,111.999996582031,8|0,0:0|0:0,0:0:0:0:
191,24,59514,2,0,B|196:79|248:85|248:85|266:79|276:59,1,132.00000402832,2|0,3:2|2:0,0:0:0:0:
287,40,60010,1,0,1:0:0:0:
371,103,60258,1,8,0:0:0:0:
433,17,60506,1,0,0:0:0:0:
512,198,60754,54,0,P|486:183|435:184,1,80,4|0,1:2|0:0,0:0:0:0:
377,248,61126,1,8,0:0:0:0:
369,262,61249,2,0,B|378:304|378:304|373:327|373:327|381:371,1,111.999996582031,2|0,0:0|3:0,0:0:0:0:
252,262,61745,2,0,P|214:244|162:239,1,88.000002685547,2|0,0:0|1:0,0:0:0:0:
380,120,62241,2,0,B|369:164|327:165|327:165|312:155|302:152,1,103.999995239258,8|0,0:0|0:0,0:0:0:0:
154,69,62737,54,0,B|157:26|157:26|129:-4,1,80,2|0,1:2|0:0,0:0:0:0:
66,90,63109,2,0,B|39:80|39:80|-11:100|1:150,1,111.999996582031,8|0,0:0|0:0,0:0:0:0:
71,221,63481,2,0,B|91:213|110:215|110:215|130:236|156:236,1,88.000002685547,2|0,3:2|0:0,0:0:0:0:
222,199,63853,1,8,0:2:0:0:
229,180,63977,1,8,0:3:0:0:
382,3,64225,101,8,0:0:0:0:
320,39,64349,1,8,0:0:0:0:
350,103,64473,1,2,0:3:0:0:
476,365,65712,38,0,P|435:345|391:338,1,88.000002685547,8|0,0:3|3:0,0:0:0:0:
332,279,66084,53,8,0:0:0:0:
276,329,66208,1,8,0:0:0:0:
210,292,66332,1,8,0:0:0:0:
266,241,66456,1,8,0:3:0:0:
146,89,66704,102,0,B|107:68|107:68|20:82,1,128,4|0,1:1|0:2,0:2:0:0:
126,171,67076,1,0,1:2:0:0:
208,152,67200,2,0,P|226:125|233:91,1,64,8|0,0:2|0:2,0:2:0:0:
62,229,67448,2,0,P|88:246|119:254,1,64,0|0,1:2|0:2,0:2:0:0:
312,307,67696,54,0,P|369:276|432:279,1,128,2|0,0:2|1:2,0:2:0:0:
493,323,68068,1,2,0:2:0:0:
438,378,68192,2,0,P|403:374|362:347,1,64,8|0,0:2|0:2,0:2:0:0:
293,211,68440,1,2,0:2:0:0:
304,182,68564,1,8,0:2:0:0:
237,137,68688,54,0,B|299:151|299:151|356:118,1,128,0|0,1:2|0:2,0:2:0:0:
208,57,69059,1,0,1:2:0:0:
149,115,69183,2,0,P|146:147|151:179,1,64,8|0,0:2|0:2,0:2:0:0:
17,98,69431,2,0,P|46:85|71:65,1,64,0|0,1:2|0:2,0:2:0:0:
67,221,69679,54,0,P|41:201|11:190,1,64,2|0,2:2|0:2,0:2:0:0:
143,313,69927,2,0,P|139:344|144:376,1,64,0|0,1:2|0:2,0:2:0:0:
185,202,70175,2,0,P|218:192|281:109,1,128,8|0,2:2|0:2,0:2:0:0:
510,5,70671,53,2,1:2:0:0:
510,5,70795,2,0,P|499:36|496:106,1,64,2|0,0:3|0:2,0:2:0:0:
347,7,71043,1,0,1:2:0:0:
347,7,71167,2,0,P|378:18|448:21,1,64,8|0,0:2|0:2,0:2:0:0:
349,170,71415,2,0,P|360:139|363:69,1,64,0|0,1:2|0:2,0:2:0:0:
512,168,71663,1,2,2:2:0:0:
512,168,71787,2,0,P|467:168|451:266,1,128,8|0,0:2|0:2,0:2:0:0:
345,278,72159,101,8,0:2:0:0:
420,262,72283,1,8,0:2:0:0:
457,329,72407,1,8,0:2:0:0:
405,384,72530,1,8,0:2:0:0:
336,353,72654,102,0,B|309:323|319:283|319:283|351:252|346:212|346:212|318:180|326:120,1,240,4|0,1:1|0:2,0:2:0:0:
154,15,73150,54,0,B|182:57|240:51|240:51|262:26|296:16,1,160,12|0,0:2|0:2,0:2:0:0:
197,146,73522,1,8,0:2:0:0:
100,104,73646,54,0,B|88:142|88:142|100:180,1,80,4|0,1:2|0:2,0:2:0:0:
279,279,73894,2,0,B|250:249|250:249|211:240,1,80,8|0,2:3|0:2,0:2:0:0:
37,346,74142,2,0,B|76:336|76:336|102:306,1,80,8|0,2:2|0:2,0:2:0:0:
277,111,74390,53,8,0:3:0:0:
356,147,74514,53,4,0:3:0:0:
347,61,74638,22,0,B|326:20|273:20|273:20|293:25|315:47,1,128,4|0,1:1|0:2,0:2:0:0:
356,147,75010,1,0,1:2:0:0:
449,112,75134,2,0,P|459:81|462:50,1,64,8|0,0:2|0:2,0:2:0:0:
336,235,75382,2,0,P|367:236|399:228,1,64,0|0,1:2|0:2,0:2:0:0:
197,146,75630,54,0,B|150:146|121:117|121:117|62:152,1,128,2|0,0:2|1:2,0:2:0:0:
25,192,76002,1,2,0:2:0:0:
78,248,76126,2,0,P|110:246|159:215,1,64,8|0,0:2|0:2,0:2:0:0:
255,81,76373,1,2,2:2:0:0:
247,52,76497,1,8,0:2:0:0:
313,1,76621,54,0,B|279:29|279:29|304:152,1,128,2|0,1:2|0:2,0:2:0:0:
417,171,76993,1,0,1:2:0:0:
310,248,77117,2,0,P|317:216|332:188,1,64,8|0,0:2|0:2,0:2:0:0:
458,252,77365,2,0,P|450:283|436:312,1,64,0|0,1:2|0:2,0:2:0:0:
430,143,77613,54,0,P|460:133|502:129,1,64,2|0,0:2|0:2,0:2:0:0:
267,110,77861,2,0,P|243:89|218:54,1,64,0|0,1:2|0:2,0:2:0:0:
316,264,78109,2,0,B|318:314|288:341|288:341|261:348|240:369,1,128,8|0,0:2|0:2,0:2:0:0:
0,281,78605,53,2,1:2:0:0:
0,281,78729,2,0,L|11:211,1,64,2|0,0:3|0:2,0:2:0:0:
144,299,78977,1,2,1:2:0:0:
144,299,79101,2,0,L|80:266,1,64,8|0,0:2|0:2,0:2:0:0:
205,167,79349,2,0,L|154:217,1,64,0|0,1:2|0:2,0:2:0:0:
98,68,79597,54,0,B|127:125|127:125|61:89,1,128,2|0,0:2|1:2,0:2:0:0:
167,0,79969,1,2,2:3:0:0:
264,26,80092,2,0,P|248:53|244:85,1,64,8|0,0:2|0:2,0:2:0:0:
409,53,80340,2,0,P|392:25|366:6,1,64,0|0,2:2|0:2,0:2:0:0:
302,164,80588,54,0,P|393:148|454:224,1,192,2|0,1:2|1:2,0:2:0:0:
295,283,81084,2,0,P|278:222|302:164,1,128,10|0,0:2|0:2,0:2:0:0:
387,324,81456,1,8,0:2:0:0:
304,383,81580,2,0,P|262:378|231:355,1,64,2|0,1:2|2:2,0:2:0:0:
158,284,81828,101,8,0:2:0:0:
48,309,81952,1,8,0:2:0:0:
61,229,82076,53,8,0:2:0:0:
151,260,82200,1,8,0:3:0:0:
142,184,82324,53,4,0:3:0:0:
70,205,82448,1,4,0:3:0:0:
19,138,82572,6,0,B|-3:98|6:52|6:52|16:37|39:21,1,128,4|0,1:1|0:2,0:2:0:0:
124,4,82944,1,0,1:2:0:0:
218,109,83068,2,0,P|194:95|155:88,1,64,8|0,0:2|0:2,0:2:0:0:
324,64,83316,2,0,P|348:50|373:19,1,64,0|0,1:2|0:2,0:2:0:0:
309,177,83564,54,0,B|307:241|363:260|363:260|378:253|400:247,1,128,2|0,0:2|1:2,0:2:0:0:
459,262,83935,1,2,0:2:0:0:
494,194,84059,2,0,P|489:162|479:132,1,64,8|0,0:2|0:2,0:2:0:0:
371,22,84307,1,2,0:2:0:0:
347,15,84431,1,8,0:2:0:0:
282,68,84555,54,0,B|244:94|244:94|157:78,1,128,0|0,1:2|0:2,0:2:0:0:
52,21,84927,1,0,1:2:0:0:
7,146,85051,2,0,P|36:134|67:129,1,64,8|0,0:2|0:2,0:2:0:0:
93,262,85299,2,0,P|64:274|33:279,1,64,0|0,1:2|0:2,0:2:0:0:
210,137,85547,54,0,B|196:167|196:167|201:197,1,64,2|0,2:2|0:2,0:2:0:0:
363,216,85795,2,0,B|377:186|377:186|371:155,1,64,0|0,1:2|0:2,0:2:0:0:
273,256,86043,2,0,B|266:312|266:312|268:325|268:325|261:382,1,128,8|0,2:2|2:2,0:2:0:0:
512,297,86539,53,2,1:2:0:0:
512,297,86663,2,0,L|425:305,1,64,2|0,0:3|0:2,0:2:0:0:
492,149,86911,1,0,1:2:0:0:
492,149,87035,2,0,L|500:236,1,64,8|0,2:2|0:2,0:2:0:0:
344,169,87283,2,0,L|431:161,1,64,0|0,1:2|0:2,0:2:0:0:
369,321,87530,1,2,2:2:0:0:
369,321,87654,2,0,B|353:259|353:259|280:266,1,128,8|0,0:2|0:2,0:2:0:0:
143,196,88026,101,8,0:2:0:0:
201,259,88150,1,8,0:2:0:0:
117,277,88274,1,8,0:3:0:0:
235,38,88522,102,0,B|206:10|165:17|165:17|139:47|93:40|93:40|62:16|6:19,1,240,4|0,1:1|0:2,0:2:0:0:
185,114,89018,54,0,B|218:146|275:130|275:130|288:101|328:85,1,160,12|0,0:2|0:2,0:2:0:0:
473,23,89390,1,8,0:2:0:0:
404,101,89514,2,0,P|395:50|378:20,1,80,4|0,1:2|0:2,0:2:0:0:
264,228,89762,2,0,P|315:219|345:201,1,80,8|0,2:3|0:2,0:2:0:0:
146,119,90010,53,8,0:2:0:0:
76,166,90134,1,8,0:2:0:0:
8,115,90258,1,8,0:2:0:0:
78,68,90382,1,8,0:2:0:0:
161,132,90506,22,0,B|168:179|168:179|159:210|159:210|165:257,1,128,4|0,1:1|0:2,0:2:0:0:
267,144,90878,1,0,1:2:0:0:
219,55,91002,2,0,P|189:42|157:37,1,64,8|0,0:2|0:2,0:2:0:0:
365,113,91249,2,0,P|377:83|382:51,1,64,0|0,1:2|0:2,0:2:0:0:
258,247,91497,54,0,P|339:221|392:257,1,128,2|0,0:2|1:2,0:2:0:0:
415,302,91869,1,2,0:2:0:0:
363,358,91993,2,0,P|330:352|296:322,1,64,8|0,0:2|0:2,0:2:0:0:
216,167,92241,1,2,2:2:0:0:
204,137,92365,1,8,0:2:0:0:
119,106,92489,54,0,B|150:59|115:17|115:17|83:35,1,128,2|0,1:2|0:2,0:2:0:0:
1,139,92861,1,0,1:2:0:0:
65,213,92985,2,0,P|96:211|126:199,1,64,8|0,0:2|0:2,0:2:0:0:
224,77,93233,2,0,P|209:105|204:136,1,64,0|0,1:2|0:2,0:2:0:0:
262,282,93481,54,0,P|244:255|219:235,1,64,2|0,2:2|0:2,0:2:0:0:
429,321,93729,2,0,P|414:349|409:380,1,64,0|0,1:2|0:2,0:2:0:0:
380,156,93977,2,0,B|440:162|465:110|465:110|445:109|426:95,1,128,8|0,0:2|0:2,0:2:0:0:
360,0,94349,1,8,0:0:0:0:
286,66,94473,54,0,B|300:116|277:154|277:154|296:206,1,128,2|0,1:2|0:0,0:0:0:0:
144,112,94845,1,2,1:2:0:0:
144,112,94969,2,0,P|177:101|212:101,1,64,8|0,0:2|0:2,0:2:0:0:
232,254,95216,2,0,P|199:265|164:265,1,64,0|0,1:2|0:2,0:2:0:0:
37,216,95464,53,2,2:2:0:0:
37,216,95588,2,0,P|22:269|63:362,1,128,8|0,0:2|0:2,0:2:0:0:
175,377,95960,2,0,L|252:364,1,64,8|0,0:2|0:2,0:2:0:0:
322,278,96208,2,0,P|320:238|310:212,1,64,0|0,2:2|0:2,0:2:0:0:
251,62,96456,54,0,P|319:29|455:51,1,192,2|0,1:2|1:2,0:2:0:0:
512,150,96952,2,0,B|493:179|460:185|460:185|437:154|448:113,1,128,10|0,0:2|1:2,0:2:0:0:
315,215,97324,1,8,0:2:0:0:
396,247,97448,2,0,B|411:277|411:277|408:307,1,64,2|0,1:2|2:2,0:2:0:0:
236,178,97696,2,0,B|253:152|253:152|281:137,1,64,2|0,2:3|2:2,0:2:0:0:
252,350,97944,53,8,0:2:0:0:
177,311,98068,1,8,0:2:0:0:
129,379,98192,1,8,0:3:0:0:
111,140,98440,54,0,B|85:104|85:104|3:120,1,128,4|0,1:2|0:2,0:2:0:0:
152,218,98811,1,0,1:2:0:0:
216,154,98935,2,0,P|228:124|232:92,1,64,8|0,0:2|0:2,0:2:0:0:
376,0,99183,101,2,0:2:0:0:
326,54,99307,1,8,0:2:0:0:
347,124,99431,1,0,1:2:0:0:
419,141,99555,1,8,0:2:0:0:
441,212,99679,1,8,0:2:0:0:
391,267,99803,1,8,0:2:0:0:
319,252,99927,1,8,0:2:0:0:
271,307,100051,1,8,0:3:0:0:
295,377,100175,1,4,0:3:0:0:
189,178,100423,22,0,P|140:158|63:157,1,111.999996582031,4|0,1:1|0:2,0:2:0:0:
8,181,100795,1,0,3:2:0:0:
0,201,100919,1,8,0:2:0:0:
133,274,101167,1,2,3:1:0:0:
58,313,101415,1,2,2:2:0:0:
279,267,101663,1,2,3:1:0:0:
205,225,101911,1,8,0:2:0:0:
393,195,102159,1,2,0:1:0:0:
327,51,102407,54,0,P|391:23|462:31,1,111.999996582031,2|2,1:2|0:1,0:2:0:0:
501,38,102778,1,0,3:2:0:0:
512,58,102902,1,8,0:2:0:0:
326,138,103150,1,2,3:1:0:0:
304,133,103274,1,0,3:2:0:0:
283,123,103398,1,2,0:2:0:0:
217,14,103646,1,2,3:1:0:0:
165,190,103894,1,8,0:2:0:0:
99,81,104142,1,2,0:1:0:0:
99,81,104266,1,0,3:1:0:0:
27,132,104390,54,0,P|6:197|16:240,1,111.999996582031,2|2,1:2|0:1,0:2:0:0:
42,308,104762,1,0,3:2:0:0:
34,328,104886,1,8,0:2:0:0:
224,309,105134,1,2,3:1:0:0:
197,205,105382,1,2,0:2:0:0:
147,384,105630,1,2,3:1:0:0:
327,337,105878,1,8,0:2:0:0:
224,309,106126,1,2,0:1:0:0:
381,231,106373,54,0,P|384:174|361:123,1,111.999996582031,2|2,1:2|0:1,0:2:0:0:
300,77,106745,1,0,3:2:0:0:
279,68,106869,1,8,0:2:0:0:
433,17,107117,1,2,3:1:0:0:
493,150,107365,1,2,0:2:0:0:
493,150,107489,1,2,0:3:0:0:
360,210,107737,1,0,3:0:0:0:
360,210,107861,1,8,0:2:0:0:
300,77,108109,1,8,0:3:0:0:
237,44,108233,1,8,0:2:0:0:
181,89,108357,54,0,B|126:99|126:99|56:61,1,111.999996582031,4|2,1:1|0:1,0:2:0:0:
15,33,108729,1,0,3:2:0:0:
28,15,108853,1,8,0:2:0:0:
106,178,109101,1,2,3:1:0:0:
7,215,109349,1,2,0:2:0:0:
198,280,109597,1,2,3:1:0:0:
251,364,109845,1,8,0:2:0:0:
298,165,110092,1,2,0:1:0:0:
359,239,110340,54,0,B|414:249|414:249|484:211,1,111.999996582031,2|2,1:2|0:1,0:2:0:0:
512,163,110712,1,0,3:2:0:0:
503,142,110836,1,8,0:2:0:0:
334,43,111084,1,2,3:1:0:0:
460,1,111332,1,2,0:2:0:0:
391,162,111580,1,2,3:1:0:0:
372,148,111704,1,0,3:2:0:0:
350,140,111828,1,8,0:2:0:0:
221,194,112076,1,2,0:1:0:0:
80,101,112324,54,0,B|35:125|35:125|47:206,1,111.999996582031,2|2,1:2|0:1,0:2:0:0:
54,260,112696,1,0,3:2:0:0:
42,279,112820,1,8,0:2:0:0:
162,359,113068,1,2,3:1:0:0:
297,306,113316,1,2,0:2:0:0:
274,281,113440,1,8,0:2:0:0:
266,248,113564,1,2,3:1:0:0:
280,217,113688,1,0,3:2:0:0:
307,197,113811,1,10,0:1:0:0:
464,167,114059,1,2,0:2:0:0:
464,167,114183,1,0,3:0:0:0:
397,118,114307,54,0,B|353:110|353:110|331:122|331:122|288:114,1,111.999996582031,4|0,1:2|0:2,0:2:0:0:
233,62,114679,1,0,3:2:0:0:
227,40,114803,1,8,0:2:0:0:
136,163,115051,53,8,0:2:0:0:
88,131,115175,1,8,0:2:0:0:
41,147,115299,1,8,0:3:0:0:
29,190,115423,1,8,0:3:0:0:
49,223,115547,1,4,0:3:0:0:
81,234,115671,1,4,0:3:0:0:
109,224,115795,1,8,0:2:0:0:
117,200,115919,1,8,0:2:0:0:
107,182,116043,1,4,0:3:0:0:
0,301,116291,5,4,1:2:0:0:
103,347,116539,1,2,0:0:0:0:
103,347,116663,1,0,3:0:0:0:
149,244,117035,1,2,1:2:0:0:
218,280,117530,2,0,L|224:340,2,51.2,0|0|0,0:3|3:0|1:3,0:0:0:0:
283,183,118274,21,2,1:2:0:0:
371,244,118522,1,2,0:0:0:0:
371,244,118646,1,0,3:0:0:0:
380,137,119018,1,2,0:0:0:0:
380,137,119514,85,2,0:0:0:0:
371,244,119762,1,0,3:0:0:0:
283,183,120010,1,0,1:0:0:0:
391,117,120258,22,0,P|425:106|476:102,1,76.8,2|0,1:2|3:0,0:0:0:0:
348,18,121002,1,2,0:0:0:0:
283,61,121249,2,0,P|249:54|218:43,1,51.2,0|0,2:2|2:0,0:0:0:0:
134,102,121745,2,0,P|106:106|68:121,1,51.2,0|0,3:0|0:0,0:0:0:0:
226,158,122241,86,0,P|244:192|251:244,2,76.8,2|0|0,1:2|3:0|0:0,0:0:0:0:
125,71,123481,2,0,P|100:67|59:49,2,51.2,0|0|0,0:0|3:0|1:0,0:0:0:0:
254,42,124225,21,2,1:2:0:0:
322,125,124597,1,0,3:0:0:0:
322,125,124721,1,2,0:0:0:0:
360,25,124969,1,0,3:0:0:0:
360,25,125092,2,0,P|393:13|448:12,1,76.8,2|0,0:0|2:0,0:0:0:0:
512,110,125712,2,0,P|484:99|441:90,1,51.2,0|0,3:0|1:0,0:0:0:0:
360,132,126208,85,2,1:2:0:0:
444,220,126580,1,0,3:0:0:0:
371,318,126952,2,0,L|377:388,2,51.2,2|0|0,0:0|0:0|0:0,0:0:0:0:
286,260,127696,2,0,L|281:208,1,51.2,0|0,3:0|2:0,0:0:0:0:
212,146,128192,21,0,1:0:0:0:
120,227,128564,1,0,3:0:0:0:
120,227,128688,1,2,0:0:0:0:
15,162,128935,1,0,3:0:0:0:
15,162,129059,2,0,P|17:121|27:85,1,76.8,2|0,2:0|2:0,0:0:0:0:
105,5,129679,2,0,L|113:67,1,51.2,0|0,3:0|1:0,0:0:0:0:
188,105,130175,101,2,1:2:0:0:
280,13,130547,1,0,3:0:0:0:
313,138,130919,1,2,0:0:0:0:
398,96,131167,21,2,0:0:0:0:
355,223,131415,1,8,0:3:0:0:
440,181,131663,85,4,0:2:0:0:
313,138,131911,1,2,0:3:0:0:
244,246,132159,101,4,1:2:0:0:
359,227,132407,1,2,0:2:0:0:
359,227,132530,1,0,3:0:0:0:
378,342,132902,1,2,0:0:0:0:
456,331,133398,2,0,P|464:356|467:385,2,54.4000003320313,0|0|0,0:3|3:0|1:3,0:0:0:0:
385,252,134142,21,2,1:2:0:0:
290,312,134390,1,2,0:0:0:0:
290,312,134514,1,0,3:0:0:0:
230,217,134886,2,0,P|233:189|248:150,1,54.4000003320313,2|0,0:0|0:0,0:0:0:0:
318,89,135382,85,2,0:0:0:0:
388,150,135630,1,0,3:0:0:0:
407,58,135878,1,0,1:0:0:0:
300,97,136126,22,0,P|258:91|221:70,1,81.6000004980469,2|0,1:2|3:0,0:0:0:0:
115,133,136869,1,2,0:0:0:0:
54,84,137117,2,0,P|60:54|69:29,1,54.4000003320313,0|0,2:2|2:0,0:0:0:0:
132,142,137613,2,0,P|126:172|117:197,1,54.4000003320313,0|0,3:2|1:0,0:0:0:0:
35,259,138109,86,0,P|19:294|19:350,2,81.6000004980469,2|0|2,1:2|3:0|0:0,0:0:0:0:
132,142,139349,2,0,L|125:78,2,54.4000003320313,0|0|0,2:0|3:0|2:0,0:0:0:0:
195,213,140092,21,2,1:2:0:0:
294,133,140464,1,0,3:0:0:0:
294,133,140588,1,2,0:0:0:0:
353,249,140836,1,0,3:0:0:0:
353,249,140960,2,0,P|387:265|437:262,1,81.6000004980469,2|0,0:0|2:0,0:0:0:0:
512,197,141580,2,0,L|505:133,1,54.4000003320313,0|0,3:0|1:0,0:0:0:0:
442,69,142076,85,2,1:2:0:0:
341,162,142448,1,0,3:0:0:0:
247,62,142820,2,0,P|252:36|264:6,2,54.4000003320313,2|0|0,0:0|0:0|0:0,0:0:0:0:
181,157,143564,2,0,P|175:124|163:102,1,54.4000003320313,0|0,3:0|1:0,0:0:0:0:
39,51,144059,21,0,1:0:0:0:
13,154,144307,1,2,0:0:0:0:
13,154,144431,1,0,3:0:0:0:
13,154,144555,2,0,P|19:187|31:209,1,54.4000003320313,0|0,2:0|2:0,0:0:0:0:
108,269,145051,2,0,P|133:256|166:250,1,54.4000003320313,2|0,2:0|2:0,0:0:0:0:
194,355,145547,2,0,P|169:368|136:374,1,54.4000003320313,0|0,3:0|2:0,0:0:0:0:
250,276,146043,85,2,1:2:0:0:
338,371,146415,1,0,3:0:0:0:
377,248,146787,1,2,0:3:0:0:
260,102,147283,37,8,2:3:0:0:
321,17,147530,1,8,0:0:0:0:
356,13,147654,1,8,0:0:0:0:
386,31,147778,1,4,0:3:0:0:
242,113,148026,22,0,P|199:106|166:77,1,71.9999978027344,4|0,1:2|0:0,0:0:0:0:
83,124,148398,2,0,B|60:94|15:103|15:103|36:109|53:131,1,95.9999970703126,8|0,0:0|0:0,0:0:0:0:
86,226,148770,2,0,B|75:300|148:322|148:322|135:300|139:272,1,160,2|0,3:2|1:0,0:0:0:0:
215,165,149514,2,0,P|256:143|306:147,1,95.9999970703126,8|0,0:0|0:0,0:0:0:0:
448,247,150010,54,0,B|470:263|478:284|478:284|478:265|466:256,1,71.9999978027344,2|0,1:2|0:0,0:0:0:0:
496,170,150382,2,0,P|491:126|455:74,1,95.9999970703126,8|0,0:0|0:0,0:0:0:0:
390,30,150754,2,0,B|377:60|338:59|338:59|321:38|290:30,1,120,2|0,3:2|2:0,0:0:0:0:
266,24,151249,1,0,3:0:0:0:
214,141,151497,1,8,0:0:0:0:
74,76,151745,53,0,0:0:0:0:
74,76,151869,1,0,0:0:0:0:
74,76,151993,2,0,L|79:159,1,71.9999978027344,2|0,1:2|0:0,0:0:0:0:
76,272,152365,2,0,B|57:250|23:246|23:246|45:240|61:250,1,95.9999970703126,8|0,0:0|0:0,0:0:0:0:
168,201,152737,2,0,B|236:194|241:117|241:117|228:136|205:143,1,160,2|0,3:2|1:0,0:0:0:0:
339,0,153481,2,0,B|336:45|368:58|368:58|371:37|354:16,1,95.9999970703126,8|0,0:0|0:0,0:0:0:0:
512,192,153977,54,0,P|480:174|445:169,1,71.9999978027344,2|0,1:2|0:0,0:0:0:0:
369,223,154349,2,0,B|361:263|361:263|366:280|366:280|358:319,1,95.9999970703126,8|0,0:0|0:0,0:0:0:0:
278,358,154721,2,0,B|239:347|201:369|201:369|187:326|150:306,1,160,0|0,1:0|1:0,0:0:0:0:
54,170,155464,101,8,0:0:0:0:
0,218,155588,1,8,0:0:0:0:
69,241,155712,1,8,0:3:0:0:
213,137,155960,70,0,B|205:106|205:106|208:91|208:91|197:52,1,80,4|0,1:2|0:0,0:0:0:0:
300,8,156332,2,0,B|287:68|287:68|301:90|331:93,1,111.999996582031,8|0,0:0|0:0,0:0:0:0:
389,158,156704,2,0,B|433:117|502:139|502:139|462:137|435:172,1,176.000005371094,2|0,3:2|1:0,0:0:0:0:
337,282,157448,2,0,P|279:281|231:239,1,103.999995239258,8|0,0:0|0:0,0:0:0:0:
125,120,157944,54,0,B|128:90|105:74|105:74|112:94|111:114,1,80,2|0,1:2|0:0,0:0:0:0:
64,183,158316,2,0,B|31:212|31:212|55:304,1,111.999996582031,8|0,0:0|0:0,0:0:0:0:
121,347,158688,2,0,B|149:318|191:332|191:332|212:362|255:365,1,132.00000402832,2|0,3:2|2:0,0:0:0:0:
260,370,159183,1,0,1:0:0:0:
354,297,159431,1,8,0:0:0:0:
278,205,159679,1,0,0:0:0:0:
373,313,159927,54,0,P|416:317|452:300,1,80,4|0,1:2|0:0,0:0:0:0:
501,232,160299,1,8,0:0:0:0:
509,218,160423,2,0,B|500:176|500:176|505:153|505:153|497:109,1,111.999996582031,2|0,0:0|3:0,0:0:0:0:
343,62,160919,2,0,B|332:29|367:6|367:6|363:30|370:48,1,88.000002685547,2|0,0:0|1:0,0:0:0:0:
309,202,161415,2,0,B|279:213|279:213|236:204|230:166,1,103.999995239258,8|0,0:0|0:0,0:0:0:0:
44,47,161911,54,0,B|80:39|80:39|91:28|91:28|126:21,1,88.000002685547,2|0,1:2|0:0,0:0:0:0:
204,43,162283,1,8,0:0:0:0:
220,62,162407,2,0,P|240:116|228:172,1,111.999996582031,0|2,1:0|3:3,0:0:0:0:
118,247,162902,101,8,3:3:0:0:
96,231,163026,1,0,3:0:0:0:
61,223,163150,1,0,3:0:0:0:
22,244,163274,1,8,2:0:0:0:
4,293,163398,1,8,2:0:0:0:
27,346,163522,1,8,2:0:0:0:
98,358,163646,1,2,0:3:0:0:
247,181,164886,37,8,0:0:0:0:
415,267,165134,1,8,0:0:0:0:
508,108,165382,53,8,0:0:0:0:
438,136,165506,1,8,0:0:0:0:
370,107,165630,1,8,0:0:0:0:
343,39,165754,1,8,0:0:0:0:
251,79,165878,102,0,B|222:78|202:58|202:58|195:39|195:39|177:19|145:19,1,128,4|0,1:1|0:2,0:2:0:0:
21,103,166249,1,0,1:2:0:0:
136,169,166373,2,0,P|128:129|118:107,1,64,8|0,0:2|0:2,0:2:0:0:
18,260,166621,2,0,P|47:247|79:243,1,64,0|0,1:2|0:2,0:2:0:0:
268,327,166869,54,0,B|293:369|344:362|344:362|358:347|377:343,1,128,2|0,0:2|1:2,0:2:0:0:
452,359,167241,1,2,0:2:0:0:
503,301,167365,2,0,P|502:271|490:237,1,64,8|0,0:2|0:2,0:2:0:0:
404,99,167613,1,2,0:2:0:0:
411,70,167737,1,8,0:2:0:0:
346,27,167861,54,0,B|410:43|410:43|463:8,1,128,0|0,1:2|0:2,0:2:0:0:
321,118,168233,1,0,1:2:0:0:
254,50,168357,2,0,P|226:35|195:27,1,64,8|0,0:2|0:2,0:2:0:0:
143,154,168605,2,0,P|171:169|202:177,1,64,0|0,1:2|0:2,0:2:0:0:
360,237,168853,54,0,P|388:222|420:216,1,64,2|0,2:2|0:2,0:2:0:0:
462,353,169101,2,0,P|432:364|400:370,1,64,0|0,1:2|0:2,0:2:0:0:
275,333,169349,2,0,B|220:301|220:301|150:311,1,128,8|0,2:2|0:2,0:2:0:0:
63,59,169845,53,2,1:2:0:0:
63,59,169969,2,0,P|27:60|-7:68,1,64,2|0,0:3|0:2,0:2:0:0:
170,84,170216,1,0,1:2:0:0:
170,84,170340,2,0,P|169:48|161:14,1,64,8|0,0:2|0:2,0:2:0:0:
145,191,170588,2,0,P|181:190|215:182,1,64,0|0,1:2|0:2,0:2:0:0:
38,166,170836,1,2,2:2:0:0:
38,166,170960,2,0,P|22:225|49:301,1,128,8|0,0:2|0:2,0:2:0:0:
174,321,171332,101,8,0:2:0:0:
246,296,171456,1,8,0:2:0:0:
303,347,171580,1,8,0:2:0:0:
376,322,171704,1,8,0:2:0:0:
432,374,171828,102,0,B|482:374|496:324|496:324|427:264|469:174,1,240,4|0,1:1|0:2,0:2:0:0:
394,41,172324,54,0,B|429:-8|501:16|501:16|468:24|447:92,1,160,12|0,0:2|0:2,0:2:0:0:
386,147,172696,1,8,0:2:0:0:
298,87,172820,54,0,B|266:68|266:68|223:71,1,80,4|0,1:2|0:2,0:2:0:0:
190,243,173068,2,0,B|222:262|222:262|265:259,1,80,8|0,2:3|0:2,0:2:0:0:
115,140,173316,53,8,0:0:0:0:
38,164,173440,1,8,0:3:0:0:
0,94,173564,1,4,0:3:0:0:
77,70,173688,1,4,0:3:0:0:
121,158,173811,86,0,B|124:207|87:236|87:236|83:263|120:287,1,128,4|0,1:1|0:2,0:2:0:0:
262,278,174183,1,0,1:2:0:0:
182,384,174307,2,0,P|174:347|179:294,1,64,8|0,0:2|0:2,0:2:0:0:
356,292,174555,2,0,P|362:323|364:355,1,64,0|0,1:2|0:2,0:2:0:0:
229,169,174803,54,0,B|225:123|268:100|268:100|269:72|244:39,1,128,2|0,0:2|1:2,0:2:0:0:
202,3,175175,1,2,0:2:0:0:
146,56,175299,2,0,P|145:84|160:128,1,64,8|0,0:2|0:2,0:2:0:0:
291,220,175547,1,2,2:2:0:0:
323,211,175671,1,8,0:2:0:0:
396,245,175795,54,0,B|427:288|484:271|484:271|468:265|457:235,1,128,2|0,1:2|0:2,0:2:0:0:
414,129,176167,1,0,1:2:0:0:
512,100,176291,2,0,P|507:137|493:174,1,64,8|0,0:2|0:2,0:2:0:0:
384,30,176539,2,0,P|421:34|458:48,1,64,0|0,1:2|0:2,0:2:0:0:
314,157,176787,54,0,P|318:119|332:82,1,64,2|0,2:2|0:2,0:2:0:0:
169,35,177035,2,0,P|200:27|228:13,1,64,0|0,1:2|0:2,0:2:0:0:
208,209,177283,2,0,P|168:151|99:149,1,128,8|0,0:2|0:2,0:2:0:0:
0,229,177654,1,8,0:0:0:0:
51,308,177778,54,0,L|202:295,1,128,2|0,1:2|0:0,0:0:0:0:
320,382,178150,1,2,1:2:0:0:
320,382,178274,2,0,P|288:380|258:370,1,64,8|0,0:2|0:2,0:2:0:0:
346,239,178522,2,0,P|315:228|284:227,1,64,0|0,1:2|0:2,0:2:0:0:
427,336,178770,54,0,B|460:351|460:351|512:337|507:278,1,128,2|0,0:2|1:2,0:2:0:0:
424,168,179142,1,2,2:3:0:0:
450,74,179266,2,0,P|475:65|522:64,1,64,8|0,0:2|0:2,0:2:0:0:
329,141,179514,2,0,P|320:116|319:68,1,64,0|0,2:2|0:2,0:2:0:0:
126,3,179762,54,0,P|191:31|195:143,1,192,2|0,1:2|1:2,0:2:0:0:
46,176,180258,2,0,P|64:116|121:93,1,128,10|0,0:2|1:2,0:2:0:0:
420,30,180754,37,10,0:0:0:0:
470,88,180878,1,8,0:0:0:0:
495,15,181002,1,8,0:3:0:0:
365,223,181249,53,8,0:0:0:0:
309,157,181373,1,8,0:0:0:0:
231,188,181497,1,8,0:0:0:0:
286,251,181621,1,8,0:0:0:0:
380,205,181745,6,0,B|409:166|400:118|400:118|389:98|366:81,1,128,4|0,1:1|0:2,0:2:0:0:
249,15,182117,1,0,1:2:0:0:
179,117,182241,2,0,P|210:115|241:103,1,64,8|0,0:2|0:2,0:2:0:0:
93,60,182489,2,0,P|75:33|50:13,1,64,0|0,1:2|0:2,0:2:0:0:
87,163,182737,54,0,P|52:219|70:294,1,128,2|0,0:2|1:2,0:2:0:0:
102,342,183109,1,2,0:2:0:0:
172,372,183233,2,0,P|203:369|232:355,1,64,8|0,0:2|0:2,0:2:0:0:
328,228,183481,1,2,0:2:0:0:
318,204,183605,1,8,0:2:0:0:
395,156,183729,54,0,B|332:171|332:171|279:136,1,128,0|0,1:2|0:2,0:2:0:0:
428,63,184101,1,0,1:2:0:0:
492,138,184225,2,0,P|496:168|484:203,1,64,8|0,0:0|0:0,0:0:0:0:
410,293,184473,2,0,L|342:284,1,64,0|0,1:0|0:0,0:0:0:0:
170,236,184721,54,0,P|166:266|178:301,1,64,2|0,0:0|0:0,0:0:0:0:
261,383,184969,2,0,L|329:374,1,64,0|0,1:0|0:0,0:0:0:0:
432,289,185216,2,0,B|451:244|446:204|446:204|433:181|406:162,1,128,8|0,2:2|2:2,0:2:0:0:
291,102,185588,1,8,0:0:0:0:
372,35,185712,54,0,B|429:12|429:12|492:30,1,128,2|0,1:2|0:2,0:2:0:0:
295,106,186084,1,0,1:2:0:0:
295,106,186208,2,0,L|280:43,1,64,8|0,2:2|0:2,0:2:0:0:
168,155,186456,2,0,L|237:176,1,64,0|0,1:2|0:2,0:2:0:0:
189,20,186704,1,2,2:2:0:0:
189,20,186828,2,0,B|142:65|142:65|73:31,1,128,8|0,0:2|0:2,0:2:0:0:
0,151,187200,101,8,0:2:0:0:
84,131,187324,1,8,0:2:0:0:
59,213,187448,1,8,0:3:0:0:
274,384,187696,102,0,B|296:329|269:278|208:257|208:257|192:278|189:314|208:342,1,240,4|0,1:1|2:2,2:2:0:0:
365,259,188192,54,0,B|385:291|431:302|431:302|448:254|429:221,1,160,12|0,0:2|0:2,0:2:0:0:
282,132,188564,1,8,0:2:0:0:
169,185,188688,2,0,P|129:183|95:162,1,80,4|0,1:2|0:2,0:2:0:0:
217,30,188935,2,0,P|183:9|143:7,1,80,8|0,2:3|0:2,0:2:0:0:
357,116,189183,53,8,0:2:0:0:
435,146,189307,1,8,0:2:0:0:
483,77,189431,1,8,0:2:0:0:
405,47,189555,1,8,0:2:0:0:
336,125,189679,22,0,P|315:184|330:246,1,128,4|0,1:1|0:2,0:2:0:0:
463,336,190051,1,0,1:2:0:0:
357,383,190175,2,0,P|360:351|370:320,1,64,8|0,0:2|0:2,0:2:0:0:
498,199,190423,2,0,P|508:230|512:262,1,64,0|0,1:2|0:2,0:2:0:0:
337,125,190671,54,0,B|359:154|410:152|410:152|432:138|441:104,1,128,2|0,0:2|1:2,0:2:0:0:
446,38,191043,1,2,0:2:0:0:
371,20,191167,2,0,P|338:26|301:59,1,64,8|0,0:2|0:2,0:2:0:0:
256,174,191415,1,2,2:2:0:0:
247,204,191539,1,8,0:2:0:0:
173,257,191663,54,0,B|110:269|110:269|51:212,1,128,2|0,1:2|0:2,0:2:0:0:
0,126,192035,1,0,1:2:0:0:
103,42,192159,2,0,P|90:75|88:115,1,64,8|0,0:2|0:2,0:2:0:0:
244,55,192407,2,0,P|225:30|199:11,1,64,0|0,1:2|0:2,0:2:0:0:
161,173,192654,54,0,P|192:168|221:156,1,64,2|0,2:2|0:2,0:2:0:0:
365,290,192902,2,0,P|333:294|304:306,1,64,0|0,1:2|0:2,0:2:0:0:
443,107,193150,2,0,B|464:147|517:143|517:143|497:126|490:87,1,128,8|0,0:2|0:2,0:2:0:0:
399,2,193522,1,8,0:0:0:0:
330,84,193646,54,0,B|339:128|339:128|323:167|323:167|331:211,1,128,2|0,1:2|0:0,0:0:0:0:
192,130,194018,1,2,1:2:0:0:
192,130,194142,2,0,B|222:117|222:117|261:122,1,64,8|0,0:2|0:2,0:2:0:0:
217,285,194390,2,0,B|248:288|248:288|278:275,1,64,0|0,1:2|0:2,0:2:0:0:
120,229,194638,53,2,2:2:0:0:
120,229,194762,2,0,B|57:213|57:213|-10:244,1,128,8|0,0:2|0:2,0:2:0:0:
64,80,195134,2,0,L|-15:71,1,64,8|0,0:2|0:2,0:2:0:0:
192,130,195382,2,0,L|201:51,1,64,0|0,2:2|0:2,0:2:0:0:
54,185,195630,53,4,1:2:0:0:
180,332,195878,1,8,0:0:0:0:
105,346,196002,1,8,0:0:0:0:
267,144,196249,1,8,0:3:0:0:
192,130,196373,1,8,0:3:0:0:
459,253,196621,37,8,0:0:0:0:
442,177,196745,1,8,0:2:0:0:
385,231,196869,1,8,0:3:0:0:
182,308,197117,53,8,2:2:0:0:
270,298,197241,1,8,2:3:0:0:
234,379,197365,1,4,3:3:0:0:
0,219,197613,102,0,B|32:258|85:235|85:235|93:201|127:177,1,143.999995605469,4|8,1:1|0:0,0:0:0:0:
204,138,197985,2,0,P|194:258|111:181,1,279.999991455078,4|0,1:2|0:0,0:0:0:0:
56,95,198729,54,0,L|6:87,2,44.0000013427735,2|0|0,0:0|0:0|0:0,0:0:0:0:
125,55,199101,1,8,0:3:0:0:
125,55,199225,2,0,B|169:66|169:66|208:46,1,88.000002685547,2|0,0:0|0:0,0:0:0:0:
270,2,199597,5,4,1:2:0:0:
378,126,199845,1,2,0:0:0:0:
343,118,199969,1,8,0:0:0:0:
308,110,200092,1,2,0:0:0:0:
273,102,200216,1,2,0:2:0:0:
181,174,200464,2,0,P|160:212|164:260,1,88.000002685547,2|0,0:0|0:0,0:0:0:0:
216,308,200836,1,2,0:0:0:0:
255,287,200960,1,0,3:0:0:0:
298,289,201084,1,12,0:0:0:0:
424,372,201332,37,2,0:0:0:0:
424,372,201456,1,8,0:0:0:0:
424,372,201580,2,0,B|455:378|475:355|475:355|487:305|443:265,1,143.999995605469,4|8,1:1|0:0,0:0:0:0:
362,188,201952,2,0,B|329:126|386:32|471:60|471:60|408:111|328:89|293:29|306:0|306:0|312:5|350:31|346:62,1,503.999984619141,4|8,1:2|0:3,0:0:0:0:
221,108,203316,53,2,0:0:0:0:
197,96,203440,1,0,0:0:0:0:
173,84,203564,1,4,1:2:0:0:
19,134,203811,1,0,1:0:0:0:
83,0,204059,1,2,0:0:0:0:
122,191,204307,1,8,0:0:0:0:
292,150,204555,1,2,0:0:0:0:
292,150,204679,2,0,B|316:172|316:172|294:229,1,88.000002685547,2|0,0:3|0:0,0:0:0:0:
244,302,205051,5,10,0:0:0:0:
209,282,205175,1,8,0:3:0:0:
169,279,205299,1,4,2:3:0:0:
136,301,205423,1,4,2:3:0:0:
124,338,205547,38,0,B|105:356|89:360|89:360|29:337|46:278,1,143.999995605469,4|0,0:1|0:0,0:0:0:0:
125,204,205919,2,0,L|428:178,1,279.999991455078,4|0,1:2|0:0,0:0:0:0:
492,142,206663,53,2,0:0:0:0:
469,113,206787,1,0,0:0:0:0:
468,80,206911,1,0,0:0:0:0:
480,64,207035,1,4,0:0:0:0:
451,83,207159,1,0,0:0:0:0:
423,75,207283,1,0,0:0:0:0:
399,58,207407,1,0,0:0:0:0:
387,21,207530,1,4,1:2:0:0:
404,25,207654,1,0,0:0:0:0:
385,49,207778,1,0,0:0:0:0:
360,26,207902,1,2,0:0:0:0:
312,18,208026,1,0,0:0:0:0:
281,39,208150,1,0,0:0:0:0:
282,82,208274,1,8,0:0:0:0:
269,93,208398,2,0,P|223:95|165:57,1,88.000002685547,2|8,0:0|0:0,0:0:0:0:
116,31,208770,5,2,1:2:0:0:
0,125,209018,1,8,0:0:0:0:
87,262,209266,37,0,3:0:0:0:
87,262,209390,1,8,0:0:0:0:
87,262,209514,2,0,B|163:281|163:281|243:244,1,155.999992858887,4|0,1:2|1:0,0:0:0:0:
293,204,210010,53,2,0:0:0:0:
205,90,210258,1,8,0:0:0:0:
322,6,210506,1,2,0:0:0:0:
300,28,210630,1,8,0:0:0:0:
292,57,210754,1,2,0:0:0:0:
299,86,210878,1,0,1:0:0:0:
319,109,211002,2,0,P|372:114|406:87,1,88.000002685547,8|0,0:0|0:0,0:0:0:0:
512,274,211497,53,4,1:1:0:0:
414,336,211745,2,0,B|368:345|368:345|317:323,1,95.9999970703126,8|0,0:3|0:0,0:0:0:0:
270,272,212117,1,8,0:0:0:0:
292,240,212241,1,8,0:0:0:0:
297,202,212365,1,8,0:0:0:0:
285,165,212489,1,2,3:2:0:0:
160,60,212737,53,8,0:0:0:0:
121,97,212861,1,8,0:0:0:0:
73,100,212985,1,8,0:0:0:0:
33,85,213109,1,8,0:3:0:0:
9,57,213233,1,4,0:3:0:0:
0,27,213357,1,4,0:3:0:0:
10,10,213481,1,6,1:2:0:0:
40,136,218688,5,0,1:0:0:0:
14,228,218935,2,0,B|-6:272|-6:272|0:218,1,95.9999970703126,8|2,0:0|0:3,0:0:0:0:
112,66,219431,38,0,B|256:32|204:132|342:97,1,240,4|0,1:1|0:2,0:2:0:0:
484,135,219927,54,0,B|493:75|426:42|426:42|444:62|440:91,1,160,12|0,0:2|0:2,0:2:0:0:
352,193,220299,1,8,0:2:0:0:
423,269,220423,54,0,P|468:268|507:248,1,80,4|0,1:2|0:2,0:2:0:0:
311,357,220671,2,0,P|347:372|387:372,1,80,8|0,2:3|0:2,0:2:0:0:
233,260,220919,53,8,0:0:0:0:
176,316,221043,1,8,0:3:0:0:
106,280,221167,1,4,0:3:0:0:
118,202,221291,1,4,0:3:0:0:
195,189,221415,38,0,P|219:124|200:52,2,143.999995605469,4|2|0,1:0|0:0|1:0,0:0:0:0:
91,282,222407,2,0,P|52:262|-10:260,1,95.9999970703126,8|0,0:0|0:0,0:0:0:0:
0,258,222778,1,2,0:0:0:0:
0,258,222902,1,0,3:0:0:0:
94,377,223150,1,0,1:0:0:0:
217,299,223398,86,0,L|204:171,1,95.9999970703126,2|0,1:2|0:0,0:0:0:0:
209,128,223770,1,0,3:0:0:0:
221,110,223894,2,0,P|262:90|317:90,1,95.9999970703126,2|0,0:0|3:0,0:0:0:0:
462,150,224390,22,0,B|471:191|506:199|506:199|506:171|482:149,1,111.999996582031,12|0,0:0|0:0,0:0:0:0:
429,79,224762,1,8,0:0:0:0:
429,79,224886,1,8,0:3:0:0:
392,234,225134,1,4,0:3:0:0:
392,234,225258,1,4,0:3:0:0:
323,274,225382,86,0,B|272:285|272:285|220:245,1,103.999995239258,4|0,0:2|0:0,0:0:0:0:
162,291,225754,1,2,0:0:0:0:
152,304,225878,2,0,B|144:267|144:267|147:245|147:245|135:188,1,103.999995239258,0|0,3:0|3:0,0:0:0:0:
0,116,226373,2,0,B|78:125|78:125|145:72,1,155.999992858887,8|0,0:0|0:0,0:0:0:0:
157,62,226869,1,2,0:0:0:0:
45,13,227117,1,0,1:0:0:0:
138,202,227365,85,12,0:0:0:0:
293,23,227613,1,0,1:0:0:0:
157,62,227861,1,8,0:0:0:0:
269,245,228109,1,0,1:0:0:0:
304,237,228233,1,8,0:0:0:0:
338,228,228357,1,8,0:3:0:0:
490,56,228605,85,8,0:0:0:0:
417,21,228729,1,8,0:0:0:0:
361,77,228853,1,8,0:0:0:0:
398,147,228977,1,8,0:0:0:0:
476,135,229101,1,8,0:0:0:0:
512,205,229225,1,8,0:0:0:0:
458,261,229349,6,0,P|386:265|329:210,1,136.000002593994,4|0,1:0|0:0,0:0:0:0:
287,113,229721,1,0,1:2:0:0:
173,207,229845,2,0,P|207:208|240:198,1,68.0000012969971,8|0,0:2|0:2,0:2:0:0:
148,52,230092,2,0,P|181:42|215:42,1,68.0000012969971,0|0,1:2|0:2,0:2:0:0:
86,146,230340,54,0,B|51:137|51:137|-4:171|27:233,1,136.000002593994,2|0,2:0|1:0,0:0:0:0:
46,296,230712,1,2,0:2:0:0:
104,345,230836,2,0,B|137:349|137:349|138:348|183:330,1,68.0000012969971,8|0,0:2|0:2,0:2:0:0:
260,204,231084,1,2,0:2:0:0:
263,180,231208,1,8,0:2:0:0:
331,138,231332,54,0,B|287:146|287:146|277:236,1,136.000002593994,0|0,1:2|0:2,0:2:0:0:
412,277,231704,1,0,1:2:0:0:
336,384,231828,2,0,P|330:349|333:312,1,68.0000012969971,8|0,0:0|0:0,0:0:0:0:
506,305,232076,2,0,P|507:338|502:372,1,68.0000012969971,0|0,1:0|0:0,0:0:0:0:
413,183,232324,54,0,P|442:173|493:174,1,68.0000012969971,2|0,0:0|0:0,0:0:0:0:
330,42,232572,2,0,P|296:41|263:30,1,68.0000012969971,0|0,1:0|0:0,0:0:0:0:
124,92,232820,2,0,B|91:58|40:66|40:66|66:75|80:102,1,136.000002593994,8|0,2:2|2:2,0:2:0:0:
116,182,233192,1,8,0:0:0:0:
193,245,233316,54,0,B|260:266|260:266|321:228,1,136.000002593994,2|0,1:2|0:2,0:2:0:0:
426,346,233688,1,0,1:2:0:0:
426,346,233811,2,0,L|350:337,1,68.0000012969971,8|0,2:2|0:2,0:2:0:0:
512,215,234059,2,0,L|504:282,1,68.0000012969971,0|0,1:2|0:2,0:2:0:0:
357,155,234307,37,2,2:2:0:0:
424,182,234431,1,8,0:0:0:0:
413,110,234555,1,2,3:2:0:0:
210,0,234803,53,8,0:2:0:0:
288,23,234927,1,8,0:2:0:0:
291,105,235051,1,8,0:2:0:0:
213,133,235175,1,8,0:2:0:0:
162,67,235299,102,0,B|128:23|59:8|4:47|4:47|18:76|50:96|80:94,1,251.999992309571,4|0,2:1|2:2,2:2:0:0:
215,232,235795,54,0,B|217:172|167:153|167:153|199:181|190:221,1,167.999994873047,12|0,0:2|0:2,0:2:0:0:
136,311,236167,1,8,0:2:0:0:
236,370,236291,54,0,P|285:366|328:345,1,83.9999974365235,4|0,1:2|0:2,0:2:0:0:
427,238,236539,2,0,P|465:222|507:220,1,83.9999974365235,8|0,2:3|0:2,0:2:0:0:
374,81,236787,53,8,0:2:0:0:
286,99,236911,1,8,0:3:0:0:
209,52,237035,1,4,0:3:0:0:
122,71,237159,1,4,0:3:0:0:
45,23,237283,86,0,B|0:52|0:52|30:143,1,136.000002593994,4|0,1:1|0:2,0:2:0:0:
154,196,237654,1,0,1:2:0:0:
62,284,237778,2,0,B|56:251|56:251|64:218,1,68.0000012969971,8|0,0:2|0:2,0:2:0:0:
223,264,238026,2,0,B|229:297|229:297|220:329,1,68.0000012969971,0|0,1:2|0:2,0:2:0:0:
353,228,238274,54,0,P|424:231|477:189,1,136.000002593994,2|0,0:2|1:2,0:2:0:0:
512,127,238646,1,2,0:2:0:0:
471,62,238770,2,0,P|433:47|397:45,1,68.0000012969971,8|0,0:2|0:2,0:2:0:0:
254,119,239018,1,2,2:2:0:0:
246,145,239142,1,8,0:2:0:0:
170,193,239266,54,0,B|103:209|103:209|46:170,1,136.000002593994,2|0,1:2|0:2,0:2:0:0:
0,71,239638,1,0,1:2:0:0:
121,18,239762,2,0,P|107:54|104:95,1,68.0000012969971,8|0,0:2|0:2,0:2:0:0:
246,145,240010,2,0,P|260:109|263:68,1,68.0000012969971,0|0,1:2|0:2,0:2:0:0:
463,6,240258,53,2,0:0:0:0:
463,6,240382,2,0,B|406:33|406:33|443:113,1,136.000002593994,8|0,0:0|0:0,0:0:0:0:
400,233,240754,2,0,B|420:284|475:276|475:276|450:261|437:233,1,136.000002593994,8|0,0:2|0:2,0:2:0:0:
191,54,241249,53,2,1:2:0:0:
191,54,241373,2,0,P|160:46|117:45,1,68.0000012969971,2|0,0:3|0:2,0:2:0:0:
268,162,241621,1,0,1:2:0:0:
268,162,241745,2,0,P|276:131|277:88,1,68.0000012969971,8|0,0:2|0:2,0:2:0:0:
160,239,241993,2,0,P|191:247|234:248,1,68.0000012969971,0|0,1:3|0:2,0:2:0:0:
60,135,242241,53,2,2:2:0:0:
60,135,242365,2,0,P|25:203|25:275,1,136.000002593994,8|0,0:2|0:2,0:2:0:0:
149,367,242737,2,0,P|116:377|73:374,1,68.0000012969971,8|0,0:2|0:2,0:2:0:0:
232,232,242985,2,0,P|199:222|156:225,1,68.0000012969971,0|0,2:2|0:2,0:2:0:0:
324,329,243233,54,0,B|389:345|389:345|462:308,1,136.000002593994,2|0,1:2|2:2,1:2:0:0:
509,266,243605,1,0,1:2:0:0:
424,182,243729,54,0,B|416:151|430:125|430:125|443:114|443:114|457:84|447:44,1,143.999995605469,12|0,0:0|0:0,0:0:0:0:
385,4,244101,1,8,0:0:0:0:
349,69,244225,1,2,1:2:0:0:
148,121,244473,37,8,0:0:0:0:
74,99,244597,1,8,0:0:0:0:
12,143,244721,1,8,2:0:0:0:
9,220,244845,1,8,0:0:0:0:
66,270,244969,1,8,0:0:0:0:
144,257,245092,1,8,0:0:0:0:
180,188,245216,6,0,B|178:143|178:143|165:122|165:122|163:55,1,128,4|0,1:0|0:0,0:0:0:0:
203,4,245588,1,2,2:0:0:0:
203,4,245712,1,8,0:2:0:0:
318,111,245960,1,0,1:0:0:0:
286,106,246084,1,8,0:0:0:0:
254,101,246208,1,2,0:0:0:0:
391,178,246456,1,0,1:0:0:0:
334,7,246704,1,8,0:0:0:0:
265,222,246952,1,2,0:0:0:0:
462,111,247200,54,0,B|508:151|508:151|479:260,1,143.999995605469,4|0,1:2|0:0,0:0:0:0:
466,308,247572,1,0,1:0:0:0:
466,308,247696,1,8,0:0:0:0:
321,384,247944,1,0,1:0:0:0:
326,346,248068,1,8,0:0:0:0:
333,308,248192,1,2,0:2:0:0:
235,171,248440,1,0,1:0:0:0:
186,335,248688,1,8,0:0:0:0:
59,195,248935,53,2,0:0:0:0:
59,195,249059,1,2,0:0:0:0:
59,195,249183,2,0,B|5:218|12:273|12:273|30:289|39:306,1,136.000002593994,4|0,1:2|0:0,0:0:0:0:
156,186,249555,2,0,B|162:128|111:106|111:106|88:113|69:112,1,136.000002593994,8|0,2:2|0:0,0:0:0:0:
114,274,249927,2,0,B|160:308|205:275|205:275|210:251|220:235,1,136.000002593994,2|0,1:2|0:0,0:0:0:0:
450,81,250423,101,8,0:0:0:0:
387,127,250547,1,8,0:0:0:0:
399,205,250671,1,8,0:0:0:0:
473,235,250795,1,8,0:3:0:0:
484,312,250919,1,4,0:3:0:0:
423,362,251043,1,4,0:3:0:0:
349,333,251167,22,0,P|300:315|245:312,1,103.999995239258,4|0,1:1|0:2,0:2:0:0:
178,337,251539,1,0,3:2:0:0:
162,350,251663,2,0,P|110:346|61:328,1,103.999995239258,8|0,2:2|3:2,0:2:0:0:
0,211,252159,1,2,2:2:0:0:
108,143,252407,1,0,3:1:0:0:
10,101,252654,1,8,0:2:0:0:
90,250,252902,1,0,0:1:0:0:
236,179,253150,54,0,B|228:141|228:141|235:121|235:121|226:77,1,103.999995239258,2|0,1:2|0:1,0:2:0:0:
201,7,253522,1,0,3:2:0:0:
181,1,253646,1,8,0:2:0:0:
76,90,253894,1,0,3:1:0:0:
56,84,254018,1,0,3:2:0:0:
36,78,254142,1,2,0:2:0:0:
129,182,254390,1,0,3:1:0:0:
0,245,254638,1,8,0:2:0:0:
120,326,254886,1,0,0:1:0:0:
120,326,255010,1,0,3:1:0:0:
193,288,255134,54,0,B|228:277|228:277|252:299|290:299,1,103.999995239258,2|0,1:2|0:1,0:2:0:0:
366,279,255506,1,0,3:2:0:0:
370,258,255630,1,8,0:2:0:0:
270,137,255878,1,0,3:1:0:0:
403,56,256126,1,2,0:2:0:0:
473,92,256249,1,8,0:0:0:0:
469,13,256373,1,0,3:1:0:0:
407,135,256621,1,8,0:2:0:0:
414,154,256745,1,0,3:0:0:0:
422,173,256869,1,0,3:1:0:0:
288,68,257117,54,0,P|235:48|165:49,1,103.999995239258,2|0,1:2|0:1,0:2:0:0:
111,62,257489,1,0,3:2:0:0:
93,72,257613,1,8,0:0:0:0:
247,143,257861,1,0,3:0:0:0:
156,247,258109,1,2,0:2:0:0:
132,212,258233,1,8,2:3:0:0:
92,200,258357,1,8,0:3:0:0:
50,206,258481,1,4,0:3:0:0:
21,235,258605,2,0,B|6:284|6:284|22:343,1,103.999995239258,12|0,0:0|3:0,0:0:0:0:
265,378,259101,54,0,B|280:329|280:329|264:270,1,103.999995239258,4|0,1:0|2:0,0:0:0:0:
234,207,259473,1,0,3:2:0:0:
221,190,259597,2,0,B|206:141|206:141|219:90,1,103.999995239258,8|0,2:0|3:0,0:0:0:0:
364,0,260092,1,2,0:2:0:0:
423,143,260340,1,0,3:1:0:0:
322,101,260588,1,8,0:2:0:0:
465,42,260836,1,0,0:1:0:0:
301,105,261084,54,0,B|263:97|263:97|240:107|240:107|200:98,1,103.999995239258,2|0,1:2|0:1,0:2:0:0:
142,45,261456,1,0,3:2:0:0:
140,24,261580,1,8,0:2:0:0:
0,145,261828,1,0,3:1:0:0:
169,229,262076,1,2,0:2:0:0:
118,177,262200,1,8,0:0:0:0:
99,248,262324,1,0,3:1:0:0:
232,321,262572,1,8,0:2:0:0:
236,300,262696,1,0,3:0:0:0:
240,279,262820,1,0,3:1:0:0:
404,190,263068,54,0,B|396:155|396:155|405:128|405:128|396:89,1,103.999995239258,2|0,1:2|0:1,0:2:0:0:
355,26,263440,1,0,3:2:0:0:
335,18,263564,1,8,0:2:0:0:
186,102,263811,1,0,3:1:0:0:
325,219,264059,1,2,0:2:0:0:
277,198,264183,1,8,0:2:0:0:
231,223,264307,1,8,2:3:0:0:
223,275,264431,1,4,2:3:0:0:
259,313,264555,2,0,P|310:322|366:295,1,103.999995239258,8|0,0:0|0:0,0:0:0:0:
188,123,265051,54,0,P|137:113|89:133,1,103.999995239258,4|0,1:0|0:0,0:0:0:0:
29,178,265423,1,0,3:2:0:0:
17,195,265547,1,8,0:2:0:0:
138,263,265795,1,0,3:0:0:0:
24,349,266043,1,2,0:0:0:0:
138,263,266291,1,0,3:0:0:0:
250,348,266539,1,8,0:0:0:0:
298,367,266663,1,8,0:0:0:0:
349,359,266787,1,8,0:3:0:0:
389,326,266911,1,8,0:3:0:0:
408,278,267035,54,0,P|408:224|384:166,1,95.9999970703126,4|0,1:0|0:0,0:0:0:0:
333,139,267407,1,0,3:0:0:0:
333,139,267530,2,0,L|236:128,1,95.9999970703126,12|0,0:0|3:0,0:0:0:0:
44,191,268026,1,2,0:0:0:0:
146,54,268274,1,0,3:0:0:0:
123,45,268398,1,0,3:0:0:0:
99,44,268522,1,8,0:0:0:0:
187,225,268770,1,0,3:0:0:0:
148,227,268894,1,8,0:0:0:0:
126,258,269018,54,0,P|124:315|153:357,1,95.9999970703126,2|0,1:2|0:0,0:0:0:0:
215,381,269390,1,0,3:0:0:0:
215,381,269514,1,8,0:0:0:0:
366,284,269762,1,0,3:0:0:0:
280,253,270010,1,2,0:0:0:0:
383,373,270258,1,0,3:0:0:0:
435,225,270506,1,8,0:0:0:0:
332,105,270754,1,0,3:0:0:0:
332,105,270878,1,0,3:0:0:0:
404,139,271002,54,0,B|451:148|451:148|478:105,1,95.9999970703126,2|0,1:2|0:0,0:0:0:0:
512,41,271373,1,0,3:0:0:0:
512,41,271497,1,8,0:0:0:0:
370,7,271745,1,0,3:0:0:0:
370,7,271869,1,0,3:0:0:0:
370,7,271993,1,2,0:0:0:0:
284,137,272241,1,0,3:0:0:0:
376,170,272489,1,8,0:0:0:0:
273,26,272737,1,0,3:0:0:0:
236,12,272861,1,8,0:0:0:0:
202,31,272985,54,0,B|174:48|174:48|90:32,1,95.9999970703126,0|0,1:0|0:0,0:0:0:0:
41,19,273357,1,0,3:0:0:0:
41,19,273481,1,8,0:0:0:0:
164,142,273729,1,0,3:0:0:0:
2,226,273977,1,2,0:0:0:0:
8,202,274101,1,8,0:0:0:0:
14,178,274225,1,8,0:3:0:0:
20,154,274349,1,4,0:3:0:0:
26,130,274473,1,8,0:0:0:0:
212,200,274721,1,8,0:3:0:0:
174,191,274845,1,8,0:0:0:0:
141,213,274969,54,0,P|129:259|140:305,1,95.9999970703126,4|0,1:1|0:0,0:0:0:0:
198,366,275340,1,0,3:0:0:0:
198,366,275464,2,0,L|309:354,1,95.9999970703126,8|0,0:0|3:0,0:0:0:0:
458,382,275960,1,2,0:0:0:0:
398,225,276208,1,0,3:0:0:0:
390,244,276332,1,0,3:0:0:0:
382,263,276456,1,8,0:0:0:0:
496,208,276704,1,0,0:0:0:0:
331,151,276952,54,0,P|320:107|323:57,1,95.9999970703126,2|0,1:2|0:0,0:0:0:0:
378,2,277324,1,0,3:0:0:0:
378,2,277448,1,8,0:0:0:0:
469,100,277696,1,0,3:0:0:0:
402,216,277944,1,2,0:0:0:0:
408,244,278068,1,8,0:0:0:0:
415,271,278192,1,0,3:3:0:0:
314,237,278440,1,8,0:0:0:0:
272,334,278688,1,0,0:0:0:0:
162,217,278935,54,0,P|118:197|70:198,1,95.9999970703126,2|0,1:2|0:0,0:0:0:0:
0,231,279307,1,0,3:0:0:0:
0,231,279431,1,8,0:0:0:0:
119,80,279679,1,0,3:0:0:0:
151,115,279803,1,0,3:0:0:0:
198,122,279927,1,2,0:0:0:0:
241,102,280051,1,8,0:0:0:0:
258,57,280175,1,0,3:0:0:0:
302,39,280299,1,0,3:0:0:0:
349,48,280423,2,0,P|370:85|368:156,1,95.9999970703126,8|0,0:0|2:0,0:0:0:0:
321,315,280919,54,0,B|371:325|371:325|411:306,1,95.9999970703126,4|0,1:2|0:0,0:0:0:0:
468,261,281291,1,0,3:0:0:0:
479,333,281415,1,12,0:0:0:0:
290,226,281663,1,0,3:0:0:0:
281,198,281787,1,8,0:0:0:0:
272,170,281911,1,2,1:3:0:0:
81,51,282159,53,8,0:0:0:0:
113,9,282283,1,8,0:0:0:0:
166,8,282407,1,8,0:0:0:0:
199,49,282530,1,8,0:0:0:0:
188,101,282654,1,8,0:0:0:0:
140,124,282778,1,8,0:0:0:0:
92,102,282902,102,0,B|72:84|37:92|37:92|11:141|48:188,1,160,4|8,1:1|0:0,0:0:0:0:
230,235,283646,86,0,B|255:226|266:192|266:192|236:145|178:153,1,160,4|0,1:2|3:0,0:0:0:0:
45,288,284390,22,0,B|39:314|63:340|63:340|119:338|140:284,1,160,12|2,2:2|2:0,0:0:0:0:
198,148,285878,22,0,B|321:120|289:197|401:164,1,210.000008010865,4|0,0:0|0:0,0:0:0:0:
465,121,287020,22,0,L|473:52,2,40,2|0|0,0:0|0:0|0:0,0:0:0:0:
339,286,287682,85,2,0:0:0:0:
146,184,288129,22,0,B|129:214|148:246|148:246|184:235|191:201|191:201|214:227|250:218|250:218|251:181|220:163|220:163|253:150|256:113|256:113|220:99|194:124|194:124|190:88|157:75|157:75|133:104|148:136|148:136|113:128|90:155|90:155|110:188|146:183|146:183,1,640,2|2,0:0|0:0,0:0:0:0:
