osu file format v14

[General]
AudioFilename: audio.mp3
AudioLeadIn: 0
PreviewTime: 66177
Countdown: 0
SampleSet: Soft
StackLeniency: 0.7
Mode: 0
LetterboxInBreaks: 0
WidescreenStoryboard: 1

[Editor]
DistanceSpacing: 0.8
BeatDivisor: 4
GridSize: 32
TimelineZoom: 1.3

[Metadata]
Title:Tsunagi Chou
TitleUnicode:ツナギ蝶
Artist:Shimotsuki Haruka
ArtistUnicode:霜月はるか
Creator:Lasse
Version:Insane
Source:
Tags:arcane753. japanese folk MANYO 日山尚 Nao Hiyama ツナギ蝶ノ塚 no tsuka
BeatmapID:3595520
BeatmapSetID:1756971

[Difficulty]
HPDrainRate:5
CircleSize:4
OverallDifficulty:7
ApproachRate:8
SliderMultiplier:1.6
SliderTickRate:1

[Events]
//Background and Video events
0,0,"35v4c5tvser.jpg",0,0
//Break Periods
2,213680,217938
//Storyboard Layer 0 (Background)
//Storyboard Layer 1 (Fail)
//Storyboard Layer 2 (Pass)
//Storyboard Layer 3 (Foreground)
//Storyboard Layer 4 (Overlay)
//Storyboard Sound Samples

[TimingPoints]
1250,495.867768595041,4,2,1,50,1,0
1250,-142.857142857143,4,2,1,50,0,0
17117,-156.25,4,2,1,40,0,0
26415,-156.25,4,2,1,5,0,0
26539,-156.25,4,2,1,40,0,0
32241,-156.25,4,2,1,45,0,0
32737,-156.25,4,2,1,42,0,0
32985,-147.058823529412,4,2,1,45,0,0
48853,-111.111111111111,4,2,1,50,0,0
56787,-100,4,2,1,55,0,0
62737,-100,4,2,1,58,0,0
63109,-100,4,2,1,58,0,0
63481,-100,4,2,1,58,0,0
65712,-100,4,2,1,60,0,0
65960,-100,4,2,1,58,0,0
66084,-100,4,2,1,63,0,0
66704,-83.3333333333333,4,2,1,70,0,1
82510,-83.3333333333333,4,2,1,70,0,0
82572,-83.3333333333333,4,2,1,70,0,1
100423,-95.2380952380952,4,2,1,62,0,0
115175,-90.9090909090909,4,2,1,61,0,0
115299,-90.9090909090909,4,2,1,60,0,0
115423,-90.9090909090909,4,2,1,59,0,0
115547,-90.9090909090909,4,2,1,58,0,0
115671,-90.9090909090909,4,2,1,57,0,0
115795,-90.9090909090909,4,2,1,56,0,0
115919,-90.9090909090909,4,2,1,55,0,0
116043,-90.9090909090909,4,2,1,54,0,0
116291,-156.25,4,2,1,40,0,0
125464,-156.25,4,2,1,5,0,0
125712,-156.25,4,2,1,40,0,0
131415,-156.25,4,2,1,45,0,0
131911,-156.25,4,2,1,42,0,0
132159,-147.058823529412,4,2,1,45,0,0
148026,-111.111111111111,4,2,1,50,0,0
155960,-100,4,2,1,55,0,0
161911,-100,4,2,1,58,0,0
162283,-100,4,2,1,58,0,0
162655,-100,4,2,1,54,0,0
162902,-100,4,2,1,56,0,0
163026,-100,4,2,1,57,0,0
163150,-100,4,2,1,58,0,0
163274,-100,4,2,1,59,0,0
163398,-100,4,2,1,60,0,0
163522,-100,4,2,1,61,0,0
163646,-100,4,2,1,62,0,0
164886,-100,4,2,1,60,0,0
165382,-100,4,2,1,62,0,0
165630,-100,4,2,1,64,0,0
165878,-83.3333333333333,4,2,1,70,0,1
181683,-83.3333333333333,4,2,1,70,0,0
181745,-83.3333333333333,4,2,1,70,0,1
197613,-76.9230769230769,4,2,1,65,0,0
197985,-90.9090909090909,4,2,1,65,0,0
198357,-90.9090909090909,4,2,1,5,0,0
198605,-90.9090909090909,4,2,1,60,0,0
198729,-100,4,2,1,60,0,0
201580,-76.9230769230769,4,2,1,65,0,0
201952,-90.9090909090909,4,2,1,65,0,0
202076,-71.4285714285714,4,2,1,5,0,0
203068,-90.9090909090909,4,2,1,60,0,0
205547,-76.9230769230769,4,2,1,65,0,0
205919,-90.9090909090909,4,2,1,65,0,0
206043,-71.4285714285714,4,2,1,5,0,0
206539,-71.4285714285714,4,2,1,60,0,0
206663,-100,4,2,1,60,0,0
209514,-76.9230769230769,4,2,1,65,0,0
209886,-90.9090909090909,4,2,1,60,0,0
211497,-83.3333333333333,4,2,1,62,0,0
212737,-76.9230769230769,4,2,1,61,0,0
212861,-76.9230769230769,4,2,1,60,0,0
212985,-76.9230769230769,4,2,1,59,0,0
213109,-76.9230769230769,4,2,1,58,0,0
213233,-76.9230769230769,4,2,1,56,0,0
213357,-76.9230769230769,4,2,1,54,0,0
213481,-100,4,2,99,52,0,0
218688,-100,4,2,1,55,0,0
218935,-100,4,2,1,60,0,0
219183,-100,4,2,1,50,0,0
219431,-83.3333333333333,4,2,1,70,0,1
221291,-50,4,2,1,70,0,0
221415,-100,4,2,1,65,0,0
221787,-100,4,2,1,60,0,0
224390,-80,4,2,1,64,0,0
224638,-80,4,2,1,60,0,0
225382,-80,4,2,1,63,0,0
225630,-86.9565217391304,4,2,1,63,0,0
227365,-71.4285714285714,4,2,1,65,0,0
229349,-76.9230769230769,4,2,1,70,0,1
251167,-100,4,2,1,62,0,0
267035,-100,4,2,1,60,0,0
282902,-111.111111111111,4,2,1,55,0,0
284390,-142.857142857143,4,2,1,55,0,0
284514,-125,4,2,1,5,0,0
285382,-125,4,2,1,35,0,0
285878,571.428571428571,4,2,1,40,1,0
285878,-133.333333333333,4,2,1,40,0,0
286020,-125,4,2,1,5,0,0
286878,-125,4,2,1,20,0,0
287020,594.059405940594,4,2,1,32,1,0
287317,731.707317073171,4,2,1,30,1,0
287682,895.522388059701,4,2,1,28,1,0
288129,857.142857142857,4,2,1,26,1,0
288129,-100,4,2,1,26,0,0
288343,-100,4,2,1,5,0,0
291557,-100,4,2,99,7,0,0

[Colours]
Combo1 : 135,215,115
Combo2 : 255,165,165
Combo3 : 255,230,130
Combo4 : 255,170,215
Combo5 : 170,225,155
Combo6 : 255,100,100
Combo7 : 255,220,85
Combo8 : 255,120,190

[HitObjects]
235,167,1250,6,0,B|178:173|135:125|135:125|165:181|125:247|110:226|61:261|68:322|68:322|2:306|-36:211|28:137,1,559.999982910157,2|0,2:2|3:0,0:0:0:0:
26,139,4225,2,0,P|97:139|141:123,1,111.999996582031,2|0,0:0|3:0,0:0:0:0:
238,73,5216,2,0,P|347:50|458:58,1,223.999993164063,2|2,0:0|0:0,0:0:0:0:
509,222,6952,5,0,0:0:0:0:
509,222,7076,1,0,0:0:0:0:
509,222,7200,2,0,L|494:343,1,111.999996582031,2|0,0:0|3:0,0:0:0:0:
382,368,8192,2,0,L|395:256,1,111.999996582031,2|0,0:0|3:0,0:0:0:0:
349,139,9183,102,0,B|211:106|261:192|107:146,1,223.999993164063,2|2,2:2|0:0,0:0:0:0:
7,206,10671,2,0,P|33:197|61:193,1,55.9999982910157,0|0,3:0|0:0,0:0:0:0:
125,240,11167,2,0,P|187:258|251:250,1,111.999996582031,2|0,0:0|3:0,0:0:0:0:
300,214,11911,1,0,0:0:0:0:
300,214,12159,2,0,L|312:81,1,111.999996582031,2|0,0:0|3:0,0:0:0:0:
406,13,13150,6,0,P|487:83|482:191,2,223.999993164063,2|2|2,0:0|0:0|0:0,0:0:0:0:
406,13,16126,2,0,L|395:124,1,111.999996582031,2|0,0:0|3:0,0:0:0:0:
340,221,17117,102,0,L|349:312,2,76.8,4|0|2,1:2|3:0|0:0,0:0:0:0:
252,108,18357,2,0,L|245:38,2,51.2,0|0|0,0:3|3:0|0:3,0:0:0:0:
217,179,19101,21,2,1:2:0:0:
150,146,19349,1,2,0:0:0:0:
150,146,19473,2,0,P|106:142|61:157,1,76.8,0|2,3:0|0:0,0:0:0:0:
10,304,20340,1,2,0:0:0:0:
71,357,20588,2,0,P|106:359|132:349,1,51.2,0|0,3:0|1:0,0:0:0:0:
203,297,21084,86,0,L|210:220,1,76.8,2|0,1:2|3:0,0:0:0:0:
319,171,21828,1,2,0:0:0:0:
363,236,22076,2,0,P|411:255|461:237,1,102.4,0|0,2:2|3:0,0:0:0:0:
505,99,23068,22,0,L|497:22,2,76.8,2|0|0,1:2|3:0|0:0,0:0:0:0:
418,204,24307,2,0,L|423:254,2,51.2,0|0|0,0:0|3:0|1:0,0:0:0:0:
356,153,25051,86,0,P|319:148|272:162,1,76.8,2|0,1:2|3:0,0:0:0:0:
244,172,25547,2,0,P|219:177|193:173,1,51.2,2|0,0:0|3:0,0:0:0:0:
158,153,25919,2,0,P|162:85|130:29,1,128,2|0,0:0|3:0,0:0:0:0:
55,24,26787,1,0,0:0:0:0:
9,89,27035,22,0,L|16:165,1,76.8,2|0,1:2|3:0,0:0:0:0:
52,278,27778,2,0,L|47:328,2,51.2,2|0|0,0:0|0:0|0:0,0:0:0:0:
115,230,28522,2,0,L|120:180,1,51.2,0|0,3:0|1:0,0:0:0:0:
189,101,29018,86,0,P|227:96|283:111,1,76.8,0|0,1:0|3:0,0:0:0:0:
300,120,29514,1,2,0:0:0:0:
355,183,29762,1,0,3:0:0:0:
355,183,29886,2,0,L|347:259,1,76.8,2|0,2:0|2:0,0:0:0:0:
379,332,30506,2,0,P|410:339|442:334,1,51.2,0|0,3:0|2:0,0:0:0:0:
501,274,31002,22,0,L|508:197,2,76.8,2|0|2,1:2|3:0|0:0,0:0:0:0:
465,359,31993,1,4,0:0:0:0:
398,294,32241,1,8,0:3:0:0:
349,372,32489,1,4,0:3:0:0:
292,299,32737,1,2,0:3:0:0:
208,367,32985,86,0,P|190:367|154:354,1,54.4000003320313,4|2,1:2|0:2,0:0:0:0:
125,327,33357,2,0,L|118:234,1,81.6000004980469,0|2,3:0|0:0,0:0:0:0:
53,101,34225,2,0,P|26:102|-8:111,2,54.4000003320313,0|0|0,0:3|3:0|0:3,0:0:0:0:
127,47,34969,21,2,1:2:0:0:
172,114,35216,1,2,0:0:0:0:
172,114,35340,2,0,L|165:181,1,54.4000003320313,0|0,3:0|0:0,0:0:0:0:
184,205,35712,2,0,P|216:211|254:210,1,54.4000003320313,2|0,0:0|0:0,0:0:0:0:
310,174,36208,1,2,0:0:0:0:
348,246,36456,2,0,L|341:313,1,54.4000003320313,0|0,3:0|1:0,0:0:0:0:
406,366,36952,86,0,P|454:369|498:342,1,81.6000004980469,2|0,1:2|3:0,0:0:0:0:
506,234,37696,1,2,0:0:0:0:
443,181,37944,2,0,L|436:114,1,54.4000003320313,0|0,2:2|2:0,0:0:0:0:
359,153,38440,2,0,L|352:86,1,54.4000003320313,0|0,3:2|2:0,0:0:0:0:
282,36,38935,22,0,P|248:34|202:45,2,81.6000004980469,2|0|0,1:2|3:0|0:0,0:0:0:0:
434,96,40175,2,0,L|498:103,2,54.4000003320313,0|0|0,1:0|3:0|2:0,0:0:0:0:
356,139,40919,86,0,P|339:177|340:226,1,81.6000004980469,2|0,1:2|3:0,0:0:0:0:
349,255,41415,1,2,0:0:0:0:
299,320,41663,1,0,3:0:0:0:
299,320,41787,2,0,P|253:327|204:308,1,81.6000004980469,2|0,0:0|2:0,0:0:0:0:
155,267,42407,2,0,L|165:205,1,54.4000003320313,0|0,3:0|0:0,0:0:0:0:
225,136,42902,22,0,P|264:126|304:133,1,81.6000004980469,2|0,1:2|3:0,0:0:0:0:
403,191,43646,2,0,L|394:244,2,54.4000003320313,2|0|0,0:0|0:0|0:0,0:0:0:0:
470,144,44390,2,0,L|480:82,1,54.4000003320313,0|0,3:0|1:0,0:0:0:0:
415,20,44886,86,0,P|375:12|335:22,1,81.6000004980469,0|0,1:0|3:0,0:0:0:0:
224,73,45630,1,0,3:0:0:0:
274,137,45878,2,0,P|282:160|284:201,1,54.4000003320313,2|0,2:0|2:0,0:0:0:0:
333,255,46373,2,0,P|330:282|322:307,1,54.4000003320313,0|0,3:0|2:0,0:0:0:0:
271,372,46869,21,2,1:2:0:0:
150,352,47241,1,0,3:0:0:0:
29,332,47613,2,0,P|35:279|65:219,1,108.800000664063,0|2,0:0|1:3,0:0:0:0:
123,171,48357,1,8,0:0:0:0:
123,171,48481,1,8,0:0:0:0:
123,171,48605,1,8,0:3:0:0:
210,254,48853,38,0,B|247:261|247:261|288:246,1,71.9999978027344,4|0,1:2|0:0,0:0:0:0:
333,198,49225,2,0,L|341:113,1,71.9999978027344,8|0,0:0|0:0,0:0:0:0:
395,76,49597,2,0,P|452:75|492:153,1,143.999995605469,2|0,3:2|1:0,0:0:0:0:
512,279,50340,2,0,P|478:266|421:262,1,71.9999978027344,8|0,0:0|0:0,0:0:0:0:
346,367,50836,54,0,P|310:361|276:349,1,71.9999978027344,2|0,1:2|0:0,0:0:0:0:
227,293,51208,2,0,L|227:205,1,71.9999978027344,8|0,0:0|0:0,0:0:0:0:
176,166,51580,2,0,B|124:145|131:187|70:167,1,107.999996704102,2|0,3:2|2:0,0:0:0:0:
0,132,52076,1,0,3:0:0:0:
33,25,52324,1,8,0:0:0:0:
137,60,52572,1,0,0:0:0:0:
137,60,52696,1,0,0:0:0:0:
137,60,52820,54,0,L|229:48,1,71.9999978027344,2|0,1:2|0:0,0:0:0:0:
276,79,53192,2,0,B|310:84|310:84|361:64,1,71.9999978027344,8|0,0:0|0:0,0:0:0:0:
410,105,53564,2,0,P|438:148|384:213,1,143.999995605469,2|0,3:2|1:0,0:0:0:0:
259,285,54307,2,0,P|220:270|169:267,1,71.9999978027344,8|0,0:0|0:0,0:0:0:0:
340,370,54803,54,0,P|375:364|408:351,1,71.9999978027344,2|0,1:2|0:0,0:0:0:0:
464,301,55175,2,0,L|470:216,1,71.9999978027344,8|0,0:0|0:0,0:0:0:0:
512,169,55547,2,0,B|518:134|518:134|498:86,1,71.9999978027344,0|0,1:0|0:0,0:0:0:0:
451,48,55919,1,8,0:0:0:0:
451,48,56043,1,0,1:0:0:0:
359,132,56291,1,12,0:0:0:0:
241,14,56539,53,2,0:0:0:0:
241,14,56663,1,8,0:0:0:0:
241,14,56787,2,0,L|233:96,1,80,4|0,1:2|0:0,0:0:0:0:
178,150,57159,2,0,P|125:154|95:136,1,80,8|0,0:0|0:0,0:0:0:0:
49,84,57530,2,0,L|65:248,1,160,2|0,3:2|1:0,0:0:0:0:
148,359,58274,2,0,B|188:365|188:365|229:342,1,80,8|0,0:0|0:0,0:0:0:0:
310,225,58770,54,0,L|317:145,1,80,2|0,1:2|0:0,0:0:0:0:
372,88,59142,2,0,P|423:83|462:107,1,80,8|0,0:0|0:0,0:0:0:0:
502,151,59514,2,0,L|490:270,1,120,2|0,3:2|2:0,0:0:0:0:
473,347,60010,1,0,1:0:0:0:
357,372,60258,1,8,0:0:0:0:
285,273,60506,1,0,0:0:0:0:
124,327,60754,54,0,L|131:247,1,80,4|0,1:2|0:0,0:0:0:0:
86,184,61126,1,8,0:0:0:0:
86,184,61249,2,0,P|78:132|114:70,1,120,2|0,0:0|0:0,0:0:0:0:
180,42,61745,2,0,B|219:53|219:53|269:41,1,80,2|0,0:0|1:0,0:0:0:0:
360,119,62241,2,0,B|399:108|399:108|437:117,1,80,8|0,0:0|0:0,0:0:0:0:
512,237,62737,54,0,L|504:338,1,80,2|0,1:2|0:0,0:0:0:0:
444,365,63109,2,0,P|396:366|364:350,1,80,8|0,0:0|0:0,0:0:0:0:
289,356,63481,2,0,B|253:336|253:336|212:343,1,80,2|0,3:2|0:0,0:0:0:0:
146,369,63853,1,8,0:2:0:0:
146,369,63977,1,8,0:3:0:0:
20,278,64225,1,8,0:0:0:0:
5,301,64349,1,8,0:0:0:0:
9,328,64473,1,2,0:3:0:0:
246,155,65712,22,0,B|252:115|252:115|240:71,1,80,8|0,0:3|3:0,0:0:0:0:
219,55,66084,1,8,0:0:0:0:
189,59,66208,1,8,0:0:0:0:
161,51,66332,1,8,0:0:0:0:
138,31,66456,1,8,0:3:0:0:
31,82,66704,38,0,P|12:124|14:185,1,95.9999970703126,4|0,1:1|0:2,0:2:0:0:
52,244,67076,1,0,1:2:0:0:
52,244,67200,2,0,L|149:234,1,95.9999970703126,8|0,0:2|1:2,0:2:0:0:
340,276,67696,2,0,P|339:323|320:367,1,95.9999970703126,2|0,0:2|1:2,0:2:0:0:
244,237,68192,1,8,0:2:0:0:
392,191,68440,1,2,0:2:0:0:
392,191,68564,1,8,0:2:0:0:
392,191,68688,54,0,B|439:202|439:202|500:176,1,95.9999970703126,0|0,1:2|0:2,0:2:0:0:
512,110,69059,1,0,1:2:0:0:
512,110,69183,2,0,L|493:9,1,95.9999970703126,8|0,0:2|1:2,0:2:0:0:
311,94,69679,1,2,2:2:0:0:
411,109,69927,1,0,1:2:0:0:
274,0,70175,1,8,2:2:0:0:
248,173,70423,1,0,0:2:0:0:
88,111,70671,53,2,1:2:0:0:
88,111,70795,1,2,0:3:0:0:
15,191,71043,1,0,1:2:0:0:
15,191,71167,1,8,0:2:0:0:
121,214,71415,1,0,1:2:0:0:
48,294,71663,2,0,P|40:312|27:353,2,47.9999985351563,2|8|0,2:2|0:2|3:0,0:0:0:0:
209,241,72159,1,8,0:2:0:0:
250,265,72283,1,8,0:2:0:0:
298,271,72407,1,8,0:2:0:0:
344,258,72530,1,8,0:2:0:0:
381,229,72654,86,0,P|368:159|358:86,1,143.999995605469,4|0,1:1|0:2,0:2:0:0:
400,21,73150,2,0,P|453:27|510:41,1,95.9999970703126,12|0,0:2|0:2,0:2:0:0:
494,36,73522,1,8,0:2:0:0:
494,36,73646,1,4,1:2:0:0:
400,152,73894,1,8,2:3:0:0:
277,9,74142,1,8,2:2:0:0:
183,125,74390,1,8,0:3:0:0:
183,125,74514,1,4,0:3:0:0:
183,125,74638,22,0,P|130:119|73:105,1,95.9999970703126,4|0,1:1|0:2,0:2:0:0:
13,115,75010,1,0,1:2:0:0:
13,115,75134,2,0,P|19:62|33:5,1,95.9999970703126,8|0,0:2|1:2,0:2:0:0:
183,125,75630,2,0,P|177:178|163:235,1,95.9999970703126,2|0,0:2|1:2,0:2:0:0:
45,286,76126,1,8,0:2:0:0:
189,361,76373,1,2,2:2:0:0:
189,361,76497,1,8,0:2:0:0:
189,361,76621,54,0,L|305:345,1,95.9999970703126,2|0,1:2|0:2,0:2:0:0:
361,373,76993,1,0,1:2:0:0:
361,373,77117,2,0,L|477:357,1,95.9999970703126,8|0,0:2|1:2,0:2:0:0:
419,162,77613,2,0,P|463:150|535:161,1,95.9999970703126,2|0,0:2|1:2,0:2:0:0:
349,244,78109,2,0,P|302:256|255:252,1,95.9999970703126,8|0,0:2|0:2,0:2:0:0:
111,163,78605,53,2,1:2:0:0:
111,163,78729,1,2,0:3:0:0:
212,107,78977,1,2,1:2:0:0:
212,107,79101,1,8,0:2:0:0:
127,28,79349,1,0,1:2:0:0:
25,83,79597,2,0,P|13:128|14:180,1,95.9999970703126,2|0,0:2|1:2,0:2:0:0:
109,248,80092,1,8,0:2:0:0:
0,296,80340,1,0,2:2:0:0:
135,234,80588,54,0,B|191:228|191:228|216:241|216:241|287:235,1,143.999995605469,2|0,1:2|1:2,0:2:0:0:
335,183,81084,2,0,P|335:135|323:88,1,95.9999970703126,10|0,0:2|0:2,0:2:0:0:
323,88,81456,1,8,0:2:0:0:
323,88,81580,1,2,1:2:0:0:
501,2,81828,37,8,0:2:0:0:
455,12,81952,1,8,0:2:0:0:
429,51,82076,1,8,0:2:0:0:
439,96,82200,1,8,0:3:0:0:
478,123,82324,1,4,0:3:0:0:
486,169,82448,1,4,0:3:0:0:
459,207,82572,6,0,P|414:214|355:180,1,95.9999970703126,4|0,1:1|0:2,0:2:0:0:
305,153,82944,1,0,1:2:0:0:
305,153,83068,2,0,L|296:57,1,95.9999970703126,8|0,0:2|1:2,0:2:0:0:
184,200,83564,2,0,L|175:104,1,95.9999970703126,2|0,0:2|1:2,0:2:0:0:
65,49,84059,1,8,0:2:0:0:
36,189,84307,1,2,0:2:0:0:
36,189,84431,1,8,0:2:0:0:
36,189,84555,54,0,L|45:285,1,95.9999970703126,0|0,1:2|0:2,0:2:0:0:
97,346,84927,1,0,1:2:0:0:
97,346,85051,2,0,P|142:353|201:319,1,95.9999970703126,8|0,0:2|1:2,0:2:0:0:
326,237,85547,1,2,2:2:0:0:
214,199,85795,1,0,1:2:0:0:
308,369,86043,1,8,2:2:0:0:
420,331,86291,1,0,2:2:0:0:
443,174,86539,53,2,1:2:0:0:
443,174,86663,1,2,0:3:0:0:
337,214,86911,1,0,1:2:0:0:
337,214,87035,1,8,2:2:0:0:
258,129,87283,1,0,1:2:0:0:
364,89,87530,2,0,P|377:57|378:31,2,47.9999985351563,2|8|0,2:2|0:2|3:0,0:0:0:0:
213,33,88026,1,8,0:2:0:0:
168,16,88150,1,8,0:2:0:0:
120,18,88274,1,8,0:3:0:0:
135,165,88522,86,0,P|62:167|32:242,1,143.999995605469,4|0,1:1|0:2,0:2:0:0:
63,296,89018,2,0,B|112:307|112:307|176:269,1,95.9999970703126,12|0,0:2|0:2,0:2:0:0:
151,283,89390,1,8,0:2:0:0:
151,283,89514,1,4,1:2:0:0:
278,372,89762,1,8,2:3:0:0:
406,294,90010,1,8,0:2:0:0:
410,251,90134,1,8,0:2:0:0:
415,208,90258,1,8,0:2:0:0:
420,165,90382,1,8,0:2:0:0:
424,122,90506,22,0,P|379:106|330:109,1,95.9999970703126,4|0,1:1|0:2,0:2:0:0:
256,132,90878,1,0,1:2:0:0:
256,132,91002,2,0,P|208:134|163:118,1,95.9999970703126,8|0,0:2|1:2,0:2:0:0:
35,255,91497,2,0,P|80:239|127:241,1,95.9999970703126,2|0,0:2|1:2,0:2:0:0:
10,103,91993,1,8,0:2:0:0:
170,22,92241,1,2,2:2:0:0:
170,22,92365,1,8,0:2:0:0:
170,22,92489,54,0,L|162:128,1,95.9999970703126,2|0,1:2|0:2,0:2:0:0:
213,184,92861,1,0,1:2:0:0:
213,184,92985,2,0,P|259:189|324:156,1,95.9999970703126,8|0,0:2|1:2,0:2:0:0:
133,273,93481,2,0,P|88:256|41:261,1,95.9999970703126,2|0,2:2|1:2,0:2:0:0:
229,365,93977,2,0,P|275:370|340:337,1,95.9999970703126,8|0,0:2|0:2,0:2:0:0:
350,337,94349,1,8,0:0:0:0:
379,320,94473,54,0,L|387:196,1,95.9999970703126,2|0,1:2|0:0,0:0:0:0:
392,145,94845,1,2,1:2:0:0:
392,145,94969,1,8,0:2:0:0:
256,192,95216,1,0,1:2:0:0:
120,145,95464,1,2,2:2:0:0:
120,145,95588,2,0,L|112:21,1,95.9999970703126,8|0,0:2|0:2,0:2:0:0:
178,0,95960,1,8,0:2:0:0:
19,102,96208,1,0,2:2:0:0:
196,201,96456,54,0,P|268:197|328:151,1,143.999995605469,2|0,1:2|1:2,0:2:0:0:
376,95,96952,2,0,P|373:44|355:1,1,95.9999970703126,10|0,0:2|1:2,0:2:0:0:
356,2,97324,1,8,0:2:0:0:
356,2,97448,1,2,1:2:0:0:
259,94,97696,1,2,2:3:0:0:
406,173,97944,1,8,0:2:0:0:
443,163,98068,1,8,0:2:0:0:
480,152,98192,1,8,0:3:0:0:
430,300,98440,54,0,P|383:303|326:273,1,95.9999970703126,4|0,1:2|0:2,0:2:0:0:
275,240,98811,1,0,1:2:0:0:
275,240,98935,1,8,0:2:0:0:
166,90,99183,101,2,0:2:0:0:
207,66,99307,1,8,0:2:0:0:
246,91,99431,1,0,1:2:0:0:
245,138,99555,1,8,0:2:0:0:
204,160,99679,1,8,0:2:0:0:
164,136,99803,1,8,0:2:0:0:
123,158,99927,1,8,0:2:0:0:
121,204,100051,1,8,0:3:0:0:
161,230,100175,1,4,0:3:0:0:
239,334,100423,22,0,P|279:323|332:320,1,83.9999974365235,4|0,1:1|0:2,0:2:0:0:
348,332,100795,1,0,3:2:0:0:
348,332,100919,2,0,P|389:328|430:317,1,83.9999974365235,8|2,0:2|3:1,0:0:0:0:
512,204,101415,1,2,2:2:0:0:
405,142,101663,1,2,3:1:0:0:
489,119,101911,1,8,0:2:0:0:
427,226,102159,1,2,0:1:0:0:
322,119,102407,54,0,P|267:98|211:99,1,83.9999974365235,2|2,1:2|0:1,0:2:0:0:
221,106,102778,1,0,3:2:0:0:
221,106,102902,1,8,0:2:0:0:
153,25,103150,1,2,3:1:0:0:
153,25,103274,1,0,3:2:0:0:
153,25,103398,1,2,0:2:0:0:
53,83,103646,1,2,3:1:0:0:
121,164,103894,1,8,0:2:0:0:
221,106,104142,1,2,0:1:0:0:
105,183,104390,54,0,P|81:239|92:283,1,83.9999974365235,2|2,1:2|0:1,0:2:0:0:
96,287,104762,1,0,3:2:0:0:
96,287,104886,2,0,P|134:301|184:298,1,83.9999974365235,8|2,0:2|3:1,0:0:0:0:
309,254,105382,1,2,0:2:0:0:
287,384,105630,1,2,3:1:0:0:
309,254,105878,1,8,0:2:0:0:
409,336,106126,1,2,0:1:0:0:
488,236,106373,54,0,P|487:194|466:158,1,83.9999974365235,2|2,1:2|0:1,0:2:0:0:
448,148,106745,1,0,3:2:0:0:
448,148,106869,1,8,0:2:0:0:
346,163,107117,1,2,3:1:0:0:
256,119,107365,1,2,0:2:0:0:
256,119,107489,1,2,0:3:0:0:
160,136,107737,1,0,3:0:0:0:
160,136,107861,1,8,0:2:0:0:
70,92,108109,1,8,0:3:0:0:
70,92,108233,1,8,0:2:0:0:
70,92,108357,54,0,P|60:148|69:193,1,83.9999974365235,4|2,1:1|0:1,0:2:0:0:
77,201,108729,1,0,3:2:0:0:
77,201,108853,2,0,P|86:241|83:283,1,83.9999974365235,8|2,0:2|3:1,0:0:0:0:
36,377,109349,1,2,0:2:0:0:
8,304,109597,1,2,3:1:0:0:
110,355,109845,1,8,0:2:0:0:
83,283,110092,1,2,0:1:0:0:
203,222,110340,54,0,P|206:180|196:139,1,83.9999974365235,2|2,1:2|0:1,0:2:0:0:
186,121,110712,1,0,3:2:0:0:
186,121,110836,1,8,0:2:0:0:
98,59,111084,1,2,3:1:0:0:
192,0,111332,1,2,0:2:0:0:
280,62,111580,1,2,3:1:0:0:
280,62,111704,1,0,3:2:0:0:
280,62,111828,1,8,0:2:0:0:
186,121,112076,1,2,0:1:0:0:
266,209,112324,54,0,P|310:209|362:189,1,83.9999974365235,2|2,1:2|0:1,0:2:0:0:
376,206,112696,1,0,3:2:0:0:
376,206,112820,2,0,P|415:193|457:193,1,83.9999974365235,8|2,0:2|3:1,0:0:0:0:
512,280,113316,1,2,0:2:0:0:
508,300,113440,1,8,0:2:0:0:
505,321,113564,1,2,3:1:0:0:
501,342,113688,1,0,3:2:0:0:
498,362,113811,1,10,0:1:0:0:
392,337,114059,1,2,0:2:0:0:
275,380,114307,54,0,B|271:262,1,83.9999974365235,4|0,1:2|0:2,0:2:0:0:
274,274,114679,1,0,3:2:0:0:
274,274,114803,1,8,0:2:0:0:
164,180,115051,53,8,0:2:0:0:
150,218,115175,1,8,0:2:0:0:
118,246,115299,1,8,0:3:0:0:
78,253,115423,1,8,0:3:0:0:
39,237,115547,1,4,0:3:0:0:
14,204,115671,1,4,0:3:0:0:
10,162,115795,1,8,0:2:0:0:
27,125,115919,1,8,0:2:0:0:
62,103,116043,1,4,0:3:0:0:
143,33,116291,6,0,P|172:43|201:42,1,51.2,4|2,1:2|0:0,0:0:0:0:
224,65,116663,2,0,P|260:54|301:50,1,76.8,0|2,3:0|1:2,0:0:0:0:
444,101,117530,2,0,L|504:111,2,51.2,0|0|0,0:3|3:0|1:3,0:0:0:0:
351,130,118274,21,2,1:2:0:0:
325,204,118522,1,2,0:0:0:0:
325,204,118646,2,0,L|335:284,1,76.8,0|2,3:0|0:0,0:0:0:0:
210,372,119514,1,2,0:0:0:0:
140,338,119762,2,0,L|131:269,1,51.2,0|0,3:0|1:0,0:0:0:0:
94,208,120258,86,0,P|60:199|10:194,1,76.8,2|0,1:2|3:0,0:0:0:0:
126,105,121002,1,2,0:0:0:0:
187,150,121249,2,0,P|243:153|289:135,1,102.4,0|0,2:2|3:0,0:0:0:0:
417,78,122241,22,0,P|420:43|430:2,2,76.8,2|0|0,1:2|3:0|0:0,0:0:0:0:
504,201,123481,2,0,P|510:225|512:251,2,51.2,0|0|0,0:0|3:0|1:0,0:0:0:0:
424,163,124225,86,0,L|337:153,1,76.8,2|0,1:2|3:0,0:0:0:0:
313,171,124721,2,0,L|243:163,1,51.2,2|0,0:0|3:0,0:0:0:0:
225,178,125092,2,0,L|90:162,1,128,2|0,0:0|3:0,0:0:0:0:
32,204,125960,1,0,1:0:0:0:
78,264,126208,22,0,L|154:272,1,76.8,2|0,1:2|3:0,0:0:0:0:
257,325,126952,2,0,L|250:380,2,51.2,2|0|0,0:0|0:0|0:0,0:0:0:0:
311,269,127696,2,0,L|316:218,1,51.2,0|0,3:0|2:0,0:0:0:0:
394,158,128192,86,0,P|428:157|486:171,1,76.8,0|0,1:0|3:0,0:0:0:0:
503,183,128688,1,2,0:0:0:0:
483,259,128935,1,0,3:0:0:0:
483,259,129059,2,0,P|444:259|407:252,1,76.8,2|0,2:0|2:0,0:0:0:0:
333,275,129679,2,0,P|303:270|279:269,1,51.2,0|0,3:0|1:0,0:0:0:0:
196,306,130175,22,0,L|187:383,2,76.8,2|0|2,1:2|3:0|0:0,0:0:0:0:
132,238,131167,1,2,0:0:0:0:
64,302,131415,1,8,0:3:0:0:
0,234,131663,1,4,0:2:0:0:
68,170,131911,1,2,0:3:0:0:
148,245,132159,86,0,P|184:241|215:228,1,54.4000003320313,4|2,1:2|0:2,0:0:0:0:
233,210,132530,2,0,L|240:111,1,81.6000004980469,0|2,3:0|0:0,0:0:0:0:
379,55,133398,2,0,L|383:-12,2,54.4000003320313,0|0|0,0:3|3:0|1:3,0:0:0:0:
443,119,134142,21,2,1:2:0:0:
385,176,134390,1,2,0:0:0:0:
385,176,134514,2,0,P|351:176|303:157,1,81.6000004980469,0|2,3:0|0:0,0:0:0:0:
174,101,135382,1,2,0:0:0:0:
106,146,135630,2,0,P|95:175|91:200,1,54.4000003320313,0|0,3:0|1:0,0:0:0:0:
135,274,136126,86,0,L|220:264,1,81.6000004980469,2|0,1:2|3:0,0:0:0:0:
316,334,136869,1,2,0:0:0:0:
389,372,137117,2,0,L|465:363,1,54.4000003320313,0|0,2:2|2:0,0:0:0:0:
509,317,137613,2,0,P|508:286|501:256,1,54.4000003320313,0|0,3:2|1:0,0:0:0:0:
451,181,138109,22,0,L|466:91,2,81.6000004980469,2|0|2,1:2|3:0|0:0,0:0:0:0:
342,276,139349,2,0,L|331:336,2,54.4000003320313,0|0|0,2:0|3:0|2:0,0:0:0:0:
290,200,140092,86,0,P|256:186|202:186,1,81.6000004980469,2|0,1:2|3:0,0:0:0:0:
172,195,140588,1,2,0:0:0:0:
113,137,140836,1,0,3:0:0:0:
113,137,140960,2,0,P|113:97|132:54,1,81.6000004980469,2|0,0:0|2:0,0:0:0:0:
200,19,141580,2,0,L|258:31,1,54.4000003320313,0|0,3:0|1:0,0:0:0:0:
334,18,142076,21,2,1:2:0:0:
356,138,142448,1,0,3:0:0:0:
477,123,142820,2,0,L|486:65,2,54.4000003320313,2|0|0,0:0|0:0|0:0,0:0:0:0:
499,201,143564,2,0,L|490:254,1,54.4000003320313,0|0,3:0|1:0,0:0:0:0:
439,335,144059,86,0,P|411:335|385:327,1,54.4000003320313,0|2,1:0|0:0,0:0:0:0:
352,348,144431,1,0,3:0:0:0:
352,348,144555,2,0,P|325:340|298:340,1,54.4000003320313,0|0,2:0|2:0,0:0:0:0:
223,371,145051,2,0,P|195:370|169:362,1,54.4000003320313,2|0,2:0|2:0,0:0:0:0:
111,305,145547,2,0,L|126:238,1,54.4000003320313,0|0,3:0|2:0,0:0:0:0:
194,201,146043,21,2,1:2:0:0:
307,244,146415,1,0,3:0:0:0:
421,287,146787,1,2,0:3:0:0:
512,162,147283,85,8,2:3:0:0:
423,195,147530,1,8,0:0:0:0:
423,195,147654,1,8,0:0:0:0:
423,195,147778,1,4,0:3:0:0:
317,145,148026,70,0,B|312:73,1,71.9999978027344,4|0,1:2|0:0,0:0:0:0:
260,19,148398,2,0,P|223:16|185:27,1,71.9999978027344,8|0,0:0|0:0,0:0:0:0:
139,79,148770,2,0,B|74:105|74:105|-10:70,1,143.999995605469,2|0,3:2|1:0,0:0:0:0:
70,193,149514,2,0,P|59:228|62:281,1,71.9999978027344,8|0,0:0|0:0,0:0:0:0:
150,332,150010,54,0,L|231:327,1,71.9999978027344,2|0,1:2|0:0,0:0:0:0:
289,359,150382,2,0,B|325:366|325:366|370:354,1,71.9999978027344,8|0,0:0|0:0,0:0:0:0:
412,306,150754,2,0,L|416:192,1,107.999996704102,2|0,3:2|2:0,0:0:0:0:
482,164,151249,1,0,3:0:0:0:
456,35,151497,1,8,0:0:0:0:
339,66,151745,1,0,0:0:0:0:
339,66,151869,1,0,0:0:0:0:
339,66,151993,54,0,P|303:67|254:43,1,71.9999978027344,2|0,1:2|0:0,0:0:0:0:
196,65,152365,2,0,B|163:52|163:52|126:56,1,71.9999978027344,8|0,0:0|0:0,0:0:0:0:
63,95,152737,2,0,P|35:138|61:237,1,143.999995605469,2|0,3:2|1:0,0:0:0:0:
163,289,153481,2,0,L|174:205,1,71.9999978027344,8|0,0:0|0:0,0:0:0:0:
237,106,153977,54,0,B|272:114|272:114|311:101,1,71.9999978027344,2|0,1:2|0:0,0:0:0:0:
376,128,154349,2,0,P|415:117|462:127,1,71.9999978027344,8|0,0:0|0:0,0:0:0:0:
497,174,154721,2,0,L|479:334,1,143.999995605469,0|0,1:0|1:0,0:0:0:0:
374,367,155464,1,8,0:0:0:0:
374,367,155588,1,8,0:0:0:0:
374,367,155712,1,8,0:3:0:0:
283,281,155960,54,0,L|292:199,1,80,4|0,1:2|0:0,0:0:0:0:
250,136,156332,2,0,P|214:122|174:127,1,80,8|0,0:0|0:0,0:0:0:0:
112,173,156704,2,0,B|78:185|78:185|7:152|34:80,1,160,2|0,3:2|1:0,0:0:0:0:
145,22,157448,2,0,B|184:31|184:31|227:23,1,80,8|0,0:0|0:0,0:0:0:0:
353,68,157944,54,0,P|395:56|439:60,1,80,2|0,1:2|0:0,0:0:0:0:
487,110,158316,2,0,L|493:198,1,80,8|0,0:0|0:0,0:0:0:0:
450,253,158688,2,0,B|394:271|394:271|329:254,1,120,2|0,3:2|2:0,0:0:0:0:
261,231,159183,1,0,1:0:0:0:
198,334,159431,1,8,0:0:0:0:
77,334,159679,1,0,0:0:0:0:
6,222,159927,54,0,P|8:181|22:144,1,80,4|0,1:2|0:0,0:0:0:0:
81,96,160299,1,8,0:0:0:0:
81,96,160423,2,0,L|182:89,1,80,2|0,0:0|3:0,0:0:0:0:
311,36,160919,2,0,P|272:27|232:25,1,80,2|0,0:0|1:0,0:0:0:0:
290,182,161415,2,0,P|250:179|211:171,1,80,8|0,0:0|0:0,0:0:0:0:
381,117,161911,54,0,B|420:115|420:115|469:132,1,80,2|0,1:2|0:0,0:0:0:0:
496,201,162283,1,8,0:0:0:0:
496,201,162407,1,0,1:0:0:0:
403,288,162654,1,2,3:3:0:0:
295,218,162902,1,8,3:3:0:0:
260,207,163026,1,0,3:0:0:0:
225,209,163150,1,0,3:0:0:0:
192,224,163274,1,8,2:0:0:0:
159,238,163398,1,8,2:0:0:0:
123,238,163522,1,8,2:0:0:0:
89,229,163646,1,2,0:3:0:0:
3,58,164886,21,8,0:0:0:0:
103,106,165134,1,8,0:0:0:0:
196,44,165382,1,8,0:0:0:0:
229,29,165506,1,8,0:0:0:0:
264,27,165630,1,8,0:0:0:0:
298,35,165754,1,8,0:0:0:0:
329,54,165878,38,0,B|341:101|341:101|329:150,1,95.9999970703126,4|0,1:1|0:2,0:2:0:0:
280,205,166249,1,0,1:2:0:0:
280,205,166373,2,0,L|182:196,1,95.9999970703126,8|0,0:2|1:2,0:2:0:0:
320,327,166869,2,0,P|362:329|420:311,1,95.9999970703126,2|0,0:2|1:2,0:2:0:0:
512,227,167365,1,8,0:2:0:0:
413,136,167613,1,2,0:2:0:0:
413,136,167737,1,8,0:2:0:0:
413,136,167861,54,0,B|401:89|401:89|413:42,1,95.9999970703126,0|0,1:2|0:2,0:2:0:0:
497,39,168233,1,0,1:2:0:0:
497,39,168357,2,0,B|509:86|509:86|497:133,1,95.9999970703126,8|0,0:2|1:2,0:2:0:0:
349,195,168853,1,2,2:2:0:0:
413,136,169101,1,0,1:2:0:0:
335,3,169349,1,8,2:2:0:0:
271,62,169597,1,0,0:2:0:0:
149,23,169845,53,2,1:2:0:0:
149,23,169969,1,2,0:3:0:0:
163,123,170216,1,0,1:2:0:0:
163,123,170340,1,8,0:2:0:0:
178,224,170588,1,0,1:2:0:0:
193,325,170836,2,0,L|182:385,2,47.9999985351563,2|8|0,2:2|0:2|3:0,0:0:0:0:
333,277,171332,1,8,0:2:0:0:
374,301,171456,1,8,0:2:0:0:
422,307,171580,1,8,0:2:0:0:
468,294,171704,1,8,0:2:0:0:
505,265,171828,86,0,P|512:194|482:122,1,143.999995605469,4|0,1:1|0:2,0:2:0:0:
422,80,172324,2,0,B|373:90|373:90|326:65,1,95.9999970703126,12|0,0:2|0:2,0:2:0:0:
269,27,172696,1,8,0:2:0:0:
269,27,172820,1,4,1:2:0:0:
237,196,173068,1,8,2:3:0:0:
130,56,173316,1,8,0:0:0:0:
86,37,173440,1,8,0:3:0:0:
40,48,173564,1,4,0:3:0:0:
9,84,173688,1,4,0:3:0:0:
5,131,173811,22,0,L|18:243,1,95.9999970703126,4|0,1:1|0:2,0:2:0:0:
66,294,174183,1,0,1:2:0:0:
66,294,174307,2,0,P|113:298|158:277,1,95.9999970703126,8|0,0:2|1:2,0:2:0:0:
310,367,174803,2,0,P|263:363|217:383,1,95.9999970703126,2|0,0:2|1:2,0:2:0:0:
312,204,175299,1,8,0:2:0:0:
411,270,175547,1,2,2:2:0:0:
411,270,175671,1,8,0:2:0:0:
411,270,175795,54,0,B|459:282|459:282|503:253,1,95.9999970703126,2|0,1:2|0:2,0:2:0:0:
512,177,176167,1,0,1:2:0:0:
512,177,176291,2,0,L|493:66,1,95.9999970703126,8|0,0:2|1:2,0:2:0:0:
353,21,176787,2,0,L|369:115,1,95.9999970703126,2|0,2:2|1:2,0:2:0:0:
254,218,177283,2,0,L|235:107,1,95.9999970703126,8|0,0:2|0:2,0:2:0:0:
218,96,177654,1,8,0:0:0:0:
192,73,177778,54,0,P|136:66|88:88,1,95.9999970703126,2|0,1:2|0:0,0:0:0:0:
33,118,178150,1,2,1:2:0:0:
33,118,178274,1,8,0:2:0:0:
128,189,178522,1,0,1:2:0:0:
14,293,178770,2,0,P|60:301|106:286,1,95.9999970703126,2|0,0:2|1:2,0:2:0:0:
234,197,179266,1,8,0:2:0:0:
278,334,179514,1,0,2:2:0:0:
423,289,179762,54,0,B|415:238|415:238|433:202|433:202|423:146,1,143.999995605469,2|0,1:2|1:2,0:2:0:0:
370,91,180258,2,0,P|414:74|461:79,1,95.9999970703126,10|0,0:2|1:2,0:2:0:0:
334,219,180754,101,10,0:0:0:0:
302,208,180878,1,8,0:0:0:0:
269,199,181002,1,8,0:3:0:0:
219,58,181249,53,8,0:0:0:0:
171,49,181373,1,8,0:0:0:0:
123,40,181497,1,8,0:0:0:0:
75,31,181621,1,8,0:0:0:0:
27,22,181745,6,0,B|2:63|2:63|9:126,1,95.9999970703126,4|0,1:1|0:2,0:2:0:0:
57,174,182117,1,0,1:2:0:0:
57,174,182241,2,0,L|165:166,1,95.9999970703126,8|0,0:2|1:2,0:2:0:0:
328,196,182737,2,0,B|333:148|333:148|308:107,1,95.9999970703126,2|0,0:2|1:2,0:2:0:0:
194,281,183233,1,8,0:2:0:0:
329,356,183481,1,2,0:2:0:0:
329,356,183605,1,8,0:2:0:0:
329,356,183729,54,0,L|437:348,1,95.9999970703126,0|0,1:2|0:2,0:2:0:0:
486,300,184101,1,0,1:2:0:0:
486,300,184225,2,0,B|491:252|491:252|466:211,1,95.9999970703126,8|0,0:0|1:0,0:0:0:0:
345,107,184721,1,2,0:0:0:0:
467,68,184969,1,0,1:0:0:0:
354,220,185216,1,8,2:2:0:0:
223,157,185464,1,0,2:2:0:0:
223,157,185588,1,8,0:0:0:0:
223,157,185712,54,0,B|234:48,1,95.9999970703126,2|0,1:2|0:2,0:2:0:0:
284,3,186084,1,0,1:2:0:0:
284,3,186208,1,8,2:2:0:0:
345,107,186456,1,0,1:2:0:0:
423,12,186704,1,2,2:2:0:0:
423,12,186828,1,8,0:2:0:0:
423,12,186952,1,0,3:0:0:0:
478,133,187200,1,8,0:2:0:0:
462,168,187324,1,8,0:2:0:0:
445,202,187448,1,8,0:3:0:0:
507,340,187696,86,0,P|449:286|375:281,1,143.999995605469,4|0,1:1|2:2,2:2:0:0:
320,236,188192,2,0,B|274:248|274:248|230:226,1,95.9999970703126,12|0,0:2|0:2,0:2:0:0:
230,226,188564,1,8,0:2:0:0:
230,226,188688,1,4,1:2:0:0:
154,98,188935,1,8,2:3:0:0:
20,188,189183,1,8,0:2:0:0:
25,230,189307,1,8,0:2:0:0:
29,273,189431,1,8,0:2:0:0:
33,317,189555,1,8,0:2:0:0:
38,359,189679,22,0,B|83:371|83:371|127:349,1,95.9999970703126,4|0,1:1|0:2,0:2:0:0:
182,295,190051,1,0,1:2:0:0:
182,295,190175,2,0,L|166:178,1,95.9999970703126,8|0,0:2|1:2,0:2:0:0:
349,290,190671,2,0,L|335:385,1,95.9999970703126,2|0,0:2|1:2,0:2:0:0:
512,288,191167,1,8,0:2:0:0:
434,187,191415,1,2,2:2:0:0:
434,187,191539,1,8,0:2:0:0:
434,187,191663,54,0,L|447:91,1,95.9999970703126,2|0,1:2|0:2,0:2:0:0:
421,23,192035,1,0,1:2:0:0:
421,23,192159,2,0,P|366:23|318:49,1,95.9999970703126,8|0,0:2|1:2,0:2:0:0:
291,191,192654,2,0,P|236:191|188:165,1,95.9999970703126,2|0,2:2|1:2,0:2:0:0:
132,64,193150,2,0,P|77:64|29:90,1,95.9999970703126,8|0,0:2|0:2,0:2:0:0:
15,103,193522,1,8,0:0:0:0:
3,134,193646,54,0,L|16:230,1,95.9999970703126,2|0,1:2|0:0,0:0:0:0:
34,309,194018,1,2,1:2:0:0:
34,309,194142,1,8,0:2:0:0:
146,382,194390,1,0,1:2:0:0:
266,318,194638,1,2,2:2:0:0:
266,318,194762,2,0,L|253:222,1,95.9999970703126,8|0,0:2|0:2,0:2:0:0:
196,169,195134,2,0,L|183:73,1,95.9999970703126,8|0,0:2|2:2,0:2:0:0:
332,0,195630,53,4,1:2:0:0:
383,99,195878,1,8,0:0:0:0:
383,99,196002,1,8,0:0:0:0:
444,6,196249,1,8,0:3:0:0:
444,6,196373,1,8,0:3:0:0:
271,93,196621,37,8,0:0:0:0:
271,93,196745,1,8,0:2:0:0:
271,93,196869,1,8,0:3:0:0:
428,195,197117,1,8,2:2:0:0:
428,195,197241,1,8,2:3:0:0:
428,195,197365,1,4,3:3:0:0:
261,279,197613,102,0,P|208:286|143:235,1,103.999995239258,4|8,1:1|0:0,0:0:0:0:
119,193,197985,2,0,B|160:113|103:36|103:36|115:68|106:110,1,220.000006713867,4|0,1:2|0:0,0:0:0:0:
44,130,198729,54,0,P|22:130|4:120,2,40,2|0|0,0:0|0:0|0:0,0:0:0:0:
117,95,199101,1,8,0:3:0:0:
117,95,199225,2,0,P|163:80|217:85,1,80,2|0,0:0|0:0,0:0:0:0:
262,36,199597,5,4,1:2:0:0:
299,135,199845,1,2,0:0:0:0:
398,98,200092,1,2,0:0:0:0:
398,98,200216,1,2,2:2:0:0:
435,197,200464,2,0,P|435:233|414:278,1,80,2|0,0:0|0:0,0:0:0:0:
349,299,200836,1,2,0:0:0:0:
330,291,200960,1,0,3:0:0:0:
311,283,201084,1,12,0:0:0:0:
209,317,201332,37,2,0:0:0:0:
209,317,201456,1,8,0:0:0:0:
209,317,201580,2,0,P|210:250|240:205,1,103.999995239258,4|8,1:1|0:0,0:0:0:0:
297,180,201952,2,0,P|392:120|227:100,1,396.000012084961,4|8,1:2|0:3,0:0:0:0:
140,154,203316,53,2,0:0:0:0:
140,154,203440,1,0,0:0:0:0:
140,154,203564,1,4,1:2:0:0:
25,125,203811,1,0,1:0:0:0:
140,154,204059,1,2,0:0:0:0:
102,58,204307,1,8,0:0:0:0:
61,220,204555,1,2,0:0:0:0:
61,220,204679,2,0,P|54:270|66:315,1,88.000002685547,2|0,0:3|0:0,0:0:0:0:
117,357,205051,5,10,0:0:0:0:
136,343,205174,1,8,0:3:0:0:
159,335,205298,1,4,2:3:0:0:
183,334,205422,1,4,2:3:0:0:
207,339,205547,38,0,B|253:354|253:354|319:322,1,103.999995239258,4|0,0:1|0:0,0:0:0:0:
366,278,205919,2,0,B|394:184|302:173|342:62,1,220.000006713867,4|0,1:2|0:0,0:0:0:0:
410,24,206663,54,0,L|464:15,2,40,2|0|0,0:0|0:0|0:0,0:0:0:0:
344,70,207035,1,4,0:0:0:0:
324,65,207158,1,0,0:0:0:0:
304,61,207282,1,0,0:0:0:0:
285,57,207406,1,0,0:0:0:0:
265,53,207530,5,4,1:2:0:0:
247,68,207653,1,0,0:0:0:0:
234,86,207777,1,0,0:0:0:0:
224,107,207901,1,2,0:0:0:0:
220,129,208025,1,0,0:0:0:0:
219,152,208149,1,0,0:0:0:0:
224,174,208273,1,8,0:0:0:0:
233,195,208398,2,0,B|273:206|273:206|329:174,1,80,2|8,0:0|0:0,0:0:0:0:
371,143,208770,37,2,1:2:0:0:
436,225,209018,1,8,0:0:0:0:
373,309,209266,1,0,3:0:0:0:
373,309,209390,1,8,0:0:0:0:
373,309,209514,2,0,B|297:328|297:328|217:291,1,155.999992858887,4|0,1:2|1:0,0:0:0:0:
158,254,210010,53,2,0:0:0:0:
206,150,210258,1,8,0:0:0:0:
147,51,210506,1,2,0:0:0:0:
124,33,210629,1,8,0:0:0:0:
96,24,210753,1,2,0:0:0:0:
67,27,210877,1,0,1:0:0:0:
40,40,211002,2,0,B|16:67|16:67|25:131,1,88.000002685547,8|0,0:0|0:0,0:0:0:0:
0,255,211497,53,4,1:1:0:0:
102,299,211745,2,0,P|150:298|204:252,1,95.9999970703126,8|0,0:3|0:0,0:0:0:0:
245,221,212117,1,8,0:0:0:0:
232,194,212241,1,8,0:0:0:0:
235,165,212365,1,8,0:0:0:0:
249,140,212489,1,2,3:2:0:0:
357,83,212737,53,8,0:0:0:0:
380,108,212860,1,8,0:0:0:0:
411,121,212984,1,8,0:0:0:0:
446,120,213108,1,8,0:3:0:0:
476,104,213232,1,4,0:3:0:0:
497,76,213356,1,4,0:3:0:0:
504,42,213480,1,6,1:2:0:0:
287,229,218688,5,0,1:0:0:0:
211,280,218935,2,0,P|177:281|127:263,1,80,8|2,0:0|0:3,0:0:0:0:
303,205,219431,38,0,B|394:181|362:236|454:216,1,143.999995605469,4|0,1:1|0:2,0:2:0:0:
508,178,219927,2,0,P|519:105|503:67,1,95.9999970703126,12|0,0:2|0:2,0:2:0:0:
465,25,220299,1,8,0:2:0:0:
465,25,220423,1,4,1:2:0:0:
378,123,220671,1,8,2:3:0:0:
284,25,220919,1,8,0:0:0:0:
239,10,221042,1,8,0:3:0:0:
193,22,221166,1,4,0:3:0:0:
162,58,221290,1,4,0:3:0:0:
157,105,221415,102,0,B|102:128|102:128|45:98,2,120,4|2|0,1:0|0:0|1:0,0:0:0:0:
256,152,222407,2,0,P|299:141|360:150,1,80,8|0,0:0|0:0,0:0:0:0:
334,142,222778,1,2,0:0:0:0:
334,142,222902,1,0,3:0:0:0:
421,209,223150,1,0,1:0:0:0:
350,305,223398,86,0,P|307:316|246:307,1,80,2|0,1:2|0:0,0:0:0:0:
254,325,223770,1,0,3:0:0:0:
236,334,223894,2,0,P|197:323|157:324,1,80,2|0,0:0|3:0,0:0:0:0:
33,369,224390,2,0,B|25:322|25:322|44:270,1,100,12|0,0:0|0:0,0:0:0:0:
42,272,224762,1,8,0:0:0:0:
42,272,224886,1,8,0:3:0:0:
174,242,225134,1,4,0:3:0:0:
174,242,225258,1,4,0:3:0:0:
174,242,225382,22,0,B|182:195|182:195|163:143,1,100,4|0,0:2|0:0,0:0:0:0:
150,127,225754,1,2,0:0:0:0:
131,113,225878,2,0,L|19:101,1,92.0000017547608,0|0,3:0|3:0,0:0:0:0:
179,32,226373,2,0,B|243:62|243:62|318:26,1,138.000002632141,8|0,0:0|0:0,0:0:0:0:
324,23,226869,1,2,0:0:0:0:
288,155,227117,1,0,1:0:0:0:
489,139,227365,53,12,0:0:0:0:
375,98,227613,1,0,1:0:0:0:
324,280,227861,1,8,0:0:0:0:
445,328,228109,1,0,1:0:0:0:
445,328,228233,1,8,0:0:0:0:
445,328,228357,1,8,0:3:0:0:
359,189,228605,85,8,0:0:0:0:
307,167,228729,1,8,0:0:0:0:
257,193,228853,1,8,0:0:0:0:
249,248,228977,1,8,0:0:0:0:
199,273,229101,1,8,0:0:0:0:
144,258,229225,1,8,0:0:0:0:
109,212,229349,6,0,P|109:165|132:94,1,103.999995239258,4|0,1:0|0:0,0:0:0:0:
163,44,229721,1,0,1:2:0:0:
163,44,229845,2,0,B|214:57|214:57|267:33,1,103.999995239258,8|0,0:2|1:2,0:2:0:0:
411,104,230340,1,2,2:0:0:0:
318,152,230588,1,0,1:0:0:0:
383,2,230836,1,8,0:2:0:0:
512,112,231084,1,2,0:2:0:0:
512,112,231208,1,8,0:2:0:0:
512,112,231332,54,0,L|502:219,1,103.999995239258,0|0,1:2|0:2,0:2:0:0:
493,297,231704,1,0,1:2:0:0:
493,297,231828,1,8,0:0:0:0:
351,269,232076,1,0,1:0:0:0:
410,362,232324,1,2,0:0:0:0:
268,334,232572,1,0,1:0:0:0:
168,365,232820,2,0,P|172:306|202:253,1,103.999995239258,8|0,2:2|2:2,0:2:0:0:
217,240,233192,1,8,0:0:0:0:
238,210,233316,54,0,P|259:162|261:111,1,103.999995239258,2|0,1:2|0:2,0:2:0:0:
241,39,233688,1,0,1:2:0:0:
241,39,233811,1,8,2:2:0:0:
140,14,234059,1,0,1:2:0:0:
85,102,234307,1,2,2:2:0:0:
85,102,234431,1,8,0:0:0:0:
85,102,234555,1,2,3:2:0:0:
151,181,234803,1,8,0:2:0:0:
202,174,234926,1,8,0:2:0:0:
254,168,235050,1,8,0:2:0:0:
305,162,235174,1,8,0:2:0:0:
357,155,235299,86,0,P|393:234|370:300,1,155.999992858887,4|0,2:1|2:2,2:2:0:0:
317,349,235795,2,0,P|265:328|204:329,1,103.999995239258,12|0,0:2|0:2,0:2:0:0:
154,370,236167,1,8,0:2:0:0:
154,370,236291,1,4,1:2:0:0:
36,243,236539,1,8,2:3:0:0:
205,205,236787,1,8,0:2:0:0:
251,227,236910,1,8,0:3:0:0:
302,226,237034,1,4,0:3:0:0:
348,202,237158,1,4,0:3:0:0:
377,160,237283,22,0,P|374:108|351:62,1,103.999995239258,4|0,1:1|0:2,0:2:0:0:
286,26,237654,1,0,1:2:0:0:
286,26,237778,2,0,L|182:19,1,103.999995239258,8|0,0:2|1:2,0:2:0:0:
20,77,238274,1,2,0:2:0:0:
163,126,238522,1,0,1:2:0:0:
20,77,238770,1,8,0:2:0:0:
50,221,239018,1,2,2:2:0:0:
50,221,239142,1,8,0:2:0:0:
50,221,239266,54,0,B|98:235|98:235|152:215,1,103.999995239258,2|0,1:2|0:2,0:2:0:0:
215,262,239638,1,0,1:2:0:0:
215,262,239762,2,0,B|263:276|263:276|317:256,1,103.999995239258,8|0,0:2|1:2,0:2:0:0:
455,325,240258,1,2,0:0:0:0:
455,325,240382,2,0,B|436:276|436:276|455:217,1,103.999995239258,8|0,0:0|0:0,0:0:0:0:
424,152,240754,2,0,B|443:103|443:103|427:54,1,103.999995239258,8|0,0:2|0:2,0:2:0:0:
249,0,241249,53,2,1:2:0:0:
249,0,241373,1,2,0:3:0:0:
179,103,241621,1,0,1:2:0:0:
179,103,241745,1,8,0:2:0:0:
303,112,241993,1,0,1:3:0:0:
233,215,242241,1,2,2:2:0:0:
233,215,242365,1,8,0:2:0:0:
233,215,242489,1,0,3:0:0:0:
75,140,242737,1,8,0:2:0:0:
0,298,242985,1,0,2:2:0:0:
105,340,243233,54,0,B|249:325,1,103.999995239258,2|0,1:2|2:2,1:2:0:0:
278,361,243605,1,0,1:2:0:0:
303,359,243729,2,0,B|315:310|315:310|293:258,1,103.999995239258,12|0,0:0|0:0,0:0:0:0:
246,200,244101,1,8,0:0:0:0:
246,200,244225,1,2,1:2:0:0:
392,86,244473,37,8,0:0:0:0:
349,114,244596,1,8,0:0:0:0:
297,108,244720,1,8,2:0:0:0:
263,72,244844,1,8,0:0:0:0:
227,35,244969,1,8,0:0:0:0:
176,29,245093,1,8,0:0:0:0:
134,58,245216,6,0,P|114:116|118:176,1,103.999995239258,4|0,1:0|0:0,0:0:0:0:
144,232,245588,1,2,2:0:0:0:
144,232,245712,1,8,0:2:0:0:
336,191,245960,1,0,1:0:0:0:
336,191,246084,1,8,0:0:0:0:
336,191,246208,1,2,0:0:0:0:
260,115,246456,1,0,1:0:0:0:
219,307,246704,1,8,0:0:0:0:
383,354,246952,1,2,0:0:0:0:
482,274,247200,54,0,B|476:237|476:237|482:214|482:214|472:151,1,103.999995239258,4|0,1:2|0:0,0:0:0:0:
450,100,247572,1,0,1:0:0:0:
450,100,247696,1,8,0:0:0:0:
343,198,247944,1,0,1:0:0:0:
343,198,248068,1,8,0:0:0:0:
343,198,248192,1,2,0:2:0:0:
215,128,248440,1,0,1:0:0:0:
322,30,248688,1,8,0:0:0:0:
201,143,248935,1,2,0:0:0:0:
187,158,249059,1,2,0:0:0:0:
171,171,249183,54,0,P|101:181|55:130,1,103.999995239258,4|0,1:2|0:0,0:0:0:0:
38,95,249555,2,0,P|64:29|131:15,1,103.999995239258,8|0,2:2|0:0,0:0:0:0:
170,17,249927,2,0,P|213:72|192:137,1,103.999995239258,2|0,1:2|0:0,0:0:0:0:
285,227,250423,101,8,0:0:0:0:
330,251,250546,1,8,0:0:0:0:
381,255,250670,1,8,0:0:0:0:
429,236,250794,1,8,0:3:0:0:
465,199,250918,1,4,0:3:0:0:
482,150,251042,1,4,0:3:0:0:
475,98,251167,22,0,P|441:79|401:75,1,80,4|0,1:1|0:2,0:2:0:0:
381,86,251539,1,0,3:2:0:0:
381,86,251663,2,0,P|341:82|306:63,1,80,8|0,2:2|3:2,0:2:0:0:
193,3,252159,1,2,2:2:0:0:
202,119,252407,1,0,3:1:0:0:
193,3,252654,1,8,0:2:0:0:
87,76,252902,1,0,0:1:0:0:
212,135,253150,54,0,P|228:180|214:237,1,80,2|0,1:2|0:1,0:2:0:0:
224,238,253522,1,0,3:2:0:0:
224,238,253646,1,8,0:2:0:0:
127,296,253894,1,0,3:1:0:0:
127,296,254018,1,0,3:2:0:0:
127,296,254142,1,2,0:2:0:0:
32,230,254390,1,0,3:1:0:0:
129,172,254638,2,0,P|130:132|115:95,1,80,8|0,0:2|0:1,0:0:0:0:
244,15,255134,54,0,P|229:51|230:91,1,80,2|0,1:2|0:1,0:2:0:0:
245,116,255506,1,0,3:2:0:0:
245,116,255630,2,0,P|298:128|329:134,1,80,8|0,0:2|3:1,0:0:0:0:
473,105,256126,1,2,0:2:0:0:
473,105,256249,1,8,0:0:0:0:
473,105,256373,1,0,3:1:0:0:
372,49,256621,1,8,0:2:0:0:
372,49,256745,1,0,3:0:0:0:
372,49,256869,1,0,3:1:0:0:
415,196,257117,54,0,P|418:242|404:289,1,80,2|0,1:2|0:1,0:2:0:0:
403,300,257489,1,0,3:2:0:0:
403,300,257613,2,0,L|301:285,1,80,8|0,0:0|3:0,0:0:0:0:
227,345,258109,1,2,0:2:0:0:
197,340,258232,1,8,2:3:0:0:
167,336,258356,1,8,0:3:0:0:
137,331,258481,1,4,0:3:0:0:
108,327,258605,2,0,B|68:334|68:334|18:312,1,80,12|0,0:0|3:0,0:0:0:0:
10,177,259101,54,0,P|14:139|48:80,1,80,4|0,1:0|2:0,0:0:0:0:
52,85,259473,1,0,3:2:0:0:
52,85,259597,2,0,B|92:92|92:92|142:70,1,80,8|0,2:0|3:0,0:0:0:0:
264,129,260092,1,2,0:2:0:0:
235,0,260340,1,0,3:1:0:0:
264,129,260588,1,8,0:2:0:0:
357,24,260836,1,0,0:1:0:0:
474,86,261084,54,0,P|487:127|474:195,1,80,2|0,1:2|0:1,0:2:0:0:
485,191,261456,1,0,3:2:0:0:
485,191,261580,1,8,0:2:0:0:
398,231,261828,1,0,3:1:0:0:
319,192,262076,1,2,0:2:0:0:
319,192,262200,1,8,0:0:0:0:
319,192,262324,1,0,3:1:0:0:
244,251,262572,1,8,0:2:0:0:
244,251,262696,1,0,3:0:0:0:
244,251,262820,1,0,3:1:0:0:
153,180,263068,54,0,B|151:152|151:152|156:136|156:136|153:92,1,80,2|0,1:2|0:1,0:2:0:0:
149,82,263440,1,0,3:2:0:0:
149,82,263564,2,0,P|101:69|60:76,1,80,8|0,0:2|3:1,0:0:0:0:
0,184,264059,1,2,0:2:0:0:
1,203,264182,1,8,0:2:0:0:
2,223,264306,1,8,2:3:0:0:
4,243,264430,1,4,2:3:0:0:
5,263,264555,2,0,P|44:265|82:253,1,80,8|0,0:0|0:0,0:0:0:0:
177,361,265051,54,0,B|172:321|172:321|185:281,1,80,4|0,1:0|0:0,0:0:0:0:
204,266,265423,1,0,3:2:0:0:
204,266,265547,1,8,0:2:0:0:
303,309,265795,1,0,3:0:0:0:
379,232,266043,1,2,0:0:0:0:
280,189,266291,1,0,3:0:0:0:
356,112,266539,1,8,0:0:0:0:
366,84,266662,1,8,0:0:0:0:
364,54,266786,1,8,0:3:0:0:
349,28,266910,1,8,0:3:0:0:
325,12,267035,54,0,L|213:24,1,80,4|0,1:0|0:0,0:0:0:0:
236,44,267407,1,0,3:0:0:0:
236,44,267530,2,0,L|124:56,1,80,12|0,0:0|3:0,0:0:0:0:
57,22,268026,1,2,0:0:0:0:
27,121,268274,1,0,3:0:0:0:
27,121,268398,1,0,3:0:0:0:
27,121,268522,1,8,0:0:0:0:
126,151,268770,1,0,3:0:0:0:
126,151,268894,1,8,0:0:0:0:
126,151,269018,54,0,L|205:142,1,80,2|0,1:2|0:0,0:0:0:0:
231,155,269390,1,0,3:0:0:0:
231,155,269514,2,0,P|243:196|235:239,1,80,8|0,0:0|3:0,0:0:0:0:
183,367,270010,1,2,0:0:0:0:
136,272,270258,1,0,3:0:0:0:
183,367,270506,1,8,0:0:0:0:
285,328,270754,1,0,3:0:0:0:
285,328,270878,1,0,3:0:0:0:
285,328,271002,54,0,P|339:319|395:333,1,80,2|0,1:2|0:0,0:0:0:0:
388,336,271373,1,0,3:0:0:0:
388,336,271497,1,8,0:0:0:0:
491,380,271745,1,0,3:0:0:0:
491,380,271869,1,0,3:0:0:0:
491,380,271993,1,2,0:0:0:0:
474,274,272241,1,0,3:0:0:0:
388,336,272489,1,8,0:0:0:0:
362,232,272737,1,0,3:0:0:0:
362,232,272861,1,8,0:0:0:0:
362,232,272985,54,0,P|373:185|394:149,1,80,2|0,1:2|0:0,0:0:0:0:
402,139,273357,1,0,3:0:0:0:
402,139,273481,2,0,P|391:92|370:56,1,80,8|0,0:0|3:0,0:0:0:0:
258,17,273977,1,2,0:0:0:0:
231,31,274100,1,8,0:0:0:0:
202,36,274224,1,8,0:3:0:0:
172,30,274348,1,4,0:3:0:0:
146,16,274472,1,8,0:0:0:0:
54,68,274721,1,8,0:3:0:0:
54,68,274845,1,8,0:0:0:0:
54,68,274969,54,0,P|37:114|36:161,1,80,4|0,1:1|0:0,0:0:0:0:
44,171,275340,1,0,3:0:0:0:
44,171,275464,2,0,L|159:181,1,80,8|0,0:0|3:0,0:0:0:0:
268,145,275960,1,2,0:0:0:0:
180,88,276208,1,0,3:0:0:0:
180,88,276332,1,0,3:0:0:0:
180,88,276456,1,8,0:0:0:0:
216,243,276704,1,0,0:0:0:0:
387,223,276952,54,0,B|396:263|396:263|384:301,1,80,2|0,1:2|0:0,0:0:0:0:
381,327,277324,1,0,3:0:0:0:
381,327,277448,2,0,P|343:317|294:311,1,80,8|0,0:0|3:0,0:0:0:0:
201,376,277944,1,2,0:0:0:0:
201,376,278068,1,8,0:0:0:0:
201,376,278192,1,0,3:3:0:0:
107,297,278440,1,8,0:0:0:0:
208,232,278688,1,0,0:0:0:0:
302,311,278935,54,0,P|340:321|389:327,1,80,2|0,1:2|0:0,0:0:0:0:
402,346,279307,1,0,3:0:0:0:
402,346,279431,1,8,0:0:0:0:
504,266,279679,1,0,3:0:0:0:
492,249,279802,1,0,3:0:0:0:
485,230,279926,1,2,0:0:0:0:
481,211,280050,1,8,0:0:0:0:
481,191,280174,1,0,3:0:0:0:
486,171,280298,1,0,3:0:0:0:
494,153,280423,2,0,B|506:114|506:114|478:51,1,80,8|0,0:0|2:0,0:0:0:0:
296,37,280919,54,0,P|334:27|383:21,1,80,4|0,1:2|0:0,0:0:0:0:
401,31,281291,1,0,3:0:0:0:
401,31,281415,1,12,0:0:0:0:
299,148,281663,1,0,3:0:0:0:
299,148,281787,1,8,0:0:0:0:
299,148,281911,1,2,1:3:0:0:
173,54,282159,1,8,0:0:0:0:
133,46,282282,1,8,0:0:0:0:
94,54,282406,1,8,0:0:0:0:
61,75,282530,1,8,0:0:0:0:
38,107,282654,1,8,0:0:0:0:
29,146,282778,1,8,0:0:0:0:
34,185,282902,38,0,B|104:208|104:208|175:156,1,143.999995605469,4|8,1:1|0:0,0:0:0:0:
297,91,283646,86,0,P|253:146|262:223,1,143.999995605469,4|0,1:2|3:0,0:0:0:0:
343,306,284390,22,0,B|508:295|508:295|441:336,1,223.999993164063,12|2,2:2|2:0,0:0:0:0:
458,325,285878,22,0,P|481:234|418:137,1,210.000008010865,4|0,0:0|0:0,0:0:0:0:
362,84,287020,22,0,L|370:25,2,40,2|0|0,0:0|0:0|0:0,0:0:0:0:
299,232,287682,85,2,0:0:0:0:
175,135,288129,22,0,B|164:167|189:195|189:195|222:176|222:142|222:142|250:162|283:146|283:146|277:110|243:99|243:99|272:79|267:42|267:42|229:36|209:66|209:66|198:31|163:26|163:26|145:59|166:87|166:87|131:87|114:118|114:118|140:146|174:134|174:134,1,640,2|2,0:0|0:0,0:0:0:0:
