osu file format v14

[General]
AudioFilename: audio.mp3
AudioLeadIn: 0
PreviewTime: 59062
Countdown: 0
SampleSet: None
StackLeniency: 0.3
Mode: 0
LetterboxInBreaks: 0
WidescreenStoryboard: 0

[Editor]
Bookmarks: 6389,9953,24211,34904,49161,59854,84805,93716,115102,118666
DistanceSpacing: 1.4
BeatDivisor: 4
GridSize: 8
TimelineZoom: 2.699999

[Metadata]
Title:Tsubasa wo Motanai Shoujo
TitleUnicode:Tsubasa wo Motanai Shoujo
Artist:Shimotsuki Haruka
ArtistUnicode:Shimotsuki Haruka
Creator:-Tochi
Version:Unable to fly
Source:
Tags:GWAVE 2011 2nd Chronicle Waltz MANYO kactaplb Takami KamiSetsuri Marie
BeatmapID:1909568
BeatmapSetID:914250

[Difficulty]
HPDrainRate:6
CircleSize:4
OverallDifficulty:8.5
ApproachRate:9.3
SliderMultiplier:1.6
SliderTickRate:2

[Events]
//Background and Video events
0,0,"BG.jpg",0,0
//Break Periods
//Storyboard Layer 0 (Background)
//Storyboard Layer 1 (Fail)
//Storyboard Layer 2 (Pass)
//Storyboard Layer 3 (Foreground)
//Storyboard Sound Samples

[TimingPoints]
152,297.029702970297,3,2,1,30,1,0
6389,-100,3,2,1,30,0,0
9656,-100,3,2,1,5,0,0
9805,-125,3,2,1,30,0,0
9953,-142.857142857143,3,2,1,40,0,0
34903,-142.857142857143,3,3,1,30,0,0
49160,-117.647058823529,3,2,3,40,0,0
50349,-86.9565217391302,3,2,3,40,0,0
50646,-80,3,2,3,40,0,0
50943,-117.647058823529,3,2,3,40,0,0
55547,-117.647058823529,3,2,3,20,0,0
55695,-117.647058823529,3,2,3,40,0,0
57180,-86.9565217391302,3,2,3,40,0,0
57477,-80,3,2,3,40,0,0
57774,-74.0740740740741,3,2,3,40,0,0
58071,-117.647058823529,3,2,3,40,0,0
59259,-66.6666666666667,3,2,3,40,0,0
59482,-66.6666666666667,3,2,3,5,0,0
59556,-66.6666666666667,3,2,3,40,0,0
59853,-66.6666666666667,3,2,3,60,0,1
60151,-83.3333333333333,3,2,2,60,0,1
61636,-66.6666666666667,3,2,2,60,0,1
61933,-83.3333333333333,3,2,2,60,0,1
63418,-66.6666666666667,3,2,2,60,0,1
63715,-83.3333333333333,3,2,2,60,0,1
65200,-66.6666666666667,3,2,2,60,0,1
65497,-83.3333333333333,3,2,2,60,0,1
66982,-66.6666666666667,3,2,2,60,0,0
67279,-83.3333333333333,3,2,2,60,0,0
68467,-74.0740740740741,3,2,2,60,0,0
68764,-66.6666666666667,3,2,2,60,0,0
69061,-83.3333333333333,3,2,2,60,0,0
70547,-66.6666666666667,3,2,2,60,0,0
70844,-83.3333333333333,3,2,2,60,0,0
72329,-66.6666666666667,3,2,2,60,0,0
72626,-83.3333333333333,3,2,2,60,0,0
74111,-66.6666666666667,3,2,2,60,0,1
74408,-83.3333333333333,3,2,2,60,0,1
75893,-66.6666666666667,3,2,2,60,0,1
76190,-83.3333333333333,3,2,2,60,0,1
77676,-66.6666666666667,3,2,2,60,0,1
77973,-83.3333333333333,3,2,2,60,0,1
79458,-66.6666666666667,3,2,2,60,0,1
79755,-83.3333333333333,3,2,2,60,0,1
81241,-66.6666666666667,3,2,2,60,0,0
81538,-83.3333333333333,3,2,2,60,0,0
83023,-66.6666666666667,3,2,2,60,0,0
83320,-83.3333333333333,3,2,2,60,0,0
84805,-83.3333333333333,3,2,2,40,0,0
85696,-83.3333333333333,3,2,3,30,0,0
87552,-83.3333333333333,3,2,3,15,0,0
87825,-83.3333333333333,3,2,3,20,0,0
88122,-83.3333333333333,3,2,3,25,0,0
88369,-83.3333333333333,3,2,3,30,0,0
90449,-83.3333333333333,3,2,3,25,0,0
90746,-83.3333333333333,3,2,3,20,0,0
91043,-83.3333333333333,3,2,3,15,0,0
93642,-83.3333333333333,3,2,3,10,0,0
93716,-142.857142857143,3,2,1,30,0,0
106191,-142.857142857143,3,2,1,25,0,0
107973,-142.857142857143,3,2,1,20,0,0
109755,-142.857142857143,3,2,1,15,0,0
111538,-142.857142857143,3,2,1,10,0,0
113320,-142.857142857143,3,2,1,7,0,0
118666,-142.857142857143,3,2,1,5,0,0

[HitObjects]
256,192,6389,12,0,9656,0:0:0:0:
184,249,9805,6,0,L|190:275,2,21.3333333333333,2|2|2,0:0|0:0|0:0,0:0:0:0:
161,232,9953,2,0,P|155:179|174:117,1,111.999996582031,2|2,1:2|0:0,0:0:0:0:
297,132,10398,2,0,P|308:160|311:202,1,55.9999982910157,0|2,0:0|0:0,0:0:0:0:
161,336,10769,1,0,0:0:0:0:
161,336,10844,2,0,P|143:282|162:229,2,111.999996582031,2|2|0,0:0|0:0|0:0,0:0:0:0:
233,285,11586,1,2,0:0:0:0:
54,285,11735,6,0,B|68:302|68:302|63:248|87:209,1,111.999996582031,2|0,1:2|0:0,0:0:0:0:
163,129,12180,2,0,B|216:149|216:149|279:140,1,111.999996582031,2|2,0:0|0:0,0:0:0:0:
227,45,12626,1,2,0:0:0:0:
204,285,12923,2,0,P|200:256|185:226,1,55.9999982910157,2|0,0:0|0:0,0:0:0:0:
281,198,13220,2,0,P|285:169|300:139,1,55.9999982910157,2|2,0:0|0:0,0:0:0:0:
424,288,13517,6,0,P|374:310|324:288,1,111.999996582031,2|2,1:2|0:0,0:0:0:0:
268,225,13962,2,0,P|238:220|202:229,1,55.9999982910157,0|2,0:0|0:0,0:0:0:0:
127,307,14259,1,0,0:0:0:0:
64,250,14408,2,0,P|52:200|86:142,1,111.999996582031,2|2,0:0|0:0,0:0:0:0:
330,177,15002,1,0,0:0:0:0:
246,167,15151,1,2,0:0:0:0:
162,157,15299,6,0,L|171:277,1,111.999996582031,2|2,1:2|0:0,0:0:0:0:
260,327,15745,2,0,L|264:268,1,55.9999982910157,0|2,0:0|0:0,0:0:0:0:
78,148,16042,1,2,0:0:0:0:
85,231,16190,2,0,B|90:268|90:317|90:317|55:288,2,111.999996582031,2|2|0,0:0|0:0|0:0,0:0:0:0:
210,140,16933,1,2,0:0:0:0:
210,140,17007,1,2,0:0:0:0:
210,140,17081,6,0,P|155:148|94:115,1,111.999996582031,2|2,1:2|0:0,0:0:0:0:
282,100,17527,2,0,P|292:128|292:159,1,55.9999982910157,0|2,0:0|0:0,0:0:0:0:
225,324,17824,1,2,0:0:0:0:
225,324,17898,1,2,0:0:0:0:
225,324,17972,2,0,P|214:268|243:215,1,111.999996582031,2|0,1:2|0:0,0:0:0:0:
405,277,18566,1,2,0:0:0:0:
405,277,18715,1,2,0:0:0:0:
405,277,18863,6,0,B|350:263|350:263|298:283,1,111.999996582031,2|2,1:2|0:0,0:0:0:0:
292,154,19309,2,0,B|240:174|240:174|185:160,1,111.999996582031,2|2,0:0|0:0,0:0:0:0:
186,269,19754,1,2,1:2:0:0:
232,63,20052,1,2,0:0:0:0:
186,269,20349,1,2,0:0:0:0:
120,216,20497,1,2,0:0:0:0:
154,139,20646,6,0,P|210:136|264:155,1,111.999996582031,2|2,1:2|0:0,0:0:0:0:
306,225,21091,2,0,P|309:281|290:335,1,111.999996582031,0|2,0:0|0:0,0:0:0:0:
220,377,21537,2,0,P|164:380|110:361,2,111.999996582031,2|2|2,0:0|0:0|0:0,0:0:0:0:
68,291,22279,1,2,0:0:0:0:
87,209,22428,5,2,1:2:0:0:
401,333,22873,2,0,P|348:339|301:296,1,111.999996582031,2|2,0:0|0:0,0:0:0:0:
271,226,23319,2,0,L|286:94,1,111.999996582031,2|2,0:0|0:0,0:0:0:0:
145,252,23913,2,0,L|151:311,1,55.9999982910157,2|2,0:0|0:0,0:0:0:0:
307,372,24210,6,0,P|315:321|356:279,2,111.999996582031,2|2|2,1:2|0:0|0:0,0:0:0:0:
307,372,24953,1,0,0:0:0:0:
193,344,25101,2,0,P|184:290|145:252,1,111.999996582031,2|2,0:0|0:0,0:0:0:0:
281,133,25695,1,2,0:0:0:0:
208,175,25844,1,2,0:0:0:0:
128,148,25992,6,0,P|119:98|141:37,1,111.999996582031,2|0,1:2|0:0,0:0:0:0:
216,9,26438,2,0,B|252:13|270:28|270:28|299:36|331:19,1,111.999996582031,2|2,0:0|0:0,0:0:0:0:
400,99,26883,2,0,B|376:153|376:153|396:208,2,111.999996582031,2|2|2,0:0|0:0|0:0,0:0:0:0:
469,156,27626,1,2,0:0:0:0:
294,213,27774,6,0,P|273:264|297:318,1,111.999996582031,2|2,1:2|0:0,0:0:0:0:
384,369,28220,2,0,P|395:345|394:313,1,55.9999982910157,0|2,0:0|0:0,0:0:0:0:
394,315,28517,1,0,0:0:0:0:
468,234,28665,2,0,P|438:181|439:128,1,111.999996582031,2|2,0:0|0:0,0:0:0:0:
215,73,29259,2,0,P|210:104|198:129,1,55.9999982910157,2|2,0:0|0:0,0:0:0:0:
117,210,29556,6,0,P|174:213|210:253,1,111.999996582031,2|2,1:2|0:0,0:0:0:0:
252,332,30002,2,0,P|223:342|190:340,1,55.9999982910157,2|0,0:0|0:0,0:0:0:0:
314,249,30299,1,0,0:0:0:0:
263,181,30448,2,0,P|250:124|277:68,1,111.999996582031,2|2,0:0|0:0,0:0:0:0:
495,132,31042,1,2,0:0:0:0:
419,168,31191,1,2,0:0:0:0:
343,134,31339,6,0,L|332:249,1,111.999996582031,2|2,1:2|0:0,0:0:0:0:
252,325,31784,2,0,L|241:270,1,55.9999982910157,0|2,0:0|0:0,0:0:0:0:
129,268,32081,1,0,0:0:0:0:
129,268,32230,2,0,P|152:221|142:156,1,111.999996582031,2|2,0:0|0:0,0:0:0:0:
330,51,32824,2,0,P|323:81|333:115,1,55.9999982910157,2|2,0:0|0:0,0:0:0:0:
411,198,33121,6,0,P|431:253|413:308,1,111.999996582031,2|2,1:2|0:0,0:0:0:0:
345,347,33566,1,0,0:0:0:0:
345,347,33715,2,0,L|284:339,1,55.9999982910157,2|0,0:0|0:0,0:0:0:0:
171,259,34012,2,0,L|288:250,1,111.999996582031,2|2,0:0|0:0,0:0:0:0:
426,356,34606,1,2,0:0:0:0:
377,127,34903,5,4,0:0:0:0:
282,250,35200,1,8,0:0:0:0:
260,168,35497,1,8,0:0:0:0:
409,127,35794,5,4,0:0:0:0:
259,263,36091,1,8,0:0:0:0:
250,153,36388,1,8,0:0:0:0:
86,82,36685,5,4,0:0:0:0:
183,218,36982,1,8,0:0:0:0:
118,299,37279,1,8,0:0:0:0:
53,69,37577,6,0,P|45:100|48:129,1,55.9999982910157,12|8,0:0|2:3,0:0:0:0:
92,194,37873,2,0,P|100:220|98:248,1,55.9999982910157,8|8,0:0|2:3,0:0:0:0:
60,325,38170,1,8,0:0:0:0:
355,259,38467,5,4,0:0:0:0:
189,124,38764,1,8,0:0:0:0:
199,246,39061,1,8,0:0:0:0:
384,245,39358,5,4,0:0:0:0:
160,120,39655,1,8,0:0:0:0:
197,262,39952,1,8,0:0:0:0:
346,86,40250,5,4,0:0:0:0:
296,282,40547,2,0,L|288:253,1,27.9999991455078,8|8,0:0|0:0,0:0:0:0:
182,86,40844,2,0,L|173:171,1,74.6666643880209,8|0,0:0|0:0,0:0:0:0:
73,243,41141,5,12,0:0:0:0:
147,193,41289,1,8,2:3:0:0:
236,183,41438,1,8,0:0:0:0:
322,203,41586,1,8,2:3:0:0:
394,256,41735,1,8,0:0:0:0:
434,335,41883,1,8,2:3:0:0:
303,359,42032,5,4,0:0:0:0:
410,167,42329,1,8,0:0:0:0:
266,197,42626,1,8,0:0:0:0:
323,377,42923,5,4,0:0:0:0:
405,141,43220,1,8,0:0:0:0:
250,203,43517,1,8,0:0:0:0:
64,109,43814,5,4,0:0:0:0:
250,203,44111,1,8,0:0:0:0:
225,211,44210,1,8,2:3:0:0:
199,204,44309,1,8,2:3:0:0:
122,215,44408,5,8,0:0:0:0:
80,199,44507,1,8,2:3:0:0:
71,158,44606,1,8,2:3:0:0:
96,124,44705,5,12,0:0:0:0:
96,124,44804,2,0,L|130:117,1,27.9999991455078,8|8,2:3|2:3,0:0:0:0:
202,65,45002,5,8,0:0:0:0:
262,286,45299,1,8,0:0:0:0:
69,198,45596,5,4,0:0:0:0:
374,153,45893,1,8,0:0:0:0:
262,286,46190,1,8,0:0:0:0:
198,42,46487,5,4,0:0:0:0:
262,286,46784,1,8,0:0:0:0:
112,220,47081,1,8,0:0:0:0:
339,370,47378,5,4,0:0:0:0:
284,146,47675,1,8,0:0:0:0:
437,213,47972,1,8,0:0:0:0:
313,378,48269,5,4,0:0:0:0:
232,354,48418,1,0,0:0:0:0:
151,330,48566,5,8,0:0:0:0:
284,146,48863,1,8,0:0:0:0:
153,172,49012,2,0,L|159:197,2,18.6666660970052,8|8|8,0:0|0:0|0:0,0:0:0:0:
130,151,49160,6,0,P|121:85|168:34,1,136.000002593994,0|0,1:2|0:0,0:0:0:0:
284,146,49606,2,0,L|268:289,1,136.000002593994,8|2,0:0|0:0,0:0:0:0:
323,350,50052,5,2,0:0:0:0:
43,221,50349,2,0,L|136:208,1,92.0000017547608,2|0,0:0|0:0,0:0:0:0:
383,159,50646,2,0,L|284:146,1,100,2|0,0:0|0:0,0:0:0:0:
179,10,50943,6,0,L|195:149,1,136.000002593994,0|2,1:2|0:0,0:0:0:0:
194,145,51388,1,2,0:0:0:0:
78,293,51685,1,8,0:0:0:0:
78,293,51834,2,0,L|81:226,1,68.0000012969971,2|2,0:0|0:0,0:0:0:0:
198,149,52131,2,0,L|195:216,1,68.0000012969971,2|2,0:0|0:0,0:0:0:0:
441,335,52576,5,2,0:0:0:0:
304,339,52725,2,0,L|321:194,1,136.000002593994,0|0,1:2|0:0,0:0:0:0:
200,215,53170,1,2,0:0:0:0:
200,215,53319,1,2,1:2:0:0:
324,194,53467,1,8,0:0:0:0:
392,300,53616,5,2,0:0:0:0:
111,178,53913,1,2,0:0:0:0:
396,190,54210,1,2,0:0:0:0:
106,287,54507,6,0,P|172:262|233:282,1,136.000002593994,0|2,1:2|0:0,0:0:0:0:
276,349,54953,1,2,0:0:0:0:
220,116,55250,1,2,0:0:0:0:
220,116,55398,2,0,P|206:150|208:182,1,68.0000012969971,8|2,0:0|0:0,0:0:0:0:
212,202,55621,2,0,P|216:221|213:241,1,34.0000006484985,2|2,0:0|0:0,0:0:0:0:
50,353,55992,2,0,P|43:319|51:283,1,68.0000012969971,2|2,0:0|0:0,0:0:0:0:
125,192,56289,6,0,B|167:190|167:190|209:220|209:220|230:213|272:207,1,136.000002593994,0|0,1:2|0:0,0:0:0:0:
138,281,56735,1,8,0:0:0:0:
220,89,57032,1,0,0:0:0:0:
220,89,57180,6,0,L|225:181,1,92.0000017547608,2|0,0:0|0:0,0:0:0:0:
270,380,57477,2,0,L|275:280,1,100,2|0,0:0|0:0,0:0:0:0:
111,81,57774,2,0,L|104:193,1,108.000000411987,2|0,0:0|0:0,0:0:0:0:
388,372,58071,6,0,L|380:237,1,136.000002593994,2|0,1:2|0:0,0:0:0:0:
379,236,58517,1,0,1:2:0:0:
299,246,58665,1,2,0:0:0:0:
217,256,58814,1,8,0:0:0:0:
108,132,58962,1,2,1:2:0:0:
108,132,59259,6,0,P|192:106|235:177,1,180.000006866455,2|0,0:0|0:0,0:0:0:0:
217,256,59556,2,0,L|90:247,1,120.000004577637,2|2,0:0|0:0,0:0:0:0:
31,307,59779,1,2,0:0:0:0:
32,324,59853,6,0,P|101:265|38:140,1,240.000009155274,2|2,1:2|0:0,0:0:0:0:
225,283,60299,1,8,0:0:0:0:
12,231,60448,1,0,0:0:0:0:
12,231,60596,1,2,0:0:0:0:
317,184,60745,2,0,L|431:166,1,95.9999970703126,0|2,1:2|0:0,0:0:0:0:
129,103,61042,2,0,L|15:85,1,95.9999970703126,8|0,0:0|0:0,0:0:0:0:
268,37,61339,1,2,0:0:0:0:
188,256,61487,1,2,0:0:0:0:
27,102,61636,6,0,B|46:231|46:231|15:288|15:288|24:334,1,240.000009155274,0|2,1:2|0:0,0:0:0:0:
252,272,62081,2,0,B|199:276|167:235|167:235|123:247|103:308,1,191.999994140625,8|2,0:0|0:0,0:0:0:0:
331,322,62527,2,0,P|346:279|332:223,1,95.9999970703126,0|2,1:2|0:0,0:0:0:0:
200,74,62824,1,2,0:0:0:0:
239,192,62972,1,2,0:0:0:0:
431,116,63121,1,2,0:0:0:0:
252,272,63269,1,0,0:0:0:0:
406,356,63418,6,0,B|423:198|423:198|467:278,1,240.000009155274,0|2,1:2|0:0,0:0:0:0:
251,288,63863,2,0,L|239:192,1,95.9999970703126,8|2,0:0|0:0,0:0:0:0:
462,269,64160,1,2,0:0:0:0:
333,240,64309,1,0,1:2:0:0:
333,240,64457,1,2,0:0:0:0:
269,380,64606,2,0,B|323:350|323:350|457:366,1,191.999994140625,2|2,0:0|0:0,0:0:0:0:
452,365,65052,1,2,0:0:0:0:
477,172,65200,6,0,B|312:151|312:151|226:198,1,240.000009155274,0|2,1:2|0:0,0:0:0:0:
337,266,65646,1,8,0:0:0:0:
293,65,65943,5,2,0:0:0:0:
333,240,66091,2,0,L|434:253,1,95.9999970703126,0|2,1:2|0:0,0:0:0:0:
212,94,66388,1,2,3:2:0:0:
184,105,66462,1,2,3:2:0:0:
163,123,66536,1,2,3:2:0:0:
147,148,66610,1,2,3:2:0:0:
113,173,66686,6,0,L|70:166,1,23.9999992675781,2|2,3:2|3:2,0:0:0:0:
106,202,66759,1,2,3:2:0:0:
107,234,66833,1,2,3:2:0:0:
118,263,66907,1,2,3:2:0:0:
150,284,66982,6,0,B|311:265|311:265|226:233,1,240.000009155274,0|2,1:2|0:0,0:0:0:0:
34,181,67428,2,0,B|21:228|21:228|41:280,1,95.9999970703126,8|0,0:0|0:0,0:0:0:0:
159,384,67725,1,2,0:0:0:0:
321,267,67873,5,0,1:2:0:0:
113,224,68022,1,2,0:0:0:0:
252,353,68170,2,0,L|246:257,1,95.9999970703126,2|0,0:0|0:0,0:0:0:0:
124,33,68467,2,0,L|117:144,1,108.000000411987,2|2,0:0|0:0,0:0:0:0:
343,347,68764,6,0,B|412:275|330:202|330:202|305:232|264:231,1,240.000009155274,2|0,1:2|0:0,0:0:0:0:
117,140,69210,2,0,L|218:150,1,95.9999970703126,8|0,0:0|0:0,0:0:0:0:
332,51,69507,1,2,0:0:0:0:
425,212,69655,2,0,L|329:202,1,95.9999970703126,0|2,1:2|0:0,0:0:0:0:
128,295,69953,1,2,0:0:0:0:
260,266,70101,1,2,0:0:0:0:
161,206,70250,1,2,0:0:0:0:
210,340,70398,1,0,0:0:0:0:
263,156,70547,6,0,B|182:157|161:206|161:206|223:215|260:266,1,240.000009155274,0|2,1:2|0:0,0:0:0:0:
159,325,70992,1,8,0:0:0:0:
338,216,71141,2,0,L|433:226,1,95.9999970703126,2|2,1:2|0:0,0:0:0:0:
262,70,71438,2,0,L|167:80,1,95.9999970703126,0|2,1:2|0:0,0:0:0:0:
51,205,71735,1,8,0:0:0:0:
146,84,71883,1,2,0:0:0:0:
227,274,72032,1,2,0:0:0:0:
227,274,72180,1,2,0:0:0:0:
347,111,72329,6,0,B|324:179|324:179|363:267|363:267|341:336,1,240.000009155274,0|2,1:2|0:0,0:0:0:0:
132,283,72774,2,0,L|228:274,1,95.9999970703126,8|0,0:0|0:0,0:0:0:0:
456,174,73071,1,2,0:0:0:0:
248,21,73220,2,0,P|250:69|257:120,1,95.9999970703126,0|2,1:0|0:0,0:0:0:0:
341,335,73517,5,2,3:2:0:0:
367,315,73591,1,2,3:2:0:0:
384,286,73665,1,2,3:2:0:0:
390,252,73740,1,2,3:2:0:0:
415,219,73814,6,0,L|450:224,1,23.9999992675781,2|2,3:2|3:2,0:0:0:0:
407,186,73888,1,0,3:2:0:0:
388,158,73962,1,2,3:2:0:0:
361,136,74037,1,2,3:2:0:0:
344,98,74111,6,0,P|250:181|310:249,1,240.000009155274,2|2,1:2|0:0,0:0:0:0:
488,151,74556,1,8,0:0:0:0:
331,177,74705,1,0,0:0:0:0:
331,177,74853,1,2,0:0:0:0:
475,330,75002,2,0,L|461:226,1,95.9999970703126,0|2,1:2|0:0,0:0:0:0:
418,44,75299,2,0,L|405:139,1,95.9999970703126,8|0,0:0|0:0,0:0:0:0:
336,284,75596,1,2,0:0:0:0:
491,161,75745,1,2,0:0:0:0:
496,375,75893,6,0,P|410:328|273:359,1,240.000009155274,0|2,1:2|0:0,0:0:0:0:
102,316,76339,2,0,B|145:289|191:309|191:309|223:351|276:356,1,191.999994140625,8|2,0:0|0:0,0:0:0:0:
402,253,76784,2,0,P|352:250|288:269,1,95.9999970703126,0|2,1:2|0:0,0:0:0:0:
149,382,77081,1,2,0:0:0:0:
216,217,77230,1,0,0:0:0:0:
364,356,77378,1,2,0:0:0:0:
167,293,77527,1,0,0:0:0:0:
373,225,77676,6,0,B|402:283|464:299|464:299|403:303|364:356,1,240.000009155274,0|2,1:2|0:0,0:0:0:0:
279,285,78122,1,8,0:0:0:0:
474,203,78270,2,0,L|460:100,1,95.9999970703126,2|2,0:0|0:0,0:0:0:0:
279,181,78567,1,0,1:2:0:0:
373,225,78716,1,2,0:0:0:0:
485,202,78864,2,0,B|466:65|466:65|510:111,1,191.999994140625,2|2,0:0|0:0,0:0:0:0:
440,318,79310,1,2,0:0:0:0:
279,181,79458,6,0,P|165:196|133:309,1,240.000009155274,0|2,1:2|0:0,0:0:0:0:
235,278,79904,1,8,0:0:0:0:
177,102,80201,5,2,0:0:0:0:
235,278,80350,2,0,B|189:260|189:260|141:271,1,95.9999970703126,0|2,1:2|0:0,0:0:0:0:
3,143,80647,1,2,3:2:0:0:
35,135,80721,1,2,3:2:0:0:
68,127,80795,1,2,3:2:0:0:
101,120,80869,1,2,3:2:0:0:
140,136,80944,6,0,L|148:167,1,23.9999992675781,2|2,3:2|3:2,0:0:0:0:
172,128,81018,1,2,3:2:0:0:
205,120,81092,1,2,3:2:0:0:
238,113,81166,1,2,3:2:0:0:
277,129,81241,6,0,P|205:217|286:301,1,240.000009155274,0|2,1:2|0:0,0:0:0:0:
454,244,81686,1,8,0:0:0:0:
296,218,81835,1,0,0:0:0:0:
296,218,81983,1,2,0:0:0:0:
471,345,82132,2,0,L|483:250,1,95.9999970703126,0|2,1:2|0:0,0:0:0:0:
358,73,82429,2,0,L|369:168,1,95.9999970703126,2|0,0:0|0:0,0:0:0:0:
274,299,82726,1,2,0:0:0:0:
174,141,82874,1,2,0:0:0:0:
451,90,83023,6,0,B|465:208|465:208|421:253|421:253|431:320,1,240.000009155274,0|2,1:2|0:0,0:0:0:0:
286,377,83468,2,0,L|270:270,1,95.9999970703126,8|0,0:0|0:0,0:0:0:0:
133,138,83765,1,2,0:0:0:0:
56,299,83914,2,0,L|150:285,1,95.9999970703126,0|2,1:2|0:0,0:0:0:0:
355,325,84211,5,2,0:0:0:0:
259,260,84359,5,2,0:0:0:0:
233,157,84508,5,0,1:2:0:0:
274,70,84656,5,2,0:0:0:0:
354,37,84805,5,0,1:2:0:0:
363,38,85696,5,0,1:2:0:0:
372,40,86587,5,0,1:2:0:0:
259,260,87552,5,0,1:0:0:0:
215,45,87825,5,0,1:0:0:0:
411,162,88122,5,0,1:0:0:0:
155,246,88369,6,0,L|128:255,1,15.9999995117188,0|0,1:0|0:0,0:0:0:0:
257,132,88666,1,0,1:0:0:0:
283,277,88963,1,0,1:0:0:0:
81,185,89260,6,0,L|61:178,1,15.9999995117188,0|0,1:0|0:0,0:0:0:0:
257,132,89557,1,0,1:0:0:0:
200,371,89854,1,0,1:0:0:0:
155,246,90152,5,0,1:0:0:0:
375,301,90449,1,0,1:0:0:0:
255,315,90746,1,0,1:0:0:0:
295,146,91043,5,0,1:0:0:0:
256,192,91117,12,0,93642,1:0:0:0:
160,293,93716,5,0,1:0:0:0:
163,297,94013,2,0,L|279:287,1,111.999996582031,2|2,0:0|0:0,0:0:0:0:
274,287,94458,1,0,0:0:0:0:
172,173,94607,6,0,L|232:180,1,55.9999982910157,8|0,0:0|0:0,0:0:0:0:
338,166,94904,2,0,L|225:179,1,111.999996582031,2|2,0:0|0:0,0:0:0:0:
226,178,95350,1,0,0:0:0:0:
278,74,95498,5,0,1:2:0:0:
381,280,95795,2,0,P|327:270|274:287,1,111.999996582031,2|2,0:0|0:0,0:0:0:0:
274,287,96241,1,0,0:0:0:0:
201,341,96389,5,8,0:0:0:0:
201,341,96538,2,0,P|173:344|142:335,1,55.9999982910157,0|2,0:0|0:0,0:0:0:0:
163,106,96983,5,2,0:0:0:0:
173,183,97132,1,8,0:0:0:0:
183,260,97280,5,0,1:2:0:0:
183,265,97577,2,0,L|296:252,1,111.999996582031,2|2,0:0|0:0,0:0:0:0:
294,252,98023,1,0,0:0:0:0:
162,355,98171,6,0,L|90:346,1,55.9999982910157,10|0,0:0|0:0,0:0:0:0:
81,247,98468,2,0,P|75:302|106:348,1,111.999996582031,2|2,0:0|0:0,0:0:0:0:
81,247,99062,1,0,1:0:0:0:
229,139,99359,5,2,0:0:0:0:
229,139,99508,1,0,0:0:0:0:
169,211,99656,2,0,L|178:267,1,55.9999982910157,2|0,0:0|0:0,0:0:0:0:
301,199,99953,6,0,L|357:190,1,55.9999982910157,8|0,0:0|0:0,0:0:0:0:
289,67,100251,2,0,L|280:11,1,55.9999982910157,2|0,0:0|0:0,0:0:0:0:
157,79,100548,2,0,L|101:88,1,55.9999982910157,2|8,0:0|0:0,0:0:0:0:
229,139,100845,5,0,1:0:0:0:
233,142,101142,2,0,P|251:198|231:260,1,111.999996582031,2|2,0:0|0:0,0:0:0:0:
238,248,101587,1,0,0:0:0:0:
121,297,101736,6,0,P|150:294|182:307,1,55.9999982910157,8|0,0:0|0:0,0:0:0:0:
276,321,102033,2,0,P|222:329|175:302,1,111.999996582031,2|2,0:0|0:0,0:0:0:0:
168,87,102627,5,0,0:0:0:0:
172,91,102924,2,0,P|219:63|273:71,1,111.999996582031,2|2,0:0|0:0,0:0:0:0:
273,71,103369,1,0,0:0:0:0:
356,152,103518,6,0,L|348:214,1,55.9999982910157
281,296,103815,1,2,0:0:0:0:
260,220,103963,1,0,0:0:0:0:
183,151,104112,1,2,0:0:0:0:
162,227,104260,1,8,0:0:0:0:
73,281,104409,5,0,1:0:0:0:
75,276,104706,2,0,P|82:215|43:172,1,111.999996582031,2|2,0:0|0:0,0:0:0:0:
52,177,105152,1,0,0:0:0:0:
166,133,105300,6,0,B|181:127|181:127|208:129|208:129|225:121,1,55.9999982910157,8|0,0:0|0:0,0:0:0:0:
174,234,105597,2,0,B|189:240|189:240|216:238|216:238|227:243,1,55.9999982910157,2|0,0:0|0:0,0:0:0:0:
160,115,105894,1,2,0:0:0:0:
168,252,106191,5,0,1:0:0:0:
406,194,106488,2,0,L|286:185,1,111.999996582031,2|2,0:0|0:0,0:0:0:0:
294,185,106934,1,0,0:0:0:0:
236,288,107082,6,0,L|306:282,1,55.9999982910157,8|0,0:0|0:0,0:0:0:0:
374,324,107379,1,2,0:0:0:0:
374,324,107528,1,0,0:0:0:0:
367,238,107676,1,2,0:0:0:0:
367,238,107825,1,8,0:0:0:0:
291,283,107973,5,0,1:0:0:0:
288,288,108270,2,0,L|167:278,1,111.999996582031,2|2,0:0|0:0,0:0:0:0:
176,278,108716,1,0,0:0:0:0:
74,336,108864,6,0,L|63:277,1,55.9999982910157,8|0,0:0|0:0,0:0:0:0:
83,169,109161,2,0,L|63:280,1,111.999996582031,2|2,0:0|0:0,0:0:0:0:
299,198,109755,5,0,1:0:0:0:
295,202,110052,2,0,P|275:255|299:315,1,111.999996582031,2|2,0:0|0:0,0:0:0:0:
291,305,110498,1,0,0:0:0:0:
393,257,110647,6,0,L|452:262,1,55.9999982910157,8|0,0:0|0:0,0:0:0:0:
297,190,110944,2,0,L|177:200,1,111.999996582031,2|2,0:0|0:0,0:0:0:0:
185,199,111389,1,8,0:0:0:0:
295,309,111538,5,0,1:0:0:0:
290,312,111835,2,0,P|237:324|173:312,1,111.999996582031,2|2,0:0|0:0,0:0:0:0:
180,315,112280,1,0,0:0:0:0:
85,239,112429,6,0,L|77:300,1,55.9999982910157,8|0,0:0|0:0,0:0:0:0:
185,199,112726,2,0,L|169:81,1,111.999996582031,2|2,0:0|0:0,0:0:0:0:
290,312,113320,5,0,1:0:0:0:
292,307,113617,2,0,L|324:194,1,111.999996582031,2|2,0:0|0:0,0:0:0:0:
322,199,114062,1,0,0:0:0:0:
207,233,114211,6,0,L|201:172,1,55.9999982910157,8|0,0:0|0:0,0:0:0:0:
201,177,114508,1,2,0:0:0:0:
78,283,114805,1,2,0:0:0:0:
86,204,114953,1,8,0:0:0:0:
96,126,115102,5,0,1:0:0:0:
256,192,115176,12,0,118666,0:0:0:0:
