osu file format v14

[General]
AudioFilename: audio.mp3
AudioLeadIn: 0
PreviewTime: 200116
Countdown: 0
SampleSet: Soft
StackLeniency: 0.5
Mode: 0
LetterboxInBreaks: 0
WidescreenStoryboard: 1

[Editor]
Bookmarks: 17210,35054,52862,73645,93853,111674,133049,153852,168778,168853,168928,169003,169078,169152,169227,169302,169377,169452,169526,169601,169676,169751,169826,169901,169975,170050,170125,170200,170275,170349,170424,170499,170574,170649,170723,170798,170873,170948,171023,171098,171172,171247,171322,171397,171472,171546,171621,171696,171771,171846,171920,171995,172070,172145,172220,172295,172366,172437,172509,172580,172652,172723,172795,172866,172937,173009,173080,173152,173226,173301,173375,173450,173525,173599,173674,173749,173823,173898,173972,174047,174122,174196,174271,174346,174420,174495,174569,174644,174719,174793,174868,174943,175017,175092,175166,175241,175316,175390,175465,175540,175614,175689,175763,175838,175912,175986,176060,176134,176208,176282,176356,176430,176504,176578,176652,176726,176800,176875,176949,177023,177097,177171,177245,177319,177393,177467,177541,177615,177689,177763,177838,177912,177986,178060,178134,178208,178282,178356,178430,178504,178578,178652,178726,178800,178875,178949,179023,179097,179171,179245,179319,179393,179467,179541,179615,179689,179763,179838,179912,179986,180060,180134,180208,180282,180356,180430,180504,180578,180652,180726,180800,180875,180949,181023,181097,181171,181245,181319,181393,181467,181541,181615,181689,181763,181838,181912,181986,182060,182134,182208,182282,182356,182430,182504,182578,182652,182726,182800,182875,182949,214450,232866,250674
DistanceSpacing: 0.4
BeatDivisor: 4
GridSize: 16
TimelineZoom: 2.599999

[Metadata]
Title:Tsubasa o Motanai Shoujo
TitleUnicode:翼を持たない少女
Artist:Shimotsuki Haruka
ArtistUnicode:霜月はるか
Creator:Tsumugi-chan
Version:Mugi x Cami's Eden
Source:翠の海 -midori no umi-
Tags:japanese pop eroge visual novel opening manyo cabbit cami
BeatmapID:2362011
BeatmapSetID:1130763

[Difficulty]
HPDrainRate:6
CircleSize:4.2
OverallDifficulty:8.2
ApproachRate:9.1
SliderMultiplier:1.4
SliderTickRate:1

[Events]
//Background and Video events
0,0,"72787231_p0.jpg",0,0
//Break Periods
2,6718,9350
2,92279,93121
2,168903,182663
2,257792,259004
//Storyboard Layer 0 (Background)
//Storyboard Layer 1 (Fail)
//Storyboard Layer 2 (Pass)
//Storyboard Layer 3 (Foreground)
//Storyboard Layer 4 (Overlay)
//Storyboard Sound Samples

[TimingPoints]
578,297.029702970297,6,2,4,30,1,0
578,-500,6,2,4,30,0,0
875,-333.333333333333,6,2,4,30,0,0
1172,297.029702970297,6,2,4,30,1,0
1172,-263.157894736842,6,2,4,30,0,0
1320,-250,6,2,4,5,0,0
2459,-500,6,2,4,30,0,0
2954,-250,6,2,4,30,0,0
3102,-250,6,2,4,5,0,0
4142,-500,6,2,4,30,0,0
4439,-333.333333333333,6,2,4,30,0,0
4736,-500,6,2,4,30,0,0
5330,-250,6,2,4,30,0,0
6518,-1000,6,2,4,30,0,0
9934,-1000,6,2,4,30,0,0
10082,297.029702970297,6,2,4,40,1,0
10082,-125,6,2,4,40,0,0
33250,300,6,2,4,40,1,0
33250,-125,6,2,4,40,0,0
34150,303.030303030303,6,2,4,40,1,0
34150,-125,6,2,4,40,0,0
34756,298.507462686567,6,2,4,40,1,0
35054,294.117647058824,6,2,4,40,1,0
35054,-166.666666666667,6,2,4,40,0,0
35936,295.566502463054,6,2,4,40,1,0
36231,-200,6,2,4,40,0,0
38596,296.296296296296,6,2,4,40,1,0
38596,-166.666666666667,6,2,4,40,0,0
39484,298.507462686567,6,2,4,40,1,0
39484,-200,6,2,4,40,0,0
40379,-166.666666666667,6,2,4,40,0,0
42170,297.029702970297,6,2,4,40,1,0
42170,-200,6,2,4,40,0,0
43358,-333.333333333333,6,2,4,40,0,0
43655,-250,6,2,4,40,0,0
43952,-200,6,2,4,40,0,0
49298,-125,6,2,4,50,0,0
50189,-90.9090909090909,6,2,4,50,0,0
50486,-125,6,2,4,50,0,0
53753,-90.9090909090909,6,2,4,50,0,0
54050,-125,6,2,4,50,0,0
55535,-100,6,2,4,50,0,0
55832,-125,6,2,4,50,0,0
57317,-100,6,2,4,50,0,0
58654,-133.333333333333,6,2,4,50,0,0
59099,-285.714285714284,6,2,4,50,0,0
59397,292.682926829268,6,2,4,50,1,0
59397,-80,6,2,4,50,0,0
59982,297.029702970297,6,2,4,40,1,0
59982,-80,6,2,1,60,0,0
60576,-100,6,2,1,60,0,0
61170,-125,6,2,1,60,0,0
61764,-80,6,2,1,60,0,0
62209,-100,6,2,1,60,0,0
63546,-80,6,2,1,60,0,0
64140,-100,6,2,1,60,0,0
64734,-125,6,2,1,60,0,0
65328,-83.3333333333333,6,2,1,60,0,0
65774,-111.111111111111,6,2,1,60,0,0
66219,-125,6,2,1,60,0,0
67110,-80,6,2,1,60,0,0
67556,-100,6,2,1,60,0,0
68892,-80,6,2,1,60,0,0
69338,-100,6,2,1,60,0,0
70675,-80,6,2,1,60,0,0
71566,-90.9090909090909,6,2,1,60,0,0
71863,-100,6,2,1,60,0,0
72457,-80,6,2,1,60,0,0
73051,-100,6,2,1,60,0,0
74239,-80,6,2,1,60,0,0
74833,-100,6,2,1,60,0,0
75427,-125,6,2,1,60,0,0
76021,-80,6,2,1,60,0,0
76467,-100,6,2,1,60,0,0
77803,-80,6,2,1,60,0,0
78397,-100,6,2,1,60,0,0
78991,-80,6,2,1,60,0,0
79288,-76.9230769230769,6,2,1,60,0,0
79585,-111.111111111111,6,2,1,60,0,0
80031,-90.9090909090909,6,2,1,60,0,0
80477,-125,6,2,1,60,0,0
81368,-80,6,2,1,60,0,0
82556,-125,6,2,1,60,0,0
83150,-100,6,2,1,60,0,0
84932,300,6,2,4,40,1,0
85232,-500,6,2,4,40,0,0
85532,-333.333333333333,6,2,4,40,0,0
86132,-166.666666666667,6,2,4,40,0,0
86732,307.692307692308,6,2,4,40,1,0
86732,-250,6,2,4,40,0,0
87655,292.682926829268,6,2,4,40,1,0
87655,-500,6,2,4,40,0,0
87947,-333.333333333333,6,2,4,40,0,0
88240,-250,6,2,4,40,0,0
88533,295.566502463054,6,2,4,40,1,0
88533,-500,6,2,4,40,0,0
88828,-500,6,2,4,40,0,0
89419,-250,6,2,4,40,0,0
89715,-250,6,2,4,40,0,0
93853,297.029702970297,6,2,4,40,1,0
93853,-117.647058823529,6,2,4,45,0,0
106328,-100,6,2,4,45,0,0
107070,-117.647058823529,6,2,4,45,0,0
107516,-285.714285714286,6,2,4,45,0,0
108110,-105.263157894737,6,2,4,45,0,0
111377,-133.333333333333,6,2,4,45,0,0
111674,-105.263157894737,6,2,4,45,0,0
112862,-100,6,2,4,45,0,0
114348,-111.111111111111,6,2,4,45,0,0
115239,-83.3333333333333,6,2,4,45,0,0
115833,-125,6,2,4,45,0,0
116427,-100,6,2,4,45,0,0
117021,-111.111111111111,6,2,4,45,0,0
117912,296.589223924864,6,2,4,45,1,0
117912,-83.3333333333333,6,2,4,45,0,0
118208,296.150049358342,6,2,4,45,1,0
118208,-76.9230769230769,6,2,4,45,0,0
118504,298.656047784968,6,2,4,45,1,0
118504,-133.333333333333,6,2,4,45,0,0
118802,295.566502463054,6,2,4,40,1,0
119097,-200,6,2,4,40,0,0
119688,-142.857142857143,6,2,4,40,0,0
120575,-200,6,2,4,40,0,0
122348,297.767462686567,6,2,4,40,1,0
122348,-166.666666666667,6,2,4,40,0,0
124134,-200,6,2,4,40,0,0
125921,297.029702970297,6,2,4,40,1,0
125921,-166.666666666667,6,2,4,40,0,0
126812,-200,6,2,4,40,0,0
127109,-333.333333333333,6,2,4,40,0,0
127406,-250,6,2,4,40,0,0
127703,-166.666666666667,6,2,4,40,0,0
129188,-200,6,2,4,40,0,0
129485,-166.666666666667,6,2,4,40,0,0
130376,-200,6,2,4,40,0,0
130673,-166.666666666667,6,2,4,40,0,0
132455,-142.857142857143,6,2,4,40,0,0
133049,-100,6,2,4,50,0,0
138990,-76.9230769230769,6,2,4,50,0,0
139287,-111.111111111111,6,2,4,50,0,0
140178,-90.9090909090909,6,2,4,50,0,0
140772,-111.111111111111,6,2,4,50,0,0
141069,-133.333333333333,6,2,4,50,0,0
141366,-117.647058823529,6,2,4,50,0,0
141960,299.25187032419,6,2,4,50,1,0
143157,298.136645962733,6,2,1,60,1,0
143753,297.029702970297,6,2,1,60,1,0
143753,-76.9230769230769,6,2,1,60,0,0
144347,-111.111111111111,6,2,1,60,0,0
144644,-83.3333333333333,6,2,1,60,0,0
144941,-111.111111111111,6,2,1,60,0,0
145535,-76.9230769230769,6,2,1,60,0,0
146426,-76.9230769230769,6,2,1,60,0,0
147911,-111.111111111111,6,2,1,60,0,0
148208,-90.9090909090908,6,2,1,60,0,0
149099,-76.9230769230769,6,2,1,60,0,0
149545,-133.333333333333,6,2,1,60,0,0
149990,-100,6,2,1,60,0,0
150881,-76.9230769230769,6,2,1,60,0,0
151327,-100,6,2,1,60,0,0
152069,-166.666666666667,6,2,1,60,0,0
152366,-83.3333333333333,6,2,1,60,0,0
152663,-76.9230769230769,6,2,1,60,0,0
153554,-100,6,2,1,60,0,0
155337,-76.9230769230769,6,2,1,60,0,0
155634,-100,6,2,1,60,0,0
156228,-83.3333333333333,6,2,1,60,0,0
156822,-100,6,2,1,60,0,0
158010,-83.3333333333333,6,2,1,60,0,0
158604,-100,6,2,1,60,0,0
159792,-80,6,2,1,60,0,0
160238,-100,6,2,1,60,0,0
161574,-83.3333333333333,6,2,1,60,0,0
162168,-100,6,2,1,60,0,0
162762,-80,6,2,1,60,0,0
163356,-100,6,2,1,60,0,0
163802,-90.9090909090909,6,2,1,60,0,0
164248,-125,6,2,1,60,0,0
165139,-83.3333333333333,6,2,1,60,0,0
166327,-125,6,2,1,60,0,0
166921,-100,6,2,1,60,0,0
167515,-111.111111111111,6,2,1,60,0,0
167812,-83.3333333333333,6,2,1,60,0,0
168109,-142.857142857143,6,2,1,60,0,0
168406,-250,6,2,1,60,0,0
168704,299.25187032419,6,2,4,40,1,0
172295,285.714285714286,6,2,4,40,1,0
173152,298.507462686567,6,2,4,40,1,0
175838,296.296296296296,6,2,4,40,1,0
182949,298.507462686567,6,2,4,40,1,0
183247,-142.857142857143,6,2,4,40,0,0
184740,-200,6,2,4,40,0,0
185038,-250,6,2,4,40,0,0
185337,-400,6,2,4,40,0,0
186531,-250,6,2,4,40,0,0
188322,297.766749379653,6,2,4,40,1,0
188322,-200,6,2,4,40,0,0
189215,-166.666666666667,6,2,4,40,0,0
190108,297.029702970297,6,2,4,40,1,0
190108,-142.857142857143,6,2,4,40,0,0
190405,-166.666666666667,6,2,4,40,0,0
191296,-200,6,2,4,40,0,0
191890,-333.333333333333,6,2,4,40,0,0
193672,296.296296296296,6,2,4,40,1,0
193672,-250,6,2,4,40,0,0
195005,-333.333333333333,6,2,4,40,0,0
195449,-250,6,2,4,40,0,0
196338,-190.47619047619,6,2,4,40,0,0
197227,-256.410256410256,6,2,4,40,0,0
199005,-178.571428571429,6,2,4,40,0,0
200486,348.837209302326,6,2,4,30,1,0
200660,272.727272727273,6,2,4,30,1,0
200796,295.566502463054,6,2,4,30,1,0
202569,297.029702970297,6,2,4,30,1,0
204351,295.566502463054,6,2,4,30,1,0
206124,298.507462686567,6,2,4,30,1,0
207019,291.26213592233,6,2,4,30,1,0
207601,315.789473684211,6,2,4,30,1,0
207916,297.029702970297,6,2,4,40,1,0
207916,-142.857142857143,6,2,4,40,0,0
209104,-111.111111111111,6,2,4,40,0,0
209698,-166.666666666667,6,2,4,40,0,0
210589,-250,6,2,4,40,0,0
211183,-166.666666666667,6,2,4,40,0,0
211480,-142.857142857143,6,2,4,45,0,0
212371,-200,6,2,4,45,0,0
213262,-125,6,2,4,50,0,0
214153,-250,6,2,1,70,0,0
215044,-83.3333333333333,6,2,1,70,0,0
215638,-100,6,2,1,70,0,0
216232,-83.3333333333333,6,2,1,70,0,0
216529,-100,6,2,1,70,0,0
216826,-83.3333333333333,6,2,1,70,0,0
217272,-100,6,2,1,70,0,0
218609,-76.9230769230769,6,2,1,70,0,0
219203,-100,6,2,1,70,0,0
219797,-71.4285714285714,6,2,1,70,0,0
220391,-90.9090909090909,6,2,1,70,0,0
222173,-76.9230769230769,6,2,1,70,0,0
222767,-83.3333333333333,6,2,1,70,0,0
223361,-125,6,2,1,70,0,0
223955,-83.3333333333333,6,2,1,70,0,0
224401,-125,6,2,1,70,0,0
224846,-83.3333333333333,6,2,1,70,0,0
225143,-100,6,2,1,70,0,0
225440,-100,6,2,1,70,0,0
225737,-71.4285714285714,6,2,1,70,0,0
226331,-100,6,2,1,70,0,0
226628,-83.3333333333333,6,2,1,70,0,0
226925,-100,6,2,1,70,0,0
227519,-90.9090909090909,6,2,1,70,0,0
227965,-100,6,2,1,70,0,0
228411,-90.9090909090909,6,2,1,70,0,0
229302,-100,6,2,1,70,0,0
230490,-71.4285714285714,6,2,1,70,0,0
231084,-83.3333333333333,6,2,1,70,0,0
231975,-111.111111111111,6,2,1,70,0,0
232866,-71.4285714285714,6,2,1,70,0,0
233312,-111.111111111111,6,2,1,70,0,0
233757,-100,6,2,1,70,0,0
234054,-90.9090909090909,6,2,1,70,0,0
234500,-333.333333333333,6,2,1,70,0,0
234648,-80,6,2,1,70,0,0
235094,-111.111111111111,6,2,1,70,0,0
235539,-95.2380952380952,6,2,1,70,0,0
236430,-83.3333333333333,6,2,1,70,0,0
237321,-76.9230769230769,6,2,1,70,0,0
237618,-100,6,2,1,70,0,0
238213,-80,6,2,1,70,0,0
239104,-100,6,2,1,70,0,0
239995,296.662546353523,6,2,1,70,1,0
239995,-74.0740740740741,6,2,1,70,0,0
240588,-117.647058823529,6,2,1,70,0,0
240884,-83.3333333333333,6,2,1,70,0,0
241478,-333.333333333333,6,2,1,70,0,0
241774,-76.9230769230769,6,2,1,70,0,0
242219,-125,6,2,1,70,0,0
242664,-83.3333333333333,6,2,1,70,0,0
243554,-100,6,2,1,70,0,0
244148,-76.9230769230769,6,2,1,70,0,0
244741,-86.9565217391304,6,2,1,70,0,0
245334,-83.3333333333333,6,2,1,70,0,0
245779,-111.111111111111,6,2,1,70,0,0
246224,-142.857142857143,6,2,1,70,0,0
247114,-71.4285714285714,6,2,1,70,0,0
247708,-100,6,2,1,70,0,0
248004,-117.647058823529,6,2,1,70,0,0
248894,-100,6,2,1,70,0,0
249488,-111.111111111111,6,2,1,70,0,0
250674,299.625468164794,6,2,4,40,1,0
250973,-500,6,2,4,40,0,0
251273,-333.333333333333,6,2,4,40,0,0
251872,-200,6,2,4,40,0,0
252471,-166.666666666667,6,2,4,40,0,0
253370,303.030303030303,6,2,4,40,1,0
253370,-250,6,2,4,40,0,0
253976,285.714285714286,6,2,4,40,1,0
253976,-250,6,2,4,40,0,0
254261,296.296296296296,6,2,4,40,1,0
254557,-250,6,2,4,40,0,0
256631,272.727272727273,6,2,4,40,1,0
256903,344.827586206897,6,2,4,40,1,0
257937,275.229357798165,6,2,4,40,1,0
259588,297.029702970297,6,2,4,40,1,0
259588,-142.857142857143,6,2,4,35,0,0
260479,-166.666666666667,6,2,4,35,0,0
261370,-142.857142857143,6,2,4,35,0,0
262261,-166.666666666667,6,2,4,35,0,0
266716,-166.666666666667,6,2,4,30,0,0
269389,-200,6,2,4,25,0,0
272063,-250,6,2,4,20,0,0
273251,-250,6,2,4,15,0,0
274736,-333.333333333333,6,2,4,10,0,0
280974,-333.333333333333,6,2,4,5,0,0

[Colours]
Combo1 : 214,214,235
Combo2 : 255,255,193
Combo3 : 137,137,197
Combo4 : 253,208,153
Combo5 : 200,194,216
Combo6 : 255,191,191

[HitObjects]
133,0,578,6,0,P|136:6|137:13,1,14
210,28,875,2,0,P|209:38|205:48,1,20.9999993591309
144,120,1172,6,0,B|122:133|96:174|115:222|140:235|185:243|211:191|184:169,1,199.499997564697,2|0,0:0|0:0,0:0:0:0:
188,173,2459,1,0,0:0:0:0:
16,263,2954,6,0,B|106:254|83:304|183:296,1,168,2|0,0:0|0:0,0:0:0:0:
327,351,4142,6,0,P|324:345|323:338,1,14
250,323,4439,2,0,P|250:312|254:302,1,20.9999993591309
312,216,4736,6,0,P|337:219|359:223,1,42,2|0,0:0|0:0,0:0:0:0:
422,257,5330,2,0,P|472:254|501:146,1,168
505,69,6518,5,2,0:0:0:0:
57,99,9934,5,0,0:0:0:0:
57,99,10008,1,0,0:0:0:0:
57,99,10082,2,0,B|113:91|109:123|173:114,1,112,2|0,0:0|0:0,0:0:0:0:
224,169,10527,2,0,P|257:165|287:164,1,56
337,115,10824,1,0,0:0:0:0:
512,265,10973,6,0,P|479:261|449:260,1,56,2|0,0:0|0:0,0:0:0:0:
400,310,11270,2,0,P|347:281|342:210,1,112
290,52,11715,5,0,0:0:0:0:
348,3,11864,2,0,P|343:47|336:124,1,112,2|0,0:0|0:0,0:0:0:0:
177,225,12309,6,0,P|171:169|165:113,1,112
131,45,12755,2,0,B|158:33|158:33|183:40,1,56
336,235,13052,6,0,B|281:233|287:277|219:276,1,112,2|0,0:0|0:0,0:0:0:0:
177,225,13497,1,0,0:0:0:0:
59,339,13646,6,0,P|107:346|150:289,1,112,2|0,0:0|0:0,0:0:0:0:
120,175,14091,5,0,0:0:0:0:
119,175,14240,2,0,P|105:198|101:226,1,56
234,275,14537,2,0,P|248:251|252:223,1,56
165,113,14834,6,0,P|171:169|177:225,1,112,2|0,0:0|0:0,0:0:0:0:
341,360,15280,5,0,0:0:0:0:
399,309,15428,2,0,P|404:253|411:198,1,112,2|0,0:0|0:0,0:0:0:0:
445,129,15874,2,0,B|418:117|418:117|393:124,1,56
251,223,16171,5,0,0:0:0:0:
251,223,16319,2,0,B|278:235|278:235|303:228,1,56
297,43,16616,6,0,P|292:99|285:154,1,112,2|0,0:0|0:0,0:0:0:0:
73,224,17136,5,0,0:0:0:0:
73,224,17210,2,0,P|45:227|21:241,1,56,2|0,0:0|0:0,0:0:0:0:
218,218,17507,2,0,P|229:192|230:165,1,56
150,347,17804,2,0,P|167:369|191:384,1,56
147,263,18101,6,0,P|138:206|131:145,1,112
314,94,18695,2,0,P|318:121|321:149,1,56
218,218,18992,6,0,P|277:226|330:236,1,112,2|0,0:0|0:0,0:0:0:0:
450,212,19438,5,0,0:0:0:0:
450,212,19586,2,0,P|419:193|385:192,1,56
359,312,19883,2,0,P|390:331|424:332,1,56
328,235,20181,2,0,L|208:247,1,112,2|0,0:0|0:0,0:0:0:0:
62,139,20626,5,0,0:0:0:0:
126,92,20775,2,0,P|148:123|146:202,1,112,2|0,0:0|0:0,0:0:0:0:
87,247,21220,1,0,0:0:0:0:
87,247,21369,2,0,P|76:306|69:367,1,112
61,364,21963,2,0,P|66:333|69:305,1,56
262,172,22260,2,0,P|256:202|254:231,1,56
212,298,22557,6,0,P|147:278|129:216,1,112,2|0,0:0|0:0,0:0:0:0:
183,137,23002,2,0,P|188:106|191:78,1,56
333,222,23299,5,0,0:0:0:0:
254,227,23448,2,0,P|258:171|269:116,1,112
282,110,24190,1,0,0:0:0:0:
213,162,24339,6,0,P|184:171|149:176,1,56,2|0,0:0|0:0,0:0:0:0:
30,277,24636,2,0,P|83:260|138:251,1,112
294,163,25082,5,0,0:0:0:0:
294,163,25230,2,0,P|291:135|276:105,1,56
213,162,25527,2,0,L|225:290,1,112,2|0,0:0|0:0,0:0:0:0:
403,353,25973,5,0,0:0:0:0:
448,287,26121,2,0,P|407:258|326:276,1,112,2|0,0:0|0:0,0:0:0:0:
259,345,26567,2,0,P|290:342|324:334,1,56
347,261,26864,1,0,0:0:0:0:
227,149,27012,6,0,P|202:153|165:160,1,56,2|0,0:0|0:0,0:0:0:0:
266,257,27309,2,0,P|274:233|286:197,1,56,2|0,0:0|0:0,0:0:0:0:
152,236,27606,2,0,P|168:255|193:283,1,56
409,170,27903,6,0,P|413:107|420:45,1,112,2|0,0:0|0:0,0:0:0:0:
331,155,28349,1,0,0:0:0:0:
331,155,28497,2,0,P|332:182|335:210,1,56
266,257,28794,6,0,P|236:260|193:263,1,56,2|0,0:0|0:0,0:0:0:0:
156,151,29091,2,0,P|207:140|252:191,1,112,2|0,0:0|0:0,0:0:0:0:
387,315,29537,5,0,0:0:0:0:
433,375,29685,2,0,P|438:323|446:237,1,112
339,144,30131,2,0,P|344:88|349:32,1,112,2|0,0:0|0:0,0:0:0:0:
422,127,30577,6,0,P|419:154|416:182,1,56,2|0,0:0|0:0,0:0:0:0:
308,291,30874,1,2,0:0:0:0:
308,291,31319,5,0,0:0:0:0:
177,202,31468,2,0,P|238:210|291:213,1,112,2|0,0:0|0:0,0:0:0:0:
129,269,31913,5,0,0:0:0:0:
129,269,32062,2,0,P|103:238|100:206,1,56
225,135,32359,2,0,P|251:166|254:198,1,56,2|0,0:0|0:0,0:0:0:0:
177,202,32656,2,0,P|172:154|160:77,1,112,2|0,0:0|0:0,0:0:0:0:
92,53,33101,5,0,0:0:0:0:
247,105,33250,2,0,P|310:86|365:59,1,112,2|0,0:0|0:0,0:0:0:0:
416,14,33700,1,0,0:0:0:0:
416,14,33850,2,0,B|434:35|434:35|433:72,1,56
331,192,34150,6,0,P|297:185|267:178,1,56,2|0,0:0|0:0,0:0:0:0:
153,214,34453,2,0,P|187:221|217:228,1,56,2|0,0:0|0:0,0:0:0:0:
254,290,34756,1,2,0:0:0:0:
431,229,35054,6,0,P|440:183|449:142,2,83.9999974365235,2|0|0,0:0|0:0|0:0,0:0:0:0:
345,313,35936,5,0,0:0:0:0:
345,313,36231,6,0,B|334:278|334:278|349:244,1,70,2|0,0:2|0:0,0:0:0:0:
495,277,36822,2,0,B|506:312|506:312|490:345,1,70,2|0,0:2|0:0,0:0:0:0:
419,325,37413,1,2,0:0:0:0:
239,183,37709,5,0,0:0:0:0:
213,178,37857,1,2,0:0:0:0:
183,192,38004,1,0,0:0:0:0:
153,214,38152,1,2,0:0:0:0:
110,220,38299,1,0,0:0:0:0:
42,258,38596,6,0,B|28:218|28:218|48:166,1,83.9999974365235,2|0,0:2|0:0,0:0:0:0:
25,102,39188,1,0,0:0:0:0:
25,102,39484,2,0,P|62:111|106:120,1,70,2|0,0:0|0:0,0:0:0:0:
161,80,40081,1,0,0:0:0:0:
313,144,40379,6,0,B|327:182|327:182|313:222,2,83.9999974365235,2|0|0,0:0|0:0|0:0,0:0:0:0:
188,314,41275,69,0,0:0:0:0:
237,337,41423,1,2,0:0:0:0:
224,301,41572,1,0,0:0:0:0:
200,350,41722,1,2,0:0:0:0:
212,326,41872,1,0,0:0:0:0:
212,326,42170,6,0,P|249:317|293:308,1,70,2|0,0:0|0:0,0:0:0:0:
348,348,42764,1,0,0:0:0:0:
348,348,43061,1,0,0:0:0:0:
448,80,43358,6,0,P|442:88|434:95,1,20.9999993591309,2|0,0:0|0:0,0:0:0:0:
416,168,43655,6,0,P|402:167|388:162,1,28,2|0,0:0|0:0,0:0:0:0:
313,187,43952,6,0,P|318:152|321:108,1,70,2|0,0:0|0:0,0:0:0:0:
272,59,44546,5,2,0:0:0:0:
209,102,44843,2,0,P|204:137|201:181,2,70
111,14,45734,6,0,P|116:49|119:93,1,70,2|0,0:0|0:0,0:0:0:0:
70,142,46328,5,0,0:0:0:0:
7,99,46625,2,0,P|2:64|-1:20,2,70,2|0|0,0:0|0:0|0:0,0:0:0:0:
180,245,47516,6,0,P|161:215|131:198,1,70,2|0,0:0|0:0,0:0:0:0:
60,221,48110,1,0,0:0:0:0:
63,330,48407,6,0,L|103:335,1,35,0|2,0:0|0:0,0:0:0:0:
164,364,48704,2,0,P|194:347|212:317,1,70
292,168,49224,5,2,0:0:0:0:
292,168,49298,2,0,P|277:115|270:36,1,112,2|0,3:2|3:0,0:0:0:0:
197,27,49743,2,0,P|193:54|186:81,1,56,0|0,1:0|0:0,0:0:0:0:
0,210,50040,5,0,3:0:0:0:
22,137,50189,2,0,B|88:127|77:170|159:162,1,115.50000352478,2|0,3:2|0:0,0:0:0:0:
146,177,50486,6,0,P|119:181|92:188,1,56,2|0,3:2|0:0,0:0:0:0:
48,63,50783,2,0,P|75:59|102:52,1,56,2|0,3:2|0:0,0:0:0:0:
352,125,51080,6,0,P|337:178|330:257,1,112,2|0,3:2|0:0,0:0:0:0:
295,353,51525,5,0,0:0:0:0:
295,353,51674,2,0,P|291:326|284:299,1,56,0|0,0:0|1:0,0:0:0:0:
444,217,51971,5,2,0:0:0:0:
512,253,52119,1,2,0:0:0:0:
463,310,52268,1,2,3:2:0:0:
396,277,52417,2,0,P|403:249|407:222,1,56,0|0,1:0|0:0,0:0:0:0:
212,87,52788,5,2,0:0:0:0:
212,87,52862,2,0,P|169:85|90:71,1,112,2|0,3:2|3:0,0:0:0:0:
33,117,53308,2,0,P|24:145|18:175,1,56,0|0,0:0|3:0,0:0:0:0:
289,262,53604,5,0,1:0:0:0:
228,302,53753,2,0,B|159:294|172:322|102:320,1,115.50000352478,2|0,0:0|0:0,0:0:0:0:
105,309,54050,6,0,P|110:346|111:373,1,56,2|0,3:2|0:0,0:0:0:0:
205,226,54347,2,0,P|200:189|199:162,1,56,2|0,3:2|0:0,0:0:0:0:
385,114,54644,6,0,P|443:123|512:129,1,112,2|0,3:2|0:0,0:0:0:0:
335,174,55090,1,0,3:0:0:0:
335,174,55238,2,0,P|305:177|268:185,1,56
161,101,55535,6,0,B|171:131|171:131|163:173,1,70,2|0,1:2|0:0,0:0:0:0:
104,209,55758,1,0,0:0:0:0:
97,203,55832,2,0,B|155:194|144:230|220:225,1,112,2|0,3:2|0:0,0:0:0:0:
387,268,56352,5,0,0:0:0:0:
387,268,56426,2,0,P|374:320|363:380,1,112,2|0,0:0|3:0,0:0:0:0:
299,290,56872,2,0,P|271:292|243:297,1,56,0|0,1:0|0:0,0:0:0:0:
243,297,57169,1,0,3:0:0:0:
145,165,57318,6,0,P|145:134|140:91,1,70,0|0,3:2|0:0,0:0:0:0:
55,281,57615,2,0,P|55:312|60:355,1,70,2|0,0:0|0:0,0:0:0:0:
264,222,57911,6,0,B|188:209|197:256|112:244,2,140,2|2|0,3:2|3:2|0:0,0:0:0:0:
333,186,58654,2,0,P|363:191|393:193,1,52.5000020027161,0|0,3:0|0:0,0:0:0:0:
353,41,58951,5,0,1:0:0:0:
103,140,59099,2,0,L|99:128,1,12.2499996261597,2|0,3:2|0:0,0:0:0:0:
103,132,59397,6,0,P|141:183|125:248,1,131.25,2|0,0:0|0:0,0:0:0:0:
127,245,59689,2,0,P|152:185|216:167,1,131.25,2|0,0:0|0:0,0:0:0:0:
211,166,59982,6,0,B|143:178|143:178|104:164|104:164|29:179,1,175,2|0,3:2|0:3,0:0:0:0:
133,329,60427,1,0,1:0:0:0:
54,344,60576,6,0,P|59:306|60:266,1,70,2|0,0:0|0:0,0:0:0:0:
288,183,60873,5,2,3:2:0:0:
321,255,61021,1,0,0:0:0:0:
309,267,61170,6,0,L|315:205,1,56,0|0,1:0|0:0,0:0:0:0:
432,153,61467,2,0,L|426:208,1,56,2|0,0:0|0:0,0:0:0:0:
228,340,61764,6,0,L|210:149,1,175,2|0,3:2|0:0,0:0:0:0:
55,34,62209,2,0,L|47:108,1,70,0|0,1:0|0:0,0:0:0:0:
46,21,62506,1,0,0:0:0:0:
122,126,62655,6,0,B|136:155|136:155|134:193,1,70,2|0,3:2|0:0,0:0:0:0:
100,356,62952,5,2,1:2:0:0:
62,212,63100,1,0,0:0:0:0:
206,174,63249,5,2,0:0:0:0:
187,246,63397,1,0,0:0:0:0:
47,292,63546,6,0,P|37:185|27:106,1,175,2|0,3:2|0:3,0:0:0:0:
194,51,63991,1,0,1:0:0:0:
122,1,64140,6,0,P|116:39|108:75,1,70,2|0,0:0|0:0,0:0:0:0:
277,210,64437,5,2,3:2:0:0:
252,107,64585,1,0,0:0:0:0:
204,193,64734,6,0,L|270:198,1,56,2|0,1:2|0:0,0:0:0:0:
452,84,65031,2,0,P|411:74|370:84,1,84,2|0,0:0|0:0,0:0:0:0:
371,83,65328,6,0,P|302:93|231:21,1,167.999994873047,2|0,3:2|0:0,0:0:0:0:
394,162,65774,2,0,P|387:233|382:305,1,125.999996154785,0|0,1:0|0:0,0:0:0:0:
208,362,66219,6,0,P|182:314|198:262,1,112,2|2,3:2|1:2,0:0:0:0:
206,263,66590,1,0,0:0:0:0:
213,265,66665,1,0,0:0:0:0:
221,267,66739,1,0,0:0:0:0:
252,291,66813,5,0,0:0:0:0:
260,290,66887,1,0,0:0:0:0:
267,288,66962,1,0,0:0:0:0:
275,286,67036,1,0,0:0:0:0:
305,262,67110,6,0,L|444:273,1,131.25,2|0,3:2|0:0,0:0:0:0:
449,274,67407,1,0,0:3:0:0:
338,189,67556,6,0,B|326:155|326:155|333:113,1,70,2|0,1:2|0:0,0:0:0:0:
407,98,67853,1,2,0:0:0:0:
305,262,68001,6,0,L|227:274,1,70,2|0,3:2|0:0,0:0:0:0:
118,68,68298,2,0,L|187:57,1,70,2|0,1:2|0:0,0:0:0:0:
164,231,68595,5,2,0:0:0:0:
160,216,68744,1,0,0:0:0:0:
116,145,68892,6,0,P|109:229|99:339,1,175,2|0,3:2|0:3,0:0:0:0:
27,344,69338,2,0,L|12:258,1,70,0|0,1:0|0:0,0:0:0:0:
14,275,69635,5,0,0:0:0:0:
172,339,69783,2,0,P|211:333|247:324,1,70,2|0,3:2|0:0,0:0:0:0:
385,274,70081,5,2,1:2:0:0:
460,303,70229,1,0,0:0:0:0:
393,195,70378,5,2,0:0:0:0:
264,249,70526,1,0,1:0:0:0:
318,347,70675,6,0,P|311:288|302:160,1,175,2|0,3:2|0:3,0:0:0:0:
429,75,71120,1,0,1:0:0:0:
461,147,71269,5,2,0:0:0:0:
308,94,71417,1,2,0:0:0:0:
264,249,71566,2,0,P|187:266|142:245,1,115.50000352478,2|0,3:2|0:0,0:0:0:0:
154,253,71863,2,0,L|157:181,1,70,0|0,1:0|0:0,0:0:0:0:
202,116,72160,5,2,0:0:0:0:
53,229,72308,1,2,0:0:0:0:
209,311,72457,2,0,B|306:295|284:344|385:328,1,175,2|0,3:2|0:0,0:0:0:0:
507,190,72902,1,0,1:0:0:0:
448,135,73051,6,0,P|410:141|374:145,1,70,2|0,0:0|0:0,0:0:0:0:
146,229,73348,2,0,P|111:223|76:219,1,70,0|0,3:2|0:0,0:0:0:0:
198,36,73644,5,2,1:2:0:0:
206,37,73718,1,0,0:0:0:0:
213,39,73793,1,0,0:0:0:0:
221,41,73867,1,0,0:0:0:0:
252,64,73941,5,2,0:0:0:0:
259,62,74016,1,0,0:0:0:0:
267,60,74090,1,0,0:0:0:0:
274,58,74165,1,0,0:0:0:0:
303,29,74239,6,0,B|348:45|366:66|366:66|344:122|325:188,1,175,2|0,3:2|0:0,0:0:0:0:
146,229,74684,1,0,1:0:0:0:
170,154,74833,6,0,P|188:206|202:248,1,70,2|0,0:0|0:0,0:0:0:0:
336,371,75130,5,2,3:2:0:0:
404,340,75279,1,0,0:0:0:0:
342,239,75427,6,0,P|333:274|345:311,1,56,2|0,1:2|0:0,0:0:0:0:
481,323,75724,2,0,P|490:288|478:251,1,56,2|0,0:0|0:0,0:0:0:0:
421,131,76021,6,0,P|335:147|216:159,1,175,2|0,3:2|0:0,0:0:0:0:
124,308,76467,6,0,P|166:300|226:294,1,70,0|0,1:0|0:0,0:0:0:0:
242,239,76764,1,0,0:0:0:0:
37,91,76912,6,0,B|23:127|23:127|40:170,1,70,2|0,3:2|0:0,0:0:0:0:
100,193,77209,5,2,1:2:0:0:
186,118,77358,1,0,0:0:0:0:
248,156,77506,5,2,0:0:0:0:
124,69,77655,1,0,0:0:0:0:
206,3,77803,6,0,B|294:7|279:54|367:65,1,175,2|0,3:2|0:0,0:0:0:0:
449,154,78249,1,0,1:0:0:0:
511,112,78397,6,0,B|475:114|475:114|441:123,1,70,2|0,0:0|0:0,0:0:0:0:
335,310,78694,5,2,3:2:0:0:
409,293,78842,1,0,0:0:0:0:
308,236,78991,6,0,B|282:238|247:227|247:227|202:244|219:289,1,131.25,2|0,1:2|0:0,0:0:0:0:
232,292,79288,2,0,B|240:241|240:241|233:217|233:217|249:133,1,136.499993751526,2|0,0:0|0:0,0:0:0:0:
325,57,79585,6,0,P|264:73|198:82,1,125.999996154785,2|0,3:2|0:0,0:0:0:0:
15,122,80031,6,0,B|102:104|87:147|163:158,1,154.000004699707,2|0,1:2|0:0,0:0:0:0:
416,295,80477,6,0,B|374:310|374:310|331:287,1,84,2|0,3:2|0:0,0:0:0:0:
281,244,80774,5,2,1:2:0:0:
269,246,80848,1,0,0:0:0:0:
258,250,80922,1,0,0:0:0:0:
248,255,80996,1,0,0:0:0:0:
218,284,81071,5,2,0:0:0:0:
206,282,81145,1,0,0:0:0:0:
195,278,81219,1,0,0:0:0:0:
185,273,81293,1,0,0:0:0:0:
162,254,81368,6,0,B|122:273|75:277|75:277|101:318|115:372,1,175,2|0,3:2|0:3,0:0:0:0:
339,291,81813,5,0,1:0:0:0:
362,216,81962,2,0,P|276:195|192:172,1,175,2|0,0:0|3:0,0:0:0:0:
87,78,82407,5,0,0:0:0:0:
8,67,82556,2,0,P|13:95|22:122,1,56,2|0,1:2|0:0,0:0:0:0:
159,53,82853,2,0,P|153:18|137:-12,1,56,2|0,0:0|0:0,0:0:0:0:
120,175,83150,6,0,B|192:164|172:129|263:118,1,140,2|0,3:2|0:0,0:0:0:0:
385,148,83595,1,0,1:0:0:0:
338,271,83744,6,0,P|319:236|323:183,1,70,2|0,0:0|0:0,0:0:0:0:
390,63,84041,1,2,3:2:0:0:
451,105,84189,1,0,0:0:0:0:
385,148,84338,6,0,B|313:137|333:102|242:91,1,140,2|0,1:2|0:0,0:0:0:0:
18,201,84932,5,2,0:0:0:0:
18,201,85232,6,0,P|21:207|22:214,1,14
95,229,85532,2,0,P|94:239|90:249,1,20.9999993591309
156,363,85832,5,2,0:0:0:0:
156,363,86132,6,0,P|214:313|285:316,1,146.999995513916
288,336,86732,6,0,B|213:320|236:290|151:279,1,140,2|0,0:0|0:0,0:0:0:0:
141,208,87655,6,0,P|147:206|154:205,1,14
167,134,87947,2,0,P|177:135|187:139,1,20.9999993591309
228,80,88240,2,0,P|239:88|248:99,1,28
402,178,88533,6,0,P|405:171|406:164,1,14,2|0,0:0|0:0,0:0:0:0:
480,115,88828,2,0,P|472:115|466:117,1,14
386,77,89124,2,0,P|389:82|395:87,1,14
495,212,89419,6,0,P|487:200|477:191,1,28,2|0,0:0|0:0,0:0:0:0:
311,143,89715,2,0,P|324:141|338:137,1,28
465,20,90010,2,0,P|458:32|455:46,1,28
424,125,90306,5,2,0:0:0:0:
424,125,90601,1,0,0:0:0:0:
424,125,90897,1,0,0:0:0:0:
424,125,91193,1,2,0:0:0:0:
135,190,92079,5,0,0:0:0:0:
142,197,93705,5,2,0:0:0:0:
142,197,93779,1,2,0:0:0:0:
142,197,93853,2,0,B|204:191|192:226|271:216,1,119.000002269745,2|0,0:0|3:0,0:0:0:0:
324,165,94298,1,0,0:0:0:0:
279,100,94447,1,2,0:0:0:0:
249,293,94595,5,8,0:0:0:0:
319,322,94744,2,0,P|328:289|335:237,1,59.5000011348725
279,100,95041,2,0,P|264:157|256:216,1,119.000002269745,0|2,3:2|0:0,0:0:0:0:
172,335,95486,5,2,0:0:0:0:
172,335,95560,1,2,0:0:0:0:
172,335,95635,2,0,P|116:308|116:237,1,119.000002269745,2|0,0:2|3:0,0:0:0:0:
107,256,96080,1,0,0:0:0:0:
168,202,96229,2,0,P|162:171|159:136,1,59.5000011348725,0|0,3:0|0:0,0:0:0:0:
31,274,96526,5,10,0:0:0:0:
31,274,96823,1,2,3:2:0:0:
168,202,97268,5,8,0:0:0:0:
100,160,97417,2,0,P|68:166|25:169,1,59.5000011348725,2|0,3:2|0:0,0:0:0:0:
236,244,97714,2,0,P|287:234|356:229,1,119.000002269745,0|0,3:2|0:0,0:0:0:0:
494,135,98159,1,8,0:0:0:0:
419,113,98308,6,0,P|415:145|413:183,1,59.5000011348725
464,348,98605,2,0,P|470:288|474:229,1,119.000002269745,2|0,3:2|0:0,0:0:0:0:
334,142,99051,5,8,0:0:0:0:
284,200,99199,2,0,P|251:207|212:210,1,59.5000011348725,2|0,0:2|0:0,0:0:0:0:
66,97,99496,1,0,3:0:0:0:
128,57,99645,2,0,P|164:97|153:180,1,119.000002269745
45,310,100090,5,10,0:0:0:0:
38,232,100387,1,2,0:0:0:0:
116,225,100684,1,2,0:0:0:0:
128,305,100907,5,2,0:0:0:0:
128,305,100981,2,0,B|189:298|176:338|252:328,1,119.000002269745,2|0,0:2|3:0,0:0:0:0:
412,236,101427,1,0,0:0:0:0:
383,163,101575,1,0,0:0:0:0:
295,272,101724,5,8,0:0:0:0:
317,345,101872,2,0,P|327:290|332:210,1,119.000002269745,2|2,0:0|3:2,0:0:0:0:
331,227,102466,1,2,0:0:0:0:
456,125,102615,5,8,0:0:0:0:
512,224,102763,2,0,P|481:213|444:207,1,59.5000011348725,2|0,0:0|0:0,0:0:0:0:
298,84,103060,2,0,P|364:70|428:47,1,119.000002269745,0|0,3:0|3:0,0:0:0:0:
412,53,103506,1,0,0:0:0:0:
252,19,103654,5,8,0:0:0:0:
196,137,103952,1,2,3:2:0:0:
243,215,104249,1,2,0:0:0:0:
235,229,104397,1,8,0:0:0:0:
120,170,104546,6,0,P|118:139|114:107,1,59.5000011348725,2|0,3:2|0:0,0:0:0:0:
235,229,104843,2,0,P|238:289|246:354,1,119.000002269745,0|0,3:2|0:0,0:0:0:0:
158,241,105288,1,8,0:0:0:0:
278,163,105437,5,2,0:0:0:0:
430,197,105734,2,0,P|366:183|345:230,1,119.000002269745,2|0,3:2|0:0,0:0:0:0:
445,341,106179,5,8,0:0:0:0:
445,341,106253,1,2,0:0:0:0:
445,341,106328,2,0,P|458:250|484:120,1,210,2|0,0:0|0:0,0:0:0:0:
480,134,107070,5,0,0:0:0:0:
376,244,107219,2,0,P|346:237|305:230,1,59.5000011348725,10|0,0:0|0:0,0:0:0:0:
125,140,107516,6,0,L|117:109,1,24.4999992523194,2|0,0:0|0:0,0:0:0:0:
250,30,107813,2,0,L|258:-1,1,24.4999992523194,2|8,0:0|0:0,0:0:0:0:
192,83,108110,6,0,P|199:112|206:164,1,66.4999982242585,2|0,3:2|0:0,0:0:0:0:
145,269,108407,2,0,B|63:260|82:305|6:294,1,132.999996448517,0|0,3:0|0:0,0:0:0:0:
136,190,108853,1,8,0:0:0:0:
224,291,109001,2,0,P|220:323|218:366,1,66.4999982242585,2|0,0:0|0:0,0:0:0:0:
58,370,109298,2,0,P|65:305|70:219,1,132.999996448517,2|2,3:2|0:0,0:0:0:0:
33,61,109744,1,8,0:0:0:0:
93,115,109892,6,0,B|230:72|204:201|367:155,1,265.999992897034,2|0,0:2|3:0,0:0:0:0:
470,106,110783,5,10,0:2:0:0:
312,18,110932,1,2,0:0:0:0:
354,81,111080,5,2,0:0:0:0:
422,48,111229,1,2,0:0:0:0:
405,36,111377,6,0,P|398:70|394:107,1,52.5000020027161,0|8,3:0|0:0,0:0:0:0:
505,288,111674,6,0,P|482:227|421:206,1,132.999996448517,2|0,3:2|3:0,0:0:0:0:
343,294,112120,5,0,0:0:0:0:
281,241,112268,2,0,P|313:228|348:203,1,66.4999982242585,0|8,0:0|0:0,0:0:0:0:
427,285,112565,2,0,P|422:319|426:362,1,66.4999982242585,2|0,0:0|0:0,0:0:0:0:
239,313,112862,6,0,P|236:242|222:157,1,140,2|2,3:2|0:0,0:0:0:0:
54,45,113308,5,8,0:0:0:0:
101,106,113456,2,0,B|168:106|161:62|252:72,1,140,2|0,0:0|0:0,0:0:0:0:
311,53,113902,2,0,P|307:87|310:130,1,70
156,277,114199,5,8,0:0:0:0:
92,215,114348,2,0,B|125:207|125:207|145:186,1,62.9999980773926,2|0,0:0|0:0,0:0:0:0:
241,252,114645,2,0,B|231:284|231:284|238:312,1,62.9999980773926,2|8,0:0|0:0,0:0:0:0:
134,362,114942,2,0,B|110:337|110:337|82:329,1,62.9999980773926,2|8,0:0|0:0,0:0:0:0:
156,277,115239,6,0,B|247:258|218:309|349:317,1,167.999994873047,2|0,0:0|3:0,0:0:0:0:
423,213,115684,5,0,0:0:0:0:
354,171,115833,2,0,P|347:207|338:243,1,56,0|8,0:0|0:0,0:0:0:0:
480,300,116130,2,0,P|487:264|496:228,1,56
376,88,116427,6,0,B|297:76|313:122|241:124,1,140,2|0,3:2|0:0,0:0:0:0:
183,176,116872,1,8,0:0:0:0:
31,39,117021,6,0,P|51:15|79:0,1,62.9999980773926,2|0,0:0|0:0,0:0:0:0:
102,151,117318,2,0,P|74:135|46:122,1,62.9999980773926,0|0,3:2|0:0,0:0:0:0:
167,32,117615,2,0,P|177:63|176:94,1,62.9999980773926,2|8,0:0|0:0,0:0:0:0:
86,344,117912,6,0,B|76:317|60:287|60:287|91:283|124:270,1,125.999996154785,2|0,0:0|0:0,0:0:0:0:
184,232,118208,6,0,B|265:245|226:276|322:294,1,136.499993751526,0|0,3:0|0:0,0:0:0:0:
329,289,118504,2,0,P|319:335|311:381,1,78.7500030040742,2|0,0:0|0:0,0:0:0:0:
313,366,118802,5,0,3:0:0:0:
436,179,119097,6,0,L|400:172,1,35,2|0,0:0|0:0,0:0:0:0:
376,184,119393,1,0,0:0:0:0:
267,136,119688,6,0,B|322:124|300:105|358:93,1,97.9999970092774,0|0,1:0|0:0,0:0:0:0:
512,50,120279,5,0,3:0:0:0:
512,50,120575,6,0,L|476:57,1,35,2|0,3:2|0:0,0:0:0:0:
452,45,120870,1,0,0:0:0:0:
376,184,121166,5,2,0:0:0:0:
267,57,121462,5,0,1:2:0:0:
241,52,121610,1,2,0:0:0:0:
211,66,121757,1,0,0:0:0:0:
181,88,121905,1,2,0:0:0:0:
138,94,122053,1,0,3:0:0:0:
89,71,122201,1,0,1:2:0:0:
126,58,122348,6,0,P|117:91|107:150,1,83.9999974365235,2|0,3:2|3:0,0:0:0:0:
59,202,122943,1,2,0:0:0:0:
59,202,123241,2,0,P|85:215|105:278,1,83.9999974365235,0|0,1:2|3:0,0:0:0:0:
60,326,123836,1,2,0:0:0:0:
60,326,124134,6,0,L|24:319,1,35,0|0,3:0|0:0,0:0:0:0:
0,331,124432,1,2,3:2:0:0:
189,238,124730,5,2,0:0:0:0:
378,331,125027,5,0,1:0:0:0:
362,338,125176,1,2,0:0:0:0:
332,337,125325,1,0,0:0:0:0:
297,319,125474,1,2,0:0:0:0:
279,272,125623,1,0,0:0:0:0:
311,222,125772,1,2,0:0:0:0:
377,260,125921,6,0,B|391:220|391:220|375:181,1,83.9999974365235,2|0,3:2|3:0,0:0:0:0:
414,116,126515,1,2,0:0:0:0:
414,116,126812,6,0,L|378:109,1,35,0|0,1:0|0:0,0:0:0:0:
172,116,127109,6,0,P|178:108|186:101,1,20.9999993591309,2|0,3:2|0:0,0:0:0:0:
204,28,127406,6,0,P|218:29|232:34,1,28,2|0,0:0|0:0,0:0:0:0:
309,18,127703,6,0,P|303:55|300:103,1,83.9999974365235,2|2,3:2|0:0,0:0:0:0:
249,158,128297,1,2,0:0:0:0:
249,158,128594,2,0,P|275:171|295:234,1,83.9999974365235,0|2,1:0|0:0,0:0:0:0:
220,325,129188,6,0,L|176:320,1,35,2|8,0:0|0:0,0:0:0:0:
112,342,129485,2,0,L|119:254,1,83.9999974365235,0|2,0:0|0:0,0:0:0:0:
39,165,130079,5,2,0:0:0:0:
39,165,130376,6,0,L|82:160,1,35,0|0,1:0|0:0,0:0:0:0:
147,182,130673,2,0,L|140:94,1,83.9999974365235,2|2,3:2|0:0,0:0:0:0:
360,16,131267,6,0,P|362:59|367:104,1,83.9999974365235,0|2,3:2|3:2,0:0:0:0:
440,120,131861,1,2,0:0:0:0:
331,294,132158,6,0,L|374:289,1,41.9999987182618,0|0,1:0|0:0,0:0:0:0:
442,318,132455,2,0,P|468:305|488:242,1,97.9999970092774,2|2,3:2|3:0,0:0:0:0:
296,115,132901,5,0,1:0:0:0:
207,171,133049,2,0,B|132:166|139:210|72:209,1,140,2|0,3:2|0:0,0:0:0:0:
229,69,133495,2,0,P|253:28|256:2,1,70,0|0,1:0|0:0,0:0:0:0:
296,115,133792,5,0,0:0:0:0:
368,80,133940,2,0,P|383:112|409:135,1,70,2|0,3:2|0:0,0:0:0:0:
289,196,134237,2,0,P|254:193|221:203,1,70,2|0,3:2|0:0,0:0:0:0:
178,267,134534,1,0,0:0:0:0:
357,298,134683,5,0,0:0:0:0:
306,355,134831,2,0,P|364:323|438:347,2,140,2|0|0,3:2|0:0|3:0,0:0:0:0:
402,228,135574,1,0,1:0:0:0:
280,120,135722,5,2,0:0:0:0:
264,103,135821,1,0,0:0:0:0:
261,75,135921,1,0,0:0:0:0:
280,39,136020,5,2,0:0:0:0:
326,52,136119,5,0,0:0:0:0:
361,126,136218,5,0,0:0:0:0:
296,201,136317,6,0,P|247:192|218:193,2,46.6666666666667,2|2|2,0:0|0:0|0:0,0:0:0:0:
189,133,136614,6,0,B|110:146|138:179|61:185,1,140,2|0,3:2|3:2,0:0:0:0:
60,268,137059,2,0,P|95:268|129:276,1,70,2|0,0:0|0:0,0:0:0:0:
296,201,137356,5,0,1:0:0:0:
221,353,137505,2,0,P|216:299|211:274,1,70,2|0,0:0|0:0,0:0:0:0:
354,149,137802,2,0,P|359:95|364:70,1,70,2|0,0:0|0:0,0:0:0:0:
302,27,138099,1,0,3:0:0:0:
168,127,138247,5,0,0:0:0:0:
252,107,138396,2,0,P|199:49|132:49,1,140,2|0,3:2|3:0,0:0:0:0:
141,45,138841,1,0,0:0:0:0:
120,240,138990,6,0,B|188:229|175:278|261:268,1,136.499993751526
242,251,139287,6,0,P|227:278|222:309,1,62.9999980773926,2|0,1:2|0:0,0:2:0:0:
419,192,139584,2,0,P|400:143|314:108,1,125.999996154785,2|0,0:0|3:2,0:0:0:0:
95,149,140104,5,2,0:0:0:0:
106,159,140178,2,0,B|192:174|192:174|221:152|204:109,1,154.000004699707,2|0,3:2|3:0,0:0:0:0:
137,67,140623,5,0,1:0:0:0:
26,213,140772,2,0,P|35:262|34:293,1,62.9999980773926,2|0,0:0|3:0,0:0:0:0:
93,328,141069,2,0,L|155:319,1,52.5000020027161,2|0,0:0|0:0,0:0:0:0:
370,201,141366,6,0,P|344:185|302:186,1,59.5000011348725,2|0,0:0|0:0,0:0:0:0:
195,260,141663,1,2,0:0:0:0:
259,304,141812,1,2,0:0:0:0:
319,259,141960,6,0,P|335:118|344:49,1,210,2|0,3:2|0:0,0:0:0:0:
343,50,142708,5,0,1:0:0:0:
211,145,142857,2,0,L|215:171,1,17.5,2|0,3:2|0:0,0:0:0:0:
319,259,143157,5,0,0:0:0:0:
325,249,143231,1,0,0:0:0:0:
328,240,143306,1,0,0:0:0:0:
329,230,143380,1,0,0:0:0:0:
298,207,143455,5,0,0:0:0:0:
292,197,143529,1,0,0:0:0:0:
289,188,143604,1,0,0:0:0:0:
288,178,143678,1,0,0:0:0:0:
312,137,143753,6,0,B|365:141|423:164|423:164|456:147|448:97,1,181.999991668702,2|0,3:2|0:0,0:0:0:0:
240,32,144198,1,0,1:0:0:0:
165,52,144347,6,0,L|227:60,1,62.9999980773926,2|0,0:0|0:0,0:0:0:0:
329,230,144644,2,0,P|288:265|204:248,1,125.999996154785,2|0,3:2|0:0,0:0:0:0:
219,259,144941,2,0,L|222:189,1,62.9999980773926,2|0,1:2|0:0,0:0:0:0:
381,46,145238,5,2,0:0:0:0:
386,58,145386,1,0,0:0:0:0:
511,61,145535,6,0,P|460:48|384:145,1,181.999991668702,2|2,3:2|0:3,0:0:0:0:
471,283,145980,1,0,1:0:0:0:
477,293,146277,5,0,0:0:0:0:
291,329,146426,2,0,B|371:313|350:370|449:348,1,136.499993751526,2|0,3:2|0:0,0:0:0:0:
422,352,146723,5,2,1:2:0:0:
348,206,146871,1,0,0:0:0:0:
446,152,147020,5,2,0:0:0:0:
358,289,147168,1,0,0:0:0:0:
200,174,147317,6,0,B|179:137|208:113|314:167|243:269,1,181.999991668702,2|2,3:2|0:3,0:0:0:0:
113,137,147762,1,0,1:0:0:0:
166,76,147911,6,0,P|158:45|157:6,1,62.9999980773926,2|0,0:0|0:0,0:0:0:0:
34,156,148208,2,0,P|30:213|15:269,1,115.50000352478,2|0,3:2|0:0,0:0:0:0:
6,280,148505,5,2,1:2:0:0:
127,335,148653,1,0,0:0:0:0:
254,249,148802,5,2,0:0:0:0:
183,271,148951,1,0,0:0:0:0:
274,370,149099,6,0,B|281:337|292:322|292:322|253:251|165:274,1,181.999991668702,2|2,3:2|0:3,0:0:0:0:
113,231,149545,6,0,P|96:190|123:123,1,105.000004005432,0|0,1:0|0:0,0:0:0:0:
237,18,149990,6,0,L|251:133,1,105,2|0,3:2|0:0,0:0:0:0:
305,180,150287,5,2,1:2:0:0:
313,186,150361,1,0,0:0:0:0:
323,188,150436,1,0,0:0:0:0:
333,187,150510,1,0,0:0:0:0:
366,153,150584,5,2,0:0:0:0:
382,146,150658,1,0,0:0:0:0:
399,145,150733,1,0,0:0:0:0:
415,150,150807,1,0,0:0:0:0:
451,187,150881,6,0,B|420:77|420:77|435:31|479:40,1,181.999991668702,2|2,3:2|0:3,0:0:0:0:
395,254,151327,2,0,P|364:270|329:273,1,70,0|0,1:0|0:0,0:0:0:0:
206,179,151624,5,0,0:0:0:0:
328,64,151772,5,2,3:2:0:0:
279,209,151921,1,0,0:0:0:0:
202,101,152069,6,0,L|191:21,1,62.9999980773926,2|0,1:2|0:0,0:0:0:0:
201,31,152366,6,0,P|172:84|103:80,1,125.999996154785,2|0,0:0|0:0,0:0:0:0:
100,76,152663,6,0,B|194:56|183:134|278:118,1,181.999991668702,2|2,3:2|0:3,0:0:0:0:
412,35,153109,1,0,1:0:0:0:
404,28,153406,5,0,0:0:0:0:
355,189,153554,2,0,P|351:154|348:119,1,70,2|0,3:2|0:0,0:0:0:0:
424,243,153852,5,2,1:2:0:0:
288,284,154000,1,0,0:0:0:0:
410,327,154149,5,2,0:0:0:0:
485,353,154297,1,0,0:0:0:0:
336,364,154446,6,0,P|294:327|190:336,1,140,2|2,3:2|0:3,0:0:0:0:
99,366,154891,1,0,1:0:0:0:
73,221,155040,5,2,0:0:0:0:
146,246,155188,1,2,0:0:0:0:
31,291,155337,6,0,P|26:203|17:125,1,136.499993751526,2|0,3:2|0:0,0:0:0:0:
20,154,155634,2,0,P|47:138|102:142,1,70,0|0,1:0|0:0,0:0:0:0:
299,21,155931,5,2,0:0:0:0:
208,147,156079,1,2,0:0:0:0:
138,22,156228,6,0,B|187:8|221:42|221:42|237:95|307:103,1,167.999994873047,2|2,3:2|0:3,0:0:0:0:
432,157,156673,1,0,1:0:0:0:
413,50,156822,6,0,P|374:75|354:123,1,70,2|0,0:0|0:0,0:0:0:0:
267,216,157119,2,0,P|276:263|283:310,1,70,2|0,3:2|0:0,0:0:0:0:
433,354,157416,5,2,1:2:0:0:
434,344,157490,1,0,0:0:0:0:
437,335,157565,1,0,0:0:0:0:
443,325,157639,1,0,0:0:0:0:
446,289,157713,5,2,0:0:0:0:
456,285,157787,1,0,0:0:0:0:
465,283,157862,1,0,0:0:0:0:
477,284,157936,1,0,0:0:0:0:
512,316,158010,6,0,B|419:303|454:253|347:250,1,167.999994873047,2|2,3:2|0:3,0:0:0:0:
193,297,158455,5,0,1:0:0:0:
251,345,158604,2,0,P|279:304|276:266,1,70,2|0,0:0|0:0,0:0:0:0:
152,199,158901,5,2,3:2:0:0:
118,265,159050,1,0,0:0:0:0:
38,206,159198,6,0,B|27:174|27:174|41:140,1,70,0|0,1:2|0:0,0:0:0:0:
223,160,159495,2,0,B|237:194|237:194|220:247,1,70,2|0,0:0|0:0,0:0:0:0:
95,90,159792,6,0,B|186:80|153:29|263:26,1,175,2|2,3:2|0:3,0:0:0:0:
418,137,160238,6,0,P|382:140|344:146,1,70,0|0,1:0|0:0,0:0:0:0:
301,87,160535,1,0,0:0:0:0:
76,257,160683,6,0,P|110:251|145:248,1,70,2|0,3:2|0:0,0:0:0:0:
193,307,160980,5,2,1:2:0:0:
313,221,161129,1,0,0:0:0:0:
351,296,161277,5,2,0:0:0:0:
226,225,161426,1,0,0:0:0:0:
348,145,161574,6,0,B|390:156|432:158|432:158|418:194|410:237,1,167.999994873047,2|2,3:2|0:3,0:0:0:0:
269,310,162020,5,0,1:0:0:0:
328,359,162168,2,0,P|344:331|346:277,1,70,2|0,0:0|0:0,0:0:0:0:
192,121,162465,5,2,3:2:0:0:
123,154,162614,1,0,0:0:0:0:
266,152,162762,6,0,P|264:91|176:42,1,131.25,2|0,1:2|0:0,0:0:0:0:
198,20,163059,2,0,B|117:33|151:67|63:87,1,131.25,2|0,0:0|0:0,0:0:0:0:
24,171,163356,6,0,B|76:164|104:198|104:198|104:231|142:264,1,140,2|2,3:2|0:3,0:0:0:0:
220,367,163802,6,0,B|279:342|279:342|292:316|292:316|359:289,1,154.000004699707,0|0,1:0|0:0,0:0:0:0:
501,141,164248,6,0,B|459:156|459:156|416:133,1,84,2|0,3:2|0:0,0:0:0:0:
348,145,164545,5,2,1:2:0:0:
342,135,164619,1,0,0:0:0:0:
339,126,164694,1,0,0:0:0:0:
338,116,164768,1,0,0:0:0:0:
321,80,164842,5,2,0:0:0:0:
326,69,164916,1,0,0:0:0:0:
332,62,164991,1,0,0:0:0:0:
341,56,165065,1,0,0:0:0:0:
372,25,165139,6,0,B|418:19|442:49|442:49|426:107|422:152,1,167.999994873047,2|2,3:2|0:3,0:0:0:0:
194,239,165584,5,0,1:0:0:0:
127,206,165733,2,0,P|162:149|278:140,1,167.999994873047,2|0,0:0|3:0,0:0:0:0:
407,286,166178,5,0,0:0:0:0:
340,319,166327,2,0,P|332:275|323:244,1,56,2|0,1:2|0:0,0:0:0:0:
463,203,166624,2,0,P|471:247|480:278,1,56,2|0,0:0|0:0,0:0:0:0:
280,372,166921,6,0,B|197:357|245:316|134:304,1,140,2|2,3:2|0:3,0:0:0:0:
0,300,167366,5,0,1:0:0:0:
63,345,167515,2,0,P|79:317|81:263,1,62.9999980773926,2|0,0:0|0:0,0:0:0:0:
233,190,167812,6,0,P|216:134|150:90,1,125.999996154785,2|0,3:2|0:0,0:0:0:0:
142,22,168109,6,0,P|108:37|74:50,1,73.4999977569581,2|0,1:2|0:0,0:0:0:0:
63,126,168406,2,0,P|41:135|18:145,1,42,2|0,0:0|0:0,0:0:0:0:
24,142,168703,5,2,0:0:0:0:
324,129,183247,5,0,0:0:0:0:
313,120,183396,1,0,0:0:0:0:
384,189,183546,2,0,B|418:157|418:157|410:132|409:107,1,97.9999970092774,2|0,0:0|0:0,0:0:0:0:
259,178,184143,2,0,B|238:157|213:206|250:264,1,97.9999970092774,2|0,0:0|0:0,0:0:0:0:
129,335,184740,6,0,L|83:323,1,35,2|0,0:0|0:0,0:0:0:0:
18,342,185038,6,0,P|16:321|22:307,1,28,2|0,0:0|0:0,0:0:0:0:
3,235,185337,6,0,L|13:212,1,17.5
118,151,185635,6,0,B|140:152|159:162|159:162|166:142|180:121,1,87.5,2|0,0:0|0:0,0:0:0:0:
258,150,186531,6,0,B|174:128|210:90|112:58,1,168,2|0,0:0|0:0,0:0:0:0:
302,278,188322,6,0,P|338:301|407:244,1,140,2|0,0:0|0:0,0:0:0:0:
305,281,189215,6,0,B|260:253|216:289|216:289|208:330|160:339,1,167.999994873047,2|0,0:0|0:0,0:0:0:0:
168,337,190108,6,0,P|187:327|228:336,1,48.9999985046387,2|0,0:0|0:0,0:0:0:0:
265,268,190405,2,0,P|286:271|305:280,1,41.9999987182618
327,306,190702,1,2,0:0:0:0:
198,227,190999,6,0,L|193:183,1,41.9999987182618,2|0,0:0|0:0,0:0:0:0:
249,128,191296,2,0,P|258:107|259:94,1,35
244,59,191593,1,2,0:0:0:0:
50,192,191890,6,0,B|90:236|184:232|208:170|154:105|110:143,1,230.99999295044,2|0,0:0|0:0,0:0:0:0:
116,143,193672,6,0,B|160:142|195:168|195:168|215:127|253:110,1,168,2|0,0:0|0:0,0:0:0:0:
366,205,195005,6,0,P|389:212|404:227,1,41.9999987182618,2|0,0:0|0:0,0:0:0:0:
348,211,195449,6,0,P|385:214|440:136,1,140,2|0,0:0|0:0,0:0:0:0:
297,79,196338,6,0,B|252:52|195:90|221:97|176:144|115:108,1,183.749994392395,2|0,0:0|0:0,0:0:0:0:
62,40,197227,6,0,B|110:61|132:131|135:189|75:226|25:197|31:134|64:117|105:108|140:116,1,300.300010080872,2|0,0:0|0:0,0:0:0:0:
246,210,199005,6,0,B|287:246|332:216|332:216|349:157|414:164,1,196.000002392578,2|0,0:0|0:0,0:0:0:0:
512,272,199894,2,0,L|474:265,1,39.2000004785156,2|0,0:0|0:0,0:0:0:0:
53,366,200660,5,2,0:0:0:0:
50,354,200728,1,2,0:0:0:0:
41,345,200796,1,2,0:0:0:0:
4,278,201682,1,2,0:0:0:0:
52,220,202569,1,2,0:0:0:0:
208,133,203460,5,2,0:0:0:0:
226,115,203757,1,2,0:0:0:0:
215,91,204054,1,2,0:0:0:0:
135,103,204351,5,2,0:0:0:0:
187,217,205237,1,2,0:0:0:0:
108,324,206124,5,2,0:0:0:0:
97,301,206422,1,0,0:0:0:0:
112,281,206721,1,0,0:0:0:0:
274,185,207019,5,2,0:0:0:0:
289,205,207310,1,0,0:0:0:0:
278,228,207601,1,0,0:0:0:0:
232,334,207916,6,0,B|285:323|266:305|330:296,1,97.9999970092774,2|0,0:0|0:0,0:0:0:0:
324,300,208361,2,0,B|276:308|276:308|234:273,1,97.9999970092774
103,171,208807,6,0,P|95:132|87:112,1,48.9999985046387,2|0,0:0|0:0,0:0:0:0:
156,75,209104,2,0,P|161:43|171:14,1,62.9999980773926,2|0,0:0|0:0,0:0:0:0:
250,30,209401,5,2,0:0:0:0:
205,139,209549,1,0,0:0:0:0:
91,123,209698,2,0,P|171:107|230:103,1,125.999996154785,2|0,0:0|0:0,0:0:0:0:
25,163,210589,1,2,0:0:0:0:
195,252,210886,6,0,P|182:245|169:242,1,28,2|0,0:0|0:0,0:0:0:0:
281,181,211183,6,0,P|273:209|272:235,1,41.9999987182618,2|0,0:0|0:0,0:0:0:0:
105,178,211480,6,0,B|140:160|177:162|177:162|186:118|220:100,1,146.999995513916,2|0,0:0|0:0,0:0:0:0:
257,36,212074,6,0,L|310:44,1,48.9999985046387,2|0,0:0|0:0,0:0:0:0:
462,106,212371,2,0,B|445:87|442:71|442:71|378:59|359:119,1,140,2|0,0:0|0:0,0:0:0:0:
404,181,213114,5,2,0:0:0:0:
246,265,213262,2,0,B|218:257|206:238|206:238|186:291|215:344|271:351|321:325,1,224,2|0,0:0|0:0,0:0:0:0:
302,332,214153,6,0,L|271:325,1,28,2|0,0:0|0:0,0:0:0:0:
91,198,214450,5,2,0:0:0:0:
90,188,214524,1,0,0:0:0:0:
87,179,214599,1,0,0:0:0:0:
81,169,214673,1,0,0:0:0:0:
50,162,214747,5,2,0:0:0:0:
40,158,214821,1,0,0:0:0:0:
31,156,214896,1,0,0:0:0:0:
19,157,214970,1,0,0:0:0:0:
0,182,215044,6,0,B|93:169|58:119|165:116,1,167.999994873047,2|0,3:2|0:0,0:0:0:0:
311,166,215490,5,0,1:0:0:0:
239,194,215638,2,0,P|227:164|230:117,1,70,2|0,0:0|0:0,0:0:0:0:
325,17,215935,5,2,3:2:0:0:
401,36,216084,1,0,0:0:0:0:
485,0,216232,6,0,P|499:56|499:157,1,125.999996154785,2|0,1:2|0:0,0:0:0:0:
503,124,216529,2,0,P|465:133|417:141,1,70,2|0,0:0|0:0,0:0:0:0:
300,246,216826,6,0,B|345:238|398:224|398:224|429:250|423:303,1,167.999994873047,2|0,3:2|0:0,0:0:0:0:
288,371,217272,2,0,P|252:363|193:360,1,70,0|0,1:0|0:0,0:0:0:0:
144,384,217569,1,0,0:0:0:0:
212,274,217717,6,0,P|211:238|200:197,1,70,2|0,3:2|0:0,0:0:0:0:
147,148,218015,5,2,1:2:0:0:
94,206,218163,1,0,0:0:0:0:
228,134,218312,1,2,0:0:0:0:
156,0,218460,1,0,0:0:0:0:
90,41,218609,6,0,B|165:59|165:59|180:83|180:83|282:112,1,181.999991668702,2|0,3:2|0:0,0:0:0:0:
435,32,219054,5,0,1:0:0:0:
363,6,219203,2,0,P|343:36|339:75,1,70,2|0,0:0|0:0,0:0:0:0:
427,239,219500,5,2,3:2:0:0:
500,267,219648,1,0,0:0:0:0:
371,178,219797,6,0,B|338:179|309:197|309:197|321:233|331:303,1,146.999995513916,2|0,1:2|0:0,0:0:0:0:
320,298,220094,2,0,B|412:290|367:326|469:333,1,146.999995513916,2|0,0:0|0:0,0:0:0:0:
500,267,220391,6,0,P|508:206|430:136,1,154.000004699707,2|0,3:2|0:0,0:0:0:0:
253,103,220836,6,0,B|152:123|204:147|90:175,1,154.000004699707,0|0,1:0|0:0,0:0:0:0:
51,124,221282,1,2,3:2:0:0:
91,58,221430,1,2,0:0:0:0:
194,240,221579,5,2,1:2:0:0:
199,248,221653,1,0,0:0:0:0:
200,258,221728,1,0,0:0:0:0:
198,268,221802,1,0,0:0:0:0:
209,303,221876,5,2,0:0:0:0:
200,317,221950,1,0,0:0:0:0:
186,328,222025,1,0,0:0:0:0:
170,333,222099,1,0,0:0:0:0:
137,316,222173,6,0,B|197:281|243:326|243:326|257:369|319:378,1,181.999991668702,2|0,3:2|0:0,0:0:0:0:
388,166,222618,5,0,1:0:0:0:
352,95,222767,2,0,P|267:151|274:230,1,167.999994873047,2|0,0:0|3:0,0:0:0:0:
398,318,223213,5,0,0:0:0:0:
470,345,223361,2,0,P|474:318|480:291,1,56,2|0,1:2|0:0,0:0:0:0:
338,236,223658,2,0,P|334:263|328:290,1,56,2|0,0:0|0:0,0:0:0:0:
503,159,223955,6,0,B|403:139|462:110|350:94,1,167.999994873047,2|0,3:2|0:0,0:0:0:0:
199,133,224401,5,0,1:0:0:0:
254,76,224550,2,0,P|256:49|249:22,1,56
28,74,224846,6,0,P|31:145|42:219,1,125.999996154785,2|0,3:2|0:0,0:0:0:0:
38,199,225143,2,0,P|75:193|115:191,1,70,0|0,1:0|0:0,0:0:0:0:
260,291,225440,5,2,0:0:0:0:
244,218,225589,1,0,0:0:0:0:
179,310,225737,6,0,B|170:350|203:374|203:374|270:362|343:355,1,195.999994018555,6|0,3:2|0:0,0:0:0:0:
487,312,226183,5,0,1:0:0:0:
419,277,226331,2,0,P|404:304|404:356,1,70,2|0,0:0|0:0,0:0:0:0:
366,173,226628,6,0,P|358:108|294:68,1,125.999996154785,2|0,3:2|0:0,0:0:0:0:
302,57,226925,2,0,P|263:70|218:75,1,70,2|0,1:2|0:0,0:0:0:0:
68,223,227222,5,2,0:0:0:0:
5,179,227371,1,0,0:0:0:0:
117,148,227519,6,0,P|112:217|104:325,1,154.000004699707,2|0,3:2|0:0,0:0:0:0:
246,363,227965,6,0,P|248:328|254:263,1,70,0|0,1:0|0:0,0:0:0:0:
194,238,228262,1,0,0:0:0:0:
348,314,228411,6,0,B|389:320|389:320|440:297,1,77.0000023498536,2|0,3:2|0:0,0:0:0:0:
470,189,228708,5,2,1:2:0:0:
391,185,228856,1,0,0:0:0:0:
506,259,229005,1,2,0:0:0:0:
512,122,229153,1,0,0:0:0:0:
416,96,229302,6,0,B|328:104|379:124|253:145,1,140,2|0,3:2|0:0,0:0:0:0:
119,70,229747,5,0,1:0:0:0:
185,39,229896,2,0,P|202:73|204:111,1,70,2|0,0:0|0:0,0:0:0:0:
93,245,230193,5,2,3:2:0:0:
23,276,230341,1,0,0:0:0:0:
154,302,230490,6,0,B|173:265|200:242|200:242|168:222|144:168,1,146.999995513916,2|0,1:2|0:0,0:0:0:0:
154,166,230787,2,0,P|73:155|26:208,1,146.999995513916,2|0,0:0|0:0,0:0:0:0:
79,333,231084,6,0,B|153:348|153:348|170:367|170:367|263:388,1,167.999994873047,2|0,3:2|0:0,0:0:0:0:
493,294,231529,6,0,B|494:264|474:238|474:238|422:252|341:264,1,167.999994873047,0|0,1:0|0:0,0:0:0:0:
237,166,231975,6,0,B|230:148|216:124|216:124|233:100|249:65,1,94.499997116089,2|0,3:2|0:0,0:0:0:0:
303,39,232272,5,2,1:2:0:0:
315,38,232346,1,0,0:0:0:0:
326,41,232421,1,0,0:0:0:0:
334,47,232495,1,0,0:0:0:0:
356,73,232569,5,2,0:0:0:0:
373,74,232643,1,0,0:0:0:0:
389,70,232718,1,0,0:0:0:0:
402,62,232792,1,0,0:0:0:0:
419,27,232866,6,0,B|367:51|367:51|354:75|354:75|292:109,1,146.999995513916,2|0,3:2|0:0,0:0:0:0:
299,105,233163,1,2,0:0:0:0:
130,195,233312,2,0,L|69:177,1,62.9999980773926,2|0,1:2|0:0,0:0:0:0:
119,40,233609,1,2,0:0:0:0:
119,40,233757,6,0,P|129:80|127:112,1,70,2|0,3:2|0:0,0:0:0:0:
206,227,234054,2,0,P|210:180|227:74,1,154.000004699707,2|0,1:2|0:0,0:0:0:0:
349,218,234500,6,0,L|360:221,1,10.4999996795654,2|0,0:0|0:0,0:0:0:0:
296,155,234648,6,0,B|291:194|327:211|327:211|371:187|429:177,1,175,2|0,3:2|0:0,0:0:0:0:
492,340,235094,2,0,L|427:323,1,62.9999980773926,0|0,1:0|0:0,0:0:0:0:
355,301,235391,5,0,0:0:0:0:
296,155,235539,2,0,P|348:176|372:230,1,110.249996635437,2|0,3:2|0:0,0:0:0:0:
371,222,235836,5,2,1:2:0:0:
355,301,235985,1,0,0:0:0:0:
168,214,236133,5,2,0:0:0:0:
151,135,236282,1,0,0:0:0:0:
87,274,236430,6,0,B|124:311|176:281|152:268|200:235|241:252,1,167.999994873047,2|0,3:2|0:0,0:0:0:0:
355,301,236876,1,0,1:0:0:0:
291,349,237024,5,2,0:0:0:0:
343,222,237173,1,2,0:0:0:0:
221,157,237321,2,0,B|168:106|87:165|123:200|143:158,1,136.499993751526,2|0,3:2|0:0,0:0:0:0:
136,169,237618,6,0,B|140:144|144:120|144:120|122:106|98:77,1,105,0|0,1:0|0:0,0:0:0:0:
47,141,237916,5,2,0:0:0:0:
182,236,238064,1,2,0:0:0:0:
71,365,238213,2,0,B|33:347|37:293|37:293|83:263|73:217,1,175,2|0,3:2|0:0,0:0:0:0:
0,76,238658,1,0,1:0:0:0:
45,9,238807,5,2,0:0:0:0:
201,143,239104,2,0,P|242:172|303:169,1,105,2|0,3:2|0:0,0:0:0:0:
360,227,239401,5,2,1:2:0:0:
369,219,239475,1,0,0:0:0:0:
376,209,239549,1,0,0:0:0:0:
379,197,239623,1,0,0:0:0:0:
344,226,239698,5,2,0:0:0:0:
347,238,239772,1,0,0:0:0:0:
350,249,239846,1,0,0:0:0:0:
353,260,239920,1,0,0:0:0:0:
389,288,239995,6,0,B|348:270|306:292|306:292|303:302|303:302|268:344|212:315,1,189.000000720978,2|0,3:2|0:0,0:0:0:0:
58,250,240439,1,0,1:0:0:0:
131,194,240588,6,0,B|152:232|152:232|139:255|131:282,1,89.2500017023087,2|0,0:0|0:0,0:0:0:0:
152,292,240884,6,0,P|82:278|38:361,1,167.999994873047,2|0,3:2|1:0,0:0:0:0:
282,105,241478,5,2,0:0:0:0:
220,57,241626,6,0,L|215:40,1,10.4999996795654,2|0,0:0|0:0,0:0:0:0:
282,105,241774,6,0,B|322:73|374:99|374:99|387:147|445:145,1,181.999991668702,2|0,3:2|0:0,0:0:0:0:
263,183,242219,2,0,L|133:214,1,112,0|0,1:0|0:0,0:0:0:0:
15,98,242664,6,0,B|78:38|78:38|93:57|108:61,1,125.999996154785,2|0,3:2|0:0,0:0:0:0:
120,67,242961,5,2,1:2:0:0:
86,140,243109,1,0,0:0:0:0:
154,208,243258,5,2,0:0:0:0:
301,122,243406,1,0,0:0:0:0:
236,69,243554,6,0,B|211:93|204:133|204:133|224:164|238:201,1,140,2|0,3:2|0:0,0:0:0:0:
167,327,243999,1,0,1:0:0:0:
93,355,244148,5,2,0:0:0:0:
148,231,244296,1,0,0:0:0:0:
48,274,244444,6,0,B|99:274|120:327|120:327|108:329|92:355,1,136.499993751526,2|0,3:2|0:0,0:0:0:0:
93,355,244741,6,0,P|128:323|204:330,1,120.750002303124,2|0,1:2|0:0,0:0:0:0:
270,359,245038,1,2,0:0:0:0:
280,352,245186,1,0,0:0:0:0:
422,224,245334,6,0,B|363:183|301:221|301:221|323:227|342:245,1,167.999994873047,2|0,3:2|0:0,0:0:0:0:
422,224,245779,2,0,B|440:200|464:182|464:182|448:154|433:106,1,125.999996154785,0|0,1:0|0:0,0:0:0:0:
171,6,246224,6,0,B|159:20|145:31|145:31|155:48|164:78,1,73.4999977569581,2|0,3:2|0:0,0:0:0:0:
149,146,246521,5,2,1:2:0:0:
155,153,246595,1,0,0:0:0:0:
163,157,246669,1,0,0:0:0:0:
172,160,246744,1,0,0:0:0:0:
206,185,246818,5,2,0:0:0:0:
215,186,246892,1,0,0:0:0:0:
224,185,246966,1,0,0:0:0:0:
233,181,247040,1,0,0:0:0:0:
270,157,247114,6,0,P|236:222|113:217,1,195.999994018555,2|0,3:2|0:0,0:0:0:0:
60,177,247559,1,0,1:0:0:0:
0,297,247708,6,0,B|15:293|27:282|27:282|70:276|104:317,1,105,2|0,0:0|0:0,0:0:0:0:
122,337,248004,2,0,P|75:351|57:363,1,59.5000011348725,0|0,3:0|0:0,0:0:0:0:
198,259,248301,5,2,1:2:0:0:
123,225,248449,1,0,0:0:0:0:
247,147,248598,5,2,0:0:0:0:
366,284,248746,1,0,0:0:0:0:
425,202,248894,6,0,B|319:182|319:182|338:206|338:230,1,140,2|0,3:2|0:0,0:0:0:0:
450,126,249339,1,0,1:0:0:0:
461,131,249488,6,0,P|476:107|476:67,1,62.9999980773926,2|0,0:0|0:0,0:0:0:0:
340,0,249784,2,0,P|324:26|323:58,1,62.9999980773926,2|0,3:2|0:0,0:0:0:0:
425,202,250081,5,0,1:0:0:0:
475,262,250229,1,0,0:0:0:0:
276,354,250378,5,2,0:0:0:0:
333,267,250526,1,0,0:0:0:0:
428,324,250674,5,2,0:0:0:0:
428,324,250973,6,0,P|431:330|433:336,1,14
363,361,251273,2,0,P|357:353|356:342,1,20.9999993591309
425,202,251572,5,2,0:0:0:0:
425,202,251872,6,0,B|367:197|374:164|296:165,1,122.5
294,152,252471,6,0,B|263:174|221:176|221:176|184:226|220:278|270:278,1,209.999993591309,2|0,0:0|0:0,0:0:0:0:
175,248,253370,6,0,P|161:251|149:258,1,28
94,339,253673,2,0,P|97:325|98:311,1,28
55,222,253976,2,0,P|64:232|76:239,1,28
110,269,254261,5,2,0:0:0:0:
193,345,254557,6,0,P|183:334|171:327,1,28
0,306,254853,6,0,P|13:302|25:295,1,28
110,269,255149,5,2,0:0:0:0:
110,269,255446,1,0,0:0:0:0:
132,157,255742,6,0,P|128:170|127:184,1,28
110,269,256038,5,2,0:0:0:0:
123,266,256335,5,0,0:0:0:0:
101,260,256631,1,0,0:0:0:0:
108,282,256903,1,0,0:0:0:0:
110,269,257592,5,0,0:0:0:0:
136,123,259588,6,0,P|88:115|22:110,1,97.9999970092774,0|0,3:2|0:0,0:0:0:0:
38,110,260182,1,2,0:0:0:0:
188,65,260479,6,0,P|215:61|229:55,1,41.9999987182618,2|0,1:2|0:0,0:0:0:0:
245,26,260776,1,2,3:2:0:0:
245,26,261073,1,2,3:2:0:0:
270,180,261370,6,0,P|263:231|259:279,1,97.9999970092774,2|2,3:2|3:2,0:0:0:0:
204,332,261964,1,2,0:0:0:0:
204,332,262261,2,0,P|183:335|162:337,1,41.9999987182618,2|0,1:2|0:0,0:0:0:0:
273,359,262558,2,0,P|294:356|315:354,1,41.9999987182618,2|0,3:2|0:0,0:0:0:0:
372,306,262855,5,2,3:2:0:0:
388,330,263003,1,8,0:0:0:0:
397,308,263152,2,0,P|440:302|495:291,1,83.9999974365235,2|2,3:2|3:2,0:0:0:0:
479,294,263746,1,2,0:0:0:0:
310,189,264043,6,0,P|283:185|269:179,1,41.9999987182618,2|0,1:2|0:0,0:0:0:0:
229,118,264340,2,0,P|236:159|242:200,1,83.9999974365235,2|2,3:2|3:2,0:0:0:0:
191,256,264934,1,2,3:2:0:0:
191,256,265231,6,0,P|164:260|150:266,1,41.9999987182618
134,295,265528,1,2,3:2:0:0:
87,161,265825,6,0,P|47:173|6:182,2,83.9999974365235,2|0|2,1:2|3:0|3:2,0:0:0:0:
165,182,266568,1,8,0:0:0:0:
165,182,266716,2,0,P|197:147|196:95,1,83.9999974365235,2|2,3:2|3:2,0:0:0:0:
265,72,267310,1,2,0:0:0:0:
265,72,267607,6,0,P|261:49|260:24,1,41.9999987182618,2|0,1:2|0:0,0:0:0:0:
281,0,267904,1,0,3:0:0:0:
281,0,268201,1,2,3:2:0:0:
275,149,268498,6,0,P|318:159|361:172,2,83.9999974365235,2|0|2,3:2|3:0|0:0,0:0:0:0:
275,149,269389,6,0,P|308:141|352:123,1,70,2|0,1:2|3:0,0:0:0:0:
385,70,269835,1,2,0:0:0:0:
385,70,269984,2,0,P|383:52|375:34,1,35,2|8,3:2|0:0,0:0:0:0:
460,83,270281,6,0,P|468:122|479:164,1,70,2|0,3:2|3:0,0:0:0:0:
509,223,270875,1,2,3:2:0:0:
509,223,271172,6,0,P|473:240|457:277,2,70,2|0|2,1:2|3:2|3:2,0:0:0:0:
403,349,272063,6,0,P|387:344|372:344,1,28,2|0,3:2|0:0,0:0:0:0:
352,321,272360,1,0,3:2:0:0:
352,321,272657,2,0,P|319:329|290:334,1,56,2|2,3:2|1:2,0:0:0:0:
232,371,273251,5,0,3:2:0:0:
232,371,273548,1,0,3:2:0:0:
232,371,273845,2,0,L|220:308,1,56,2|2,3:2|3:2,0:0:0:0:
110,269,274439,5,2,0:0:0:0:
110,269,274736,2,0,P|134:266|158:261,1,41.9999987182618,0|0,1:0|3:2,0:0:0:0:
221,197,275330,6,0,P|209:198|197:201,1,20.9999993591309,2|0,0:0|0:0,0:0:0:0:
256,192,275627,12,0,280974,0:0:0:0:
