osu file format v14

[General]
AudioFilename: audio.mp3
AudioLeadIn: 0
PreviewTime: 58841
Countdown: 0
SampleSet: Soft
StackLeniency: 0.3
Mode: 0
LetterboxInBreaks: 0
WidescreenStoryboard: 0

[Editor]
Bookmarks: 9683,23940,34633,48891,59584
DistanceSpacing: 1.4
BeatDivisor: 6
GridSize: 16
TimelineZoom: 1.7

[Metadata]
Title:Tsubasa o Motanai Shoujo
TitleUnicode:翼を持たない少女
Artist:Shimotsuki Haruka
ArtistUnicode:霜月はるか
Creator:Dored
Version:Garden's Insane
Source:翠の海 -midori no umi-
Tags:Midori no Umi Galgame Eroge Visual Novel Opening Short Version Cabbit MANYO Gust Ultimate Madoka Lily Bread Fushimi Rio imoutosan Garden Imouto koko OuO
BeatmapID:1868884
BeatmapSetID:883825

[Difficulty]
HPDrainRate:6
CircleSize:4
OverallDifficulty:7
ApproachRate:8.5
SliderMultiplier:1.99999990463257
SliderTickRate:1

[Events]
//Background and Video events
0,0,"Michiru.jpg",0,0
//Break Periods
//Storyboard Layer 0 (Background)
//Storyboard Layer 1 (Fail)
//Storyboard Layer 2 (Pass)
//Storyboard Layer 3 (Foreground)
//Storyboard Sound Samples

[TimingPoints]
-1010,891.093520264952,2,2,3,40,1,0
29,-250,2,2,3,40,0,0
1960,-250,2,2,3,20,0,0
2554,-166.666666666667,2,2,3,40,0,0
9386,-166.666666666667,2,2,3,5,0,0
9460,-66.6666666666667,2,2,3,40,0,0
9683,-166.666666666667,2,2,3,40,0,0
23940,-83.3333333333333,2,2,3,50,0,0
44435,-166.666666666667,2,2,3,50,0,0
48891,-50,2,2,3,60,0,0
49336,-45.4545454545455,2,2,3,60,0,0
50079,-100,2,2,3,60,0,0
50673,-45.4545454545455,2,2,3,60,0,0
51861,-100,2,2,3,60,0,0
52455,-45.4545454545455,2,2,3,60,0,0
53643,-100,2,2,3,60,0,0
54237,-50,2,2,3,60,0,0
54683,-45.4545454545455,2,2,3,60,0,0
55425,-100,2,2,3,60,0,0
56019,-45.4545454545455,2,2,3,65,0,0
59584,-28.5714285714286,2,2,3,80,0,0
60029,-40,2,2,3,80,0,0
60475,-66.6666666666667,2,2,3,80,0,0
61366,-28.5714285714286,2,2,3,80,0,0
61812,-40,2,2,3,80,0,0
62257,-66.6666666666667,2,2,3,80,0,0
63148,-28.5714285714286,2,2,3,80,0,0
63594,-40,2,2,3,80,0,0
64039,-66.6666666666667,2,2,3,80,0,0
64930,-28.5714285714286,2,2,3,80,0,0
65376,-40,2,2,3,80,0,0
65822,-66.6666666666667,2,2,3,80,0,0
66713,-28.5714285714286,2,2,3,80,0,0
67158,-40,2,2,3,80,0,0
67604,-66.6666666666667,2,2,3,80,0,0
68495,-28.5714285714286,2,2,3,80,0,0
68940,-33.3333333333333,2,2,3,80,0,0
69386,-66.6666666666667,2,2,3,80,0,0
70277,-28.5714285714286,2,2,3,80,0,0
70723,-66.6666666666667,2,2,3,80,0,0
71168,-40,2,2,3,80,0,0
71465,-33.3333333333333,2,2,3,80,0,0
72059,-28.5714285714286,2,2,3,80,0,0
72505,-40,2,2,3,80,0,0
72950,-28.5714285714286,2,2,3,80,0,0
73247,-66.6666666666667,2,2,3,80,0,0
73841,-25,2,2,3,80,0,0
74287,-33.3333333333333,2,2,3,80,0,0
74732,-50,2,2,3,80,0,0
75624,-25,2,2,3,80,0,0
76069,-33.3333333333333,2,2,3,80,0,0
76515,-50,2,2,3,80,0,0
77406,-25,2,2,3,80,0,0
77851,-33.3333333333333,2,2,3,80,0,0
78297,-50,2,2,3,80,0,0
79188,-25,2,2,3,80,0,0
79633,-33.3333333333333,2,2,3,80,0,0
80079,-50,2,2,3,80,0,0
80970,-25,2,2,3,80,0,0
81416,-33.3333333333333,2,2,3,80,0,0
81861,-50,2,2,3,80,0,0
82752,-28.5714285714286,2,2,3,80,0,0
83198,-33.3333333333333,2,2,3,80,0,0
84534,-133.333333333333,2,2,3,40,0,0
90772,-200,2,2,3,40,0,0

[Colours]
Combo1 : 70,184,227
Combo2 : 7,226,177
Combo3 : 128,255,255
Combo4 : 128,128,255

[HitObjects]
144,223,178,5,0,0:0:0:0:
144,223,475,1,0,0:0:0:0:
144,223,772,2,0,L|137:339,1,106.666661580404,2|0,2:3|0:0,0:0:0:0:
137,329,2554,2,0,B|220:308|211:380|296:353,1,159.999987487793,0|0,0:0|0:0,0:0:0:0:
288,355,4039,1,0,0:0:0:0:
345,292,4336,2,0,P|311:271|271:272,2,79.9999937438967,2|0|0,2:3|0:0|0:0,0:0:0:0:
256,192,6118,5,0,0:0:0:0:
256,192,6267,12,0,9386,0:0:0:0:
78,357,9516,6,0,L|53:367,2,18.7499998211861
78,357,9683,2,0,L|83:296,1,59.9999953079226,2|2,1:2|0:0,0:0:0:0:
251,347,10425,1,0,0:0:0:0:
251,347,10574,1,2,0:0:0:0:
166,384,10871,1,2,0:0:0:0:
42,208,11168,5,0,0:0:0:0:
42,208,11316,1,2,0:0:0:0:
42,208,11465,2,0,P|79:215|112:215,1,59.9999953079226,2|2,1:2|0:0,0:0:0:0:
48,54,12207,1,0,0:0:0:0:
48,54,12356,1,2,0:0:0:0:
0,131,12653,1,2,0:0:0:0:
156,143,12950,5,0,0:0:0:0:
156,143,13098,1,2,0:0:0:0:
156,143,13247,2,0,P|145:123|136:74,1,59.9999953079226,2|2,1:2|0:0,0:0:0:0:
315,134,13990,1,0,0:0:0:0:
315,134,14138,1,2,0:0:0:0:
237,184,14435,1,2,0:0:0:0:
214,40,14732,5,0,0:0:0:0:
214,40,14881,1,2,0:0:0:0:
214,40,15029,2,0,P|245:54|281:61,1,59.9999953079226,2|2,1:2|0:0,0:0:0:0:
507,45,15772,1,0,0:0:0:0:
507,45,15921,1,2,0:0:0:0:
419,0,16217,1,2,0:0:0:0:
365,165,16514,1,0,0:0:0:0:
456,211,16663,5,2,0:0:0:0:
456,211,16737,1,0,0:0:0:0:
456,211,16811,2,0,L|464:272,1,59.9999953079226,2|2,1:2|0:0,0:0:0:0:
291,384,17554,1,0,0:0:0:0:
291,384,17702,1,2,0:0:0:0:
362,325,17999,1,2,0:0:0:0:
303,269,18297,5,0,0:0:0:0:
303,269,18445,1,2,0:0:0:0:
303,269,18594,2,0,L|229:263,1,59.9999953079226,2|2,1:2|0:0,0:0:0:0:
42,339,19336,1,0,0:0:0:0:
42,339,19485,1,2,0:0:0:0:
118,384,19782,1,2,0:0:0:0:
157,310,20079,5,0,0:0:0:0:
157,310,20227,1,2,0:0:0:0:
157,310,20376,2,0,P|151:270|151:238,1,59.9999953079226,2|2,1:2|0:0,0:0:0:0:
142,77,21118,1,0,0:0:0:0:
142,77,21267,1,2,0:0:0:0:
0,200,21564,1,2,0:0:0:0:
0,200,21861,6,0,L|31:197,1,19.9999984359742,2|2,0:0|0:0,0:0:0:0:
87,156,22158,2,0,L|145:168,1,59.9999953079226,2|2,1:2|0:0,0:0:0:0:
287,118,22901,1,0,0:0:0:0:
287,118,23049,1,2,0:0:0:0:
142,77,23346,1,2,0:0:0:0:
301,217,23643,5,2,0:0:0:0:
301,217,23792,1,2,0:0:0:0:
301,217,23940,2,0,L|306:312,1,79.9999937438968,2|0,2:3|0:0,0:0:0:0:
320,283,24386,2,0,L|324:362,1,79.9999937438968,2|0,0:0|0:0,0:0:0:0:
340,352,24831,1,2,0:0:0:0:
390,61,25128,1,2,0:0:0:0:
512,142,25425,5,0,0:0:0:0:
512,142,25574,1,2,0:0:0:0:
512,142,25722,2,0,L|419:133,1,79.9999937438968,8|0,0:0|0:0,0:0:0:0:
414,146,26168,2,0,L|334:138,1,79.9999937438968,2|0,0:0|0:0,0:0:0:0:
314,152,26613,1,2,0:0:0:0:
229,8,26910,2,0,L|236:87,1,79.9999937438968,2|0,0:0|0:0,0:0:0:0:
184,234,27356,5,2,0:0:0:0:
184,234,27504,2,0,P|154:205|152:127,1,119.999990615845,2|2,2:3|0:0,0:0:0:0:
236,87,28247,1,0,0:0:0:0:
150,130,28396,1,2,0:0:0:0:
285,298,28693,1,2,0:0:0:0:
199,341,28990,1,0,0:0:0:0:
199,341,29138,1,2,0:0:0:0:
199,341,29287,6,0,L|103:332,1,79.9999937438968,8|0,0:0|0:0,0:0:0:0:
285,298,29732,2,0,L|364:305,1,79.9999937438968,2|0,0:0|0:0,0:0:0:0:
229,225,30178,1,2,0:0:0:0:
229,225,30475,2,0,P|209:192|207:152,1,79.9999937438968,2|0,0:0|0:0,0:0:0:0:
207,152,31069,6,0,L|297:161,1,79.9999937438968,2|0,2:3|0:0,0:0:0:0:
368,140,31514,2,0,P|388:106|390:66,1,79.9999937438968,2|0,0:0|0:0,0:0:0:0:
303,39,31960,2,0,L|309:89,1,39.9999968719484,2|0,0:0|0:0,0:0:0:0:
368,140,32257,2,0,L|378:219,1,79.9999937438968,2|2,0:0|0:0,0:0:0:0:
480,257,32703,5,2,0:0:0:0:
480,257,32851,2,0,P|438:219|355:231,1,119.999990615845,8|2,0:0|0:0,0:0:0:0:
297,384,33594,1,0,0:0:0:0:
305,369,33742,1,2,0:0:0:0:
311,354,34039,6,0,B|326:319|326:319|311:279,1,79.9999937438968,2|2,0:0|0:0,0:0:0:0:
273,199,34633,5,8,0:0:0:0:
273,199,34930,1,2,0:0:0:0:
273,199,35227,1,2,0:0:0:0:
222,274,35524,5,8,0:0:0:0:
222,274,35821,1,2,0:0:0:0:
222,274,36118,1,2,0:0:0:0:
131,267,36415,5,8,0:0:0:0:
131,267,36712,1,2,0:0:0:0:
131,267,37009,1,2,0:0:0:0:
273,199,37307,5,8,0:0:0:0:
222,274,37455,1,2,0:0:0:0:
131,267,37604,1,2,2:3:0:0:
183,186,37752,1,2,0:0:0:0:
273,199,37901,1,2,2:3:0:0:
5,39,38198,5,8,0:0:0:0:
5,39,38495,1,2,0:0:0:0:
5,39,38792,1,2,0:0:0:0:
56,114,39089,5,8,0:0:0:0:
56,114,39386,1,2,0:0:0:0:
56,114,39683,1,2,0:0:0:0:
147,107,39980,5,8,0:0:0:0:
147,107,40277,1,2,0:0:0:0:
147,107,40574,1,2,0:0:0:0:
5,39,40871,5,8,0:0:0:0:
56,114,41019,1,2,0:0:0:0:
5,39,41168,5,2,2:3:0:0:
56,114,41316,1,2,0:0:0:0:
147,107,41465,1,2,2:3:0:0:
98,26,41613,1,2,0:0:0:0:
5,39,41762,5,8,0:0:0:0:
56,114,42059,1,2,0:0:0:0:
147,107,42356,1,2,0:0:0:0:
138,123,42653,5,8,0:0:0:0:
228,116,42950,1,2,0:0:0:0:
267,34,43247,1,2,0:0:0:0:
258,19,43544,5,8,0:0:0:0:
346,43,43841,1,2,0:0:0:0:
368,130,44138,1,2,0:0:0:0:
351,140,44435,6,0,L|379:122,1,19.9999984359742,8|2,0:0|0:0,0:0:0:0:
413,214,44732,1,2,2:3:0:0:
501,185,45029,1,2,2:3:0:0:
512,374,45326,5,8,0:0:0:0:
429,332,45623,1,2,0:0:0:0:
339,355,45920,1,2,0:0:0:0:
419,317,46217,5,8,0:0:0:0:
340,371,46514,1,2,0:0:0:0:
250,338,46812,1,2,0:0:0:0:
339,355,47109,5,8,0:0:0:0:
243,350,47406,1,2,0:0:0:0:
182,276,47703,1,2,0:0:0:0:
234,368,48000,6,0,L|242:350,1,19.9999984359742,8|2,0:0|0:0,0:0:0:0:
171,284,48297,1,2,2:3:0:0:
79,312,48594,1,2,0:0:0:0:
204,277,48742,5,2,0:0:0:0:
204,277,48816,1,2,0:0:0:0:
203,277,48891,2,0,P|261:237|265:167,1,133.333326975505,2|0,1:2|0:0,0:0:0:0:
269,179,49336,2,0,P|178:194|108:202,1,146.666664148967,8|0,0:0|0:0,0:0:0:0:
329,109,49782,2,0,P|364:119|399:127,1,73.3333320744833,2|0,0:0|0:0,0:0:0:0:
252,0,50079,6,0,L|246:66,1,66.6666634877523,2|2,0:0|0:0,0:0:0:0:
352,207,50673,6,0,P|410:166|481:178,1,146.666664148967,2|0,1:2|0:0,0:0:0:0:
481,178,51118,1,8,0:0:0:0:
300,313,51416,1,8,0:0:0:0:
377,369,51564,2,0,P|392:337|392:298,1,73.3333320744833,2|2,2:3|0:0,0:0:0:0:
208,325,51861,6,0,L|137:335,1,66.6666634877523,2|0,0:0|0:0,0:0:0:0:
0,199,52307,5,2,0:0:0:0:
0,199,52381,1,0,0:0:0:0:
0,199,52455,2,0,P|37:247|129:239,1,146.666664148967,2|0,1:2|0:0,0:0:0:0:
117,246,52901,2,0,P|104:211|100:175,1,73.3333320744833,2|0,0:0|0:0,0:0:0:0:
130,14,53198,1,8,0:0:0:0:
0,95,53346,2,0,P|36:92|73:88,1,73.3333320744833,2|0,1:2|0:0,0:0:0:0:
266,182,53643,6,0,P|234:183|200:189,1,66.6666634877523,2|2,0:0|0:0,0:0:0:0:
9,344,54237,6,0,P|75:337|141:333,1,133.333326975505,2|0,1:2|0:0,0:0:0:0:
141,333,54683,2,0,P|195:379|266:375,1,146.666664148967,8|2,0:0|0:0,0:0:0:0:
398,312,55128,2,0,P|391:348|387:384,1,73.3333320744833,2|0,2:3|0:0,0:0:0:0:
305,285,55425,6,0,P|310:252|313:218,1,66.6666634877523,2|2,0:0|0:0,0:0:0:0:
440,24,56019,6,0,B|488:49|488:49|508:95|474:134,1,146.666664148967,2|0,1:2|0:0,0:0:0:0:
474,134,56465,1,8,0:0:0:0:
224,187,56762,1,0,0:0:0:0:
312,218,56911,2,0,L|384:204,1,73.3333320744833,10|0,0:0|0:0,0:0:0:0:
155,334,57208,2,0,P|130:306|119:272,1,73.3333320744833,10|0,0:0|0:0,0:0:0:0:
474,134,57505,2,0,P|494:104|499:68,1,73.3333320744833,10|0,0:0|0:0,0:0:0:0:
224,187,57802,6,0,P|173:135|163:64,1,146.666664148967,2|0,1:2|0:0,0:0:0:0:
312,218,58247,1,2,0:0:0:0:
155,334,58396,1,10,0:0:0:0:
326,208,58544,1,8,0:0:0:0:
408,251,58693,5,2,1:2:0:0:
407,251,59584,6,0,B|428:220|446:180|446:180|540:243|488:316,1,233.333324432373,4|2,0:0|0:0,0:0:0:0:
414,348,60029,2,0,B|329:358|355:287|258:310,1,166.666658719381,2|0,1:2|0:0,0:0:0:0:
259,310,60475,2,0,L|250:373,1,49.9999995231629,4|0,0:0|0:0,0:0:0:0:
298,174,60772,1,0,1:0:0:0:
155,384,61069,2,0,L|162:334,1,49.9999995231629,0|0,3:0|0:0,0:0:0:0:
0,213,61366,6,0,B|42:204|75:183|75:183|133:233|133:233|172:235|173:219|227:216,1,233.333324432373,4|2,0:0|0:0,0:0:0:0:
444,189,61812,2,0,B|421:211|377:208|377:208|348:158|296:174,1,166.666658719381,2|0,1:2|0:0,0:0:0:0:
297,173,62257,2,0,L|306:107,1,49.9999995231629,0|0,1:0|0:0,0:0:0:0:
15,29,62554,5,0,3:0:0:0:
93,56,62703,1,0,3:0:0:0:
177,13,62851,1,0,3:0:0:0:
221,111,63000,1,0,3:0:0:0:
394,133,63148,6,0,B|461:64|421:-2|421:-2|391:33|331:40,1,233.333324432373,4|2,0:0|0:0,0:0:0:0:
196,223,63594,2,0,P|122:255|110:334,1,166.666658719381,2|0,1:2|0:0,0:0:0:0:
306,222,64039,2,0,L|292:150,1,49.9999995231629,4|0,0:0|0:0,0:0:0:0:
296,172,64336,1,0,1:0:0:0:
411,309,64633,2,0,L|401:260,1,49.9999995231629,0|0,3:0|3:0,0:0:0:0:
303,366,64930,6,0,B|163:397|225:289|69:329,1,233.333324432373,4|2,0:0|0:0,0:0:0:0:
296,172,65376,2,0,P|229:206|266:272,1,166.666658719381,2|0,1:2|0:0,0:0:0:0:
264,271,65822,2,0,L|324:264,1,49.9999995231629,0|0,1:0|0:0,0:0:0:0:
512,157,66119,6,0,L|471:151,3,24.9999997615814
421,112,66416,1,0,3:0:0:0:
444,86,66490,1,0,3:0:0:0:
452,52,66564,1,0,3:0:0:0:
432,23,66638,1,0,3:0:0:0:
403,9,66713,6,0,B|388:91|388:91|356:157|356:157|390:174|423:195,1,233.333324432373,4|2,0:0|0:0,0:0:0:0:
452,370,67158,2,0,B|466:333|477:274|477:274|449:293|412:290,1,166.666658719381,2|2,1:2|0:0,0:0:0:0:
291,381,67604,2,0,L|359:374,1,49.9999995231629,4|0,0:0|0:0,0:0:0:0:
331,242,67901,2,0,L|318:306,1,49.9999995231629,0|0,1:0|0:0,0:0:0:0:
198,384,68198,2,0,L|188:334,1,49.9999995231629,0|0,1:0|0:0,0:0:0:0:
256,168,68495,6,0,P|344:209|345:111,1,233.333324432373,4|2,0:0|0:0,0:0:0:0:
160,214,68940,6,0,P|76:244|83:162,1,199.999998092651,2|0,1:2|0:0,0:0:0:0:
273,32,69386,6,0,L|263:81,1,49.9999995231629,0|0,1:0|0:0,0:0:0:0:
77,69,69683,2,0,L|27:78,1,49.9999995231629,0|0,3:0|3:0,0:0:0:0:
165,126,69980,2,0,L|176:78,1,49.9999995231629,0|0,3:0|3:0,0:0:0:0:
454,81,70277,6,0,B|323:54|364:182|254:166,1,233.333324432373,4|2,0:0|0:0,0:0:0:0:
254,166,70723,2,0,L|268:107,1,49.9999995231629,2|0,1:2|1:0,0:0:0:0:
432,179,71020,1,0,0:0:0:0:
432,179,71168,2,0,P|469:166|523:159,1,83.3333293596904,4|0,0:0|0:0,0:0:0:0:
348,353,71465,2,0,B|386:279|340:232|340:232|289:249|271:291,1,199.999998092651,0|0,0:0|3:0,0:0:0:0:
283,269,71911,1,0,3:0:0:0:
34,370,72059,6,0,B|80:359|114:339|114:339|163:377|163:377|200:363|247:374,1,233.333324432373,4|2,0:0|0:0,0:0:0:0:
232,116,72505,2,0,P|207:195|188:277,1,166.666658719381,2|0,1:2|0:0,0:0:0:0:
430,215,72950,2,0,P|373:207|336:164,1,116.666662216187,4|0,0:0|0:0,0:0:0:0:
105,26,73247,5,0,3:0:0:0:
83,47,73322,1,0,3:0:0:0:
69,73,73396,1,0,3:0:0:0:
60,101,73470,1,0,3:0:0:0:
30,105,73544,5,0,3:0:0:0:
56,78,73619,1,0,3:0:0:0:
92,69,73693,1,0,3:0:0:0:
128,77,73767,1,0,3:0:0:0:
160,96,73841,6,0,B|213:120|276:106|276:106|326:83|218:61|220:167|251:206,1,266.666653951009,4|2,0:0|0:0,0:0:0:0:
342,367,74287,2,0,B|287:347|284:281|284:281|328:261|337:209,1,199.999998092651,2|0,1:2|0:0,0:0:0:0:
461,113,74732,2,0,P|429:122|396:126,1,66.6666634877523,4|0,0:0|0:0,0:0:0:0:
240,187,75029,1,0,1:0:0:0:
240,187,75327,2,0,P|213:168|188:137,1,66.6666634877523,0|0,3:0|0:0,0:0:0:0:
75,9,75624,6,0,B|113:60|118:106|105:157|63:180|-2:156|-7:135|10:79,1,266.666653951009,4|2,0:0|0:0,0:0:0:0:
83,247,76069,2,0,B|193:210|169:316|290:271,1,199.999998092651,2|0,1:2|0:0,0:0:0:0:
261,123,76515,2,0,P|249:154|240:186,1,66.6666634877523,0|0,1:0|0:0,0:0:0:0:
27,322,76812,5,0,3:0:0:0:
115,335,76960,1,0,3:0:0:0:
14,353,77109,1,0,3:0:0:0:
132,306,77257,1,0,3:0:0:0:
270,366,77406,6,0,B|412:399|380:245|516:294,1,266.666653951009,4|2,0:0|0:0,0:0:0:0:
468,377,77851,2,0,P|406:311|448:213,1,199.999998092651,2|0,1:2|0:0,0:0:0:0:
512,75,78297,2,0,L|501:170,1,66.6666634877523,4|0,0:0|0:0,0:0:0:0:
504,141,78594,1,0,1:0:0:0:
419,0,78891,2,0,L|411:66,1,66.6666634877523,0|0,3:0|3:0,0:0:0:0:
298,261,79188,6,0,B|375:173|300:107|300:107|236:126|242:187,1,266.666653951009,4|2,0:0|0:0,0:0:0:0:
0,126,79633,2,0,B|68:161|68:161|140:143|158:75,1,199.999998092651,2|0,1:2|0:0,0:0:0:0:
156,82,80079,2,0,L|84:53,1,66.6666634877523,0|0,1:0|0:0,0:0:0:0:
41,260,80376,6,0,L|72:271,3,33.3333317438762
142,313,80673,5,0,3:0:0:0:
181,288,80747,1,0,3:0:0:0:
197,243,80822,1,0,3:0:0:0:
187,197,80896,1,0,3:0:0:0:
166,159,80970,6,0,B|208:191|251:206|251:206|268:182|296:164|296:164|342:214|413:199,1,266.666653951009,4|2,0:0|0:0,0:0:0:0:
451,38,81416,2,0,P|366:36|398:114,1,199.999998092651,2|0,1:2|0:0,0:0:0:0:
494,236,81861,2,0,P|484:204|477:171,1,66.6666634877523,4|0,0:0|0:0,0:0:0:0:
301,291,82158,2,0,P|367:298|432:310,1,133.333326975505,0|0,1:0|1:0,0:0:0:0:
432,310,82604,1,0,0:0:0:0:
349,384,82752,6,0,B|318:357|287:317|287:317|212:309|239:387|121:345,1,233.333324432373,4|2,0:0|0:0,0:0:0:0:
32,216,83198,2,0,B|20:254|21:280|21:280|70:315|70:315|50:352|46:392,1,199.999998092651,2|0,1:2|0:0,0:0:0:0:
132,231,83643,5,4,3:2:0:0:
74,120,83792,1,0,3:0:0:0:
257,43,83940,5,4,3:2:0:0:
223,277,84089,1,0,3:0:0:0:
462,234,84237,5,4,3:2:0:0:
354,177,84386,1,0,3:0:0:0:
372,152,84534,5,2,2:3:0:0:
354,177,85426,5,2,2:3:0:0:
348,208,86317,5,2,2:3:0:0:
111,23,88099,5,2,2:3:0:0:
4,103,88396,2,0,L|53:96,1,49.9999995231629,0|0,0:0|0:0,0:0:0:0:
225,78,88990,5,2,2:3:0:0:
118,158,89287,2,0,L|167:151,1,49.9999995231629,0|0,0:0|0:0,0:0:0:0:
339,133,89881,5,2,2:3:0:0:
232,213,90178,2,0,L|281:206,1,49.9999995231629,0|0,0:0|0:0,0:0:0:0:
351,33,90772,6,0,L|338:133,1,99.9999952316285,2|2,0:0|0:3,0:0:0:0:
