osu file format v14

[General]
AudioFilename: audio.mp3
AudioLeadIn: 0
PreviewTime: 58841
Countdown: 0
SampleSet: Soft
StackLeniency: 0.3
Mode: 0
LetterboxInBreaks: 0
WidescreenStoryboard: 1

[Editor]
DistanceSpacing: 1.1
BeatDivisor: 6
GridSize: 16
TimelineZoom: 1

[Metadata]
Title:Tsubasa o Motanai Shoujo
TitleUnicode:翼を持たない少女
Artist:Shimotsuki Haruka
ArtistUnicode:霜月はるか
Creator:Dored
Version:Easy
Source:翠の海 -midori no umi-
Tags:Midori no Umi Galgame Eroge Visual Novel Opening Short Version Cabbit MANYO Gust Ultimate Madoka Lily Bread Fushimi Rio imoutosan Garden Imouto koko OuO
BeatmapID:1847492
BeatmapSetID:883825

[Difficulty]
HPDrainRate:2
CircleSize:3
OverallDifficulty:2
ApproachRate:3
SliderMultiplier:2.25
SliderTickRate:1

[Events]
//Background and Video events
0,0,"Makina.jpg",0,0
//Break Periods
2,6318,8243
//Storyboard Layer 0 (Background)
//Storyboard Layer 1 (Fail)
//Storyboard Layer 2 (Pass)
//Storyboard Layer 3 (Foreground)
//Storyboard Sound Samples

[TimingPoints]
-1010,891.093520264952,2,2,3,40,1,0
23940,-100,2,2,3,50,0,0
48891,-100,2,2,3,60,0,0
56019,-100,2,2,3,65,0,0
59584,-100,2,2,3,80,0,1
84534,-100,2,2,3,40,0,0
90030,-100,2,2,3,20,0,0
92554,-100,2,2,3,5,0,0

[Colours]
Combo1 : 70,184,227
Combo2 : 7,226,177
Combo3 : 128,255,255
Combo4 : 128,128,255

[HitObjects]
384,256,178,6,0,L|309:262,1,74.9999999999999,0|0,0:0|0:0,0:0:0:0:
255,325,772,6,0,P|130:304|198:198,1,300,2|0,2:3|0:0,0:0:0:0:
362,176,2554,2,0,P|430:69|304:48,1,300,0|0,0:0|0:0,0:0:0:0:
256,115,4039,1,0,0:0:0:0:
189,67,4336,5,2,2:3:0:0:
23,67,4930,1,0,0:0:0:0:
23,232,5524,1,0,0:0:0:0:
188,232,6118,1,0,0:0:0:0:
188,232,9683,6,0,P|183:157|174:82,2,150,2|0|2,1:2|0:0|0:0,0:0:0:0:
324,324,11465,2,0,L|435:314,1,112.5,2|2,1:2|0:0,0:0:0:0:
512,123,12653,1,2,0:0:0:0:
359,60,13247,6,0,P|284:55|209:46,2,150,2|0|2,1:2|0:0|0:0,0:0:0:0:
446,201,15029,2,0,L|436:312,1,112.5,2|2,1:2|0:0,0:0:0:0:
237,368,16217,1,2,0:0:0:0:
154,225,16811,6,0,P|80:217|21:260,2,150,2|0|2,1:2|0:0|0:0,0:0:0:0:
320,225,18594,2,0,P|393:217|452:260,2,150,2|0|2,1:2|0:0|0:0,0:0:0:0:
237,82,20376,6,0,L|125:82,2,112.5,2|2|2,1:2|0:0|0:0,0:0:0:0:
308,40,21564,1,2,0:0:0:0:
391,183,22158,2,0,L|503:183,2,112.5,2|2|2,1:2|0:0|0:0,0:0:0:0:
320,225,23346,1,2,0:0:0:0:
160,183,23940,6,0,P|85:187|10:196,2,150,2|0|2,2:3|0:0|0:0,0:0:0:0:
256,49,25722,2,0,L|367:59,1,112.5,8|2,0:0|0:0,0:0:0:0:
400,178,26613,2,0,L|325:184,1,75,2|2,0:0|0:0,0:0:0:0:
160,183,27504,6,0,P|127:117|147:46,2,150,2|0|2,2:3|0:0|0:0,0:0:0:0:
256,317,29287,2,0,L|369:307,1,112.5,8|2,0:0|0:0,0:0:0:0:
491,296,30178,2,0,L|484:220,1,75,2|2,0:0|0:0,0:0:0:0:
357,115,31069,6,0,L|366:3,2,112.5,2|2|2,2:3|0:0|0:0,0:0:0:0:
304,179,32257,1,2,0:0:0:0:
152,115,32851,2,0,L|161:3,2,112.5,8|2|2,0:0|0:0|0:0,0:0:0:0:
99,179,34039,2,0,L|105:254,1,75,2|2,0:0|0:0,0:0:0:0:
51,317,34633,5,8,0:0:0:0:
296,337,35524,1,8,0:0:0:0:
435,134,36415,1,8,0:0:0:0:
190,114,37307,2,0,L|115:108,2,75,8|2|2,0:0|2:3|2:3,0:0:0:0:
196,196,38198,5,8,0:0:0:0:
435,134,39089,1,8,0:0:0:0:
296,337,39980,1,8,0:0:0:0:
296,89,40871,2,0,L|371:83,2,75,8|2|2,0:0|2:3|2:3,0:0:0:0:
252,19,41762,5,8,0:0:0:0:
35,133,42653,1,8,0:0:0:0:
149,350,43544,1,8,0:0:0:0:
366,236,44435,2,0,L|441:242,2,75,8|2|2,0:0|2:3|2:3,0:0:0:0:
317,169,45326,5,8,0:0:0:0:
149,350,46217,1,8,0:0:0:0:
396,341,47109,1,8,0:0:0:0:
183,213,48000,2,0,L|108:219,2,75,8|2|2,0:0|2:3|0:0,0:0:0:0:
176,132,48891,6,0,L|64:141,2,112.5,2|8|2,1:2|0:0|0:0,0:0:0:0:
242,85,50079,1,2,0:0:0:0:
352,207,50673,2,0,P|422:226|488:193,1,150,2|0,1:2|0:0,0:0:0:0:
503,112,51564,2,0,L|496:37,1,75,2|2,2:3|0:0,0:0:0:0:
343,95,52455,6,0,L|352:207,2,112.5,2|2|2,1:2|0:0|1:2,0:0:0:0:
299,25,53643,1,2,0:0:0:0:
185,145,54237,2,0,L|73:136,1,112.5,2|0,1:2|0:0,0:0:0:0:
0,236,55128,2,0,L|6:310,1,75,2|2,2:3|0:0,0:0:0:0:
64,369,55722,1,2,0:0:0:0:
122,310,56019,6,0,L|196:304,2,75,2|0|2,1:2|0:0|0:0,0:0:0:0:
74,242,56911,2,0,L|0:236,2,75,2|2|2,0:0|0:0|0:0,0:0:0:0:
132,182,57802,2,0,P|237:185|277:283,1,225,2|2,1:2|1:2,0:0:0:0:
500,378,59584,6,0,P|504:303|513:228,1,150,4|0,0:0|1:0,0:0:0:0:
462,163,60475,1,4,0:0:0:0:
410,98,60772,2,0,L|335:104,1,75,0|0,1:0|3:0,0:0:0:0:
286,172,61366,2,0,L|276:284,2,112.5,4|2|0,0:0|1:2|1:0,0:0:0:0:
218,123,62554,2,0,L|211:48,1,75,0|0,3:0|3:0,0:0:0:0:
132,24,63148,6,0,P|59:39|16:98,1,150,4|0,0:0|1:0,0:0:0:0:
75,155,64039,1,4,0:0:0:0:
134,212,64336,2,0,L|208:205,1,75,0|0,1:0|3:0,0:0:0:0:
286,172,64930,2,0,L|398:181,2,112.5,4|2|0,0:0|1:2|1:0,0:0:0:0:
274,253,66119,2,0,L|280:327,1,75,0|0,3:0|3:0,0:0:0:0:
352,367,66713,6,0,L|464:358,2,112.5,4|2|4,0:0|1:2|0:0,0:0:0:0:
280,327,67901,1,0,1:0:0:0:
119,367,68495,2,0,L|7:358,2,112.5,4|2|0,0:0|1:2|1:0,0:0:0:0:
126,284,69683,2,0,L|132:210,1,75,0|0,3:0|3:0,0:0:0:0:
57,174,70277,6,0,P|37:103|70:37,1,150,4|0,0:0|1:0,0:0:0:0:
149,15,71168,1,4,0:0:0:0:
256,140,71762,1,0,3:0:0:0:
325,94,72059,2,0,P|395:74|461:107,1,150,4|0,0:0|1:0,0:0:0:0:
511,173,72950,1,4,0:0:0:0:
475,247,73247,2,0,L|481:321,1,75,0|0,3:0|3:0,0:0:0:0:
416,372,73841,6,0,P|341:363|266:359,1,150,4|0,0:0|1:0,0:0:0:0:
207,300,74732,1,4,0:0:0:0:
266,242,75029,2,0,L|340:236,1,75,0|0,1:0|3:0,0:0:0:0:
332,152,75624,2,0,L|220:161,2,112.5,4|2|0,0:0|1:2|1:0,0:0:0:0:
325,68,76812,2,0,L|252:75,1,75,0|0,3:0|3:0,0:0:0:0:
180,32,77406,6,0,P|106:24|47:67,1,150,4|0,0:0|1:0,0:0:0:0:
94,133,78297,1,4,0:0:0:0:
60,209,78594,2,0,L|67:283,1,75,0|0,1:0|3:0,0:0:0:0:
149,275,79188,2,0,L|261:266,2,112.5,4|2|0,0:0|1:2|1:0,0:0:0:0:
157,358,80376,2,0,L|231:350,1,75,0|0,3:0|3:0,0:0:0:0:
313,358,80970,6,0,P|387:359|442:311,1,150,4|0,0:0|1:0,0:0:0:0:
450,230,81861,1,4,0:0:0:0:
458,148,82158,2,0,L|384:140,1,75,0|0,1:0|1:0,0:0:0:0:
309,104,82752,2,0,P|234:112|159:117,1,150,4|0,0:0|0:0,0:0:0:0:
166,202,83643,2,0,P|240:193|315:188,1,150,4|0,3:2|0:0,0:0:0:0:
383,139,84534,5,2,2:3:0:0:
156,34,85426,1,2,2:3:0:0:
179,284,86317,1,2,2:3:0:0:
179,284,88099,5,2,2:3:0:0:
285,56,88990,1,2,2:3:0:0:
429,261,89881,1,2,2:3:0:0:
256,192,90030,12,0,92554,0:0:0:0:
