osu file format v14

[General]
AudioFilename: audio.mp3
AudioLeadIn: 0
PreviewTime: 248985
Countdown: 0
SampleSet: Soft
StackLeniency: 0.5
Mode: 0
LetterboxInBreaks: 0
WidescreenStoryboard: 1

[Editor]
Bookmarks: 486,32485,61819,74485,88152,107152,128485,144485,159152,173263,185819,212485,227819,238485,247152,259735,271152,287152
DistanceSpacing: 0.8
BeatDivisor: 4
GridSize: 32
TimelineZoom: 3.799999

[Metadata]
Title:Tsubasa o Kudasai
TitleUnicode:翼をください
Artist:Shimotsuki Haruka
ArtistUnicode:霜月はるか
Creator:misho15_701_4_0
Version:Super Extra
Source:
Tags:posydomojka ayel fsjallink bermei.inazawa bermei interface Campanella bokura no uta ぼくらのうた 山上 路夫 Michio Yamagami 村井邦彦 Kunihiko Murai pop electronic japanese
BeatmapID:3591178
BeatmapSetID:1754815

[Difficulty]
HPDrainRate:5
CircleSize:3.7
OverallDifficulty:9
ApproachRate:9.3
SliderMultiplier:1.8
SliderTickRate:1

[Events]
//Background and Video events
0,0,"271dadec6caf646d6dfd0570dfb5775ba8f28064.jpg",0,0
//Break Periods
2,160522,168135
2,223506,227252
//Storyboard Layer 0 (Background)
//Storyboard Layer 1 (Fail)
//Storyboard Layer 2 (Pass)
//Storyboard Layer 3 (Foreground)
//Storyboard Layer 4 (Overlay)
//Storyboard Sound Samples

[TimingPoints]
475,333.333333333333,4,2,0,19,1,0
475,-333.333333333333,4,2,1,19,0,0
1141,-222.222222222222,4,2,1,19,0,0
3141,-333.333333333333,4,2,1,19,0,0
3808,-222.222222222222,4,2,1,19,0,0
9141,-333.333333333333,4,2,1,19,0,0
9808,-500,4,2,1,19,0,0
11141,-100,4,2,1,19,0,0
21808,-100,4,2,1,19,0,0
23974,-83.3333333333333,4,2,1,30,0,0
24391,-83.3333333333333,4,2,1,5,0,0
24474,-133.333333333333,4,2,1,15,0,0
24808,-133.333333333333,4,2,1,5,0,0
26308,-90.9090909090909,4,2,1,30,0,0
26558,-90.9090909090909,4,2,1,5,0,0
26641,-90.9090909090909,4,2,1,25,0,0
27058,-90.9090909090909,4,2,1,5,0,0
27141,-90.9090909090909,4,2,1,15,0,0
29808,-181.818181818182,4,2,1,20,0,0
34308,-1000,4,2,1,10,0,0
34808,-166.666666666667,4,2,1,20,0,0
36474,-200,4,2,1,20,0,0
37808,-133.333333333333,4,2,1,20,0,0
38641,-181.818181818181,4,2,1,20,0,0
39808,-133.333333333333,4,2,1,20,0,0
41141,-1000,4,2,1,10,0,0
41808,-100,4,2,1,20,0,0
42474,-83.3333333333333,4,2,1,20,0,0
43141,-100,4,2,2,30,0,0
44308,-66.6666666666667,4,2,2,30,0,0
44641,-100,4,2,2,30,0,0
46974,-222.222222222221,4,2,2,30,0,0
47808,-100,4,2,2,30,0,0
49141,-181.818181818181,4,2,2,30,0,0
49308,-100,4,2,2,30,0,0
50808,-66.6666666666667,4,2,2,30,0,0
51141,-100,4,2,2,30,0,0
51474,-181.818181818181,4,2,2,30,0,0
51808,-133.333333333333,4,2,2,30,0,0
52974,-66.6666666666667,4,2,2,30,0,0
53474,-222.222222222221,4,2,2,30,0,0
53808,-100,4,2,2,30,0,0
57141,-181.818181818181,4,2,2,30,0,0
57474,-333.333333333333,4,2,2,30,0,0
58308,-66.6666666666667,4,2,2,35,0,0
58808,-100,4,2,2,35,0,0
61141,-76.9230769230769,4,2,2,40,0,0
62474,-66.6666666666667,4,2,2,40,0,0
62808,-100,4,2,2,55,0,0
62974,-76.9230769230769,4,2,2,55,0,0
64474,-52.6315789473684,4,2,2,55,0,0
65641,-66.6666666666667,4,2,2,55,0,0
66474,-60.6060606060606,4,2,2,55,0,0
66974,-66.6666666666667,4,2,2,55,0,0
69141,-55.5555555555556,4,2,2,55,0,0
69641,-66.6666666666667,4,2,2,55,0,0
69808,-62.5,4,2,2,55,0,0
72474,-52.6315789473684,4,2,2,55,0,0
72974,-66.6666666666667,4,2,2,55,0,0
75808,-100,4,2,2,55,0,0
76308,-66.6666666666667,4,2,2,55,0,0
77474,-133.333333333333,4,2,2,55,0,0
77808,-66.6666666666667,4,2,2,55,0,0
78141,-100,4,2,2,55,0,0
78974,-66.6666666666667,4,2,2,55,0,0
81141,-100,4,2,2,55,0,0
81808,-66.6666666666667,4,2,2,55,0,0
84474,-100,4,2,2,55,0,0
85808,-100,4,2,1,20,0,0
86141,-133.333333333333,4,2,1,20,0,0
88141,-153.846153846153,4,2,1,20,0,0
90641,-133.333333333333,4,2,1,20,0,0
93474,-117.647058823529,4,2,1,20,0,0
96474,-100,4,2,1,20,0,0
104474,-133.333333333333,4,2,1,20,0,0
106641,-133.333333333333,4,2,2,25,0,0
107141,-285.714285714284,4,2,1,20,0,0
107808,-133.333333333333,4,2,1,20,0,0
114808,-66.6666666666667,4,2,1,25,0,0
115141,-66.6666666666667,4,2,1,35,0,0
115558,-1000,4,2,1,10,0,0
117474,-666.666666666658,4,2,1,10,0,0
117808,-181.818181818181,4,2,1,15,0,0
118474,-333.333333333333,4,2,1,15,0,0
122641,-250,4,2,1,15,0,0
123808,-250,4,2,1,15,0,0
124808,-133.333333333333,4,2,1,15,0,0
125974,-181.818181818181,4,2,1,15,0,0
128474,-181.818181818181,4,2,1,25,0,0
129141,-113.636363636364,4,2,1,25,0,0
133474,-100,4,2,1,25,0,0
133808,-100,4,2,1,30,0,0
134474,-133.333333333333,4,2,1,20,0,0
135808,-166.666666666667,4,2,1,20,0,0
136224,-175.438596491228,4,2,1,20,0,0
137641,-100,4,2,1,20,0,0
139141,-116.279069767442,4,2,1,10,0,0
139808,-66.6666666666667,4,2,1,20,0,0
140474,-133.333333333333,4,2,1,20,0,0
142474,-100,4,2,1,20,0,0
144141,-83.3333333333333,4,2,1,20,0,0
144474,-133.333333333333,4,2,1,20,0,0
150141,-133.333333333333,4,2,1,10,0,0
150641,-133.333333333333,4,2,1,5,0,0
151690,333.333333333333,4,2,1,5,1,0
153690,333.333333333333,17,2,1,10,1,0
153690,-1000,4,2,1,10,0,0
158190,-100,4,2,1,20,0,0
158523,-100,4,2,1,30,0,0
158856,-100,4,2,1,40,0,0
159356,333.333333333333,4,2,1,50,1,0
168689,458.015267175573,4,2,1,20,1,0
168689,-200,4,2,1,20,0,0
170521,457.142857142857,4,2,1,20,1,0
170521,-200,4,2,1,20,0,0
171435,-66.6666666666667,4,2,1,20,0,0
173263,-76.9230769230769,4,2,1,20,0,0
174178,-90.9090909090909,4,2,1,20,0,0
175206,-71.4285714285714,4,2,1,20,0,0
176006,446.096654275093,4,2,1,20,1,0
177232,-83.3333333333333,4,2,1,20,0,0
177790,455.407969639469,4,2,1,20,1,0
180067,-83.3333333333333,4,2,1,30,0,0
180750,-83.3333333333333,4,2,1,30,0,0
183254,447.761194029851,4,2,1,30,1,0
184037,-66.6666666666667,4,2,1,50,0,0
185045,433.212996389892,4,2,1,25,1,0
185694,-66.6666666666667,4,2,1,25,0,0
186561,-66.6666666666667,4,2,1,40,0,0
186809,456.273764258555,4,2,1,40,1,0
186809,-66.6666666666667,4,2,1,40,0,0
190459,448.598130841121,4,2,1,40,1,0
192141,-66.6666666666667,4,2,1,40,0,0
192926,-45.4545454545455,4,2,1,40,0,0
193150,-45.4545454545455,4,2,1,45,0,0
193487,-76.9230769230769,4,2,1,45,0,0
194384,-66.6666666666667,4,2,1,45,0,0
196739,434.782608695652,4,2,1,30,1,0
196739,-200,4,2,1,20,0,0
197608,461.538461538462,4,2,1,10,1,0
198877,-100,4,2,1,15,0,0
199454,483.870967741936,4,2,1,20,1,0
200421,-285.714285714286,4,2,1,25,0,0
201389,535.714285714286,4,2,1,20,1,0
201389,-181.818181818181,4,2,1,20,0,0
202460,-181.818181818181,4,3,1,5,0,0
205674,422.535211267606,4,2,1,20,1,0
206096,-133.333333333333,4,2,1,20,0,0
207364,389.61038961039,4,2,1,20,1,0
207753,681.818181818182,4,2,1,20,1,0
208434,612.244897959184,4,2,1,20,1,0
209658,491.803278688525,4,2,1,20,1,0
209658,-1000,4,2,1,20,0,0
210641,529.801324503311,4,2,1,20,1,0
211435,-100,4,2,1,15,0,0
211568,-100,4,2,1,10,0,0
211700,-100,4,2,1,5,0,0
212230,-100,4,2,1,15,0,0
212760,372.670807453416,4,2,1,20,1,0
212760,-133.333333333333,4,2,1,20,0,0
213132,697.674418604651,4,2,1,20,1,0
213829,808.080808080808,4,2,1,20,1,0
213829,-90.9090909090909,4,2,1,20,0,1
215041,-76.9230769230769,4,2,2,15,0,1
215243,-76.9230769230769,4,2,3,10,0,1
215445,-76.9230769230769,4,2,0,20,0,0
215640,333.333333333333,4,2,0,20,1,0
215640,-370.37037037037,4,2,1,15,0,1
215973,-357.142857142857,4,2,2,20,0,1
216306,-357.142857142857,4,2,3,25,0,1
216640,-357.142857142857,4,2,4,30,0,1
217306,-357.142857142857,4,2,5,35,0,1
217973,-357.142857142857,4,2,6,40,0,1
218973,-357.142857142857,4,2,7,45,0,1
219973,-357.142857142857,4,2,8,50,0,1
220973,-357.142857142857,4,2,9,55,0,1
221973,-357.142857142857,4,2,10,60,0,1
222640,-357.142857142857,4,2,11,70,0,1
222973,-357.142857142857,4,2,12,80,0,1
223140,-357.142857142857,4,2,13,90,0,1
223223,-357.142857142857,4,2,14,100,0,1
223306,-333.333333333333,4,2,15,5,0,0
227806,333.333333333333,4,2,0,20,1,0
228472,333.333333333333,4,2,0,20,1,0
228472,-100,4,2,1,20,0,0
237638,-76.9230769230769,4,2,1,20,0,0
238472,-133.333333333333,4,2,1,20,0,0
249138,-133.333333333333,4,2,1,20,0,0
249805,-58.8235294117647,4,2,2,70,0,1
250138,-66.6666666666667,4,2,2,70,0,1
250638,-58.8235294117647,4,2,2,70,0,1
252138,-41.6666666666667,4,2,2,70,0,1
252471,-58.8235294117647,4,2,2,70,0,1
253638,-44.4444444444445,4,2,2,70,0,1
253971,-57.1428571428571,4,2,2,70,0,1
254805,-64.5161290322581,4,2,2,70,0,1
257805,-43.4782608695652,4,2,2,70,0,1
258305,-58.8235294117647,4,2,2,70,0,1
259305,-76.9230769230769,4,2,2,70,0,1
260138,-66.6666666666667,4,2,2,75,0,1
262888,-66.6666666666667,4,2,2,75,0,1
266805,-100,4,2,2,75,0,1
268471,-66.6666666666667,4,2,2,75,0,1
271138,-100,4,2,1,40,0,0
275638,-83.3333333333333,4,2,1,40,0,0
276638,-71.4285714285714,4,2,1,40,0,0
277471,-90.9090909090909,4,2,1,40,0,0
280638,-133.333333333333,4,2,1,40,0,0
281138,-66.6666666666667,4,2,1,40,0,0
287638,-90.9090909090909,4,2,1,40,0,0
290471,-111.111111111111,4,2,1,40,0,0
290805,-181.818181818181,4,2,1,30,0,0
291138,340.425531914893,4,2,1,25,1,0
291648,-133.333333333333,4,2,1,20,0,0
292499,-181.818181818181,4,2,1,15,0,0
293010,-399.999999999997,4,2,1,10,0,0
294244,340.425531914893,4,2,1,5,1,0
294499,-100,4,2,1,5,0,0

[Colours]
Combo1 : 18,141,241
Combo2 : 249,210,57
Combo3 : 41,153,214
Combo4 : 100,201,234

[HitObjects]
5,292,475,6,0,L|15:331,3,26.9999991760254,2|0|0|0,0:0|0:0|0:0|0:0,0:0:0:0:
100,322,1141,2,0,L|86:360,3,40.4999987640381
182,365,1808,5,0,0:0:0:0:
182,365,1974,1,0,0:0:0:0:
182,365,2141,1,0,0:0:0:0:
245,304,2308,5,0,0:0:0:0:
242,288,2474,1,0,0:0:0:0:
239,271,2641,1,0,0:0:0:0:
267,199,2808,1,0,0:0:0:0:
334,162,2974,1,0,0:0:0:0:
488,203,3141,6,0,L|447:195,3,26.9999991760254
447,117,3808,6,0,L|408:132,3,40.4999987640381
492,43,4474,5,0,0:0:0:0:
476,40,4640,1,0,0:0:0:0:
459,37,4807,1,0,0:0:0:0:
388,0,4974,5,0,0:0:0:0:
318,33,5141,1,0,0:0:0:0:
381,76,5308,1,0,0:0:0:0:
364,37,5474,5,0,0:0:0:0:
364,37,5641,1,0,0:0:0:0:
304,120,5808,6,0,L|293:167,3,40.4999987640381,2|0|0|0,0:0|0:0|0:0|0:0,0:0:0:0:
217,175,6474,2,0,L|233:220,3,40.4999987640381
304,239,7141,5,0,0:0:0:0:
288,266,7308,1,0,0:0:0:0:
262,285,7474,1,0,0:0:0:0:
230,292,7641,1,0,0:0:0:0:
163,244,7808,5,0,0:0:0:0:
163,244,7974,1,0,0:0:0:0:
84,277,8141,5,0,0:0:0:0:
84,277,8308,1,0,0:0:0:0:
231,187,8474,6,0,L|243:132,3,40.4999987640381
176,102,9141,6,0,L|208:70,3,26.9999991760254
167,13,9808,6,0,L|193:7,3,18
0,82,10474,5,0,0:0:0:0:
76,114,10641,5,0,0:0:0:0:
132,193,10808,5,0,0:0:0:0:
101,362,10974,5,0,0:0:0:0:
171,296,11141,6,0,L|229:308,1,45,2|0,0:0|0:0,0:0:0:0:
244,333,11308,2,0,L|288:322,1,45
132,358,11474,5,0,0:0:0:0:
110,341,11641,1,0,0:0:0:0:
97,316,11808,1,0,0:0:0:0:
100,288,11974,1,0,0:0:0:0:
144,229,12141,5,0,0:0:0:0:
81,35,12308,2,0,P|13:63|26:142,1,135,2|0,0:0|0:0,0:0:0:0:
58,172,12641,1,0,0:0:0:0:
237,3,12808,5,0,0:0:0:0:
289,52,12974,1,0,0:0:0:0:
259,118,13141,1,0,0:0:0:0:
253,35,13308,5,0,0:0:0:0:
325,15,13474,5,0,0:0:0:0:
401,77,13641,5,0,0:0:0:0:
290,192,13808,6,0,P|243:153|181:141,1,90,2|0,0:0|0:0,0:0:0:0:
353,246,14141,2,0,P|409:232|447:202,1,90
344,384,14474,5,0,0:0:0:0:
289,334,14641,1,0,0:0:0:0:
309,263,14808,1,0,0:0:0:0:
368,383,14974,6,0,P|380:300|464:291,1,180,2|0,0:0|0:0,0:0:0:0:
456,303,15474,2,0,B|393:307|394:261|321:268,1,135
212,299,15808,5,0,0:0:0:0:
149,352,15974,1,0,0:0:0:0:
218,384,16141,5,0,0:0:0:0:
160,271,16308,1,0,0:0:0:0:
88,303,16474,2,0,L|-11:326,1,90,2|0,0:0|0:0,0:0:0:0:
85,95,16808,6,0,B|133:131|86:162|141:206,1,112.5
128,194,17141,1,0,0:0:0:0:
9,88,17308,1,0,0:0:0:0:
70,22,17474,5,0,0:0:0:0:
191,1,17641,5,2,0:0:0:0:
191,1,17808,2,0,B|254:-2|247:46|323:42,1,135
306,31,18141,2,0,P|368:32|388:96,1,135
336,253,18474,5,0,0:0:0:0:
472,167,18641,1,0,0:0:0:0:
384,330,18808,5,0,0:0:0:0:
470,358,18974,5,0,0:0:0:0:
287,367,19141,6,0,P|273:326|215:220,1,135,2|0,0:0|0:0,0:0:0:0:
208,384,19474,2,0,P|190:345|148:316,1,90
1,233,19808,5,0,0:0:0:0:
74,197,19974,5,0,0:0:0:0:
146,262,20141,5,0,0:0:0:0:
122,361,20308,5,2,0:0:0:0:
50,376,20474,5,0,0:0:0:0:
11,350,20641,5,0,0:0:0:0:
18,322,20808,5,0,0:0:0:0:
32,315,20974,5,0,0:0:0:0:
42,323,21141,5,0,0:0:0:0:
44,333,21308,5,0,0:0:0:0:
40,339,21474,1,0,0:0:0:0:
33,340,21641,1,0,0:0:0:0:
1,233,21808,5,4,0:0:0:0:
481,208,23974,6,0,B|462:255|330:251|308:123|361:79|391:94,1,270,2|0,0:0|0:0,0:0:0:0:
289,135,24474,2,0,B|352:160|316:193|378:232,1,135.000005149842,2|0,0:0|0:0,0:0:0:0:
281,309,26308,6,0,B|299:336|261:356|283:361|281:381|281:381|283:361|308:364|277:330|302:313,1,148.50000453186,2|0,0:0|0:0,0:0:0:0:
296,235,26641,6,0,B|290:230|290:230|326:119|326:119|321:235|321:235|313:240,1,247.500007553101,2|0,0:0|0:0,0:0:0:0:
239,319,27141,2,0,B|306:308|284:259|373:248,1,148.50000453186,4|0,0:0|0:0,0:0:0:0:
17,10,28641,5,0,0:0:0:0:
82,45,28974,5,0,0:0:0:0:
119,117,29308,5,0,0:0:0:0:
78,270,29724,5,0,0:0:0:0:
79,270,29808,2,0,B|19:299|72:332|27:374|27:374|86:333|35:343|139:275|82:269|150:252|-145:169|315:310|130:118|119:117|119:117|169:129|168:127|225:110|225:110|231:108|231:108|167:129|202:165|130:143|139:177,1,668.250020393372,4|0,0:1|0:0,0:0:0:0:
213,209,32141,1,0,0:0:0:0:
96,28,32474,6,0,B|55:42|-16:10|-49:-37|35:49|50:79|40:113,1,198.000006042481,2|0,2:0|2:0,2:3:0:0:
220,15,33308,1,0,0:0:0:0:
224,20,33474,1,0,0:0:0:0:
17,220,33808,6,0,P|37:188|99:187,1,99.0000030212403,2|0,0:0|0:0,0:0:0:0:
99,199,34308,2,0,P|106:205|114:205,1,18
195,165,34808,6,0,P|203:193|209:220,1,53.9999983520508
142,0,35141,6,0,P|117:84|105:160,1,161.999995056153,2|0,0:0|0:0,0:0:0:0:
206,127,35808,6,0,P|226:131|217:104,1,53.9999983520508
0,32,36141,2,0,P|20:27|11:54,1,53.9999983520508
3,373,36474,6,0,B|33:319|79:356|101:274,1,134.999995880127,2|0,0:0|0:0,0:0:0:0:
38,240,37086,2,0,L|32:218,2,15
89,159,37474,6,0,P|126:170|143:173,1,45
395,180,37808,6,0,B|282:150|311:247|185:222,1,202.500007724762,2|0,0:0|0:0,0:0:0:0:
209,249,38391,1,0,0:0:0:0:
219,234,38474,1,0,0:0:0:0:
217,263,38558,2,0,L|228:298,2,33.7500012874604
173,354,38808,2,0,P|232:335|255:329,1,74.2500022659302
311,295,39141,6,0,P|338:338|444:365,1,148.50000453186,2|0,0:0|0:0,0:0:0:0:
427,368,39808,6,0,B|444:298|522:318|419:376,1,135.000005149842
498,313,40308,1,0,0:0:0:0:
356,378,40474,6,0,P|408:248|424:137,1,236.250009012223,2|0,0:0|0:0,0:0:0:0:
433,151,41141,2,0,P|424:135|417:126,1,27
296,99,41808,6,0,B|251:-75|163:-21|297:115,1,270,2|0,0:0|0:0,0:0:0:0:
365,199,42474,6,0,B|358:105|248:41|138:82|116:233|142:230|226:197|248:184|238:116|244:100,1,377.999988464356,2|0,0:0|0:0,0:0:0:0:
371,20,43141,6,0,P|430:38|481:57,1,90,0|0,1:0|0:0,0:0:0:0:
456,47,43474,2,0,P|382:69|342:144,1,135
472,214,43808,6,0,P|509:221|493:181,1,90,8|0,0:0|0:0,0:0:0:0:
451,180,44141,1,0,0:0:0:0:
425,43,44308,6,0,P|291:71|192:97,1,202.500007724762,0|0,0:0|0:0,0:0:0:0:
231,99,44641,2,0,P|280:112|306:115,1,45
315,46,44808,5,0,0:0:0:0:
246,5,44974,1,0,0:0:0:0:
155,63,45141,1,8,0:0:0:0:
18,56,45308,6,0,P|12:27|7:0,1,45,0|0,0:0|0:0,0:0:0:0:
79,115,45474,2,0,P|121:70|151:22,1,90
0,249,45808,6,0,P|28:193|93:229,1,135,0|0,1:0|0:0,0:0:0:0:
88,229,46141,1,0,0:0:0:0:
199,299,46308,2,0,P|230:343|275:321,1,90,0|8,1:0|0:0,0:0:0:0:
285,269,46641,1,0,0:0:0:0:
130,380,46808,1,0,0:0:0:0:
123,366,46974,6,0,P|121:336|108:280,1,80.9999975280763,0|0,0:0|0:0,0:0:0:0:
3,368,47474,1,0,0:0:0:0:
82,310,47641,1,0,1:0:0:0:
242,166,47808,2,0,P|199:127|138:92,1,90,8|0,0:0|1:0,0:0:0:0:
1,61,48141,6,0,P|18:1|90:16,1,135,0|0,0:0|0:0,0:0:0:0:
173,74,48474,6,0,P|150:96|131:55,1,90
228,14,48808,5,0,0:0:0:0:
465,12,49141,6,0,L|453:43,1,24.7500007553101,8|0,0:0|0:0,0:0:0:0:
496,129,49308,6,0,L|487:74,1,45
460,15,49474,6,0,P|410:24|395:26,1,45,0|0,0:0|0:0,0:0:0:0:
432,113,49641,22,0,L|414:161,1,45,0|0,1:0|0:0,0:0:0:0:
336,87,49808,6,0,P|277:65|237:49,1,90
237,72,50141,1,0,0:0:0:0:
0,109,50308,6,0,P|85:79|151:133,1,180,0|0,1:0|0:0,0:0:0:0:
45,244,50724,1,0,0:0:0:0:
94,304,50808,6,0,B|63:338|43:374|43:374|42:352|42:352|5:361|5:361|29:343|27:303,1,202.500007724762
79,289,51141,6,0,P|69:231|55:188,1,90,0|0,1:0|0:0,0:0:0:0:
157,384,51474,2,0,P|170:319|181:299,1,74.2500022659302
59,201,51808,6,0,B|154:155|144:243|244:282|309:240|295:206,1,270.000010299683,8|0,0:0|0:0,0:0:0:0:
509,248,52641,1,0,1:0:0:0:
509,248,52808,1,0,1:0:0:0:
443,218,52974,1,0,0:0:0:0:
383,293,53141,2,0,P|340:307|294:328,1,67.5000025749208,8|0,0:0|0:0,0:0:0:0:
309,338,53308,1,8,0:0:0:0:
490,378,53474,2,0,P|478:347|472:309,1,60.7499981460572
511,384,53808,6,0,P|439:327|487:192,1,225,0|0,1:0|0:0,0:0:0:0:
481,210,54308,1,0,0:0:0:0:
325,10,54474,6,0,P|292:87|289:118,1,90,8|0,0:0|0:0,0:0:0:0:
420,99,54808,1,0,0:0:0:0:
355,146,54974,1,0,0:0:0:0:
226,195,55141,6,0,P|209:113|160:7,1,180,0|0,1:0|0:0,0:0:0:0:
88,176,55641,1,0,0:0:0:0:
25,119,55808,2,0,P|79:96|107:77,1,90,8|0,0:0|0:0,0:0:0:0:
259,0,56141,2,0,P|329:21|370:44,1,90,0|0,0:0|0:0,0:0:0:0:
339,183,56474,6,0,P|389:132|506:140,1,180,0|0,1:0|0:0,0:0:0:0:
453,198,56974,2,0,L|472:241,1,45,0|0,0:0|0:0,0:0:0:0:
453,198,57141,6,0,P|466:157|481:118,1,74.2500022659302,8|0,0:0|0:0,0:0:0:0:
453,198,57474,2,0,L|392:179,1,53.9999983520508
327,218,57974,5,0,0:0:0:0:
315,223,58141,1,2,0:0:0:0:
17,218,58308,6,0,B|-10:205|-10:205|-13:201|-13:201|21:133,1,67.5000025749208,0|0,1:0|0:0,0:0:0:0:
83,271,58474,2,0,B|110:258|110:258|113:254|113:254|79:186,1,67.5000025749208,0|0,1:0|0:0,0:0:0:0:
63,201,58641,5,0,0:0:0:0:
30,313,58808,2,0,L|11:375,1,45,8|0,0:0|0:0,0:0:0:0:
103,350,58974,6,0,L|116:376,2,22.5
245,230,59141,2,0,B|157:210|151:290|72:264,1,180,0|0,1:0|0:0,0:0:0:0:
116,10,59808,5,0,0:0:0:0:
215,124,59974,2,0,P|207:68|189:22,1,90,8|0,0:0|0:0,0:0:0:0:
46,89,60308,2,0,P|32:131|32:152,1,45,0|0,0:0|0:0,0:0:0:0:
71,154,60474,5,0,1:0:0:0:
306,76,60641,6,0,P|364:68|325:29,1,135,0|0,0:0|0:0,0:0:0:0:
330,28,60974,2,0,L|353:80,1,45
433,145,61141,6,0,B|466:56|513:3|513:3|472:10|426:-5,1,233.999989288331,8|0,0:0|0:0,0:0:0:0:
362,176,61641,1,0,0:0:0:0:
512,344,61808,2,0,P|440:313|374:299,1,116.999994644165,0|0,1:0|0:0,0:0:0:0:
235,279,62141,6,0,L|266:344,1,58.4999973220826,2|0,0:0|0:0,0:0:0:0:
258,382,62308,2,0,L|277:312,1,58.4999973220826,8|0,0:0|0:0,0:0:0:0:
318,290,62474,6,0,P|320:251|218:193,1,135.000005149842,0|0,1:0|0:0,0:0:0:0:
0,126,62808,6,0,P|23:150|25:172,1,45,2|0,0:0|0:0,0:0:0:0:
97,189,62974,2,0,B|96:213|90:232|73:244,1,58.4999973220826,8|0,0:0|0:0,0:0:0:0:
169,335,63141,5,2,0:0:0:0:
104,377,63308,1,2,0:0:0:0:
13,327,63474,5,8,0:0:0:0:
33,206,63641,5,0,0:0:0:0:
141,97,63808,2,0,L|127:28,1,58.4999973220826,8|0,0:0|0:0,0:0:0:0:
80,0,63974,1,0,0:0:0:0:
43,21,64058,1,0,0:0:0:0:
156,104,64141,6,0,B|189:116|209:97|204:68|210:98|242:106|275:73,1,116.999994644165,8|0,0:0|0:0,0:0:0:0:
61,287,64474,6,0,B|18:307|-11:209|91:149,1,170.999995433807,0|0,1:0|0:0,0:0:0:0:
137,310,64808,2,0,B|164:348|237:276|177:174,1,170.999995433807,0|0,1:0|0:0,0:0:0:0:
258,0,65141,5,0,1:0:0:0:
185,34,65308,5,2,0:0:0:0:
143,134,65474,5,0,3:0:0:0:
512,262,65641,2,0,B|467:326|403:189|385:335|321:283,1,202.500007724762,0|0,1:0|0:0,0:0:0:0:
404,244,65974,6,0,B|406:214|411:205|396:207|405:214|421:244,1,67.5000025749208,2|0,0:0|0:0,0:0:0:0:
468,371,66141,2,0,P|389:354|392:311,1,135.000005149842,0|0,3:0|0:0,0:0:0:0:
258,24,66474,6,0,B|246:3|273:-43|371:-37|397:31|378:144|335:150|335:150|360:117|326:97|406:96,1,371.250003540516,0|0,1:0|0:0,0:0:0:0:
300,135,66974,2,0,P|332:108|375:88,1,67.5000025749208,0|0,3:0|0:0,0:0:0:0:
488,19,67141,6,0,P|392:54|293:114,1,202.500007724762,0|0,1:0|0:0,0:0:0:0:
507,97,67474,2,0,P|449:123|413:196,1,135.000005149842,0|0,1:0|0:0,0:0:0:0:
336,384,67808,2,0,P|324:349|298:314,1,67.5000025749208,0|0,1:0|0:0,0:0:0:0:
285,314,67974,5,2,0:0:0:0:
370,197,68141,2,0,P|407:216|417:247,1,67.5000025749208,0|0,3:0|0:0,0:0:0:0:
234,348,68308,6,0,B|146:285|141:350|52:262,1,202.500007724762,0|0,1:0|0:0,0:0:0:0:
50,218,68641,2,0,P|27:242|23:275,1,67.5000025749208,0|0,3:0|0:0,0:0:0:0:
96,384,68808,2,0,P|153:344|147:272,1,135.000005149842,2|0,0:0|0:0,0:0:0:0:
38,13,69141,6,0,B|80:25|100:69|92:66|92:66|106:75|109:118|71:197|-5:184|-5:184|13:158|44:158|44:158|60:124|109:118,1,404.999987640381,0|0,1:0|0:0,0:0:0:0:
144,182,69641,2,0,P|171:197|197:235,1,67.5000025749208,2|0,0:0|0:0,0:0:0:0:
16,22,69808,6,0,P|126:53|222:100,1,216,0|0,1:0|0:0,0:0:0:0:
162,0,70141,2,0,P|228:69|293:173,1,216,0|0,1:0|0:0,0:0:0:0:
267,279,70474,6,0,P|332:305|364:368,1,144,0|0,1:0|0:0,0:0:0:0:
512,338,70808,2,0,B|433:313|445:380|357:357,1,144,0|0,3:0|0:0,0:0:0:0:
384,284,71058,5,0,0:0:0:0:
384,284,71141,2,0,B|318:228|388:88|529:241|394:265|378:116,1,216,0|0,1:0|0:0,0:0:0:0:
327,143,71474,5,2,0:0:0:0:
349,58,71641,5,0,3:0:0:0:
416,0,71808,5,0,1:0:0:0:
394,174,71974,5,2,0:0:0:0:
439,113,72141,5,0,3:0:0:0:
512,95,72308,5,2,0:0:0:0:
474,211,72474,2,0,B|388:174|388:245|300:216,2,170.999995433807,0|0|0,1:0|0:0|1:0,0:0:0:0:
268,197,72974,2,0,L|290:280,1,67.5000025749208,0|0,3:0|0:0,0:0:0:0:
353,302,73141,2,0,L|318:371,1,67.5000025749208,0|0,3:0|0:0,0:0:0:0:
294,377,73308,5,0,0:0:0:0:
27,315,73474,2,0,L|141:287,1,67.5000025749208,0|0,1:0|0:0,0:0:0:0:
38,295,73640,2,0,L|63:205,1,67.5000025749208,2|0,0:0|0:0,0:0:0:0:
67,339,73974,6,0,B|130:392|65:342|128:394,2,67.5000025749208,0|0|0,3:0|0:0|3:0,0:0:0:0:
0,181,74308,1,0,0:0:0:0:
142,245,74474,6,0,P|198:212|212:148,1,135.000005149842,0|0,1:0|0:0,0:0:0:0:
149,99,74724,1,0,0:0:0:0:
245,90,74808,2,0,P|190:67|169:52,1,67.5000025749208,0|0,1:0|0:0,0:0:0:0:
99,8,74974,2,0,P|48:17|9:27,1,67.5000025749208,0|0,3:0|0:0,0:0:0:0:
42,123,75141,6,0,B|74:136|134:49|68:0|-24:5|-37:127|64:104,1,202.500007724762,0|0,1:0|0:0,0:0:0:0:
128,162,75474,2,0,B|164:147|230:238|164:287|72:282|66:182|95:199,1,202.500007724762,0|0,1:0|0:0,0:0:0:0:
51,305,75808,6,0,P|27:346|4:396,2,90,0|2|0,3:0|0:0|3:0,0:0:0:0:
3,274,76308,6,0,P|94:307|205:354,1,202.500007724762,0|0,1:0|0:0,0:0:0:0:
183,231,76641,2,0,P|227:273|260:323,1,67.5000025749208,2|0,0:0|0:0,0:0:0:0:
189,384,76808,6,0,P|133:348|124:284,1,135.000005149842,0|0,3:0|0:0,0:0:0:0:
263,194,77058,1,0,0:0:0:0:
263,194,77141,2,0,P|334:246|336:294,1,135.000005149842,0|0,1:0|0:0,0:0:0:0:
289,371,77474,2,0,P|275:344|271:331,1,33.7500012874604,0|0,1:0|0:0,0:0:0:0:
427,248,77641,2,0,P|420:264|412:279,1,33.7500012874604,0|0,3:0|0:0,0:0:0:0:
255,216,77808,6,0,P|269:116|288:16,1,202.500007724762,0|0,1:0|0:0,0:0:0:0:
232,60,78141,2,0,P|165:98|128:95,1,90,0|0,1:0|0:0,0:0:0:0:
465,17,78474,1,2,0:0:0:0:
433,89,78641,1,0,3:0:0:0:
354,69,78808,1,2,0:0:0:0:
188,30,78974,6,0,B|155:-18|247:-51|469:-29|268:259|197:177|254:91,1,337.500012874604,0|0,1:0|0:0,0:0:0:0:
0,47,79474,6,0,B|26:46|31:73|82:69,1,67.5000025749208,0|0,3:0|0:0,0:0:0:0:
116,87,79641,2,0,P|84:99|53:111,1,67.5000025749208,2|0,0:0|0:0,0:0:0:0:
1,106,79808,6,0,L|194:35,1,202.500007724762,0|0,1:0|0:0,0:0:0:0:
128,238,80141,1,0,1:0:0:0:
128,238,80224,1,0,0:0:0:0:
185,222,80308,2,0,L|268:261,1,67.5000025749208,2|0,0:0|0:0,0:0:0:0:
499,203,80474,5,0,1:0:0:0:
437,186,80641,1,0,0:0:0:0:
364,206,80808,1,0,3:0:0:0:
334,279,80974,1,2,0:0:0:0:
259,265,81141,2,0,P|243:322|234:362,1,90,0|0,1:0|0:0,0:0:0:0:
4,155,81474,6,0,P|97:219|138:218,1,135,2|0,0:0|0:0,0:0:0:0:
0,243,81808,6,0,B|92:179|117:161|117:161|106:189|118:233,1,202.500007724762
248,384,82141,6,0,P|209:359|155:354,1,67.5000025749208,0|0,3:0|0:0,0:0:0:0:
183,329,82308,2,0,P|132:353|91:353,1,67.5000025749208,2|0,0:0|0:0,0:0:0:0:
0,384,82474,2,0,P|76:291|41:186,1,202.500007724762,0|0,1:0|0:0,0:0:0:0:
0,78,82808,6,0,P|-15:100|25:113,1,67.5000025749208
83,73,82974,1,0,0:0:0:0:
0,0,83141,6,0,B|105:29|188:76|188:76|173:29|178:-12,1,270.000010299683,0|2,3:0|0:0,0:0:0:0:
494,53,83808,1,0,1:0:0:0:
360,112,83974,1,2,0:0:0:0:
429,156,84141,1,0,0:0:0:0:
295,207,84308,2,0,P|284:263|281:293,1,67.5000025749208
433,384,84474,6,0,B|373:349|387:255|496:339|599:295|537:181|438:194,1,270.000010299683
501,208,85141,6,0,P|459:226|420:238,1,45,0|0,3:0|0:0,0:0:0:0:
388,186,85308,1,0,0:0:0:0:
388,186,85391,1,0,0:0:0:0:
388,186,85474,2,0,B|361:168|361:157|369:135|384:149|392:170|404:191|397:211|363:239,1,135,2|0,0:0|0:0,0:0:0:0:
254,209,85808,5,4,0:0:0:0:
432,16,86141,1,0,0:0:0:0:
373,67,86308,1,0,0:0:0:0:
430,125,86474,2,0,P|477:143|503:150,1,67.5000025749208,2|0,0:0|0:0,0:0:0:0:
310,16,86808,1,0,0:0:0:0:
492,106,86974,6,0,P|425:152|344:152,1,135.000005149842
269,90,87474,2,0,P|215:96|195:111,1,67.5000025749208
0,184,87808,1,0,0:0:0:0:
47,208,87974,1,0,0:0:0:0:
16,18,88141,6,0,P|124:26|180:184,1,292.499986610413,2|0,0:0|0:0,0:0:0:0:
208,378,89307,5,0,0:0:0:0:
178,340,89474,1,0,0:0:0:0:
102,308,89640,1,0,0:0:0:0:
39,384,89808,5,0,0:0:0:0:
20,362,89974,1,0,0:0:0:0:
66,380,90141,1,0,0:0:0:0:
134,339,90308,5,0,0:0:0:0:
172,222,90474,5,0,0:0:0:0:
123,85,90641,6,0,B|111:24|164:19|112:24|107:-11|111:24|56:30|112:24|123:88,1,168.750006437302
20,138,91141,6,0,P|61:116|105:104,2,67.5000025749208,2|0|0,0:0|0:0|0:0,0:0:0:0:
56,212,91641,1,0,0:0:0:0:
147,291,91808,1,0,0:0:0:0:
299,321,91974,1,0,0:0:0:0:
359,276,92099,5,0,0:0:0:0:
359,276,92141,2,0,P|413:259|496:201,1,135.000005149842
292,384,92641,2,0,P|273:340|247:312,1,67.5000025749208
182,222,92974,5,0,0:0:0:0:
202,143,93058,5,0,0:0:0:0:
261,88,93141,6,0,P|293:91|318:148,1,101.250003862381
249,65,93474,2,0,P|176:49|89:6,1,153.000002918243,2|0,0:0|0:0,0:0:0:0:
370,3,93974,2,0,P|343:29|331:65,2,76.5000014591217
249,65,94474,5,0,0:0:0:0:
293,131,94641,1,0,0:0:0:0:
200,212,94766,5,0,0:0:0:0:
200,212,94808,2,0,P|136:255|49:287,1,153.000002918243
97,236,95308,2,0,P|145:255|182:287,1,76.5000014591217
436,384,95641,5,0,0:0:0:0:
22,252,95974,5,0,0:0:0:0:
104,296,96141,6,0,P|130:244|141:187,1,114.750002188683
118,319,96474,6,0,B|214:294|202:359|302:339,1,180,2|0,0:0|0:0,0:0:0:0:
304,350,96974,1,0,0:0:0:0:
342,273,97141,1,0,0:0:0:0:
429,235,97308,1,0,0:0:0:0:
509,278,97474,5,0,0:0:0:0:
435,384,97641,5,0,0:0:0:0:
435,384,97808,1,0,0:0:0:0:
435,384,97974,1,0,0:0:0:0:
292,284,98141,6,0,L|282:234,1,45
268,265,98308,1,0,0:0:0:0:
375,137,98474,6,0,L|367:182,1,45
391,162,98641,1,0,0:0:0:0:
208,360,98808,6,0,P|255:287|211:196,1,180,2|0,0:0|0:0,0:0:0:0:
185,144,99308,1,0,0:0:0:0:
185,144,99474,1,0,0:0:0:0:
7,185,99641,5,0,0:0:0:0:
71,227,99808,1,0,0:0:0:0:
148,176,99974,1,0,0:0:0:0:
262,217,100141,1,0,0:0:0:0:
301,149,100308,5,0,0:0:0:0:
325,171,100474,1,0,0:0:0:0:
337,200,100641,1,0,0:0:0:0:
337,222,100808,1,0,0:0:0:0:
322,259,100974,5,0,0:0:0:0:
252,291,101141,5,0,0:0:0:0:
193,246,101308,5,0,0:0:0:0:
160,118,101474,6,0,P|179:67|203:26,1,90
86,143,101808,2,0,P|99:187|146:188,1,90,2|0,0:0|0:0,0:0:0:0:
12,42,102141,5,0,0:0:0:0:
84,13,102308,5,0,0:0:0:0:
171,50,102474,5,0,0:0:0:0:
227,140,102641,5,0,0:0:0:0:
190,271,102808,5,0,0:0:0:0:
122,304,102974,6,0,P|130:343|179:338,2,90
40,362,103474,1,0,0:0:0:0:
19,333,103641,2,0,P|39:283|67:233,1,90
199,226,103974,5,0,0:0:0:0:
287,384,104141,2,0,P|299:329|347:257,1,135,2|0,0:0|0:0,0:0:0:0:
404,220,104474,2,0,P|385:182|359:178,3,67.5000025749208
512,341,105141,5,0,0:0:0:0:
504,349,105224,1,0,0:0:0:0:
432,384,105308,5,0,0:0:0:0:
345,345,105474,5,2,0:0:0:0:
289,242,105641,1,0,0:0:0:0:
317,95,105808,1,0,0:0:0:0:
345,345,105974,5,2,0:0:0:0:
289,242,106141,1,0,0:0:0:0:
317,95,106308,1,0,0:0:0:0:
345,345,106474,5,2,0:0:0:0:
454,50,106641,6,0,L|500:68,1,33.7500012874604,0|0,3:0|0:0,0:0:0:0:
466,12,106808,6,0,P|432:28|398:47,1,67.5000025749208,0|0,3:0|0:0,0:0:0:0:
466,136,107141,2,0,P|471:154|477:176,2,31.4999990386963,8|0|0,0:0|0:0|0:0,0:0:0:0:
457,152,107641,1,0,0:0:0:0:
336,72,107808,6,0,P|258:68|228:0,1,135.000005149842,8|0,0:0|0:0,0:0:0:0:
229,25,108308,6,0,B|252:5|274:51|252:89|195:95,1,101.250003862381,2|0,0:0|0:0,0:0:0:0:
142,51,108641,6,0,P|96:38|79:34,1,33.7500012874604
34,69,108808,1,0,0:0:0:0:
34,69,108974,1,0,0:0:0:0:
152,72,109141,6,0,P|97:23|74:0,1,101.250003862381,8|0,0:0|0:0,0:0:0:0:
105,138,109474,6,0,L|82:166,1,33.7500012874604
186,177,109641,2,0,L|197:223,1,33.7500012874604
0,270,109808,6,0,B|41:239|41:239|95:308|169:293,1,168.750006437302
145,286,110308,1,2,0:0:0:0:
309,367,110474,2,0,P|326:330|280:325,1,101.250003862381,8|0,0:0|0:0,0:0:0:0:
262,336,110808,2,0,P|240:334|219:303,1,33.7500012874604
192,230,110974,5,0,0:0:0:0:
468,16,111308,6,0,P|448:53|426:81,1,67.5000025749208
352,66,111641,1,2,0:0:0:0:
308,1,111808,1,8,0:0:0:0:
122,77,111974,5,8,0:0:0:0:
171,90,112141,1,0,0:0:0:0:
203,54,112308,1,0,0:0:0:0:
266,126,112474,6,0,P|322:168|390:190,1,135.000005149842
466,157,112974,1,2,0:0:0:0:
466,157,113141,2,0,P|475:203|479:240,1,67.5000025749208,8|0,0:0|0:0,0:0:0:0:
426,282,113474,5,0,0:0:0:0:
496,83,114141,5,0,0:0:0:0:
420,118,114307,1,8,0:0:0:0:
420,118,114391,1,0,0:0:0:0:
223,40,114808,5,0,0:0:0:0:
223,40,114891,2,0,P|187:71|244:61,1,135.000005149842
130,118,115141,6,0,B|160:127|192:98|192:98|173:194|223:85|251:-1|315:65,1,270.000010299683,2|0,0:0|0:0,0:0:0:0:
502,180,115558,6,0,P|509:232|508:268,1,85.5
246,378,117474,5,0,0:0:0:0:
246,378,117808,2,0,P|254:322|268:275,1,99.0000030212403
120,182,118474,2,0,P|168:208|217:222,1,94.4999971160889
268,183,119141,1,0,0:0:0:0:
0,264,120141,1,0,0:0:0:0:
240,215,120641,6,0,B|238:173|62:137|129:262|47:304|-12:262,1,296.99999093628,2|8,0:0|0:0,0:0:0:0:
32,185,122808,6,0,P|37:162|47:114,1,72
135,80,123308,2,0,P|130:103|120:151,1,72
4,32,123808,2,0,P|30:16|80:27,1,72,8|0,0:0|0:0,0:0:0:0:
23,168,124474,6,0,L|17:140,3,18
122,179,124808,6,0,P|231:193|262:196,1,135.000005149842,0|8,0:0|0:0,0:0:0:0:
429,161,125474,5,0,0:0:0:0:
507,143,125641,1,0,0:0:0:0:
478,205,125808,1,0,0:0:0:0:
388,87,125974,6,0,L|406:30,6,49.5000015106202,0|0|0|8|0|0|0,0:0|0:0|0:0|0:0|0:0|0:0|0:0,0:0:0:0:
402,39,127141,6,0,L|342:61,1,49.5000015106202
291,29,127390,1,0,0:0:0:0:
291,29,127474,2,0,L|349:39,1,49.5000015106202
408,20,127724,1,0,0:0:0:0:
475,5,127808,1,8,0:0:0:0:
408,107,127974,6,0,L|449:117,1,24.7500007553101,4|0,0:0|0:0,0:0:0:0:
294,85,128141,2,0,L|232:69,1,49.5000015106202,4|0,0:0|0:0,0:0:0:0:
77,6,128474,6,0,P|30:36|44:83,1,99.0000030212403,2|0,0:0|0:0,0:0:0:0:
98,111,128974,1,0,0:0:0:0:
0,231,129141,2,0,B|34:248|53:304|53:304|52:261,1,118.800003625488,8|0,0:0|0:0,0:0:0:0:
71,261,129474,5,0,0:0:0:0:
160,373,129641,2,0,B|183:360|195:334|181:298,1,79.2000024169922,0|0,0:0|0:0,0:0:0:0:
54,305,129974,1,0,0:0:0:0:
25,327,130141,1,0,0:0:0:0:
1,384,130308,1,0,0:0:0:0:
207,257,130474,6,0,B|232:230|251:278|247:226|280:234,1,79.2000024169922,8|0,0:0|0:0,0:0:0:0:
342,264,130808,6,0,L|294:251,1,39.6000012084961
197,219,130974,2,0,L|149:206,1,39.6000012084961
106,153,131141,5,0,0:0:0:0:
67,87,131308,1,0,0:0:0:0:
115,7,131474,1,0,0:0:0:0:
118,107,131641,5,0,0:0:0:0:
53,229,131808,2,0,P|12:247|40:215,1,118.800003625488,8|0,0:0|0:0,0:0:0:0:
0,226,132141,2,0,L|53:211,1,39.6000012084961
187,139,132308,2,0,L|225:149,2,39.6000012084961
4,20,132641,5,0,0:0:0:0:
83,45,132808,5,0,0:0:0:0:
151,96,132974,5,0,0:0:0:0:
4,151,133141,5,10,0:0:0:0:
76,184,133308,1,8,0:0:0:0:
244,0,133474,2,0,P|264:49|270:90,1,90
290,378,133808,6,0,B|253:349|261:275|445:404|407:201|299:174|262:222|291:275,1,270
361,300,134474,2,0,P|396:310|434:329,1,67.5000025749208,8|0,0:0|0:0,0:0:0:0:
470,381,134808,1,0,0:0:0:0:
227,310,134974,6,0,P|199:263|209:238,1,67.5000025749208
179,224,135308,1,0,0:0:0:0:
163,319,135474,2,0,P|230:340|265:365,1,101.250003862381
30,346,135808,6,0,B|2:349|-19:314|-18:275|12:259,1,107.999996704102,8|0,0:0|0:0,0:0:0:0:
33,249,136224,6,0,B|61:246|82:281|81:320|51:336,1,102.599998747559
1,234,136641,5,4,0:0:0:0:
500,186,137141,1,8,0:0:0:0:
447,240,137308,1,0,0:0:0:0:
378,210,137474,1,0,0:0:0:0:
322,112,137641,6,0,B|286:78|291:27|291:27|272:53|235:56,1,135.000005149842
249,64,137974,1,0,0:0:0:0:
120,21,138141,5,0,0:0:0:0:
197,0,138308,1,0,0:0:0:0:
0,111,138474,6,0,L|110:84,1,90,8|8,0:0|0:0,0:0:0:0:
18,187,138808,2,0,P|64:173|109:182,1,90
178,229,139141,6,2,B|232:239|232:239|180:233|227:243|227:243|183:239|183:239|223:247|187:245|218:252|218:252|190:251|190:251|214:256|193:257|209:260|209:260|197:263|197:263|204:265|200:269|200:269|194:316,1,270.900004133606,2|2,0:1|0:1,0:1:0:0:
213,314,139808,6,2,B|243:352|287:325|287:325|312:438|289:289|289:289|295:329|321:348|321:348|309:290|359:266|388:286,1,405.000015449525,0|0,0:1|0:0,0:1:0:0:
443,346,140474,6,0,P|479:324|513:319,1,67.5000025749208,2|0,0:0|0:0,0:0:0:0:
484,358,140808,5,0,0:0:0:0:
386,285,140974,1,0,0:0:0:0:
436,176,141141,6,0,L|413:126,1,33.7500012874604,8|0,0:0|0:0,0:0:0:0:
385,122,141308,1,0,0:0:0:0:
496,65,141474,6,0,L|447:45,1,33.7500012874604
415,1,141641,1,0,0:0:0:0:
264,5,141808,6,0,P|230:58|260:142,1,135.000005149842
269,283,142308,5,0,0:0:0:0:
200,239,142474,2,0,B|132:224|135:275|63:253,1,135.000005149842,8|0,0:0|0:0,0:0:0:0:
48,227,142808,2,0,L|101:243,1,45
184,319,142974,6,0,P|144:335|135:377,1,90
370,373,143308,5,0,0:0:0:0:
309,326,143474,1,0,0:0:0:0:
409,259,143641,5,0,0:0:0:0:
335,149,143808,2,0,P|323:97|367:65,1,90,8|0,0:0|0:0,0:0:0:0:
263,103,144141,6,0,P|289:159|330:178,1,107.999996704102
143,4,144474,6,0,P|149:52|151:83,1,67.5000025749208
20,120,144808,1,0,0:0:0:0:
94,131,144974,1,0,0:0:0:0:
231,33,145141,6,0,P|302:62|324:142,1,135.000005149842,8|0,0:0|0:0,0:0:0:0:
254,153,145641,1,0,0:0:0:0:
379,370,145808,6,0,P|388:339|389:324,1,33.7500012874604
469,374,145974,6,0,B|400:362|430:322|486:259|312:232|237:331,1,303.750011587143
244,334,146808,2,0,P|266:366|295:369,1,67.5000025749208,8|0,0:0|0:0,0:0:0:0:
426,143,147141,6,0,P|405:133|383:125,1,33.7500012874604
512,159,147308,2,0,B|419:121|401:232|311:193,1,202.500007724762,0|8,0:0|0:0,0:0:0:0:
227,142,147974,5,0,0:0:0:0:
254,239,148141,1,0,0:0:0:0:
257,153,148308,5,0,0:0:0:0:
210,221,148474,2,0,P|163:223|122:230,1,67.5000025749208
42,247,148808,6,0,P|23:243|1:240,1,33.7500012874604
42,247,148974,2,0,P|23:251|1:254,1,33.7500012874604
42,247,149141,2,0,P|18:193|17:175,1,67.5000025749208,8|0,0:0|0:0,0:0:0:0:
146,6,149474,2,0,P|139:49|126:83,1,67.5000025749208
146,6,149808,1,0,0:0:0:0:
3,92,150141,5,0,0:0:0:0:
3,92,150224,1,0,0:0:0:0:
3,92,150308,1,0,0:0:0:0:
3,92,150391,1,0,0:0:0:0:
3,92,150474,2,0,P|46:108|56:112,1,33.7500012874604,0|0,0:0|0:0,0:0:0:0:
256,192,150641,12,0,153523,0:0:0:0:
140,204,153690,6,2,L|378:184,1,238.5,0|0,0:0|0:0,0:1:0:0:
378,184,158190,6,2,B|357:176|357:176|333:189|333:189|306:170|306:170|258:191|258:191|225:150|225:150|179:187|179:187|141:132|141:132|78:192|78:192|24:137,1,450,0|0,0:0|0:0,0:1:0:0:
22,160,159106,6,0,L|16:214,2,45,2|0|0,0:1|1:0|0:0,1:0:0:0:
63,268,159356,6,0,L|72:319,1,45,2|0,0:1|0:0,0:0:0:0:
15,309,168689,6,0,L|90:298,1,45,8|0,0:0|0:0,0:0:0:0:
132,339,169032,2,0,L|207:328,1,45,8|0,0:0|0:0,0:0:0:0:
338,286,169376,5,4,0:0:0:0:
12,319,169605,6,0,L|87:308,1,45,8|0,0:0|0:0,0:0:0:0:
129,349,169948,2,0,L|204:338,1,45,8|0,0:0|0:0,0:0:0:0:
335,296,170292,5,4,0:0:0:0:
6,329,170521,6,0,L|81:318,1,45,8|0,0:0|0:0,0:0:0:0:
123,359,170864,2,0,L|198:348,1,45,8|0,0:0|0:0,0:0:0:0:
329,306,171206,5,4,0:0:0:0:
151,75,171435,6,0,P|205:112|206:180,1,135,8|0,0:0|0:0,0:0:0:0:
78,54,171778,2,0,P|160:30|206:-11,1,135.000005149842,8|0,0:0|0:0,0:0:0:0:
20,105,172121,5,4,0:0:0:0:
354,326,172349,6,0,B|366:309|394:301|394:301|366:258|393:211,1,135.000005149842,8|0,0:0|0:0,0:0:0:0:
336,158,172692,2,0,P|383:139|408:217,1,135.000005149842,8|0,0:0|0:0,0:0:0:0:
414,378,173035,5,4,0:0:0:0:
261,287,173263,6,0,B|293:271|293:271|230:254|206:202,1,116.999994644165,8|0,0:0|0:0,0:0:0:0:
170,165,173606,2,0,P|208:147|233:225,1,116.999994644165,8|0,0:0|0:0,0:0:0:0:
173,370,173949,1,4,0:0:0:0:
0,311,174178,6,0,B|51:296|50:246|50:246|48:249|48:249|31:269|0:254|4:281|7:296,2,148.50000453186,8|8|4,0:0|0:0|0:0,0:0:0:0:
20,291,174940,2,0,L|68:307,2,33.0000010070801,0|0|2,0:0|0:0|0:0,0:0:0:0:
101,374,175206,6,0,P|163:319|239:320,1,125.999996154785,2|0,0:0|0:0,0:0:0:0:
268,347,175549,1,8,0:0:0:0:
226,353,175663,1,0,0:0:0:0:
239,256,175778,1,8,0:0:0:0:
283,277,175892,1,0,0:0:0:0:
382,384,176006,6,0,P|378:265|374:218,1,135,8|8,0:0|0:0,0:0:0:0:
391,360,176675,2,0,P|392:335|399:300,1,45,4|0,0:0|0:0,0:0:0:0:
502,220,176898,5,8,0:0:0:0:
498,232,177009,1,0,0:0:0:0:
495,244,177121,1,0,0:0:0:0:
441,181,177232,6,0,B|365:156|361:230|276:206,1,161.999995056153,8|4,0:0|0:0,0:0:0:0:
19,227,177790,5,8,0:0:0:0:
4,188,177903,2,0,P|45:194|69:195,1,45
126,180,178131,6,0,B|145:204|158:210|158:210|134:218|113:241,1,90,8|0,0:0|0:0,0:0:0:0:
32,157,178473,2,0,P|36:129|40:106,1,45,4|0,0:0|0:0,0:0:0:0:
211,292,178700,5,8,0:0:0:0:
122,332,178928,1,0,0:0:0:0:
115,349,179042,1,8,0:0:0:0:
14,374,179383,1,4,0:0:0:0:
263,207,179611,5,8,0:0:0:0:
267,161,179724,1,0,0:0:0:0:
271,117,179838,1,0,0:0:0:0:
270,72,179952,1,8,0:0:0:0:
248,51,180067,2,0,P|213:55|171:66,1,53.9999983520508
123,17,180294,2,0,P|86:26|61:24,1,53.9999983520508,4|0,0:0|0:0,0:0:0:0:
0,143,180522,6,0,P|18:197|47:145,1,107.999996704102,10|0,0:0|0:0,0:0:0:0:
122,164,180864,1,8,0:0:0:0:
122,164,180977,2,0,P|137:224|146:274,1,107.999996704102,0|4,0:0|0:0,0:0:0:0:
56,381,181433,6,0,P|111:323|117:241,2,161.999995056153,8|8|4,0:0|0:0|0:0,0:0:0:0:
268,321,182344,6,0,P|222:289|237:360,1,161.999995056153,8|8,0:0|0:0,0:0:0:0:
225,359,182799,2,0,L|286:342,1,53.9999983520508,0|4,0:0|0:0,0:0:0:0:
350,368,183027,2,0,L|410:353,1,53.9999983520508
499,346,183254,6,0,L|356:297,2,135,8|8|4,0:0|0:0|0:0,0:0:0:0:
343,199,184037,6,2,B|474:230|474:230|423:279|423:279|511:312|511:312|418:342|418:342|310:386|310:386|310:322,1,540.000020599366,0|0,0:1|0:1,0:1:0:0:
293,286,185045,1,8,0:0:0:0:
293,286,185153,1,0,0:0:0:0:
293,286,185261,1,0,0:0:0:0:
293,286,185369,1,8,0:0:0:0:
293,286,185478,6,0,L|282:322,2,22.5
423,259,185694,2,0,P|382:262|350:204,1,101.250003862381,4|0,0:0|0:0,0:0:0:0:
509,191,185911,1,8,0:0:0:0:
506,205,186019,1,0,0:0:0:0:
256,384,186236,5,8,0:0:0:0:
507,54,186561,2,0,L|430:73,1,67.5000025749208,4|0,0:0|0:0,0:0:0:0:
379,12,186809,2,0,L|310:56,1,67.5000025749208,4|0,0:0|0:0,0:0:0:0:
468,72,187037,5,2,0:0:0:0:
478,46,187151,1,8,0:0:0:0:
6,157,187493,1,2,0:0:0:0:
141,98,187721,6,0,B|134:51|171:12|171:12|145:32|126:38,1,135.000005149842,8|0,0:0|0:0,0:0:0:0:
107,52,188063,2,0,B|45:29|111:42|48:20,2,67.5000025749208,8|0|0,0:0|0:0|0:0,0:0:0:0:
166,116,188405,5,4,0:0:0:0:
13,333,188634,1,8,0:0:0:0:
39,345,188748,1,0,0:0:0:0:
50,311,188862,5,0,0:0:0:0:
0,373,188976,2,0,P|29:364|77:358,1,67.5000025749208,8|0,0:0|0:0,0:0:0:0:
335,303,189318,6,0,P|368:307|408:317,1,67.5000025749208,0|0,0:0|0:0,0:0:0:0:
496,340,189546,2,0,B|440:314|419:374|356:344,1,135.000005149842,8|0,0:0|0:0,0:0:0:0:
294,384,189888,2,0,P|268:356|210:344,1,67.5000025749208,8|0,0:0|0:0,0:0:0:0:
317,269,190116,1,0,0:0:0:0:
322,256,190231,1,4,0:0:0:0:
371,33,190459,5,8,0:0:0:0:
383,83,190571,1,0,0:0:0:0:
423,111,190683,1,0,0:0:0:0:
503,94,190795,6,0,L|516:33,1,45,8|0,0:0|0:0,0:0:0:0:
341,0,191019,5,0,0:0:0:0:
277,44,191132,5,4,0:0:0:0:
82,197,191356,6,0,L|63:230,1,22.5,12|0,0:0|0:0,0:0:0:0:
94,203,191468,6,0,L|131:187,1,22.5,12|0,0:0|0:0,0:0:0:0:
84,187,191580,6,0,L|70:153,1,22.5,12|0,0:0|0:0,0:0:0:0:
130,239,191692,5,2,0:0:0:0:
4,185,191804,5,2,0:0:0:0:
4,185,191916,1,10,0:0:0:0:
356,312,192141,6,0,P|363:276|385:234,2,67.5000025749208,8|0|8,0:0|0:0|0:0,0:0:0:0:
375,347,192477,6,0,P|394:319|432:300,3,67.5000025749208,8|0|4|0,0:0|0:0|0:0|0:0,0:0:0:0:
448,374,192926,1,4,0:0:0:0:
458,376,192982,1,2,0:0:0:0:
469,379,193038,1,4,0:0:0:0:
480,381,193094,1,2,0:0:0:0:
512,365,193150,6,0,B|527:340|527:340|502:296|526:338|501:294|501:294|497:299|497:299|477:257|444:273|460:178,1,198.000006042481,14|0,0:1|0:1,0:1:0:0:
386,59,193487,1,8,0:0:0:0:
440,2,193599,1,0,0:0:0:0:
512,37,193711,1,0,0:0:0:0:
454,100,193823,2,0,L|374:79,1,58.4999973220826,8|0,0:0|0:0,0:0:0:0:
289,33,194047,2,0,L|209:54,1,58.4999973220826,10|0,0:1|0:0,0:0:0:0:
0,140,194272,5,0,0:0:0:0:
80,96,194384,2,0,B|143:87|143:136|211:123,1,135.000005149842,8|0,0:0|0:0,0:0:0:0:
234,4,194720,6,0,P|191:39|193:67,1,67.5000025749208,8|0,0:0|0:0,0:0:0:0:
131,163,194944,2,0,P|134:198|166:219,1,67.5000025749208,10|0,0:1|0:1,0:1:0:0:
302,327,195169,5,0,0:0:0:0:
230,371,195281,2,0,B|201:373|180:351|180:351|174:359|174:359|168:322|122:303,1,135.000005149842,8|0,0:0|0:0,0:0:0:0:
65,344,195617,2,0,P|27:354|-4:372,1,67.5000025749208,8|0,0:0|0:0,0:0:0:0:
204,384,195842,6,0,L|216:305,1,67.5000025749208,10|0,0:1|0:0,0:0:0:0:
293,194,196066,1,0,0:0:0:0:
360,155,196178,2,0,P|402:171|424:258,1,135.000005149842,8|0,0:0|0:0,0:0:0:0:
334,376,196515,2,0,L|325:340,2,33.7500012874604,8|0|2,0:0|0:0|0:0,0:0:0:0:
346,324,196739,6,0,B|418:314|425:358|505:350,1,157.5,4|0,0:0|0:0,0:0:0:0:
482,331,197608,5,4,0:0:0:0:
52,384,198415,5,4,0:0:0:0:
3,317,198877,1,4,0:0:0:0:
132,275,199454,1,4,0:0:0:0:
17,29,200421,2,0,P|39:22|93:59,1,94.499997116089,4|0,0:0|0:0,0:0:0:0:
184,382,201389,6,2,B|95:118|98:-270|210:125|184:382,1,767.250023414613,0|0,0:0|0:1,0:1:0:0:
288,323,205674,6,0,B|350:314|353:358|418:345,1,135,2|0,0:0|0:0,0:0:0:0:
440,356,206096,2,0,B|469:335|469:335|431:322,1,67.5000025749208
260,378,206519,6,0,P|237:321|222:293,1,67.5000025749208,2|0,0:0|0:0,0:0:0:0:
153,282,206941,2,0,P|183:241|202:195,1,101.250003862381
260,150,207364,1,0,0:0:0:0:
175,34,207656,5,0,0:0:0:0:
16,184,208434,6,0,B|5:167|82:94|174:146|205:248|83:187|164:302|264:304|255:223|203:234,1,315,2|0,0:0|0:0,0:0:0:0:
124,225,209658,6,0,L|118:198,1,27,2|0,0:0|0:0,0:0:0:0:
328,57,210641,6,0,B|267:39|261:92|198:75,1,135
187,84,211170,2,0,L|179:44,2,22.5,8|0|0,0:0|0:0|0:0,0:0:0:0:
152,32,211435,5,8,0:0:0:0:
108,61,211568,5,8,0:0:0:0:
36,5,211700,5,8,0:0:0:0:
248,275,212230,2,0,B|270:273|286:251|286:251|280:294|320:330,1,135,2|0,0:0|0:0,0:0:0:0:
395,319,212760,6,0,B|384:331|430:397|439:357|394:308,1,101.250003862381
395,319,213132,2,0,P|416:256|443:176,1,135,2|0,0:0|0:0,0:0:0:0:
501,95,213829,6,2,B|418:120|430:34|435:-37|407:-81|345:-58|206:345|347:68|360:131|406:276|310:88|392:57|430:72|436:125|389:108,1,396.000012084961,2|0,0:1|0:1,0:1:0:0:
409,96,215640,6,2,B|301:191|327:48|239:17|239:17|309:43|346:52|375:69|470:182|360:227|360:227|364:334|124:116|247:453|335:450|504:405|569:176|430:186,1,1117.80002729004,6|2,0:1|0:1,0:1:0:0:
135,217,227806,5,2,0:0:0:0:
135,217,228139,1,2,0:0:0:0:
6,318,228472,6,0,B|16:309|25:293|25:293|94:275,1,90,2|0,0:0|0:0,0:0:0:0:
150,314,228805,1,0,0:0:0:0:
161,338,228972,1,0,0:0:0:0:
126,374,229138,1,0,0:0:0:0:
39,330,229305,6,0,L|61:240,1,90
50,24,229638,6,0,B|110:35|163:105|163:105|168:84|184:68,1,180
246,21,230138,5,0,0:0:0:0:
172,54,230305,1,0,0:0:0:0:
264,37,230472,6,0,P|292:80|276:129,1,90
108,146,230805,2,0,P|142:194|174:201,1,90
512,56,231138,6,0,B|449:42|442:92|377:72,1,135,2|0,0:0|0:0,0:0:0:0:
335,18,231472,1,0,0:0:0:0:
245,89,231638,5,0,0:0:0:0:
389,178,231805,1,0,0:0:0:0:
415,221,231972,5,0,0:0:0:0:
365,297,232138,5,0,0:0:0:0:
226,368,232305,6,0,P|216:315|206:208,1,135
193,243,232638,1,0,0:0:0:0:
185,260,232805,2,0,P|216:313|253:343,1,90
139,371,233138,6,0,P|100:335|112:299,1,90
87,149,233472,1,0,0:0:0:0:
19,192,233638,2,0,L|-10:174,2,22.5
22,174,233805,6,0,B|89:152|84:203|153:192,1,135,2|0,0:0|0:0,0:0:0:0:
173,210,234138,1,0,0:0:0:0:
235,155,234305,1,0,0:0:0:0:
126,86,234472,6,0,P|106:40|96:-7,1,90
83,0,234805,2,0,P|60:42|95:7,1,135
139,101,235138,5,0,0:0:0:0:
6,273,235305,5,0,0:0:0:0:
55,331,235472,1,0,0:0:0:0:
139,305,235638,1,0,0:0:0:0:
160,384,235805,2,0,P|185:340|218:315,1,90
283,357,236138,5,0,0:0:0:0:
226,304,236305,1,0,0:0:0:0:
194,190,236472,5,2,0:0:0:0:
299,0,236805,1,0,0:0:0:0:
272,16,236972,1,0,0:0:0:0:
255,43,237138,5,0,0:0:0:0:
216,113,237305,5,0,0:0:0:0:
208,203,237472,5,0,0:0:0:0:
428,221,237638,6,0,L|512:199,1,58.4999973220826,2|0,0:0|0:0,0:0:0:0:
478,234,237972,6,0,L|431:183,1,58.4999973220826,2|0,0:0|0:0,0:0:0:0:
315,273,238305,5,0,0:0:0:0:
512,217,238472,2,0,B|443:200|442:253|355:231,1,135.000005149842,2|0,0:0|0:0,0:0:0:0:
0,197,239138,5,0,0:0:0:0:
2,216,239305,1,0,0:0:0:0:
5,243,239472,1,0,0:0:0:0:
11,292,239638,1,0,0:0:0:0:
182,317,239805,2,0,P|192:269|202:231,1,67.5000025749208,8|0,0:0|0:0,0:0:0:0:
271,241,240138,1,0,0:0:0:0:
140,384,240305,6,0,P|111:297|48:272,1,135.000005149842
180,328,240805,2,0,L|251:318,1,67.5000025749208
430,373,241138,5,8,0:0:0:0:
503,326,241305,1,0,0:0:0:0:
377,253,241472,5,0,0:0:0:0:
499,341,241638,1,0,0:0:0:0:
487,186,241805,6,0,P|496:126|511:43,1,135.000005149842
347,12,242305,2,0,P|336:27|372:25,1,67.5000025749208,0|8,0:0|0:0,0:0:0:0:
500,85,242638,2,0,L|452:99,1,33.7500012874604
452,111,242805,1,0,0:0:0:0:
368,46,242971,6,0,B|313:30|277:11|277:11|301:48,1,135.000005149842
235,148,243471,2,0,P|191:171|162:173,1,67.5000025749208
4,66,243805,5,8,0:0:0:0:
28,46,243971,1,0,0:0:0:0:
112,98,244138,1,0,0:0:0:0:
12,227,244305,1,0,0:0:0:0:
138,378,244471,6,0,P|189:316|203:239,1,135.000005149842
77,352,245138,5,8,0:0:0:0:
77,352,245305,1,0,0:0:0:0:
77,352,245471,2,0,P|58:299|58:280,1,67.5000025749208
229,366,245805,5,0,0:0:0:0:
253,372,245971,1,0,0:0:0:0:
316,368,246138,1,0,0:0:0:0:
350,318,246305,1,0,0:0:0:0:
374,248,246471,1,8,0:0:0:0:
446,205,246638,1,0,0:0:0:0:
500,228,246805,1,0,0:0:0:0:
509,255,246971,1,0,0:0:0:0:
489,381,247138,5,0,0:0:0:0:
442,305,247305,5,0,0:0:0:0:
385,236,247471,1,2,0:0:0:0:
321,174,247638,5,0,0:0:0:0:
248,122,247805,1,8,0:0:0:0:
170,79,247971,5,2,0:0:0:0:
87,47,248138,5,8,0:0:0:0:
0,26,248305,5,12,0:0:0:0:
256,191,249138,5,4,0:0:0:0:
256,191,249471,1,4,0:0:0:0:
512,0,249805,6,0,B|475:-43|357:45|397:143,1,229.500004377365,0|0,1:0|0:0,0:0:0:0:
370,383,250138,2,0,B|362:370|362:370|370:353|368:335|368:335|383:324,1,67.5000025749208,0|0,3:0|0:0,0:0:0:0:
440,280,250305,1,2,0:0:0:0:
227,242,250471,6,0,P|222:216|239:235,1,67.5000025749208,0|0,3:0|0:0,0:0:0:0:
490,350,250638,2,0,B|389:356|406:222|365:351|270:292,1,229.500004377365,0|0,1:0|0:0,0:0:0:0:
77,181,250971,2,0,B|8:160|-65:276|16:322|87:257|22:189,1,229.500004377365,0|0,1:0|0:0,0:0:0:0:
10,136,251305,5,0,3:0:0:0:
149,384,251471,2,0,P|40:279|60:159,1,227.999993911743,0|0,1:0|0:0,0:0:0:0:
57,76,251805,6,0,B|71:48|60:77|76:45|76:45|178:23|81:51|191:28,1,153.000002918243,0|0,1:0|0:0,0:0:0:0:
266,0,252055,5,0,0:0:0:0:
174,48,252138,2,0,B|159:99|212:97|196:154|196:154|259:137|229:59|276:84|309:165|294:78|322:34|343:112|382:61,1,323.999990112305,0|0,3:0|0:0,0:0:0:0:
433,17,252471,2,0,P|487:28|498:114,1,153.000002918243,0|0,1:0|0:0,0:0:0:0:
368,264,252805,2,0,B|357:283|342:341|404:370|404:370|373:338|388:322|400:296|306:277,1,229.500004377365,2|0,0:0|0:0,0:0:0:0:
512,217,253138,6,0,B|437:224|512:222|424:231,1,76.5000014591217,0|0,3:0|0:0,0:0:0:0:
284,249,253305,2,0,P|222:289|234:361,1,153.000002918243,0|0,1:0|0:0,0:0:0:0:
494,367,253638,6,0,P|371:276|211:180,1,303.750011587143,0|0,1:0|0:0,0:0:0:0:
166,205,253971,6,0,P|145:184|158:120,1,78.7500007510185,2|0,0:0|0:0,0:0:0:0:
113,68,254138,1,0,3:0:0:0:
218,0,254305,1,2,0:0:0:0:
356,109,254471,2,0,B|372:170|323:217|323:217|303:152|352:102,1,236.250002253056,0|0,1:0|0:0,0:0:0:0:
512,18,254805,6,0,P|418:21|403:53,1,139.500001064301,0|0,3:0|0:0,0:0:0:0:
471,340,255138,6,0,B|431:345|404:379|404:379|396:313|348:262,1,209.250001596451,0|0,1:0|0:0,0:0:0:0:
289,221,255471,1,2,0:0:0:0:
184,172,255638,1,0,3:0:0:0:
339,342,255805,6,0,B|272:355|282:295|208:313,2,139.500001064301,0|0|0,1:0|0:0|0:0,0:0:0:0:
146,355,256305,5,0,1:0:0:0:
77,251,256471,2,0,P|3:287|5:349,1,139.500001064301,0|0,3:0|0:0,0:0:0:0:
146,355,256805,5,2,0:0:0:0:
199,301,256971,5,0,3:0:0:0:
230,177,257138,1,0,1:0:0:0:
6,3,257305,5,2,0:0:0:0:
79,27,257471,5,0,3:0:0:0:
162,92,257638,5,2,0:0:0:0:
201,203,257805,6,0,B|102:238|97:162|0:197,2,207.000003948212,0|2|0,1:0|0:0|0:0,0:0:0:0:
498,15,258305,6,0,P|461:33|463:85,1,76.5000014591217,0|0,3:0|0:0,0:0:0:0:
385,112,258471,2,0,P|377:147|386:188,1,76.5000014591217,0|0,1:0|0:0,0:0:0:0:
421,384,258638,1,2,0:0:0:0:
501,279,258805,5,0,1:0:0:0:
353,78,258971,6,0,B|267:60|281:122|180:92,1,153.000002918243,0|0,1:0|0:0,0:0:0:0:
0,68,259305,2,0,L|51:34,1,58.4999973220826,2|0,0:0|0:0,0:0:0:0:
22,86,259471,2,0,L|89:138,1,58.4999973220826,0|0,1:0|0:0,0:0:0:0:
14,7,259638,5,0,3:0:0:0:
174,48,259805,5,0,3:0:0:0:
209,70,259888,1,2,0:0:0:0:
164,95,259971,1,0,3:0:0:0:
207,82,260055,1,2,0:0:0:0:
245,138,260138,2,0,P|136:107|10:77,1,202.500007724762,0|0,3:0|0:0,0:0:0:0:
0,240,260471,6,0,B|43:189|81:238|127:212|115:154,1,135.000005149842,0|0,1:0|0:0,0:0:0:0:
14,7,260805,2,0,P|121:24|135:123,1,202.500007724762,0|0,1:0|0:0,0:0:0:0:
114,186,261138,6,0,P|127:221|143:279,1,67.5000025749208,2|0,0:0|0:0,0:0:0:0:
361,337,261305,2,0,B|305:313|242:373|242:373|235:341|206:311,1,202.500007724762,0|0,3:0|0:0,0:0:0:0:
98,374,261638,6,0,B|150:288|241:407|336:211|245:207,1,270.000010299683,0|0,1:0|0:0,0:0:0:0:
160,39,262138,2,0,P|152:18|162:36,1,67.5000025749208,2|0,0:0|0:0,0:0:0:0:
169,49,262305,1,0,3:0:0:0:
248,44,262471,6,0,L|293:106,1,67.5000025749208,0|0,1:0|0:0,0:0:0:0:
125,138,262638,2,0,L|113:215,1,67.5000025749208,0|0,3:0|0:0,0:0:0:0:
182,244,262805,1,2,0:0:0:0:
182,244,262971,1,0,3:0:0:0:
495,169,263138,6,0,B|472:228|438:200|477:145|311:127|340:241|355:237,1,202.500007724762,0|0,1:0|0:0,0:0:0:0:
421,256,263471,2,0,P|455:350|465:386,1,135.000005149842,2|0,0:0|0:0,0:0:0:0:
421,256,263805,6,0,P|460:271|488:284,1,67.5000025749208,0|0,3:0|0:0,0:0:0:0:
326,98,263971,2,0,B|349:114|343:173|253:190|243:146|246:99,1,135.000005149842,0|0,1:0|0:0,0:0:0:0:
252,142,264305,6,0,P|370:77|493:21,1,270.000010299683,0|0,1:0|0:0,0:0:0:0:
451,133,264805,2,0,P|487:145|520:165,1,67.5000025749208,2|0,0:0|0:0,0:0:0:0:
458,141,264971,2,0,P|490:160|518:187,1,67.5000025749208,0|0,3:0|0:0,0:0:0:0:
339,17,265138,5,0,1:0:0:0:
15,122,265305,1,0,3:0:0:0:
54,138,265388,1,0,3:0:0:0:
105,105,265471,1,0,0:0:0:0:
165,46,265638,1,2,0:0:0:0:
232,0,265805,6,0,P|284:71|243:157,1,135.000005149842,0|0,1:0|0:0,0:0:0:0:
20,376,266138,1,2,0:0:0:0:
20,376,266305,1,0,3:0:0:0:
14,372,266471,2,0,P|44:278|132:233,1,202.500007724762,0|0,1:0|0:0,0:0:0:0:
176,384,266805,2,0,P|97:357|52:348,1,90,0|0,1:0|0:0,0:0:0:0:
216,272,267138,5,2,0:0:0:0:
438,238,267305,1,0,3:0:0:0:
287,208,267471,5,2,0:0:0:0:
368,290,267638,1,0,3:0:0:0:
502,176,267805,5,0,1:0:0:0:
266,217,267971,1,0,3:0:0:0:
9,154,268138,5,0,3:0:0:0:
253,203,268305,1,2,0:0:0:0:
223,111,268471,6,0,B|166:91|166:75|316:54|329:59|262:-2,1,202.500007724762,0|0,1:0|0:0,0:0:0:0:
269,384,268805,2,0,P|271:283|268:182,1,202.500007724762,0|0,1:0|0:0,0:0:0:0:
354,370,269138,6,0,B|405:383|416:380|328:349,1,67.5000025749208,0|0,1:0|0:0,0:0:0:0:
188,315,269305,1,2,0:0:0:0:
188,315,269471,1,0,3:0:0:0:
502,193,269638,5,0,1:0:0:0:
6,308,271138,6,0,B|67:296|71:339|142:330,1,135,6|0,0:0|0:0,0:0:0:0:
159,318,271471,1,0,0:0:0:0:
221,376,271638,1,0,0:0:0:0:
116,251,271805,6,0,P|105:203|71:124,1,135,8|0,0:0|0:0,0:0:0:0:
59,110,272138,2,0,P|70:88|96:71,1,45
4,232,272305,6,0,P|55:187|111:181,1,90
221,376,272638,2,0,P|242:311|288:278,1,90
274,226,272971,1,0,0:0:0:0:
337,153,273138,1,8,0:0:0:0:
472,90,273305,1,0,0:0:0:0:
512,338,273471,6,0,P|431:310|445:210,1,180,2|0,0:0|0:0,0:0:0:0:
426,354,273971,1,0,0:0:0:0:
426,354,274138,2,0,L|326:378,1,90
430,227,274471,5,8,0:0:0:0:
386,151,274638,1,0,0:0:0:0:
289,84,274805,2,0,P|266:29|273:-19,1,90,2|0,0:0|0:0,0:0:0:0:
162,180,275138,6,0,B|106:186|133:194|64:207,1,90,2|0,0:0|0:0,0:0:0:0:
0,117,275471,5,0,0:0:0:0:
61,177,275638,2,0,B|127:179|92:200|173:208,1,107.999996704102,2|8,0:0|0:0,0:0:0:0:
230,256,275971,5,0,0:0:0:0:
151,227,276138,2,0,P|119:179|151:121,1,107.999996704102,2|0,0:0|0:0,0:0:0:0:
193,81,276471,5,0,0:0:0:0:
126,125,276638,2,0,P|81:191|96:232,1,125.999996154785,2|0,0:0|0:0,0:0:0:0:
0,334,276971,5,0,0:0:0:0:
61,380,277138,1,10,0:0:0:0:
133,308,277305,1,0,0:0:0:0:
210,363,277471,1,0,0:0:0:0:
268,273,277638,6,0,B|355:252|334:312|436:285,1,148.50000453186,2|0,0:0|0:0,0:0:0:0:
498,336,277971,1,0,0:0:0:0:
406,270,278138,6,0,P|460:252|488:327,1,148.50000453186,2|0,0:0|0:0,0:0:0:0:
370,384,278471,1,8,0:0:0:0:
364,201,278638,6,0,B|382:152|425:124|425:124|391:139|362:139,1,148.50000453186,2|0,0:0|0:0,0:0:0:0:
304,149,278971,1,0,0:0:0:0:
448,199,279138,6,0,P|379:171|326:113,1,148.50000453186,2|0,0:0|0:0,0:0:0:0:
269,68,279471,1,0,0:0:0:0:
269,68,279638,2,0,P|273:24|324:-2,1,99.0000030212403,2|8,0:0|0:0,0:0:0:0:
399,28,279971,5,0,0:0:0:0:
399,28,280138,1,0,0:0:0:0:
504,141,280305,5,2,0:0:0:0:
14,198,280638,2,0,L|23:149,1,33.7500012874604
89,214,280805,2,0,L|98:165,1,33.7500012874604
0,179,280971,5,0,0:0:0:0:
65,133,281138,2,0,B|128:115|137:167|210:155,1,135.000005149842,8|0,0:0|0:0,0:0:0:0:
262,205,281388,1,0,0:0:0:0:
262,205,281471,2,0,B|267:215|267:215|260:246,2,33.7500012874604,8|0|0,0:0|0:0|0:0,0:0:0:0:
177,75,281638,6,0,B|166:42|166:42|189:19,1,67.5000025749208,8|0,0:0|0:0,0:0:0:0:
331,362,281805,1,6,0:0:0:0:
425,319,281971,2,0,P|407:311|393:310,3,33.7500012874604
474,369,282138,2,0,P|426:336|392:326,1,67.5000025749208
279,287,282305,5,2,0:0:0:0:
218,335,282388,1,0,0:0:0:0:
149,294,282471,2,0,P|83:333|85:387,1,135.000005149842,8|0,0:0|0:0,0:0:0:0:
99,376,282805,5,0,0:0:0:0:
10,235,282971,2,0,B|81:230|70:278|154:283,1,135.000005149842
202,238,283305,1,0,0:0:0:0:
252,148,283471,1,2,0:0:0:0:
168,0,283638,2,0,P|155:48|178:4,1,135.000005149842,8|0,0:0|0:0,0:0:0:0:
61,47,283971,6,0,L|140:67,1,67.5000025749208,8|0,0:0|0:0,0:0:0:0:
257,137,284138,2,0,P|325:64|299:17,1,135.000005149842,8|0,0:0|0:0,0:0:0:0:
0,98,284471,5,4,0:0:0:0:
57,384,284638,5,2,0:0:0:0:
10,318,284805,1,0,0:0:0:0:
31,226,284971,1,0,0:0:0:0:
120,153,285138,5,8,0:0:0:0:
257,137,285305,5,0,0:0:0:0:
375,213,285471,5,8,0:0:0:0:
375,213,285638,1,8,0:0:0:0:
505,16,285805,5,0,0:0:0:0:
434,39,285971,1,0,0:0:0:0:
410,110,286138,1,8,0:0:0:0:
410,110,286305,1,8,0:0:0:0:
180,354,286471,6,0,L|260:330,1,67.5000025749208,8|0,0:0|0:0,0:0:0:0:
323,362,286638,1,0,0:0:0:0:
376,340,286721,1,0,0:0:0:0:
444,380,286805,5,8,0:0:0:0:
512,300,286971,5,8,0:0:0:0:
502,204,287138,5,6,0:0:0:0:
502,204,287221,1,0,0:0:0:0:
502,204,287305,1,0,0:0:0:0:
420,171,287471,1,0,0:0:0:0:
337,214,287638,1,0,0:0:0:0:
275,364,287805,1,8,0:0:0:0:
129,384,287971,1,0,0:0:0:0:
22,272,288138,1,0,0:0:0:0:
22,272,288305,2,0,P|7:198|2:157,1,99.0000030212403
185,107,288638,5,0,0:0:0:0:
142,39,288805,1,0,0:0:0:0:
86,103,288971,2,0,P|196:79|241:-4,1,198.000006042481
331,109,289471,2,0,P|340:132|346:155,1,49.5000015106202
314,111,289638,2,0,P|318:87|326:62,1,49.5000015106202
415,231,289805,6,0,B|361:206|324:294|255:238,1,148.50000453186,8|0,0:0|0:0,0:0:0:0:
192,271,290138,2,0,P|159:250|207:227,1,99.0000030212403,8|0,0:0|0:0,0:0:0:0:
192,271,290471,2,0,L|284:303,1,80.9999975280763
144,342,290805,6,0,L|170:390,1,49.5000015106202,2|0,0:0|0:0,0:0:0:0:
27,319,291138,6,0,L|54:232,2,90,2|0|0,0:0|0:0|0:0,0:0:0:0:
53,233,291648,2,0,L|109:283,2,67.5000025749208,2|0|0,0:0|0:0|0:0,0:0:0:0:
171,328,292159,1,0,0:0:0:0:
171,328,292329,1,2,0:0:0:0:
103,278,292499,6,0,L|111:220,2,49.5000015106202
109,228,293010,2,0,L|127:253,2,22.5,2|0|0,0:0|0:0|0:0,0:0:0:0:
192,203,293520,5,0,0:0:0:0:
192,203,293691,1,2,0:0:0:0:
192,203,293861,1,0,0:0:0:0:
260,144,294031,5,2,0:0:0:0:
325,74,294244,6,0,P|375:37|417:7,1,112.5,2|0,0:0|0:0,0:0:0:0:
256,192,294499,12,0,297478,0:0:0:0:
