osu file format v14

[General]
AudioFilename: audio.mp3
AudioLeadIn: 0
PreviewTime: 46054
Countdown: 0
SampleSet: Soft
StackLeniency: 0.7
Mode: 0
LetterboxInBreaks: 0
WidescreenStoryboard: 1

[Editor]
DistanceSpacing: 0.5
BeatDivisor: 4
GridSize: 16
TimelineZoom: 2.1

[Metadata]
Title:Star map
TitleUnicode:Star map
Artist:Shimotsuki Haruka
ArtistUnicode:霜月はるか
Creator:chaser01
Version:tin frog's Extra
Source:見上げてごらん、夜空の星を
Tags:resahc usaha takekii hanasaka yui nana abe tin frog xiqingwa koldnoodl mocaotic eroge vn visual novel video game Miagete goran Yozora no Hoshi o A sky full of stars PULLTOP eroge galgame visual novel opening op japanese pop jpop jrock j-rock rock short ver
BeatmapID:3647077
BeatmapSetID:1780288

[Difficulty]
HPDrainRate:4.8
CircleSize:4
OverallDifficulty:8.7
ApproachRate:9
SliderMultiplier:2
SliderTickRate:1

[Events]
//Background and Video events
0,0,"hikari.jpg",0,0
//Break Periods
2,16096,25086
//Storyboard Layer 0 (Background)
//Storyboard Layer 1 (Fail)
//Storyboard Layer 2 (Pass)
//Storyboard Layer 3 (Foreground)
//Storyboard Layer 4 (Overlay)
//Storyboard Sound Samples

[TimingPoints]
739,315.789473684211,4,2,1,30,1,0
5791,-142.857142857143,4,2,1,50,0,0
13370,-142.857142857143,4,2,1,60,0,0
14317,-100,4,2,1,67,0,0
15896,-100,4,2,1,35,0,0
25686,-166.666666666667,4,2,1,35,0,0
26001,-166.666666666667,4,2,1,50,0,0
31054,-142.857142857143,4,2,1,55,0,0
36107,-166.666666666667,4,2,1,50,0,0
41159,-166.666666666667,4,2,1,57,0,0
43686,-166.666666666667,4,2,1,45,0,0
44001,-166.666666666667,4,2,1,60,0,0
45896,-100,4,2,1,60,0,0
46054,-100,4,2,1,40,0,0
47475,-111.111111111111,4,2,1,72,0,1
87896,-166.666666666667,4,2,1,72,0,0
90423,-166.666666666667,4,2,1,72,0,0
92949,-166.666666666667,4,2,1,30,0,0

[Colours]
Combo1 : 254,186,248
Combo2 : 155,253,238
Combo3 : 200,255,200
Combo4 : 255,218,181

[HitObjects]
474,351,5791,6,0,B|427:339|427:339|384:349|384:349|324:336,1,139.999995727539,6|0,3:2|2:2,0:0:0:0:
276,273,6265,1,2,3:2:0:0:
339,119,6423,2,0,P|359:220|366:283,1,139.999995727539,8|2,2:2|2:2,0:0:0:0:
363,256,6896,5,0,3:3:0:0:
363,256,7212,1,0,3:3:0:0:
447,207,7370,2,0,P|478:224|512:235,1,69.9999978637696,0|0,3:3|0:0,0:0:0:0:
253,60,7686,2,0,P|177:55|124:2,1,139.999995727539,10|2,2:2|2:2,0:0:0:0:
0,357,8317,6,0,B|51:344|51:344|76:319|76:319|150:304,1,139.999995727539,2|0,3:2|2:2,0:0:0:0:
192,357,8791,1,2,3:2:0:0:
293,167,8949,2,0,P|274:259|267:318,1,139.999995727539,8|2,2:2|2:2,0:0:0:0:
187,224,9423,1,0,3:3:0:0:
383,144,9581,5,0,2:2:0:0:
218,10,9739,1,8,2:2:0:0:
270,77,9896,1,0,3:3:0:0:
343,25,10054,5,0,3:3:0:0:
153,126,10212,2,0,P|110:113|75:104,1,69.9999978637696,10|0,2:2|0:0,0:0:0:0:
412,294,10528,2,0,P|454:303|495:315,1,69.9999978637696,2|0,2:2|2:2,0:0:0:0:
255,384,10844,6,0,B|234:344|235:315|235:315|263:286|267:228,1,139.999995727539,6|0,3:2|2:2,0:0:0:0:
237,173,11317,1,2,3:2:0:0:
47,202,11475,2,0,P|125:223|205:253,1,139.999995727539,8|2,2:2|2:2,0:0:0:0:
262,254,11949,1,0,3:3:0:0:
155,362,12107,5,0,3:3:0:0:
355,197,12265,1,0,3:3:0:0:
145,94,12423,1,0,3:3:0:0:
227,56,12581,5,0,3:3:0:0:
75,195,12739,1,10,3:2:0:0:
22,16,12896,1,8,3:2:0:0:
248,156,13054,1,10,3:2:0:0:
482,32,13212,5,8,3:2:0:0:
482,32,13291,1,8,3:2:0:0:
482,32,13370,1,8,2:2:0:0:
379,4,13528,2,0,P|388:42|395:92,1,69.9999978637696,8|8,2:2|2:2,0:0:0:0:
489,298,13844,2,0,L|515:220,1,69.9999978637696,8|8,2:2|2:2,0:0:0:0:
339,299,14160,1,8,2:2:0:0:
437,374,14317,6,0,L|376:387,1,50,10|0,2:2|0:0,0:0:0:0:
208,147,14475,2,0,L|191:85,1,50,10|0,2:2|0:0,0:0:0:0:
274,80,14633,5,10,2:2:0:0:
49,274,14791,2,0,P|16:210|8:164,1,100,10|0,2:2|3:3,0:0:0:0:
163,284,15107,1,10,2:2:0:0:
163,284,15186,1,8,0:0:0:0:
163,284,15265,1,0,3:3:0:0:
27,372,15423,5,10,2:2:0:0:
307,212,15581,1,0,3:3:0:0:
347,207,15659,1,0,3:3:0:0:
385,221,15738,1,0,3:3:0:0:
414,249,15817,1,0,3:3:0:0:
428,287,15896,5,2,3:3:0:0:
459,35,25686,6,0,P|448:67|438:112,1,59.9999981689454,2|2,2:2|2:2,0:0:0:0:
374,140,26002,2,0,P|299:156|237:178,2,119.999996337891,2|0|0,3:3|2:2|0:0,0:0:0:0:
374,140,26949,6,0,P|391:175|398:203,1,59.9999981689454,2|0,2:2|3:3,0:0:0:0:
488,349,27265,2,0,P|423:343|377:294,1,119.999996337891,2|2,3:2|2:2,0:0:0:0:
298,304,27739,2,0,P|262:319|239:335,1,59.9999981689454,2|0,2:2|0:0,0:0:0:0:
102,231,28054,5,2,2:2:0:0:
47,303,28212,1,0,0:0:0:0:
8,180,28370,1,0,3:3:0:0:
141,325,28528,6,0,L|126:390,1,59.9999981689454,2|0,3:2|2:2,0:0:0:0:
233,198,28844,1,2,2:2:0:0:
161,136,29002,2,0,P|132:76|139:10,1,119.999996337891,2|0,2:2|2:2,0:0:0:0:
354,119,29475,5,2,2:2:0:0:
435,158,29633,1,0,3:3:0:0:
498,101,29791,1,2,3:2:0:0:
360,259,29949,5,2,2:2:0:0:
512,361,30107,2,0,L|443:343,1,59.9999981689454,0|2,2:2|2:2,0:0:0:0:
282,190,30423,2,0,L|208:206,1,59.9999981689454,0|2,2:2|2:2,0:0:0:0:
128,266,30739,2,0,L|50:250,1,59.9999981689454,0|0,2:2|2:2,0:0:0:0:
25,18,31054,6,0,P|110:26|152:75,1,139.999995727539,6|0,3:2|0:0,0:0:0:0:
499,0,31686,6,0,B|476:32|474:65|474:65|445:85|441:139,1,139.999995727539,8|2,2:2|2:2,0:0:0:0:
501,188,32160,1,2,3:2:0:0:
389,27,32317,5,0,2:2:0:0:
316,237,32475,1,2,3:2:0:0:
214,126,32633,2,0,P|273:145|312:152,1,69.9999978637696,0|2,3:3|2:2,0:0:0:0:
463,320,32949,2,0,P|397:323|337:374,1,139.999995727539,8|0,2:2|0:0,0:0:0:0:
0,66,33581,6,0,B|49:55|49:55|83:66|83:66|145:54,1,139.999995727539,2|0,3:2|2:2,0:0:0:0:
204,0,34054,1,0,3:3:0:0:
71,254,34212,2,0,P|46:172|37:129,1,104.999996795654,8|0,2:2|0:0,0:0:0:0:
41,153,34528,5,0,2:2:0:0:
0,384,34686,1,10,2:2:0:0:
440,196,35002,5,10,2:2:0:0:
55,0,35317,5,10,2:2:0:0:
274,333,35633,5,10,2:2:0:0:
339,272,35791,2,0,P|352:312|357:359,1,69.9999978637696,2|0,0:0|0:0,0:0:0:0:
223,166,36107,6,0,L|253:42,2,119.999996337891,4|0|0,3:2|3:3|3:3,0:0:0:0:
223,166,37054,2,0,L|159:180,1,59.9999981689454,2|0,3:2|2:2,0:0:0:0:
38,0,37370,1,2,3:2:0:0:
98,70,37528,2,0,P|130:82|167:90,1,59.9999981689454,2|0,2:2|3:3,0:0:0:0:
42,152,37844,6,0,L|18:219,1,59.9999981689454,2|0,2:2|3:3,0:0:0:0:
203,328,38160,1,2,2:2:0:0:
121,373,38317,2,0,L|109:302,1,59.9999981689454,2|0,3:2|0:0,0:0:0:0:
380,196,38633,6,0,B|414:192|444:174|444:174|477:169|507:184,1,119.999996337891,2|0,3:2|3:3,0:0:0:0:
466,270,39107,1,2,2:2:0:0:
310,384,39265,2,0,P|271:335|264:255,1,119.999996337891,2|0,3:2|3:3,0:0:0:0:
292,201,39739,5,0,3:0:0:0:
292,201,39817,1,0,3:0:0:0:
292,201,39896,1,0,3:3:0:0:
216,132,40054,2,0,L|147:114,1,59.9999981689454,0|0,0:0|3:3,0:0:0:0:
342,44,40370,5,0,3:3:0:0:
174,231,40528,1,0,3:3:0:0:
51,151,40686,1,8,3:3:0:0:
0,293,40844,2,0,P|60:276|82:241,1,89.9999972534181,0|0,3:3|0:0,0:0:0:0:
75,256,41160,5,4,3:2:0:0:
75,256,41475,2,0,L|91:323,1,59.9999981689454,2|2,2:2|3:2,0:0:0:0:
243,159,41791,2,0,B|257:121|257:121|279:98|279:98|298:53,1,119.999996337891,10|0,2:2|3:3,0:0:0:0:
502,289,42265,5,2,3:2:0:0:
502,289,42581,1,2,3:2:0:0:
421,251,42739,2,0,P|381:256|359:266,1,59.9999981689454,2|8,3:2|2:2,0:0:0:0:
363,263,42975,1,8,2:2:0:0:
363,263,43054,1,8,2:2:0:0:
497,194,43212,1,8,3:3:0:0:
431,131,43370,5,0,3:3:0:0:
278,322,43528,1,0,3:3:0:0:
142,187,43686,1,0,3:3:0:0:
142,187,44002,5,2,3:2:0:0:
65,226,44160,1,2,3:2:0:0:
179,288,44317,5,10,2:2:0:0:
82,56,44475,2,0,P|71:95|69:128,1,59.9999981689454,2|0,3:2|0:0,0:0:0:0:
356,41,44791,5,10,2:2:0:0:
70,339,45107,5,10,2:2:0:0:
468,245,45423,5,10,2:2:0:0:
156,2,45739,5,10,2:2:0:0:
82,56,45896,2,0,P|147:87|197:79,1,100,0|8,0:0|3:3,0:0:0:0:
257,58,46133,1,8,3:3:0:0:
257,58,46212,2,0,L|270:143,1,50,8|8,3:3|3:3,0:0:0:0:
62,278,46370,2,0,L|85:206,1,50,8|8,3:3|3:3,0:0:0:0:
169,241,46528,1,8,3:3:0:0:
169,241,46686,6,0,L|230:226,1,50,0|0,3:3|3:3,0:0:0:0:
3,106,46844,2,0,L|21:165,1,50,0|0,3:3|3:3,0:0:0:0:
131,373,47002,1,0,3:3:0:0:
308,193,47160,5,10,2:2:0:0:
344,188,47238,1,2,0:0:0:0:
381,195,47317,1,2,0:0:0:0:
413,215,47396,1,2,0:0:0:0:
436,244,47475,6,0,B|458:204|458:204|459:169|459:169|501:127|517:61,1,179.999994506836,6|8,3:2|2:2,0:0:0:0:
373,0,47949,2,0,P|390:69|396:109,1,89.9999972534181,0|0,3:3|2:2,0:0:0:0:
330,384,48265,5,2,3:2:0:0:
512,300,48423,1,10,2:2:0:0:
308,193,48581,2,0,L|207:219,1,89.9999972534181,2|0,2:2|3:3,0:0:0:0:
110,96,48896,2,0,L|134:-20,1,89.9999972534181,2|8,2:2|2:2,0:0:0:0:
0,294,49212,2,0,P|89:300|169:379,1,179.999994506836,2|0,3:2|3:3,0:0:0:0:
444,172,49686,1,12,2:1:0:0:
444,172,50002,6,0,B|432:221|432:221|436:256|436:256|417:322,1,134.999995880127,2|0,3:2|0:0,0:0:0:0:
354,363,50317,1,10,2:2:0:0:
248,286,50475,2,0,L|371:255,1,89.9999972534181,2|0,3:2|2:2,0:0:0:0:
509,81,50791,2,0,P|465:73|421:57,1,89.9999972534181,2|8,3:2|2:2,0:0:0:0:
180,215,51107,6,0,P|135:149|154:53,1,179.999994506836,2|0,3:2|3:3,0:0:0:0:
216,118,51581,1,10,2:2:0:0:
48,194,51739,1,0,0:0:0:0:
12,115,51896,5,2,3:2:0:0:
255,298,52054,1,6,3:2:0:0:
255,298,52370,5,0,2:2:0:0:
391,208,52528,2,0,B|411:166|411:166|407:134|407:134|445:89|452:16,1,179.999994506836,6|8,3:2|2:2,0:0:0:0:
512,275,53002,2,0,P|448:292|403:311,1,89.9999972534181,0|0,3:3|2:2,0:0:0:0:
251,161,53317,5,2,3:2:0:0:
174,337,53475,1,10,2:2:0:0:
59,172,53633,2,0,L|177:202,1,89.9999972534181,2|0,2:2|3:3,0:0:0:0:
334,91,53949,2,0,L|315:-24,1,89.9999972534181,2|8,3:2|2:2,0:0:0:0:
331,308,54265,6,0,B|365:325|410:318|410:318|468:333|502:385,1,179.999994506836,2|0,3:2|3:3,0:0:0:0:
431,182,54739,1,8,2:2:0:0:
431,182,55054,6,0,P|448:118|467:83,1,89.9999972534181,2|0,3:2|0:0,0:0:0:0:
240,253,55370,1,10,2:2:0:0:
43,77,55528,2,0,L|174:118,1,134.999995880127,2|0,3:2|0:0,0:0:0:0:
238,61,55844,6,0,L|304:46,1,44.999998626709,2|0,3:2|2:2,0:0:0:0:
89,236,56002,2,0,L|69:160,1,44.999998626709,8|0,2:2|2:2,0:0:0:0:
0,0,56160,5,4,3:2:0:0:
204,350,56475,5,4,3:2:0:0:
511,35,56791,5,4,3:2:0:0:
511,35,57107,6,0,L|452:51,1,44.999998626709,10|0,2:2|0:0,0:0:0:0:
386,12,57265,1,0,0:0:0:0:
497,139,57423,1,0,3:3:0:0:
288,291,57581,6,0,P|213:265|91:231,1,179.999994506836,6|8,3:2|2:2,0:0:0:0:
32,289,58054,2,0,L|50:388,1,89.9999972534181,0|0,3:3|2:2,0:0:0:0:
243,181,58370,5,2,3:2:0:0:
71,9,58528,1,8,2:2:0:0:
6,136,58686,6,0,L|91:107,1,89.9999972534181,2|0,2:2|3:3,0:0:0:0:
224,0,59002,2,0,P|213:64|190:121,1,89.9999972534181,2|8,3:2|2:2,0:0:0:0:
437,344,59317,2,0,P|400:209|388:139,1,179.999994506836,2|0,3:2|3:3,0:0:0:0:
151,264,59791,1,8,2:2:0:0:
151,264,60107,6,0,P|202:257|285:317,1,134.999995880127,2|0,3:2|0:0,0:0:0:0:
315,372,60423,1,10,2:2:0:0:
88,348,60581,2,0,L|-18:374,1,89.9999972534181,2|0,3:2|2:2,0:0:0:0:
75,127,60896,2,0,P|60:190|48:229,1,89.9999972534181,2|8,3:2|2:2,0:0:0:0:
320,209,61212,6,0,B|381:195|381:195|435:202|435:202|510:186,1,179.999994506836,2|0,3:2|3:3,0:0:0:0:
512,104,61686,1,10,2:2:0:0:
391,281,61844,1,0,3:3:0:0:
238,47,62002,1,2,3:2:0:0:
312,106,62160,5,14,2:2:0:0:
233,151,62317,2,0,P|170:138|118:114,1,89.9999972534181,0|0,3:3|3:3,0:0:0:0:
0,382,62633,6,0,B|40:367|75:377|75:377|123:342|200:351,1,179.999994506836,6|8,3:2|2:2,0:0:0:0:
251,384,63107,2,0,P|275:334|288:280,1,89.9999972534181,0|0,3:3|2:2,0:0:0:0:
290,210,63423,1,0,3:3:0:0:
197,262,63581,5,8,2:2:0:0:
384,365,63739,1,0,0:0:0:0:
512,208,63896,2,0,L|480:313,1,89.9999972534181,0|0,3:3|3:3,0:0:0:0:
348,127,64212,6,0,P|400:158|445:175,1,89.9999972534181,10|0,2:2|3:3,0:0:0:0:
430,3,64528,1,2,0:0:0:0:
206,118,64686,1,2,3:2:0:0:
110,6,64844,2,0,B|120:48|120:48|109:88|109:88|122:149,1,134.999995880127,8|0,2:2|2:2,0:0:0:0:
128,231,65160,6,0,L|54:214,1,44.999998626709,6|0,3:2|0:0,0:0:0:0:
27,149,65317,1,0,3:3:0:0:
307,43,65475,1,8,2:2:0:0:
207,0,65633,1,0,0:0:0:0:
224,98,65791,5,6,3:2:0:0:
411,5,65949,1,0,3:3:0:0:
469,262,66107,1,8,2:2:0:0:
469,262,66423,6,0,L|407:278,1,44.999998626709,6|0,3:2|0:0,0:0:0:0:
127,354,66581,2,0,L|178:369,1,44.999998626709,8|8,2:2|2:2,0:0:0:0:
250,326,66739,5,8,2:2:0:0:
23,130,66896,2,0,L|40:201,1,44.999998626709,2|0,3:2|0:0,0:0:0:0:
104,234,67054,1,8,2:2:0:0:
136,205,67133,1,8,2:2:0:0:
140,162,67212,1,8,2:2:0:0:
504,16,67370,5,10,2:2:0:0:
457,4,67449,1,8,2:2:0:0:
414,21,67528,1,8,2:2:0:0:
371,27,67607,1,8,2:2:0:0:
327,11,67686,6,0,B|344:76|344:76|328:144|361:200,1,179.999994506836,6|8,3:2|2:2,0:0:0:0:
512,167,68160,2,0,P|452:144|401:112,1,89.9999972534181,0|0,3:3|2:2,0:0:0:0:
244,64,68475,5,2,3:2:0:0:
394,274,68633,1,10,2:2:0:0:
211,363,68791,2,0,L|246:241,1,89.9999972534181,2|0,2:2|3:3,0:0:0:0:
126,158,69107,2,0,L|33:181,1,89.9999972534181,2|8,2:2|2:2,0:0:0:0:
325,343,69423,6,0,P|410:362|492:302,1,179.999994506836,2|0,3:2|3:3,0:0:0:0:
363,45,69896,1,12,3:1:0:0:
363,45,70212,6,0,P|342:97|320:176,1,134.999995880127,2|0,3:2|0:0,0:0:0:0:
256,229,70528,1,10,2:2:0:0:
155,93,70686,2,0,P|236:75|272:61,1,89.9999972534181,2|0,3:2|2:2,0:0:0:0:
405,210,71002,1,2,3:2:0:0:
248,360,71160,1,8,2:2:0:0:
161,215,71317,6,0,P|97:169|-9:182,1,179.999994506836,2|0,3:2|2:2,0:0:0:0:
296,0,71791,1,10,2:2:0:0:
363,45,71949,2,0,P|345:104|324:145,1,89.9999972534181,0|0,3:3|3:3,0:0:0:0:
113,332,72265,5,14,2:2:0:0:
113,332,72581,1,0,3:3:0:0:
356,294,72739,2,0,B|416:317|416:317|441:348|441:348|524:377,1,179.999994506836,6|8,3:2|2:2,0:0:0:0:
502,267,73212,2,0,P|487:206|485:158,1,89.9999972534181,0|0,3:3|2:2,0:0:0:0:
478,19,73528,5,2,3:2:0:0:
325,109,73686,1,10,2:2:0:0:
151,0,73844,2,0,L|258:37,1,89.9999972534181,2|0,2:2|3:3,0:0:0:0:
383,199,74160,2,0,L|280:219,1,89.9999972534181,2|8,3:2|2:2,0:0:0:0:
140,361,74475,6,0,P|67:355|-2:273,1,179.999994506836,2|0,3:2|3:3,0:0:0:0:
175,124,74949,1,8,2:2:0:0:
175,124,75265,6,0,P|151:192|142:227,1,89.9999972534181,2|0,3:2|0:0,0:0:0:0:
68,121,75581,1,10,2:2:0:0:
197,291,75739,2,0,B|244:282|244:282|283:293|283:293|356:282,1,134.999995880127,2|0,3:2|0:0,0:0:0:0:
412,329,76054,6,0,L|391:384,1,44.999998626709,2|0,3:2|0:0,0:0:0:0:
512,136,76212,2,0,L|451:158,1,44.999998626709,8|0,2:2|0:0,0:0:0:0:
389,107,76370,5,4,3:2:0:0:
179,380,76686,5,12,3:2:0:0:
0,46,77002,5,12,3:2:0:0:
0,46,77317,5,6,3:2:0:0:
35,134,77475,2,0,P|82:152|136:163,1,89.9999972534181,0|0,3:3|3:3,0:0:0:0:
345,12,77791,6,0,B|393:-2|393:-2|464:-2|516:62,1,179.999994506836,6|8,3:2|2:2,0:0:0:0:
379,192,78265,2,0,P|397:121|410:81,1,89.9999972534181,0|0,3:3|2:2,0:0:0:0:
304,123,78581,1,0,3:3:0:0:
480,237,78739,5,10,2:2:0:0:
262,367,78896,1,2,2:2:0:0:
101,161,79054,1,0,0:0:0:0:
5,275,79212,6,0,P|69:255|119:243,1,89.9999972534181,2|10,3:2|2:2,0:0:0:0:
240,14,79528,2,0,P|209:130|194:212,1,179.999994506836,2|0,3:2|3:3,0:0:0:0:
419,378,80002,6,0,P|410:317|397:273,1,89.9999972534181,8|0,2:2|2:2,0:0:0:0:
402,289,80239,1,0,3:0:0:0:
402,289,80317,1,0,3:3:0:0:
402,289,80633,6,0,L|493:310,1,89.9999972534181,10|0,2:2|3:3,0:0:0:0:
312,170,80949,1,2,0:0:0:0:
191,295,81107,1,2,3:2:0:0:
98,40,81265,1,8,2:2:0:0:
200,15,81423,6,0,B|189:41|189:41|186:69|186:69|148:108|139:190,1,179.999994506836,2|0,2:2|3:3,0:0:0:0:
103,262,81896,2,0,P|46:274|4:288,1,89.9999972534181,10|0,2:2|2:2,0:0:0:0:
49,115,82212,5,2,2:2:0:0:
238,203,82370,1,0,3:3:0:0:
331,24,82528,1,10,2:2:0:0:
295,294,82686,5,10,2:2:0:0:
295,294,82765,1,8,2:2:0:0:
295,294,82844,2,0,P|363:316|400:333,1,89.9999972534181,6|0,3:2|2:2,0:0:0:0:
450,47,83160,1,10,2:2:0:0:
512,126,83317,2,0,P|427:140|328:164,1,179.999994506836,0|0,3:3|3:3,0:0:0:0:
84,105,83791,2,0,P|60:46|57:1,1,89.9999972534181,8|0,2:2|2:2,0:0:0:0:
153,33,84107,5,0,3:3:0:0:
4,154,84265,1,0,3:3:0:0:
125,338,84423,1,8,2:2:0:0:
13,309,84581,6,0,P|74:255|176:254,1,179.999994506836,0|0,3:3|3:3,0:0:0:0:
264,287,85054,2,0,P|240:343|227:395,1,89.9999972534181,10|0,2:2|2:2,0:0:0:0:
259,21,85370,5,4,3:2:0:0:
259,21,85686,5,10,2:2:0:0:
475,174,85844,1,0,3:3:0:0:
264,287,86002,1,10,2:2:0:0:
428,0,86160,1,0,3:3:0:0:
384,71,86317,1,2,3:2:0:0:
208,150,86475,5,10,2:2:0:0:
208,150,86554,1,8,2:2:0:0:
208,150,86633,1,8,2:2:0:0:
389,310,86791,2,0,P|445:328|495:354,1,89.9999972534181,10|0,2:2|3:3,0:0:0:0:
341,178,87107,5,10,2:2:0:0:
341,178,87423,1,10,2:2:0:0:
137,292,87581,2,0,L|161:405,1,89.9999972534181,0|0,3:3|3:3,0:0:0:0:
240,45,87896,5,6,3:2:0:0:
256,192,87975,12,0,92949,2:2:0:0:
