osu file format v14

[General]
AudioFilename: audio.mp3
AudioLeadIn: 0
PreviewTime: 46054
Countdown: 0
SampleSet: Soft
StackLeniency: 0.7
Mode: 0
LetterboxInBreaks: 0
WidescreenStoryboard: 1

[Editor]
Bookmarks: 31686,50791
DistanceSpacing: 0.5
BeatDivisor: 4
GridSize: 16
TimelineZoom: 1

[Metadata]
Title:Star map
TitleUnicode:Star map
Artist:Shimotsuki Haruka
ArtistUnicode:霜月はるか
Creator:chaser01
Version:Usapyon's Extra
Source:見上げてごらん、夜空の星を
Tags:resahc usaha takekii hanasaka yui nana abe tin frog xiqingwa koldnoodl mocaotic eroge vn visual novel video game Miagete goran Yozora no Hoshi o A sky full of stars PULLTOP eroge galgame visual novel opening op japanese pop jpop jrock j-rock rock short ver
BeatmapID:3648610
BeatmapSetID:1780288

[Difficulty]
HPDrainRate:4.8
CircleSize:4.5
OverallDifficulty:9
ApproachRate:9.5
SliderMultiplier:1.72
SliderTickRate:1

[Events]
//Background and Video events
0,0,"orihime.jpg",0,0
//Break Periods
2,16212,25477
//Storyboard Layer 0 (Background)
//Storyboard Layer 1 (Fail)
//Storyboard Layer 2 (Pass)
//Storyboard Layer 3 (Foreground)
//Storyboard Layer 4 (Overlay)
//Storyboard Sound Samples

[TimingPoints]
739,315.789473684211,4,2,1,30,1,0
5791,-125,4,2,1,50,0,0
13370,-125,4,2,1,60,0,0
14317,-125,4,2,1,67,0,0
15896,-125,4,2,1,35,0,0
26002,-125,4,2,1,50,0,0
31054,-111.111111111111,4,2,1,55,0,0
36107,-100,4,2,1,50,0,0
41159,-100,4,2,1,57,0,0
43686,-100,4,2,1,45,0,0
44001,-100,4,2,1,60,0,0
45896,-100,4,2,1,60,0,0
46054,-100,4,2,1,40,0,0
47475,-90.9090909090909,4,2,1,72,0,1
87896,-90.9090909090909,4,2,1,72,0,0
90423,-90.9090909090909,4,2,1,72,0,0
92949,-90.9090909090909,4,2,1,30,0,0

[Colours]
Combo1 : 255,155,106
Combo2 : 128,128,255
Combo3 : 255,128,128
Combo4 : 166,181,242

[HitObjects]
241,211,5791,6,0,P|200:296|271:277,1,206.4,6|2,3:2|3:2,0:0:0:0:
338,200,6423,2,0,L|357:44,1,137.6,8|2,2:2|2:2,0:0:0:0:
219,127,6896,2,0,P|185:121|200:90,1,68.8,0|0,3:3|0:0,0:0:0:0:
277,76,7212,1,0,3:3:0:0:
149,182,7370,2,0,P|114:182|84:167,1,68.8,0|0,3:3|0:0,0:0:0:0:
53,88,7686,1,10,2:2:0:0:
374,149,8002,5,2,2:2:0:0:
209,366,8317,6,0,B|203:277|203:277|228:217,1,137.6,2|0,3:2|2:2,0:0:0:0:
285,295,8791,1,2,3:2:0:0:
136,303,8949,2,0,P|100:288|81:262,1,68.8,8|0,2:2|2:2,0:0:0:0:
207,273,9265,1,2,2:2:0:0:
161,145,9423,6,0,P|144:180|148:212,1,68.8,0|0,3:3|2:2,0:0:0:0:
258,130,9739,1,8,2:2:0:0:
168,72,9896,1,0,3:3:0:0:
258,130,10054,1,0,3:3:0:0:
68,178,10212,1,10,2:2:0:0:
68,178,10528,5,2,2:2:0:0:
81,87,10686,1,0,2:2:0:0:
270,216,10844,6,0,P|337:219|381:148,1,137.6,6|0,3:2|2:2,0:0:0:0:
338,105,11317,1,2,3:2:0:0:
450,157,11475,2,0,P|461:113|456:80,1,68.8,8|0,2:2|0:0,0:0:0:0:
267,51,11791,2,0,P|256:95|261:128,1,68.8,2|0,2:2|3:3,0:0:0:0:
364,35,12107,5,0,3:3:0:0:
308,208,12265,1,0,3:3:0:0:
340,103,12423,5,0,3:3:0:0:
309,289,12581,1,0,3:3:0:0:
301,178,12739,5,10,3:2:0:0:
328,372,12896,1,8,3:2:0:0:
358,129,13054,5,10,3:2:0:0:
457,329,13212,1,8,3:2:0:0:
322,53,13370,5,8,2:2:0:0:
504,241,13528,1,8,2:2:0:0:
211,120,13686,5,8,2:2:0:0:
449,171,13844,1,8,2:2:0:0:
123,179,14002,5,8,2:2:0:0:
389,106,14160,1,8,2:2:0:0:
127,279,14317,5,10,2:2:0:0:
295,70,14475,1,10,2:2:0:0:
28,30,14633,5,10,2:2:0:0:
28,30,14712,1,8,0:0:0:0:
28,30,14791,1,10,2:2:0:0:
163,142,14949,1,0,3:3:0:0:
26,240,15107,5,10,2:2:0:0:
294,183,15265,1,0,3:3:0:0:
77,189,15423,5,10,2:2:0:0:
122,214,15501,5,8,2:2:0:0:
175,213,15580,5,0,3:3:0:0:
226,195,15659,5,0,3:3:0:0:
278,199,15738,5,0,3:3:0:0:
324,226,15817,5,0,3:3:0:0:
362,263,15896,5,2,3:3:0:0:
201,181,26002,6,0,L|211:327,2,137.6,2|0|0,3:3|2:2|0:0,0:0:0:0:
282,239,26791,2,0,P|293:295|288:313,1,68.8,4|2,1:1|2:2,0:0:0:0:
210,219,27107,1,0,3:3:0:0:
360,249,27265,6,0,P|394:246|436:147,1,137.6,2|2,3:2|2:2,0:0:0:0:
309,66,27739,2,0,P|319:109|342:130,1,68.8,2|0,2:2|0:0,0:0:0:0:
512,94,28054,2,0,P|487:66|382:75,1,137.6,2|0,2:2|3:3,0:0:0:0:
240,137,28528,6,0,P|173:125|125:77,1,137.6,2|2,3:2|2:2,0:0:0:0:
223,0,29002,2,0,P|216:38|218:81,1,68.8,2|0,2:2|0:0,0:0:0:0:
120,249,29317,2,0,P|127:211|125:168,1,68.8,0|2,2:2|2:2,0:0:0:0:
32,124,29633,1,0,3:3:0:0:
80,335,29791,5,2,3:2:0:0:
207,274,29949,1,2,2:2:0:0:
120,249,30107,1,0,2:2:0:0:
173,369,30265,1,2,2:2:0:0:
293,301,30423,1,0,2:2:0:0:
239,176,30581,1,2,2:2:0:0:
329,206,30739,1,0,2:2:0:0:
207,274,30896,1,0,2:2:0:0:
411,270,31054,6,0,P|454:230|410:133,1,154.799995275879,6|0,3:2|0:0,0:0:0:0:
489,200,31528,1,0,2:2:0:0:
315,56,31686,2,0,P|288:124|336:181,1,154.799995275879,8|2,2:2|2:2,0:0:0:0:
421,77,32160,1,2,3:2:0:0:
212,144,32317,6,0,L|126:172,1,77.3999976379395,0|2,2:2|3:2,0:0:0:0:
228,68,32633,1,0,3:3:0:0:
246,213,32791,2,0,L|218:299,1,77.3999976379395,2|8,2:2|2:2,0:0:0:0:
294,105,33107,1,2,2:2:0:0:
294,105,33265,2,0,L|322:19,1,77.3999976379395,0|0,0:0|2:2,0:0:0:0:
125,220,33581,6,0,P|74:226|76:129,1,154.799995275879,2|0,3:2|2:2,0:0:0:0:
143,118,34054,1,0,3:3:0:0:
173,289,34212,2,0,P|224:295|222:198,1,154.799995275879,8|0,2:2|2:2,0:0:0:0:
141,361,34686,5,10,2:2:0:0:
165,15,35002,5,10,2:2:0:0:
348,308,35317,5,10,2:2:0:0:
27,178,35633,5,10,2:2:0:0:
362,95,35791,1,2,0:0:0:0:
362,95,36107,6,0,B|239:87|239:87|201:45,1,172,4|0,3:2|3:3,0:0:0:0:
279,20,36581,1,0,0:0:0:0:
152,107,36739,2,0,P|130:68|132:21,1,86,0|0,3:3|2:2,0:0:0:0:
172,182,37054,2,0,P|127:181|87:156,1,86,2|0,3:2|2:2,0:0:0:0:
338,174,37370,5,2,3:2:0:0:
262,242,37528,2,0,L|248:153,1,86,2|0,2:2|3:3,0:0:0:0:
423,285,37844,2,0,L|409:196,1,86,2|0,2:2|3:3,0:0:0:0:
269,323,38160,1,2,2:2:0:0:
454,335,38317,2,0,L|440:246,1,86,2|0,3:2|0:0,0:0:0:0:
190,353,38633,6,0,P|142:344|143:232,1,172,2|0,3:2|3:3,0:0:0:0:
75,313,39107,1,2,2:2:0:0:
213,225,39265,2,0,P|228:146|156:110,1,172,2|0,3:2|3:3,0:0:0:0:
80,160,39739,1,0,2:2:0:0:
246,139,39896,6,0,P|268:99|263:57,1,86,0|0,3:3|0:0,0:0:0:0:
156,184,40212,1,0,3:3:0:0:
180,9,40370,2,0,P|158:49|163:91,1,86,0|0,3:3|3:3,0:0:0:0:
382,148,40686,1,8,3:3:0:0:
431,22,40844,1,0,3:3:0:0:
210,313,41160,6,0,B|140:299|140:299|111:311|111:311|23:317,1,172,4|2,3:2|2:2,0:0:0:0:
156,375,41633,1,2,3:2:0:0:
201,157,41791,1,10,2:2:0:0:
125,202,41949,2,0,P|77:188|49:155,1,86,2|0,2:2|3:3,0:0:0:0:
281,249,42265,6,0,P|331:211|454:254,1,172,2|2,3:2|3:2,0:0:0:0:
325,73,42739,1,2,3:2:0:0:
381,130,42896,1,8,2:2:0:0:
401,125,42974,1,8,2:2:0:0:
418,112,43053,1,8,2:2:0:0:
240,97,43212,1,8,3:3:0:0:
352,3,43370,1,0,3:3:0:0:
309,187,43528,1,0,3:3:0:0:
126,116,43686,6,0,L|41:82,1,86,0|0,3:3|0:0,0:0:0:0:
185,49,44002,1,2,3:2:0:0:
115,200,44160,1,2,3:2:0:0:
111,22,44317,1,10,2:2:0:0:
246,93,44475,2,0,P|276:52|269:17,1,86,2|0,3:2|0:0,0:0:0:0:
248,290,44791,5,10,2:2:0:0:
249,318,45106,5,10,2:2:0:0:
250,347,45422,5,10,2:2:0:0:
255,380,45738,5,10,2:2:0:0:
255,380,46054,1,8,3:3:0:0:
290,376,46132,1,8,3:3:0:0:
319,356,46211,1,8,3:3:0:0:
333,323,46290,1,8,3:3:0:0:
329,288,46369,1,8,3:3:0:0:
308,260,46448,1,8,3:3:0:0:
275,246,46528,2,0,L|218:237,1,43,8|0,3:3|0:0,0:0:0:0:
436,258,46686,6,0,L|378:248,1,43,0|0,3:3|3:3,0:0:0:0:
250,264,46844,2,0,L|192:254,1,43,0|0,3:3|3:3,0:0:0:0:
454,282,47002,6,0,L|396:272,1,43,0|0,3:3|0:0,0:0:0:0:
80,218,47160,5,8,2:2:0:0:
80,218,47475,6,0,L|291:182,1,189.200005773926,6|8,3:2|2:2,0:0:0:0:
132,120,47949,2,0,L|11:102,1,94.600002886963,0|0,3:3|2:2,0:0:0:0:
209,42,48265,1,2,3:2:0:0:
273,234,48423,1,10,2:2:0:0:
393,116,48581,6,0,L|514:134,1,94.600002886963,2|0,2:2|3:3,0:0:0:0:
262,120,48896,2,0,L|244:-1,1,94.600002886963,2|8,2:2|2:2,0:0:0:0:
191,330,49212,2,0,L|178:237,1,94.600002886963,2|0,3:2|0:0,0:0:0:0:
345,317,49528,5,0,3:3:0:0:
61,263,49686,2,0,P|65:204|102:163,1,94.600002886963,12|0,2:1|2:2,0:0:0:0:
466,252,50002,6,0,L|278:226,1,189.200005773926,2|10,3:2|2:2,0:0:0:0:
459,96,50475,2,0,P|461:150|408:189,1,94.600002886963,2|0,3:2|2:2,0:0:0:0:
318,122,50791,2,0,P|343:73|409:66,1,94.600002886963,2|8,3:2|2:2,0:0:0:0:
175,200,51107,6,0,P|127:186|134:65,1,189.200005773926,2|0,3:2|3:3,0:0:0:0:
270,233,51581,1,10,2:2:0:0:
175,200,51739,1,0,0:0:0:0:
304,103,51896,1,2,3:2:0:0:
331,365,52054,6,0,P|390:372|395:259,1,189.200005773926,6|0,3:2|2:2,0:0:0:0:
83,339,52528,6,0,B|23:252|119:241|58:152,1,189.200005773926,6|8,3:2|2:2,0:0:0:0:
157,278,53002,2,0,L|283:253,1,94.600002886963,0|0,3:3|2:2,0:0:0:0:
444,218,53317,1,2,3:2:0:0:
272,173,53475,1,10,2:2:0:0:
352,267,53633,6,0,L|378:375,1,94.600002886963,2|0,2:2|3:3,0:0:0:0:
198,135,53949,2,0,L|172:27,1,94.600002886963,2|8,3:2|2:2,0:0:0:0:
90,283,54265,2,0,L|116:391,1,94.600002886963,2|0,3:2|0:0,0:0:0:0:
222,251,54581,5,0,3:3:0:0:
72,212,54739,2,0,P|49:158|55:109,1,94.600002886963,8|0,2:2|2:2,0:0:0:0:
343,198,55054,6,0,P|380:157|351:33,1,189.200005773926,2|10,3:2|2:2,0:0:0:0:
164,250,55528,2,0,P|149:200|159:152,1,94.600002886963,2|0,3:2|2:2,0:0:0:0:
307,99,55844,1,2,3:2:0:0:
310,114,55923,1,0,3:2:0:0:
312,127,56002,2,0,L|242:117,1,47.3000014434815,8|0,2:2|2:2,0:0:0:0:
67,99,56160,5,4,3:2:0:0:
440,138,56475,5,4,3:2:0:0:
123,211,56791,5,4,3:2:0:0:
379,254,57107,5,10,2:2:0:0:
229,307,57265,1,0,0:0:0:0:
323,341,57423,1,0,3:3:0:0:
267,28,57581,6,0,L|238:243,1,189.200005773926,6|8,3:2|2:2,0:0:0:0:
180,105,58054,2,0,P|178:47|203:4,1,94.600002886963,0|0,3:3|2:2,0:0:0:0:
337,139,58370,1,2,3:2:0:0:
168,198,58528,1,8,2:2:0:0:
354,314,58686,6,0,L|365:204,1,94.600002886963,2|0,2:2|3:3,0:0:0:0:
183,350,59002,2,0,L|194:240,1,94.600002886963,2|8,3:2|2:2,0:0:0:0:
386,384,59317,2,0,L|397:274,1,94.600002886963,2|0,3:2|0:0,0:0:0:0:
262,345,59633,1,0,3:3:0:0:
456,246,59791,2,0,P|467:195|446:150,1,94.600002886963,8|0,2:2|0:0,0:0:0:0:
204,36,60107,6,0,P|169:105|247:98,1,189.200005773926,2|10,3:2|2:2,0:0:0:0:
92,142,60581,2,0,P|46:146|11:116,1,94.600002886963,2|0,3:2|2:2,0:0:0:0:
296,38,60896,2,0,P|341:33|376:63,1,94.600002886963,2|8,3:2|2:2,0:0:0:0:
267,273,61212,6,0,P|186:255|201:152,1,189.200005773926,2|0,3:2|3:3,0:0:0:0:
371,312,61686,1,10,2:2:0:0:
367,222,61844,1,0,3:3:0:0:
283,186,62002,1,2,3:2:0:0:
477,219,62160,5,14,2:2:0:0:
427,140,62317,1,0,3:3:0:0:
500,93,62475,1,0,3:3:0:0:
202,131,62633,6,0,B|136:117|136:117|98:134|98:134|-2:140,1,189.200005773926,6|8,3:2|2:2,0:0:0:0:
133,151,63107,2,0,P|152:198|144:245,1,94.600002886963,0|0,3:3|2:2,0:0:0:0:
56,65,63423,1,0,3:3:0:0:
148,273,63581,2,0,P|174:234|177:188,1,94.600002886963,8|0,2:2|0:0,0:0:0:0:
56,157,63896,5,0,3:3:0:0:
276,119,64054,1,0,3:3:0:0:
56,157,64212,2,0,L|36:288,1,94.600002886963,10|0,2:2|3:3,0:0:0:0:
182,69,64528,5,2,0:0:0:0:
233,314,64686,2,0,P|291:325|244:244,1,189.200005773926,2|0,3:2|0:0,0:0:0:0:
341,380,65160,6,0,P|273:333|155:311,1,189.200005773926,6|8,3:2|2:2,0:0:0:0:
354,260,65633,1,0,0:0:0:0:
75,289,65791,6,0,P|143:242|264:231,1,189.200005773926,6|8,3:2|2:2,0:0:0:0:
409,326,66265,1,0,0:0:0:0:
335,175,66423,5,6,3:2:0:0:
331,139,66501,1,8,0:0:0:0:
340,106,66580,1,8,2:2:0:0:
362,78,66659,1,8,2:2:0:0:
393,61,66739,2,0,L|411:124,1,47.3000014434815,8|0,2:2|0:0,0:0:0:0:
271,278,66896,5,2,3:2:0:0:
221,116,67054,1,8,2:2:0:0:
209,70,67132,1,8,2:2:0:0:
197,24,67211,1,8,2:2:0:0:
117,216,67370,5,10,2:2:0:0:
72,228,67448,1,8,2:2:0:0:
34,204,67527,1,8,2:2:0:0:
26,159,67606,1,8,2:2:0:0:
56,123,67686,6,0,B|172:149|172:149|114:218,1,189.200005773926,6|8,3:2|2:2,0:0:0:0:
106,103,68160,2,0,P|105:44|134:6,1,94.600002886963,0|0,3:3|2:2,0:0:0:0:
288,36,68476,1,2,3:2:0:0:
189,190,68634,1,10,2:2:0:0:
395,159,68792,6,0,L|516:132,1,94.600002886963,2|0,2:2|3:3,0:0:0:0:
205,269,69107,6,0,L|84:296,1,94.600002886963,2|8,2:2|2:2,0:0:0:0:
391,303,69423,6,0,L|512:276,1,94.600002886963,2|0,3:2|3:3,0:0:0:0:
283,151,69739,5,0,3:3:0:0:
281,373,69897,2,0,P|304:332|304:286,1,94.600002886963,12|0,3:1|0:0,0:0:0:0:
164,58,70212,6,0,P|121:129|198:161,1,189.200005773926,2|10,3:2|2:2,0:0:0:0:
385,50,70686,2,0,P|331:58|292:101,1,94.600002886963,2|0,3:2|2:2,0:0:0:0:
279,283,71002,2,0,P|299:232|281:176,1,94.600002886963,2|8,3:2|2:2,0:0:0:0:
25,296,71317,6,0,P|58:251|196:250,1,189.200005773926,2|0,3:2|2:2,0:0:0:0:
42,133,71792,1,10,2:2:0:0:
164,150,71950,1,0,3:3:0:0:
198,38,72107,1,0,3:3:0:0:
245,318,72265,6,0,L|290:131,1,189.200005773926,14|0,2:2|3:3,0:0:0:0:
349,347,72739,6,0,P|423:349|431:249,1,189.200005773926,6|8,3:2|2:2,0:0:0:0:
326,63,73212,2,0,P|318:114|339:154,1,94.600002886963,0|0,3:3|2:2,0:0:0:0:
510,115,73528,1,2,3:2:0:0:
436,15,73686,1,10,2:2:0:0:
233,172,73844,6,0,L|207:64,1,94.600002886963,2|0,2:2|3:3,0:0:0:0:
426,200,74160,2,0,L|400:92,1,94.600002886963,2|8,3:2|2:2,0:0:0:0:
211,264,74475,2,0,L|185:156,1,94.600002886963,2|0,3:2|0:0,0:0:0:0:
367,261,74792,5,0,3:3:0:0:
111,278,74950,2,0,P|111:324|132:366,1,94.600002886963,8|0,2:2|2:2,0:0:0:0:
270,152,75265,6,0,B|161:114|194:181|54:134,1,189.200005773926,2|10,3:2|2:2,0:0:0:0:
292,234,75739,2,0,P|307:284|297:332,1,94.600002886963,2|0,3:2|2:2,0:0:0:0:
107,285,76055,1,2,3:2:0:0:
89,256,76134,1,0,3:0:0:0:
98,223,76213,2,0,L|168:233,1,47.3000014434815,8|0,2:2|0:0,0:0:0:0:
414,259,76371,5,4,3:2:0:0:
306,21,76686,5,4,3:2:0:0:
123,211,77002,5,12,3:2:0:0:
319,160,77318,5,6,3:2:0:0:
216,197,77476,1,0,3:3:0:0:
166,108,77634,1,0,3:3:0:0:
374,354,77791,6,0,P|444:361|502:256,1,189.200005773926,6|8,3:2|2:2,0:0:0:0:
289,321,78265,2,0,P|231:323|188:298,1,94.600002886963,0|0,3:3|2:2,0:0:0:0:
320,169,78581,1,0,3:3:0:0:
357,264,78739,1,10,2:2:0:0:
162,163,78897,6,0,L|151:53,1,94.600002886963,2|0,2:2|0:0,0:0:0:0:
316,279,79213,2,0,L|305:169,1,94.600002886963,2|10,3:2|2:2,0:0:0:0:
461,136,79528,2,0,L|450:26,1,94.600002886963,2|0,3:2|2:2,0:0:0:0:
217,215,79844,5,0,3:3:0:0:
384,149,80002,2,0,P|385:96|355:56,1,94.600002886963,8|0,2:2|2:2,0:0:0:0:
258,282,80317,6,0,P|321:300|295:218,1,189.200005773926,0|10,3:3|2:2,0:0:0:0:
184,313,80791,1,0,3:3:0:0:
157,118,80949,1,2,0:0:0:0:
94,181,81107,2,0,P|47:185|6:163,1,94.600002886963,2|8,3:2|2:2,0:0:0:0:
197,220,81423,6,0,P|253:184|223:61,1,189.200005773926,2|0,2:2|3:3,0:0:0:0:
340,215,81896,2,0,L|470:233,1,94.600002886963,10|0,2:2|2:2,0:0:0:0:
137,274,82212,2,0,L|7:256,1,94.600002886963,2|0,2:2|3:3,0:0:0:0:
182,147,82528,1,10,2:2:0:0:
224,321,82686,5,10,2:2:0:0:
228,332,82765,1,8,2:2:0:0:
232,343,82844,2,0,B|264:367|264:367|297:211,1,189.200005773926,6|10,3:2|2:2,0:0:0:0:
349,47,83317,5,0,3:3:0:0:
205,161,83475,1,0,2:2:0:0:
383,242,83633,1,0,3:3:0:0:
327,139,83791,1,8,2:2:0:0:
459,114,83949,1,0,2:2:0:0:
121,163,84107,6,0,L|11:150,1,94.600002886963,0|0,3:3|3:3,0:0:0:0:
165,67,84423,1,8,2:2:0:0:
200,276,84581,2,0,P|221:234|218:187,1,94.600002886963,0|0,3:3|2:2,0:0:0:0:
150,67,84896,5,0,3:3:0:0:
290,172,85054,1,10,2:2:0:0:
326,1,85212,1,0,2:2:0:0:
336,318,85370,6,0,L|366:116,1,189.200005773926,4|10,3:2|2:2,0:0:0:0:
209,251,85844,2,0,L|150:277,2,47.3000014434815,0|0|10,3:3|0:0|2:2,0:0:0:0:
437,324,86160,1,0,3:3:0:0:
275,201,86317,1,2,3:2:0:0:
442,71,86475,5,10,2:2:0:0:
454,108,86554,1,8,2:2:0:0:
465,144,86633,1,8,2:2:0:0:
244,86,86791,6,0,L|378:61,1,94.600002886963,10|0,2:2|3:3,0:0:0:0:
175,293,87107,6,0,L|309:318,1,94.600002886963,10|0,2:2|3:3,0:0:0:0:
89,76,87423,5,10,2:2:0:0:
133,191,87581,1,0,3:3:0:0:
6,161,87739,1,0,3:3:0:0:
361,86,87896,5,6,3:2:0:0:
256,192,87975,12,0,92949,2:2:0:0:
