osu file format v14

[General]
AudioFilename: audio.mp3
AudioLeadIn: 0
PreviewTime: 46054
Countdown: 0
SampleSet: Soft
StackLeniency: 0.7
Mode: 0
LetterboxInBreaks: 0
WidescreenStoryboard: 0

[Editor]
DistanceSpacing: 0.5
BeatDivisor: 4
GridSize: 16
TimelineZoom: 1

[Metadata]
Title:Star map
TitleUnicode:Star map
Artist:Shimotsuki Haruka
ArtistUnicode:霜月はるか
Creator:chaser01
Version:I'm sure I don't have the right to love you.
Source:見上げてごらん、夜空の星を
Tags:resahc usaha takekii hanasaka yui nana abe tin frog xiqingwa koldnoodl mocaotic eroge vn visual novel video game Miagete goran Yozora no Hoshi o A sky full of stars PULLTOP eroge galgame visual novel opening op japanese pop jpop jrock j-rock rock short ver
BeatmapID:3752621
BeatmapSetID:1780288

[Difficulty]
HPDrainRate:5
CircleSize:4
OverallDifficulty:9
ApproachRate:9.3
SliderMultiplier:1.8
SliderTickRate:1

[Events]
//Background and Video events
0,0,"saya.jpg",0,0
//Break Periods
//Storyboard Layer 0 (Background)
//Storyboard Layer 1 (Fail)
//Storyboard Layer 2 (Pass)
//Storyboard Layer 3 (Foreground)
//Storyboard Layer 4 (Overlay)
//Storyboard Sound Samples

[TimingPoints]
739,315.789473684211,4,2,1,30,1,0
739,-133.333333333333,4,2,1,30,0,0
1686,-222.222222222222,4,2,1,30,0,0
3265,-133.333333333333,4,2,1,30,0,0
4212,-222.222222222222,4,2,1,30,0,0
5791,-111.111111111111,4,2,1,50,0,0
13370,-111.111111111111,4,2,1,60,0,0
14317,-111.111111111111,4,2,1,67,0,0
14633,-90.9090909090909,4,2,1,67,0,0
15896,-222.222222222222,4,2,1,35,0,0
24265,-166.666666666667,4,2,1,35,0,0
26001,-125,4,2,1,50,0,0
31054,-105.263157894737,4,2,1,55,0,0
36107,-117.647058823529,4,2,1,50,0,0
41159,-117.647058823529,4,2,1,57,0,0
43686,-153.846153846154,4,2,1,45,0,0
44001,-105.263157894737,4,2,1,60,0,0
45896,-105.263157894737,4,2,1,60,0,0
46054,-105.263157894737,4,2,1,40,0,0
47475,-83.3333333333333,4,2,1,72,0,0
51580,-166.666666666667,4,2,1,72,0,0
52054,-71.4285714285714,4,2,1,72,0,0
52528,-83.3333333333333,4,2,1,72,0,0
57107,-250,4,2,1,72,0,0
57580,-100,4,2,1,72,0,0
58212,-83.3333333333333,4,2,1,72,0,0
67370,-66.6666666666667,4,2,1,72,0,0
67686,-57.1428571428571,4,2,1,72,0,0
68001,-76.9230769230769,4,2,1,72,0,0
76370,-62.5,4,2,1,72,0,0
77791,-57.1428571428571,4,2,1,72,0,0
78107,-76.9230769230769,4,2,1,72,0,0
80791,-83.3333333333333,4,2,1,72,0,0
87896,-500,4,2,1,72,0,0
90423,-500,4,2,1,72,0,0
92949,-500,4,2,1,30,0,0

[Colours]
Combo1 : 254,186,248
Combo2 : 155,253,238
Combo3 : 200,255,200
Combo4 : 255,218,181

[HitObjects]
38,90,739,6,0,P|88:107|121:111,2,67.5000025749208,2|0|0,2:2|2:2|2:2,0:0:0:0:
282,180,1212,2,0,P|315:188|347:200,2,67.5000025749208,2|0|0,2:2|2:2|2:2,0:0:0:0:
269,80,1686,2,0,P|163:169|56:216,1,242.999992584229,2|2,2:2|2:2,0:0:0:0:
68,212,2949,1,0,2:2:0:0:
434,353,3265,6,0,P|484:336|517:332,2,67.5000025749208,2|0|0,2:2|2:2|2:2,0:0:0:0:
294,254,3738,2,0,P|261:246|229:234,2,67.5000025749208,2|0|0,2:2|2:2|2:2,0:0:0:0:
268,384,4212,2,0,P|374:295|481:248,1,242.999992584229,2|2,2:2|2:2,0:0:0:0:
468,251,5475,1,0,2:2:0:0:
163,275,5791,6,0,P|74:246|-16:234,1,161.999995056153,6|0,3:2|2:2,0:0:0:0:
245,270,6265,1,2,3:2:0:0:
282,185,6422,2,0,P|242:192|202:200,1,80.9999975280763,8|0,2:2|2:2,0:0:0:0:
290,102,6738,5,2,2:2:0:0:
339,259,6896,2,0,P|366:176|370:86,1,161.999995056153,0|0,3:3|3:3,0:0:0:0:
372,102,7370,2,0,P|450:86|528:71,1,121.499996292114,0|0,3:3|2:2,0:0:0:0:
491,78,7686,5,10,2:2:0:0:
487,237,8001,1,2,2:2:0:0:
333,259,8317,2,0,P|254:243|152:226,1,161.999995056153,0|0,3:2|2:2,0:0:0:0:
246,141,8791,1,2,3:2:0:0:
174,230,8949,2,0,P|163:166|171:132,1,80.9999975280763,8|0,2:2|2:2,0:0:0:0:
246,141,9265,5,2,2:2:0:0:
83,115,9422,2,0,P|33:134|-24:139,1,80.9999975280763,0|0,3:3|2:2,0:0:0:0:
135,318,9738,5,8,2:2:0:0:
79,375,9896,2,0,P|31:358|-28:351,1,80.9999975280763,0|0,3:3|3:3,0:0:0:0:
14,248,10212,6,0,B|106:212|72:262|208:219,1,161.999995056153,10|2,2:2|2:2,0:0:0:0:
249,243,10686,1,0,2:2:0:0:
488,91,10843,2,0,B|394:66|426:114|293:62,1,161.999995056153,6|0,3:2|2:2,0:0:0:0:
378,11,11317,1,2,3:2:0:0:
327,72,11475,2,0,P|325:126|356:191,1,121.499996292114,8|0,2:2|2:2,0:0:0:0:
352,186,11791,1,2,2:2:0:0:
179,149,11949,6,0,L|280:172,1,80.9999975280763,0|0,3:3|3:3,0:0:0:0:
290,256,12265,1,0,3:3:0:0:
390,352,12422,2,0,L|375:272,1,80.9999975280763,0|0,3:3|3:3,0:0:0:0:
466,293,12738,5,10,3:2:0:0:
302,336,12896,1,8,3:2:0:0:
197,363,13054,1,10,3:2:0:0:
117,383,13212,1,8,3:2:0:0:
0,232,13370,5,8,2:2:0:0:
49,77,13528,1,8,2:2:0:0:
205,123,13686,1,8,2:2:0:0:
156,277,13844,1,8,2:2:0:0:
101,180,14001,5,8,2:2:0:0:
101,180,14159,1,8,2:2:0:0:
250,32,14317,5,10,2:2:0:0:
292,320,14475,1,10,2:2:0:0:
0,144,14633,5,10,2:2:0:0:
393,76,14791,2,0,P|473:59|518:45,1,99.0000030212403,10|0,2:2|3:3,0:0:0:0:
403,296,15107,2,0,P|483:313|528:327,1,99.0000030212403,10|0,2:2|3:3,0:0:0:0:
512,182,15422,6,0,L|440:188,1,49.5000015106202,10|8,2:2|2:2,0:0:0:0:
274,239,15580,1,0,3:3:0:0:
235,260,15659,1,0,3:3:0:0:
216,298,15738,1,0,3:3:0:0:
217,340,15817,1,0,3:3:0:0:
232,384,15896,1,2,3:3:0:0:
84,161,16212,5,2,2:2:0:0:
11,137,16370,2,0,P|-5:91|-3:47,1,80.9999975280763,2|2,2:2|2:2,0:0:0:0:
0,59,17001,5,2,2:2:0:0:
77,71,17317,1,2,2:2:0:0:
154,83,17633,1,2,2:2:0:0:
230,99,17949,2,0,L|284:110,1,40.4999987640381,2|2,2:2|2:2,0:0:0:0:
512,360,18422,6,0,L|414:375,1,80.9999975280763,2|2,2:2|2:2,0:0:0:0:
431,372,18896,1,2,2:2:0:0:
361,285,19212,2,0,P|341:334|345:369,1,80.9999975280763,2|2,2:2|2:2,0:0:0:0:
512,251,19843,5,2,2:2:0:0:
437,269,20160,1,2,2:2:0:0:
361,285,20475,2,0,P|351:258|348:234,1,40.4999987640381,2|2,2:2|2:2,0:0:0:0:
186,0,20949,6,0,P|178:47|161:96,1,80.9999975280763,2|2,2:2|2:2,0:0:0:0:
230,144,21422,2,0,L|136:160,1,80.9999975280763,2|2,2:2|2:2,0:0:0:0:
0,109,22054,5,2,2:2:0:0:
74,96,22370,1,2,2:2:0:0:
146,81,22686,1,2,2:2:0:0:
218,68,23001,1,2,2:2:0:0:
218,68,23159,1,2,2:2:0:0:
512,345,23475,5,2,2:2:0:0:
441,328,23633,5,2,2:2:0:0:
394,334,23791,5,2,2:2:0:0:
373,348,23949,5,2,2:2:0:0:
137,256,24265,6,0,P|133:213|132:200,1,53.9999983520508,2|2,2:2|2:2,0:0:0:0:
345,205,24581,2,0,P|341:162|340:149,1,53.9999983520508,2|2,2:2|2:2,0:0:0:0:
237,11,24896,5,2,2:2:0:0:
222,32,24975,1,2,2:2:0:0:
216,54,25054,1,2,2:2:0:0:
200,146,25212,5,2,2:2:0:0:
231,224,25370,5,2,2:2:0:0:
265,274,25528,5,2,2:2:0:0:
293,314,25686,5,2,2:2:0:0:
297,347,25843,5,2,2:2:0:0:
287,369,26001,5,2,3:3:0:0:
512,59,26317,5,0,2:2:0:0:
356,140,26475,2,0,B|423:138|395:124|481:118,1,108,0|0,2:2|2:2,0:0:0:0:
462,120,26791,1,4,1:1:0:0:
303,23,26949,2,0,P|296:72|289:102,1,72,2|0,2:2|3:3,0:0:0:0:
220,360,27265,6,0,P|213:311|206:281,1,72,2|0,3:2|2:2,0:0:0:0:
137,326,27580,1,2,2:2:0:0:
15,290,27738,2,0,P|62:245|152:261,2,144,2|2|0,2:2|2:2|3:3,0:0:0:0:
315,143,28528,6,0,P|360:153|404:164,1,72,2|0,3:2|2:2,0:0:0:0:
432,89,28843,1,2,2:2:0:0:
281,35,29001,2,0,P|355:20|431:2,1,144,2|0,2:2|2:2,0:0:0:0:
422,12,29475,2,0,P|427:55|434:98,1,72,2|0,2:2|3:3,0:0:0:0:
202,232,29791,6,0,P|207:272|214:315,1,72,2|2,3:2|2:2,0:0:0:0:
136,354,30107,5,0,2:2:0:0:
45,339,30264,5,2,2:2:0:0:
0,276,30423,5,0,2:2:0:0:
24,228,30580,5,2,2:2:0:0:
61,217,30738,5,0,2:2:0:0:
83,225,30896,5,0,2:2:0:0:
298,355,31054,6,0,P|355:380|490:253,1,256.499993150711,6|0,3:2|2:2,0:0:0:0:
391,196,31686,2,0,P|399:239|412:291,1,85.4999977169037,8|0,2:2|2:2,0:0:0:0:
310,180,32001,5,2,2:2:0:0:
398,69,32159,2,0,P|439:58|480:47,1,85.4999977169037,2|0,3:2|2:2,0:0:0:0:
311,102,32475,2,0,P|319:59|332:7,1,85.4999977169037,2|0,3:2|3:3,0:0:0:0:
114,120,32791,6,0,P|72:108|31:97,1,85.4999977169037,2|8,2:2|2:2,0:0:0:0:
209,178,33107,2,0,P|199:137|180:6,1,170.999995433807,2|0,2:2|2:2,0:0:0:0:
262,240,33580,6,0,B|356:269|341:238|430:261,1,170.999995433807,2|0,3:2|2:2,0:0:0:0:
381,329,34054,1,0,3:3:0:0:
428,184,34212,2,0,P|470:177|515:169,1,85.4999977169037,8|0,2:2|2:2,0:0:0:0:
371,129,34528,5,0,2:2:0:0:
152,288,34686,2,0,P|118:294|80:303,1,42.7499988584519,10|0,2:2|2:2,0:0:0:0:
144,297,35001,2,0,P|110:303|72:312,1,42.7499988584519,10|0,2:2|2:2,0:0:0:0:
136,310,35317,2,0,P|102:316|64:325,1,42.7499988584519,10|0,2:2|2:2,0:0:0:0:
128,319,35633,2,0,P|94:325|56:334,1,42.7499988584519,10|0,2:2|2:2,0:0:0:0:
0,193,36107,6,0,P|86:208|156:218,2,153.000002918243,4|0|0,3:2|3:3|3:3,0:0:0:0:
0,193,36896,1,0,2:2:0:0:
128,111,37054,2,0,P|69:122|23:128,1,76.5000014591217,2|0,3:2|2:2,0:0:0:0:
151,217,37370,5,2,3:2:0:0:
348,136,37528,2,0,P|369:92|364:39,1,76.5000014591217,2|0,2:2|3:3,0:0:0:0:
440,161,37843,2,0,P|489:143|529:131,1,76.5000014591217,2|0,2:2|3:3,0:0:0:0:
396,241,38159,1,2,2:2:0:0:
497,285,38317,2,0,P|445:246|378:246,1,114.750002188683,2|0,3:2|2:2,0:0:0:0:
386,245,38633,6,0,P|319:260|227:272,1,153.000002918243,2|0,3:2|3:3,0:0:0:0:
163,318,39107,1,2,2:2:0:0:
103,378,39265,6,0,P|59:374|20:358,1,76.5000014591217,2|0,3:2|2:2,0:0:0:0:
145,244,39580,2,0,P|160:286|162:328,1,76.5000014591217,0|0,3:3|2:2,0:0:0:0:
78,295,39896,2,0,P|36:199|39:119,1,153.000002918243,0|0,3:3|3:3,0:0:0:0:
33,152,40370,5,0,3:3:0:0:
232,199,40528,1,0,3:3:0:0:
50,142,40686,1,8,3:3:0:0:
115,37,40843,1,0,3:3:0:0:
115,37,41159,6,0,P|197:55|284:68,1,153.000002918243,4|2,3:2|2:2,0:0:0:0:
232,198,41633,1,2,3:2:0:0:
266,66,41791,2,0,P|286:121|286:167,1,76.5000014591217,10|2,2:2|2:2,0:0:0:0:
232,198,42107,5,0,3:3:0:0:
355,4,42265,2,0,P|362:80|397:172,1,153.000002918243,2|2,3:2|3:2,0:0:0:0:
454,111,42738,5,2,3:2:0:0:
339,252,42896,2,0,P|332:206|324:183,2,38.2500007295609,8|8|8,2:2|2:2|2:2,0:0:0:0:
388,313,43212,1,8,3:3:0:0:
449,349,43370,1,0,3:3:0:0:
488,362,43528,1,0,3:3:0:0:
510,366,43686,6,0,P|512:320|524:272,1,87.749995983124,0|0,3:3|2:2,0:0:0:0:
503,207,44001,2,0,P|433:221|391:229,1,85.4999977169037,2|2,3:2|3:2,0:0:0:0:
245,382,44317,1,10,2:2:0:0:
2,358,44475,2,0,P|72:344|161:325,1,128.249996575356,2|0,3:2|2:2,0:0:0:0:
129,323,44791,6,0,L|196:306,1,42.7499988584519,10|0,2:2|2:2,0:0:0:0:
353,163,45107,6,0,L|286:180,1,42.7499988584519,10|0,2:2|2:2,0:0:0:0:
46,228,45422,6,0,L|113:211,1,42.7499988584519,10|0,2:2|2:2,0:0:0:0:
361,50,45738,6,0,L|294:67,1,42.7499988584519,10|0,2:2|2:2,0:0:0:0:
162,18,46054,5,8,3:3:0:0:
170,42,46132,1,8,3:3:0:0:
178,67,46211,1,8,3:3:0:0:
185,92,46290,1,8,3:3:0:0:
193,117,46369,1,8,3:3:0:0:
200,142,46448,1,8,3:3:0:0:
208,167,46527,1,8,3:3:0:0:
313,287,46686,5,0,3:3:0:0:
308,299,46764,1,0,3:3:0:0:
304,311,46843,1,0,3:3:0:0:
301,324,46922,1,0,3:3:0:0:
297,336,47001,1,0,3:3:0:0:
510,360,47159,5,8,2:2:0:0:
510,360,47475,6,0,B|389:326|427:375|283:332,1,215.999993408203,6|8,3:2|2:2,0:0:0:0:
242,281,47949,2,0,B|206:327|206:327|214:400,1,107.999996704102,0|0,3:3|2:2,0:0:0:0:
297,336,48265,5,2,3:2:0:0:
472,266,48422,1,10,2:2:0:0:
397,97,48580,2,0,P|368:41|342:-26,1,107.999996704102,2|0,2:2|3:3,0:0:0:0:
90,98,48896,2,0,P|118:42|145:-25,1,107.999996704102,2|8,2:2|2:2,0:0:0:0:
245,43,49212,2,0,P|229:134|228:239,1,161.999995056153,2|0,3:2|2:2,0:0:0:0:
231,197,49528,6,0,P|310:178|377:147,1,107.999996704102,0|12,3:3|2:1,0:0:0:0:
46,315,49843,1,0,2:2:0:0:
0,232,50001,2,0,P|129:259|221:293,1,215.999993408203,2|10,3:2|2:2,0:0:0:0:
316,344,50475,2,0,P|344:297|356:237,1,107.999996704102,2|0,3:2|2:2,0:0:0:0:
185,384,50791,5,2,3:2:0:0:
0,233,50949,1,8,2:2:0:0:
198,111,51107,2,0,P|159:181|148:261,1,161.999995056153,2|0,3:2|2:2,0:0:0:0:
223,239,51422,5,0,3:3:0:0:
92,113,51580,2,0,P|84:56|74:22,1,80.9999975280763,10|0,2:2|2:2,0:0:0:0:
6,9,51896,5,2,3:2:0:0:
198,111,52054,2,0,B|349:135|282:195|463:204,1,251.999992309571,6|0,3:2|2:2,0:0:0:0:
511,76,52528,6,0,P|455:98|404:105,1,107.999996704102,6|0,3:2|2:2,0:0:0:0:
506,310,52843,2,0,P|450:288|399:281,1,107.999996704102,8|0,2:2|3:3,0:0:0:0:
430,195,53159,1,0,2:2:0:0:
375,384,53317,5,2,3:2:0:0:
173,291,53475,1,10,2:2:0:0:
264,105,53633,2,0,P|277:51|285:-2,1,107.999996704102,2|0,2:2|3:3,0:0:0:0:
302,178,53949,5,2,3:2:0:0:
230,210,54107,1,8,2:2:0:0:
190,141,54265,2,0,B|148:127|110:114|110:114|71:42|-24:49,1,215.999993408203,2|0,3:2|3:3,0:0:0:0:
44,156,54738,6,0,P|2:221|10:292,1,107.999996704102,8|0,2:2|2:2,0:0:0:0:
378,384,55054,2,0,P|420:319|420:204,1,161.999995056153,2|0,3:2|2:2,0:0:0:0:
428,236,55370,1,10,2:2:0:0:
141,307,55528,2,0,P|233:285|290:271,1,107.999996704102,2|0,3:2|2:2,0:0:0:0:
297,379,55843,2,0,L|232:359,1,53.9999983520508,2|0,3:2|2:2,0:0:0:0:
139,143,56001,6,0,P|152:105|156:71,1,53.9999983520508,8|0,2:2|2:2,0:0:0:0:
351,18,56159,2,0,P|362:129|389:222,1,161.999995056153,4|0,3:2|2:2,0:0:0:0:
432,241,56475,6,0,L|510:265,1,53.9999983520508,4|0,3:2|2:2,0:0:0:0:
225,168,56791,6,0,L|304:196,1,53.9999983520508,4|0,3:2|2:2,0:0:0:0:
0,81,57107,6,0,L|68:105,1,72,10|0,2:2|3:3,0:0:0:0:
432,241,57580,6,0,P|496:164|506:87,1,180,6|8,3:2|2:2,0:0:0:0:
289,164,58054,2,0,P|361:177|399:191,1,90,0|0,3:3|2:2,0:0:0:0:
423,103,58370,5,2,3:2:0:0:
230,223,58528,1,8,2:2:0:0:
74,58,58686,2,0,P|34:110|29:169,1,107.999996704102,2|0,2:2|3:3,0:0:0:0:
124,244,59001,2,0,P|176:230|230:222,1,107.999996704102,2|8,3:2|2:2,0:0:0:0:
361,235,59317,2,0,P|401:287|413:418,1,161.999995056153,2|0,3:2|2:2,0:0:0:0:
419,379,59633,5,0,3:3:0:0:
121,325,59791,2,0,L|357:370,1,215.999993408203,8|2,2:2|3:2,0:0:0:0:
488,172,60265,5,0,3:3:0:0:
424,124,60422,2,0,L|304:143,1,107.999996704102,10|2,2:2|3:2,0:0:0:0:
317,140,60659,1,0,3:2:0:0:
317,140,60738,1,0,3:2:0:0:
452,3,60896,6,0,P|490:48|503:100,1,107.999996704102,2|8,3:2|2:2,0:0:0:0:
322,145,61212,2,0,P|210:119|76:98,1,215.999993408203,2|0,3:2|3:3,0:0:0:0:
53,54,61686,5,10,2:2:0:0:
39,130,61843,1,0,3:3:0:0:
111,103,62001,1,2,3:2:0:0:
1,225,62159,5,14,2:2:0:0:
189,368,62317,1,0,3:3:0:0:
390,274,62475,1,0,3:3:0:0:
370,149,62633,6,0,P|314:249|316:391,1,215.999993408203,6|8,3:2|2:2,0:0:0:0:
495,250,63107,2,0,L|363:279,1,107.999996704102,0|0,3:3|2:2,0:0:0:0:
306,348,63422,1,0,3:3:0:0:
32,316,63580,2,0,L|216:275,1,161.999995056153,8|0,2:2|2:2,0:0:0:0:
200,278,63896,2,0,P|220:337|217:391,1,107.999996704102,0|0,3:3|3:3,0:0:0:0:
142,367,64212,5,10,2:2:0:0:
290,209,64370,2,0,P|375:224|514:249,1,215.999993408203,0|2,3:3|3:2,0:0:0:0:
473,0,64843,2,0,P|407:83|398:137,1,161.999995056153,8|0,2:2|2:2,0:0:0:0:
405,143,65159,5,6,3:2:0:0:
258,298,65317,1,0,3:3:0:0:
58,190,65475,2,0,P|8:89|5:31,1,161.999995056153,8|0,2:2|2:2,0:0:0:0:
12,40,65791,5,6,3:2:0:0:
267,118,65949,1,0,3:3:0:0:
160,361,66107,2,0,L|-9:385,1,161.999995056153,8|0,2:2|2:2,0:0:0:0:
5,376,66422,5,6,3:2:0:0:
274,125,66580,1,8,2:2:0:0:
274,125,66659,1,8,2:2:0:0:
274,125,66738,1,8,2:2:0:0:
12,40,66896,5,2,3:2:0:0:
334,295,67054,1,8,2:2:0:0:
334,295,67133,1,8,2:2:0:0:
334,295,67212,1,8,2:2:0:0:
274,125,67370,6,0,L|382:148,1,67.5000025749208,10|8,2:2|2:2,0:0:0:0:
334,295,67528,6,0,L|442:318,1,67.5000025749208,8|8,2:2|2:2,0:0:0:0:
512,254,67686,6,0,L|166:181,1,315.000003004074,6|8,3:2|2:2,0:0:0:0:
73,283,68159,1,0,3:3:0:0:
48,360,68317,2,0,P|141:316|140:261,1,116.999994644165,0|2,2:2|3:2,0:0:0:0:
73,283,68633,5,10,2:2:0:0:
332,359,68791,2,0,P|419:375|468:393,1,116.999994644165,2|0,2:2|3:3,0:0:0:0:
331,157,69107,2,0,P|418:139|467:121,1,116.999994644165,2|8,2:2|2:2,0:0:0:0:
512,275,69422,5,2,3:2:0:0:
432,296,69580,1,0,3:3:0:0:
374,240,69738,1,0,3:3:0:0:
452,215,69896,1,12,3:1:0:0:
3,153,70212,5,2,3:2:0:0:
174,184,70370,1,0,2:2:0:0:
288,56,70528,1,10,2:2:0:0:
120,3,70686,2,0,P|108:80|113:139,1,116.999994644165,2|0,3:2|2:2,0:0:0:0:
242,331,71001,2,0,P|253:253|248:194,1,116.999994644165,2|8,3:2|2:2,0:0:0:0:
174,184,71317,6,0,L|-11:233,1,175.499991966248,2|0,3:2|2:2,0:0:0:0:
4,228,71633,1,0,2:2:0:0:
139,357,71791,5,10,2:2:0:0:
126,281,71949,1,0,3:3:0:0:
142,370,72107,1,0,3:3:0:0:
30,358,72265,5,14,2:2:0:0:
247,215,72422,5,0,3:3:0:0:
460,78,72580,5,0,3:3:0:0:
391,0,72738,6,0,B|375:90|375:90|300:162|346:262,1,233.999989288331,6|8,3:2|2:2,0:0:0:0:
483,296,73212,2,0,P|511:245|498:158,1,116.999994644165,0|0,3:3|2:2,0:0:0:0:
247,215,73528,5,2,3:2:0:0:
416,237,73686,1,10,2:2:0:0:
87,263,73843,2,0,P|98:323|108:380,1,116.999994644165,2|0,2:2|3:3,0:0:0:0:
416,237,74159,2,0,P|405:297|395:354,1,116.999994644165,2|8,3:2|2:2,0:0:0:0:
247,347,74475,6,0,B|225:222|265:268|241:70,1,233.999989288331,2|0,3:2|3:3,0:0:0:0:
113,128,74949,6,0,P|25:152|-14:161,1,116.999994644165,8|0,2:2|2:2,0:0:0:0:
346,32,75265,2,0,B|385:43|421:50|421:50|436:75|436:75|486:87|527:100,1,175.499991966248,2|0,3:2|2:2,0:0:0:0:
508,86,75580,2,0,P|495:33|495:6,1,58.4999973220826,10|0,2:2|2:2,0:0:0:0:
319,109,75738,2,0,P|314:137|305:165,1,58.4999973220826,2|0,3:2|2:2,0:0:0:0:
233,124,75896,5,0,2:2:0:0:
396,244,76054,2,0,P|495:212|551:202,1,116.999994644165,2|8,3:2|2:2,0:0:0:0:
0,277,76370,2,0,P|31:358|185:337,1,216,4|0,3:2|2:2,0:0:0:0:
221,331,76686,5,12,3:2:0:0:
314,201,77002,5,12,3:2:0:0:
324,96,77317,5,6,3:2:0:0:
303,43,77475,5,0,3:3:0:0:
277,14,77633,5,0,3:3:0:0:
258,6,77791,6,0,B|279:197|231:133|261:338,1,315.000003004074,6|8,3:2|2:2,0:0:0:0:
182,384,78265,2,0,P|177:315|157:232,1,116.999994644165,0|0,3:3|2:2,0:0:0:0:
136,193,78580,5,0,3:3:0:0:
74,329,78738,1,10,2:2:0:0:
341,229,78896,2,0,P|443:197|542:169,1,175.499991966248,2|0,2:2|2:2,0:0:0:0:
508,178,79212,5,2,3:2:0:0:
383,340,79370,1,10,2:2:0:0:
293,348,79527,2,0,P|266:295|233:247,1,116.999994644165,2|0,3:2|2:2,0:0:0:0:
314,152,79843,1,0,3:3:0:0:
449,281,80001,2,0,P|436:218|428:156,1,116.999994644165,8|0,2:2|2:2,0:0:0:0:
498,22,80317,6,0,P|369:60|244:71,1,233.999989288331,0|10,3:3|2:2,0:0:0:0:
0,270,80791,2,0,P|124:284|229:315,1,215.999993408203,0|2,3:3|3:2,0:0:0:0:
263,365,81265,2,0,B|297:324|297:324|288:261,1,107.999996704102,8|2,2:2|2:2,0:0:0:0:
194,143,81580,5,0,3:3:0:0:
135,194,81738,1,0,3:3:0:0:
207,222,81896,1,10,2:2:0:0:
265,169,82054,1,0,2:2:0:0:
179,63,82212,5,2,2:2:0:0:
0,216,82370,1,0,3:3:0:0:
220,296,82528,1,10,2:2:0:0:
408,168,82686,1,10,2:2:0:0:
408,168,82765,1,8,2:2:0:0:
408,168,82843,2,0,L|389:89,1,53.9999983520508,6|0,3:2|2:2,0:0:0:0:
208,21,83001,5,0,2:2:0:0:
179,63,83081,1,0,2:2:0:0:
205,107,83159,1,10,2:2:0:0:
256,102,83239,1,0,2:2:0:0:
273,55,83317,2,0,L|210:41,1,53.9999983520508,0|0,3:3|2:2,0:0:0:0:
60,185,83475,5,0,2:2:0:0:
23,220,83553,1,0,2:2:0:0:
39,269,83632,1,0,3:3:0:0:
91,274,83711,1,0,2:2:0:0:
117,231,83791,2,0,L|194:213,3,53.9999983520508,8|0|0|0,2:2|2:2|2:2|2:2,0:0:0:0:
375,235,84107,5,0,3:3:0:0:
427,245,84185,1,0,2:2:0:0:
465,280,84265,1,0,3:3:0:0:
482,332,84343,1,0,2:2:0:0:
469,384,84423,2,0,L|393:369,1,53.9999983520508,8|0,2:2|2:2,0:0:0:0:
318,285,84580,2,0,L|265:295,1,53.9999983520508,0|0,3:3|2:2,0:0:0:0:
117,231,84739,5,0,2:2:0:0:
83,189,84817,1,0,2:2:0:0:
76,137,84896,1,0,3:3:0:0:
97,87,84975,1,0,2:2:0:0:
140,56,85055,2,0,L|156:143,1,53.9999983520508,10|0,2:2|2:2,0:0:0:0:
384,181,85212,2,0,L|368:268,1,53.9999983520508,0|0,2:2|2:2,0:0:0:0:
271,371,85370,5,4,3:2:0:0:
265,296,85448,1,0,2:2:0:0:
261,222,85527,1,0,2:2:0:0:
258,148,85606,1,0,2:2:0:0:
255,74,85685,5,10,2:2:0:0:
512,142,85843,1,0,3:3:0:0:
471,70,86001,5,10,2:2:0:0:
326,120,86159,1,0,3:3:0:0:
400,41,86317,1,2,3:2:0:0:
373,223,86475,5,10,2:2:0:0:
359,277,86554,1,8,2:2:0:0:
346,327,86633,1,8,2:2:0:0:
508,319,86791,5,10,2:2:0:0:
261,222,86949,1,0,3:3:0:0:
0,384,87107,5,10,2:2:0:0:
223,295,87265,1,0,3:3:0:0:
48,320,87422,5,10,2:2:0:0:
127,371,87580,1,0,3:3:0:0:
147,277,87738,1,0,3:3:0:0:
48,320,87896,1,6,3:2:0:0:
256,192,87975,12,0,92949,2:2:0:0:
