osu file format v14

[General]
AudioFilename: audio.mp3
AudioLeadIn: 0
PreviewTime: 131109
Countdown: 0
SampleSet: None
StackLeniency: 0.7
Mode: 0
LetterboxInBreaks: 0
WidescreenStoryboard: 1

[Editor]
DistanceSpacing: 0.4
BeatDivisor: 4
GridSize: 8
TimelineZoom: 4.299998

[Metadata]
Title:Star map
TitleUnicode:Star map
Artist:Shimotsuki Haruka
ArtistUnicode:霜月はるか
Creator:Oooodriiin
Version:Kirigiri's Extra
Source:見上げてごらん、夜空の星を
Tags:a sky full of stars Miagete Goran Yozora no Hoshi o Pulltop Visual novel Eroge shimotsuki haruka Asagi Miazora full ver version galgame
BeatmapID:4134195
BeatmapSetID:748422

[Difficulty]
HPDrainRate:3
CircleSize:5
OverallDifficulty:9
ApproachRate:9.4
SliderMultiplier:1.8
SliderTickRate:1

[Events]
//Background and Video events
0,0,"Dw96pDpUcAENMGs.jpg",0,0
//Break Periods
//Storyboard Layer 0 (Background)
//Storyboard Layer 1 (Fail)
//Storyboard Layer 2 (Pass)
//Storyboard Layer 3 (Foreground)
//Storyboard Layer 4 (Overlay)
//Storyboard Sound Samples

[TimingPoints]
537,315.789473684211,4,1,1,35,1,0
7484,-181.818181818181,4,2,1,35,0,0
8115,-100,4,2,1,35,0,0
10010,-181.818181818181,4,2,1,35,0,0
10642,-100,4,2,1,35,0,0
12537,-181.818181818181,4,2,1,35,0,0
13168,-100,4,2,1,35,0,0
19404,-100,4,2,1,5,0,0
19484,-100,4,2,1,35,0,0
25800,-133.333333333333,4,2,1,35,0,0
35825,-133.333333333333,4,2,1,5,0,0
35905,-133.333333333333,4,2,1,35,0,0
40958,-117.647058823529,4,2,1,35,0,0
43088,-117.647058823529,4,2,1,5,0,0
43168,-117.647058823529,4,2,1,35,0,0
45930,-117.647058823529,4,2,1,5,0,0
46010,-117.647058823529,4,2,1,35,0,0
47194,-117.647058823529,4,2,1,5,0,0
47273,-117.647058823529,4,2,1,35,0,0
54694,-105.263157894737,4,2,1,35,0,0
57379,-83.3333333333333,4,2,1,35,0,1
59589,-66.6666666666667,4,2,1,35,0,1
59825,-66.6666666666667,4,2,1,5,0,1
59905,-83.3333333333333,4,2,1,35,0,1
60615,-83.3333333333333,4,2,1,5,0,1
60694,-83.3333333333333,4,2,1,35,0,1
67010,-111.111111111111,4,2,1,35,0,1
67484,-83.3333333333333,4,2,1,35,0,1
71351,-83.3333333333333,4,2,1,5,0,1
71431,-83.3333333333333,4,2,1,35,0,1
73720,-83.3333333333333,4,2,1,5,0,1
73800,-83.3333333333333,4,2,1,35,0,1
79800,-76.9230769230769,4,2,1,35,0,1
80036,-76.9230769230769,4,2,1,5,0,1
80115,-83.3333333333333,4,2,1,35,0,1
80825,-83.3333333333333,4,2,1,5,0,1
80905,-83.3333333333333,4,2,1,35,0,1
82168,-100,4,2,1,35,0,1
82642,-83.3333333333333,4,2,1,35,0,1
82878,-83.3333333333333,4,2,1,5,0,1
82958,-83.3333333333333,4,2,1,35,0,1
87221,-100,4,2,1,35,0,1
87694,-83.3333333333333,4,2,1,35,0,1
97800,-153.846153846153,4,2,1,35,0,0
99694,-83.3333333333333,4,2,1,35,0,0
100326,-100,4,2,1,35,0,0
101509,-100,4,2,1,5,0,0
101589,-100,4,2,1,35,0,0
102773,-100,4,2,1,5,0,0
102852,-100,4,2,1,35,0,0
105299,-100,4,2,1,5,0,0
105379,-100,4,2,1,35,0,0
107825,-100,4,2,1,5,0,0
107905,-100,4,2,1,35,0,0
110351,-100,4,2,1,5,0,0
110431,-100,4,2,1,35,0,0
111615,-100,4,2,1,5,0,0
111694,-100,4,2,1,35,0,0
113194,-100,4,2,1,5,0,0
113273,-100,4,2,1,35,0,0
118721,-100,4,2,1,5,0,0
118799,-100,4,2,1,35,0,0
120457,-100,4,2,1,5,0,0
120537,-100,4,2,1,35,0,0
121720,-100,4,2,1,5,0,0
121800,-100,4,2,1,35,0,0
122983,-100,4,2,1,5,0,0
123063,-100,4,2,1,35,0,0
129221,-133.333333333333,4,2,1,35,0,0
130168,-100,4,2,1,35,0,0
131431,-66.6666666666667,4,2,1,35,0,0
131905,-83.3333333333333,4,2,1,35,0,1
134115,-66.6666666666667,4,2,1,35,0,1
134194,-66.6666666666667,4,2,1,5,0,1
134431,-83.3333333333333,4,2,1,35,0,1
135141,-83.3333333333333,4,2,1,5,0,1
135221,-83.3333333333333,4,2,1,35,0,1
139404,-83.3333333333333,4,2,1,5,0,1
139484,-83.3333333333333,4,2,1,35,0,1
140589,-80,4,2,1,35,0,1
141537,-125,4,2,1,35,0,1
142010,-83.3333333333333,4,2,1,35,0,1
144457,-83.3333333333333,4,2,1,5,0,1
144537,-83.3333333333333,4,2,1,35,0,1
144773,-83.3333333333333,4,2,1,5,0,1
144852,-83.3333333333333,4,2,1,35,0,1
146589,-111.111111111111,4,2,1,35,0,1
147063,-83.3333333333333,4,2,1,35,0,1
148246,-83.3333333333333,4,2,1,5,0,1
148326,-83.3333333333333,4,2,1,35,0,1
154326,-66.6666666666667,4,2,1,35,0,1
154562,-66.6666666666667,4,2,1,5,0,1
154642,-83.3333333333333,4,2,1,35,0,1
155351,-83.3333333333333,4,2,1,5,0,1
155431,-83.3333333333333,4,2,1,35,0,1
156694,-100,4,2,1,35,0,1
157168,-83.3333333333333,4,2,1,35,0,1
157878,-83.3333333333333,4,2,1,5,0,1
157958,-83.3333333333333,4,2,1,35,0,1
159615,-83.3333333333333,4,2,1,5,0,1
159694,-83.3333333333333,4,2,1,35,0,1
160800,-76.9230769230769,4,2,1,35,0,1
161747,-100,4,2,1,35,0,1
162221,-83.3333333333333,4,2,1,35,0,1
162930,-83.3333333333333,4,2,1,5,0,1
163010,-83.3333333333333,4,2,1,35,0,1
164983,-83.3333333333333,4,2,1,5,0,1
165063,-83.3333333333333,4,2,1,35,0,1
170036,-83.3333333333333,4,2,1,5,0,1
170115,-83.3333333333333,4,2,1,35,0,1
171852,-83.3333333333333,4,2,1,80,0,1
172326,-125,4,2,1,80,0,0
175484,-133.333333333333,4,2,1,65,0,0
188115,-181.818181818181,4,2,1,65,0,0
192537,-133.333333333333,4,2,1,65,0,0
193720,-133.333333333333,4,2,1,5,0,0
193800,-133.333333333333,4,2,1,65,0,0
196246,-133.333333333333,4,2,1,5,0,0
196326,-133.333333333333,4,2,1,65,0,0
197825,-133.333333333333,4,2,1,5,0,0
197905,-133.333333333333,4,2,1,65,0,0
200036,-133.333333333333,4,2,1,5,0,0
200115,-133.333333333333,4,2,1,65,0,0
203351,-133.333333333333,4,2,1,5,0,0
203431,-133.333333333333,4,2,1,65,0,0
208878,-133.333333333333,4,2,1,5,0,0
208958,-133.333333333333,4,2,1,65,0,0
210537,-133.333333333333,4,2,1,69,0,0
210852,-133.333333333333,4,2,1,73,0,0
211168,-133.333333333333,4,2,1,77,0,0
211484,-133.333333333333,4,2,1,81,0,0
211800,-133.333333333333,4,2,1,85,0,0
212115,-133.333333333333,4,2,1,87,0,0
212273,-133.333333333333,4,2,1,35,0,0
212510,-133.333333333333,4,2,1,45,0,0
212589,-133.333333333333,4,2,1,55,0,0
212747,-76.9230769230769,4,2,1,100,0,1
213221,-76.9230769230769,4,2,1,80,0,1
213930,-76.9230769230769,4,2,1,5,0,1
214010,-76.9230769230769,4,2,1,80,0,1
214799,-76.9230769230769,4,2,1,5,0,1
214852,-76.9230769230769,4,2,1,80,0,1
216062,-76.9230769230769,4,2,1,5,0,1
216115,-76.9230769230769,4,2,1,80,0,1
217800,-76.9230769230769,4,2,1,95,0,1
217958,-76.9230769230769,4,2,1,80,0,1
221431,-76.9230769230769,4,2,1,80,0,0
221509,-76.9230769230769,4,2,1,5,0,0
221589,-76.9230769230769,4,2,1,80,0,0
221667,-76.9230769230769,4,2,1,5,0,0
221747,-76.9230769230769,4,2,1,80,0,0
221983,-76.9230769230769,4,2,1,5,0,0
222063,-76.9230769230769,4,2,1,80,0,0
222299,-76.9230769230769,4,2,1,5,0,0
222379,-76.9230769230769,4,2,1,80,0,0
222615,-76.9230769230769,4,2,1,5,0,0
222694,-76.9230769230769,4,2,1,80,0,0
222852,-76.9230769230769,4,2,1,80,0,1
226642,-100,4,2,1,80,0,1
227351,-100,4,2,1,5,0,1
227431,-100,4,2,1,80,0,1
231694,-76.9230769230769,4,2,1,80,0,0
232404,-76.9230769230769,4,2,1,5,0,0
232484,-76.9230769230769,4,2,1,80,0,0
232958,-83.3333333333333,4,2,1,95,0,1
233037,-83.3333333333333,4,2,1,80,0,1
233667,-83.3333333333333,4,2,1,5,0,1
233747,-83.3333333333333,4,2,1,80,0,1
234063,-58.8235294117647,4,2,1,80,0,1
235168,-68.9655172413792,4,2,1,80,0,1
235404,-68.9655172413792,4,2,1,5,0,1
235484,-83.3333333333333,4,2,1,80,0,1
235720,-83.3333333333333,4,2,1,5,0,1
235800,-83.3333333333333,4,2,1,80,0,1
236825,-83.3333333333333,4,2,1,5,0,1
236905,-83.3333333333333,4,2,1,80,0,1
238720,-83.3333333333333,4,2,1,5,0,1
238800,-83.3333333333333,4,2,1,80,0,1
239115,-62.5,4,2,1,80,0,1
240221,-76.9230769230769,4,2,1,80,0,1
240457,-76.9230769230769,4,2,1,5,0,1
240537,-83.3333333333333,4,2,1,80,0,1
241246,-83.3333333333333,4,2,1,5,0,1
241326,-83.3333333333333,4,2,1,80,0,1
241642,-76.9230769230769,4,2,1,80,0,1
242589,-125,4,2,1,80,0,1
243063,-88.4955752212389,4,2,1,80,0,1
243773,-88.4955752212389,4,2,1,5,0,1
243852,-83.3333333333333,4,2,1,80,0,1
245273,-76.9230769230769,4,2,1,80,0,1
245509,-76.9230769230769,4,2,1,5,0,1
245589,-87.719298245614,4,2,1,80,0,1
248115,-83.3333333333333,4,2,1,80,0,1
248351,-83.3333333333333,4,2,1,5,0,1
248431,-83.3333333333333,4,2,1,80,0,1
249299,-83.3333333333333,4,2,1,5,0,1
249379,-83.3333333333333,4,2,1,80,0,1
253878,-83.3333333333333,4,2,1,5,0,1
253958,-83.3333333333333,4,2,1,80,0,1
255141,-83.3333333333333,4,2,1,5,0,1
255221,-83.3333333333333,4,2,1,80,0,1
255379,-71.4285714285714,4,2,1,80,0,1
255615,-71.4285714285714,4,2,1,5,0,1
255694,-83.3333333333333,4,2,1,80,0,1
256404,-83.3333333333333,4,2,1,5,0,1
256484,-83.3333333333333,4,2,1,80,0,1
258930,-83.3333333333333,4,2,1,5,0,1
259010,-83.3333333333333,4,2,1,80,0,1
260194,-83.3333333333333,4,2,1,5,0,1
260273,-83.3333333333333,4,2,1,80,0,1
260667,-83.3333333333333,4,2,1,5,0,1
260747,-83.3333333333333,4,2,1,80,0,1
261457,-83.3333333333333,4,2,1,5,0,1
261537,-83.3333333333333,4,2,1,80,0,1
261852,-80,4,2,1,80,0,1
262800,-133.333333333333,4,2,1,80,0,1
263273,-83.3333333333333,4,2,1,80,0,1
263983,-83.3333333333333,4,2,1,5,0,1
264063,-83.3333333333333,4,2,1,80,0,1
266036,-83.3333333333333,4,2,1,5,0,1
266115,-83.3333333333333,4,2,1,80,0,1
272589,-90.9090909090909,4,2,1,80,0,1
273379,-76.9230769230769,4,2,1,65,0,0
273852,-90.9090909090909,4,2,1,65,0,0
274562,-90.9090909090909,4,2,1,5,0,0
274642,-90.9090909090909,4,2,1,65,0,0
277088,-90.9090909090909,4,2,1,5,0,0
277168,-90.9090909090909,4,2,1,65,0,0
290983,-90.9090909090909,4,2,1,5,0,0
291063,-90.9090909090909,4,2,1,65,0,0
293431,-90.9090909090909,4,2,1,90,0,0

[Colours]
Combo1 : 252,182,105
Combo2 : 179,219,255
Combo3 : 125,251,225
Combo4 : 86,33,243
Combo5 : 226,45,124

[HitObjects]
161,224,5589,6,0,P|225:211|251:323,1,180,0|0,2:0|2:0,2:0:0:0:
167,352,6063,1,0,2:0:0:0:
71,131,6221,1,0,2:0:0:0:
76,139,6537,6,0,B|158:162|200:100|183:87|231:18|308:52,1,270,0|0,2:0|2:0,2:0:0:0:
387,145,7168,1,0,2:0:0:0:
393,153,7484,6,0,L|420:266,1,99.0000030212403,0|0,2:0|2:0,2:0:0:0:
421,257,8115,6,0,P|497:240|502:135,1,180,0|0,2:0|2:0,2:0:0:0:
404,90,8589,1,0,2:0:0:0:
311,276,8747,1,0,2:0:0:0:
306,266,9063,6,1,B|264:263|230:227|230:227|225:233|225:233|253:291|205:363|143:349,1,270,0|0,2:0|2:0,2:0:0:0:
87,288,9694,1,0,2:0:0:0:
242,154,9852,1,0,2:0:0:0:
122,104,10010,6,0,L|9:79,1,99.0000030212403,0|0,2:0|2:0,2:0:0:0:
16,90,10484,1,0,2:0:0:0:
214,188,10642,6,0,P|127:185|73:253,1,180,0|0,2:0|2:0,2:0:0:0:
143,297,11115,1,0,2:0:0:0:
256,97,11273,1,0,2:0:0:0:
254,104,11589,54,1,B|268:173|351:218|427:203|442:158|405:118|353:171,1,270,0|0,2:0|2:0,2:0:0:0:
283,252,12221,1,0,2:0:0:0:
281,262,12537,6,0,L|304:370,1,99.0000030212403,0|0,2:0|2:0,2:0:0:0:
309,368,13168,6,0,P|374:309|462:327,1,180,0|0,2:0|2:0,2:0:0:0:
510,249,13642,1,0,2:0:0:0:
422,128,13800,1,0,2:0:0:0:
428,119,14115,5,0,2:0:0:0:
492,18,14273,2,0,P|495:40|499:62,1,45,0|0,2:0|2:0,2:0:0:0:
356,212,14431,2,0,P|352:189|348:167,1,45,0|0,2:0|2:0,2:0:0:0:
490,271,14589,2,0,P|500:330|510:388,1,90,0|0,2:0|2:0,2:0:0:0:
354,292,14905,6,0,L|264:276,1,90,0|0,2:0|2:0,2:0:0:0:
167,157,15221,2,0,L|70:140,1,90,0|0,2:0|2:0,2:0:0:0:
70,157,15537,1,0,2:0:0:0:
242,19,15694,6,0,L|265:197,1,180,0|0,2:0|2:0,2:0:0:0:
279,285,16168,2,0,B|234:296|234:296|206:262,1,90,0|0,2:0|2:0,2:0:0:0:
0,126,16642,6,0,B|-13:78|44:57|44:57|87:158|194:157,1,270,0|0,2:0|2:0,2:0:0:0:
196,147,17273,1,0,2:0:0:0:
155,332,17589,6,0,P|92:274|10:299,1,180,0|0,2:0|2:0,2:0:0:0:
199,202,18221,6,0,B|121:225|126:311|126:311|156:333,1,180,0|0,2:0|2:0,2:0:0:0:
281,211,18694,2,0,B|292:167|292:167|257:138,1,90,0|0,2:0|2:0,2:0:0:0:
175,13,19168,6,0,L|42:41,1,135,0|0,2:0|2:0,2:0:0:0:
34,33,19484,6,0,P|91:31|120:207,1,270,0|0,2:0|2:0,2:0:0:0:
266,80,20115,6,0,P|264:184|122:188,1,270,0|0,2:0|2:0,2:0:0:0:
307,284,20747,6,0,L|45:216,1,270,0|0,2:0|2:0,2:0:0:0:
110,351,21379,6,0,L|196:328,1,90,0|0,2:0|2:0,2:0:0:0:
300,164,21694,1,0,2:0:0:0:
305,174,21852,1,0,2:0:0:0:
489,284,22010,5,0,2:0:0:0:
510,149,22168,1,0,2:0:0:0:
418,315,22326,5,0,2:0:0:0:
377,151,22484,1,0,2:0:0:0:
367,384,22642,5,0,2:0:0:0:
277,215,22800,1,0,2:0:0:0:
158,376,22958,5,0,2:0:0:0:
202,178,23115,1,0,2:0:0:0:
53,282,23273,5,0,2:0:0:0:
165,99,23431,1,0,2:0:0:0:
0,125,23589,5,0,2:0:0:0:
193,14,23747,1,0,2:0:0:0:
148,224,23905,5,0,2:0:0:0:
23,2,24063,1,0,2:0:0:0:
53,276,24221,5,0,2:0:0:0:
89,146,24379,1,0,2:0:0:0:
120,14,24537,2,0,L|134:65,1,45,0|0,2:0|2:0,2:0:0:0:
257,126,24695,2,0,P|215:134|179:194,1,90,0|0,2:0|2:0,2:0:0:0:
0,270,25011,2,0,P|64:265|104:317,1,135,0|0,2:0|2:0,2:0:0:0:
99,324,25327,2,0,L|82:390,1,45,0|0,2:0|2:0,2:0:0:0:
308,266,25484,1,0,2:0:0:0:
308,266,25563,1,0,2:0:0:0:
308,266,25642,1,0,2:0:0:0:
308,266,25721,1,0,2:0:0:0:
308,266,25800,6,0,L|263:-1,1,270.000010299683,0|0,2:0|2:0,2:0:0:0:
344,64,26589,1,0,2:0:0:0:
351,73,26747,2,0,P|395:107|437:111,1,67.5000025749208,0|0,2:0|2:0,2:0:0:0:
491,170,27063,2,0,P|420:180|389:250,1,135.000005149842,0|0,2:0|2:0,2:0:0:0:
333,287,27537,2,0,L|355:368,1,67.5000025749208,0|0,2:0|2:0,2:0:0:0:
271,238,27852,2,0,L|205:371,1,135.000005149842,0|0,2:0|2:0,2:0:0:0:
31,227,28326,6,0,P|18:194|-1:167,1,67.5000025749208,0|0,2:0|2:0,2:0:0:0:
117,44,28642,1,0,2:0:0:0:
123,53,28800,2,0,P|110:85|91:112,1,67.5000025749208,0|0,2:0|2:0,2:0:0:0:
182,174,29115,6,0,L|331:197,1,135.000005149842,0|0,2:0|2:0,2:0:0:0:
417,55,29589,6,0,P|348:58|317:126,1,135.000005149842,0|0,2:0|2:0,2:0:0:0:
437,234,30063,2,0,P|447:202|426:158,1,67.5000025749208,0|0,2:0|2:0,2:0:0:0:
265,255,30379,2,0,P|286:319|302:384,1,135.000005149842,0|0,2:0|2:0,2:0:0:0:
228,169,30852,6,0,P|349:101|339:239,1,337.500012874604,0|0,2:0|2:0,2:0:0:0:
200,299,31800,5,0,2:0:0:0:
270,282,31958,2,0,P|297:302|314:331,1,67.5000025749208,0|0,2:0|2:0,2:0:0:0:
197,376,32273,2,0,P|205:344|201:311,1,67.5000025749208,0|0,2:0|2:0,2:0:0:0:
167,171,32589,2,0,P|150:200|124:220,1,67.5000025749208,0|0,2:0|2:0,2:0:0:0:
54,191,32904,2,0,P|59:158|-23:81,1,135.000005149842,0|0,2:0|2:0,2:0:0:0:
112,24,33379,6,0,L|266:2,1,135.000005149842,0|0,2:0|2:0,2:0:0:0:
258,8,33852,1,0,2:0:0:0:
368,96,34010,2,0,B|349:142|349:142|402:231|395:353,1,270.000010299683,0|0,2:0|2:0,2:0:0:0:
475,308,34800,5,0,2:0:0:0:
475,308,34879,1,0,2:0:0:0:
475,308,34958,1,0,2:0:0:0:
375,267,35115,1,0,2:0:0:0:
281,329,35273,1,0,2:0:0:0:
181,288,35430,1,0,2:0:0:0:
95,348,35589,6,0,B|78:333|78:333|82:310|84:279|84:279|104:264,1,101.250003862381,0|0,2:0|2:0,2:0:0:0:
115,254,35905,6,0,L|89:104,2,135.000005149842,0|0|0,2:0|2:0|2:0,2:0:0:0:
169,308,36694,1,0,2:0:0:0:
228,232,36852,2,0,P|259:224|308:208,1,67.5000025749208,0|0,2:0|2:0,2:0:0:0:
342,154,37089,1,0,2:0:0:0:
339,146,37168,2,0,P|282:109|248:52,1,135.000005149842,0|0,2:0|2:0,2:0:0:0:
398,99,37642,2,0,P|386:67|389:34,1,67.5000025749208,0|0,2:0|2:0,2:0:0:0:
497,71,37958,1,0,2:0:0:0:
479,141,38115,2,0,L|462:211,1,67.5000025749208,0|0,2:0|2:0,2:0:0:0:
512,335,38431,6,0,P|474:286|389:292,1,135.000005149842,0|0,2:0|2:0,2:0:0:0:
307,308,38905,2,0,P|269:357|184:351,1,135.000005149842,0|0,2:0|2:0,2:0:0:0:
58,247,39379,6,0,P|52:213|46:180,2,67.5000025749208,0|0|0,2:0|2:0|2:0,2:0:0:0:
0,350,39852,1,0,2:0:0:0:
70,361,40010,1,0,2:0:0:0:
133,294,40168,1,0,2:0:0:0:
160,196,40326,1,0,2:0:0:0:
254,137,40484,1,0,2:0:0:0:
371,158,40642,1,0,2:0:0:0:
432,271,40800,1,0,2:0:0:0:
512,17,40958,6,0,P|467:125|364:163,1,229.500004377365,0|0,2:0|2:0,2:0:0:0:
276,315,41589,2,0,P|233:253|160:239,1,153.000002918243,0|0,2:0|2:0,2:0:0:0:
258,105,42063,2,0,L|281:177,1,76.5000014591217,0|0,2:0|2:0,2:0:0:0:
117,314,42379,1,0,2:0:0:0:
37,61,42537,1,0,2:0:0:0:
53,56,42852,6,0,P|129:81|151:129,1,114.750002188683,0|0,2:0|2:0,2:0:0:0:
151,115,43168,2,0,P|187:111|212:78,1,76.5000014591217,0|0,2:0|2:0,2:0:0:0:
93,214,43484,6,0,P|-7:287|0:384,1,229.500004377365,0|0,2:0|2:0,2:0:0:0:
213,223,44115,2,0,P|202:148|127:121,1,153.000002918243,0|0,2:0|2:0,2:0:0:0:
395,52,44589,6,0,L|380:108,1,38.2500007295609,0|0,2:0|2:0,2:0:0:0:
288,250,44905,6,0,L|310:302,1,38.2500007295609,0|0,2:0|2:0,2:0:0:0:
505,352,45221,6,0,L|483:404,1,38.2500007295609,0|0,2:0|2:0,2:0:0:0:
205,303,45537,5,0,2:0:0:0:
399,153,45694,2,0,P|460:174|485:243,1,114.750002188683,0|0,2:0|2:0,2:0:0:0:
475,232,46010,5,0,2:0:0:0:
355,327,46326,1,0,2:0:0:0:
212,271,46642,1,0,2:0:0:0:
217,280,46958,6,0,P|184:321|111:328,1,114.750002188683,0|0,2:0|2:0,2:0:0:0:
112,320,47273,1,0,2:0:0:0:
277,206,47431,2,0,L|313:283,1,76.5000014591217,0|0,2:0|2:0,2:0:0:0:
318,121,47747,2,0,L|417:175,2,76.5000014591217,0|0|0,2:0|2:0|2:0,2:0:0:0:
233,52,48221,2,0,P|267:36|295:11,1,76.5000014591217,0|0,2:0|2:0,2:0:0:0:
93,21,48537,6,0,P|67:93|112:164,1,153.000002918243,0|0,2:0|2:0,2:0:0:0:
117,165,49010,1,0,2:0:0:0:
160,84,49168,5,0,2:0:0:0:
309,114,49484,1,0,2:0:0:0:
422,216,49800,1,0,2:0:0:0:
482,356,50115,1,0,2:0:0:0:
414,213,50273,5,0,2:0:0:0:
414,213,50352,1,0,2:0:0:0:
414,213,50431,1,0,2:0:0:0:
291,92,50589,1,0,2:0:0:0:
219,344,50747,1,0,2:0:0:0:
500,188,51063,5,0,2:0:0:0:
511,183,51379,5,0,2:0:0:0:
385,259,51537,1,0,2:0:0:0:
399,125,51694,1,0,2:0:0:0:
506,317,51852,1,0,2:0:0:0:
512,325,52010,1,0,2:0:0:0:
244,354,52168,5,0,2:0:0:0:
235,345,52484,5,0,2:0:0:0:
296,68,52642,1,0,2:0:0:0:
160,260,52800,5,0,2:0:0:0:
160,260,52879,1,0,2:0:0:0:
160,260,52958,1,0,2:0:0:0:
269,196,53115,1,0,2:0:0:0:
383,134,53273,1,0,2:0:0:0:
386,146,53431,1,0,2:0:0:0:
145,255,53589,5,0,2:0:0:0:
182,49,53905,5,0,2:0:0:0:
148,271,54063,1,0,2:0:0:0:
31,87,54221,1,0,2:0:0:0:
150,282,54379,1,0,2:0:0:0:
152,292,54537,1,0,2:0:0:0:
0,245,54694,6,0,L|35:269,1,42.7499988584519,0|0,2:0|2:0,2:0:0:0:
273,172,55010,6,0,L|248:207,1,42.7499988584519,0|0,2:0|2:0,2:0:0:0:
95,41,55326,6,0,L|104:82,1,42.7499988584519,0|0,2:0|2:0,2:0:0:0:
170,377,55642,6,0,L|149:284,1,85.4999977169037,0|0,2:0|2:0,2:0:0:0:
147,281,55879,1,0,2:0:0:0:
147,281,55958,1,0,2:0:0:0:
178,253,56036,1,0,2:0:0:0:
220,247,56115,1,0,2:0:0:0:
257,267,56194,1,0,2:0:0:0:
278,303,56273,1,0,2:0:0:0:
299,339,56352,1,0,2:0:0:0:
336,359,56431,1,0,2:0:0:0:
484,287,56589,5,0,2:0:0:0:
484,287,56668,1,0,2:0:0:0:
484,287,56747,2,0,L|496:221,1,42.7499988584519,0|0,2:0|2:0,2:0:0:0:
391,180,56905,2,0,L|380:131,1,42.7499988584519,0|0,2:0|2:0,2:0:0:0:
512,0,57063,1,0,2:0:0:0:
508,5,57379,6,0,P|449:57|304:38,1,215.999993408203,0|0,2:0|2:0,2:0:0:0:
178,134,57852,2,0,P|219:169|242:218,1,107.999996704102,0|0,2:0|2:0,2:0:0:0:
317,382,58168,1,0,2:0:0:0:
457,260,58326,1,0,2:0:0:0:
104,177,58484,6,0,L|0:205,1,107.999996704102,0|0,2:0|2:0,2:0:0:0:
197,37,58800,1,0,2:0:0:0:
295,258,58958,1,0,2:0:0:0:
499,152,59115,2,0,B|406:132|406:132|397:124|397:124|290:104,1,215.999993408203,0|0,2:0|2:0,2:0:0:0:
78,200,59589,6,0,P|74:319|136:332,1,202.500007724762,0|0,2:0|2:0,2:0:0:0:
213,359,59905,6,0,P|295:338|452:325,1,215.999993408203,0|0,2:0|2:0,2:0:0:0:
306,94,60379,2,0,P|198:84|118:61,1,161.999995056153,0|0,2:0|2:0,2:0:0:0:
88,34,60694,2,0,B|69:56|69:56|75:80,1,53.9999983520508,0|0,2:0|2:0,2:0:0:0:
362,202,60852,1,0,2:0:0:0:
196,290,61010,6,0,B|92:307|106:202|0:234,1,215.999993408203,0|0,2:0|2:0,2:0:0:0:
232,145,61484,2,0,L|314:131,1,53.9999983520508,0|0,2:0|2:0,2:0:0:0:
179,376,61642,1,0,2:0:0:0:
104,69,61800,1,0,2:0:0:0:
326,7,61958,6,0,L|300:221,1,215.999993408203,0|0,2:0|2:0,2:0:0:0:
512,365,62431,6,0,P|451:298|320:324,1,215.999993408203,0|0,2:0|2:0,2:0:0:0:
123,218,62905,2,0,P|190:197|211:139,1,107.999996704102,0|0,2:0|2:0,2:0:0:0:
282,31,63221,1,0,2:0:0:0:
282,31,63379,1,0,2:0:0:0:
55,6,63537,6,0,P|72:66|80:116,1,107.999996704102,0|0,2:0|2:0,2:0:0:0:
169,299,63852,1,0,2:0:0:0:
305,117,64010,1,0,2:0:0:0:
404,356,64168,2,0,P|411:252|506:219,1,215.999993408203,0|0,2:0|2:0,2:0:0:0:
358,76,64642,6,0,P|333:141|321:186,1,107.999996704102,0|0,2:0|2:0,2:0:0:0:
240,236,64879,1,0,2:0:0:0:
233,242,64958,2,0,P|132:215|87:114,1,215.999993408203,0|0,2:0|2:0,2:0:0:0:
24,364,65431,2,0,P|68:332|151:314,1,107.999996704102,0|0,2:0|2:0,2:0:0:0:
243,154,65747,1,0,2:0:0:0:
392,281,65905,1,0,2:0:0:0:
511,88,66063,6,0,P|464:131|419:120,1,107.999996704102,0|0,2:0|2:0,2:0:0:0:
282,41,66379,2,0,P|221:61|208:105,1,107.999996704102,0|0,2:0|2:0,2:0:0:0:
100,211,66694,2,0,P|37:225|4:193,1,107.999996704102,0|0,2:0|2:0,2:0:0:0:
254,276,67010,6,0,P|327:256|369:319,1,161.999995056153,0|0,2:0|2:0,2:0:0:0:
300,344,67405,5,0,2:0:0:0:
300,344,67484,2,0,L|540:300,1,215.999993408203,0|0,2:0|2:0,2:0:0:0:
274,85,67958,2,0,L|249:214,1,107.999996704102,0|0,2:0|2:0,2:0:0:0:
217,383,68273,1,0,2:0:0:0:
217,383,68431,1,0,2:0:0:0:
102,226,68589,6,0,P|52:205|0:197,1,107.999996704102,0|0,2:0|2:0,2:0:0:0:
196,27,68905,2,0,L|215:151,1,107.999996704102,0|0,2:0|2:0,2:0:0:0:
325,309,69221,2,0,P|361:215|476:196,1,215.999993408203,0|0,2:0|2:0,2:0:0:0:
197,20,69694,5,0,2:0:0:0:
196,32,70010,6,0,L|165:276,1,215.999993408203,0|0,2:0|2:0,2:0:0:0:
290,163,70484,2,0,P|312:114|348:74,1,107.999996704102,0|0,2:0|2:0,2:0:0:0:
43,202,70800,2,0,P|63:251|78:303,1,107.999996704102,0|0,2:0|2:0,2:0:0:0:
302,368,71115,6,0,P|341:300|418:281,1,161.999995056153,0|0,2:0|2:0,2:0:0:0:
435,276,71431,2,0,P|453:255|457:229,1,53.9999983520508,0|0,2:0|2:0,2:0:0:0:
281,61,71589,1,0,2:0:0:0:
208,326,71747,1,0,2:0:0:0:
423,161,71905,2,0,L|360:140,1,53.9999983520508,0|0,2:0|2:0,2:0:0:0:
185,23,72063,6,0,L|227:250,1,215.999993408203,0|0,2:0|2:0,2:0:0:0:
28,338,72537,6,0,B|26:328|6:316|6:316|98:293|74:385|171:375,1,215.999993408203,0|0,2:0|2:0,2:0:0:0:
341,131,73010,2,0,P|320:188|310:250,1,107.999996704102,0|0,2:0|2:0,2:0:0:0:
272,367,73326,1,0,2:0:0:0:
101,70,73484,2,0,P|144:138|171:214,1,161.999995056153,0|0,2:0|2:0,2:0:0:0:
171,286,73800,6,0,B|146:294|146:294|129:273,1,53.9999983520508,0|0,2:0|2:0,2:0:0:0:
54,17,73958,1,0,2:0:0:0:
308,113,74115,1,0,2:0:0:0:
19,306,74273,2,0,P|4:255|26:206,1,107.999996704102,0|0,2:0|2:0,2:0:0:0:
225,6,74589,1,0,2:0:0:0:
233,0,74747,2,0,L|217:144,1,107.999996704102,0|0,2:0|2:0,2:0:0:0:
363,337,75063,5,0,2:0:0:0:
247,219,75221,1,0,2:0:0:0:
396,147,75379,1,0,2:0:0:0:
512,265,75537,1,0,2:0:0:0:
149,249,75694,5,0,2:0:0:0:
265,131,75852,1,0,2:0:0:0:
116,59,76010,1,0,2:0:0:0:
0,177,76168,1,0,2:0:0:0:
279,374,76326,5,0,2:0:0:0:
238,32,76484,1,0,2:0:0:0:
238,32,76563,1,0,2:0:0:0:
238,32,76642,1,0,2:0:0:0:
347,83,76800,5,0,2:0:0:0:
152,334,76958,1,0,2:0:0:0:
152,334,77037,1,0,2:0:0:0:
152,334,77116,1,0,2:0:0:0:
81,242,77273,5,0,2:0:0:0:
392,160,77431,2,0,L|466:139,1,53.9999983520508,0|0,2:0|2:0,2:0:0:0:
290,16,77589,6,0,L|257:229,1,215.999993408203,0|0,2:0|2:0,2:0:0:0:
102,355,78063,2,0,P|51:323|49:255,1,107.999996704102,0|0,2:0|2:0,2:0:0:0:
144,57,78379,1,0,2:0:0:0:
238,354,78537,1,0,2:0:0:0:
351,206,78694,6,0,P|415:175|474:158,1,107.999996704102,0|0,2:0|2:0,2:0:0:0:
150,65,79010,2,0,P|166:129|173:177,1,107.999996704102,0|0,2:0|2:0,2:0:0:0:
101,376,79326,2,0,P|26:352|29:207,1,215.999993408203,0|0,2:0|2:0,2:0:0:0:
266,93,79800,6,0,L|225:303,1,175.499991966248,0|0,2:0|2:0,2:0:0:0:
263,378,80115,6,0,P|312:364|326:314,1,107.999996704102,0|0,2:0|2:0,2:0:0:0:
141,170,80431,1,0,2:0:0:0:
352,47,80589,2,0,B|437:29|424:92|504:83,1,161.999995056153,0|0,2:0|2:0,2:0:0:0:
510,78,80905,1,0,2:0:0:0:
376,337,81063,1,0,2:0:0:0:
233,225,81221,6,0,B|177:190|177:190|108:236|23:246,1,215.999993408203,0|0,2:0|2:0,2:0:0:0:
264,82,81694,1,0,2:0:0:0:
349,206,81852,1,0,2:0:0:0:
297,348,82010,1,0,2:0:0:0:
271,76,82168,6,0,P|340:27|441:51,1,180,0|0,2:0|2:0,2:0:0:0:
141,169,82642,6,0,P|88:227|9:231,1,161.999995056153,0|0,2:0|2:0,2:0:0:0:
1,222,82958,1,0,2:0:0:0:
195,53,83115,2,0,L|222:159,1,107.999996704102,0|0,2:0|2:0,2:0:0:0:
268,327,83431,1,0,2:0:0:0:
462,156,83589,1,0,2:0:0:0:
512,345,83747,6,0,P|459:356|407:371,1,107.999996704102,0|0,2:0|2:0,2:0:0:0:
171,196,84063,2,0,P|224:207|276:222,1,107.999996704102,0|0,2:0|2:0,2:0:0:0:
445,52,84379,2,0,B|436:36|443:9|443:9|261:60,1,215.999993408203,0|0,2:0|2:0,2:0:0:0:
288,324,84852,6,0,P|353:323|375:288,1,107.999996704102,0|0,2:0|2:0,2:0:0:0:
512,151,85168,6,0,B|367:105|367:105|344:133|308:152,1,215.999993408203,0|0,2:0|2:0,2:0:0:0:
176,260,85642,2,0,B|124:274|124:274|79:243,1,107.999996704102,0|0,2:0|2:0,2:0:0:0:
226,62,85958,1,0,2:0:0:0:
276,311,86115,1,0,2:0:0:0:
14,174,86273,22,1,B|24:155|21:124|21:124|41:149|68:154,1,107.999996704102,0|0,2:0|2:0,2:0:0:0:
278,324,86589,2,1,B|288:349|257:368|257:368|246:340|270:321,1,107.999996704102,0|0,2:0|2:0,2:0:0:0:
499,129,86905,2,1,B|476:131|449:149|449:149|452:121|437:98,1,107.999996704102,0|0,2:0|2:0,2:0:0:0:
247,21,87221,6,0,L|290:220,1,180,0|0,2:0|2:0,2:0:0:0:
217,256,87615,5,0,2:0:0:0:
208,246,87694,2,0,P|106:253|65:348,1,215.999993408203,0|0,2:0|2:0,2:0:0:0:
362,177,88168,2,0,P|409:154|418:102,1,107.999996704102,0|0,2:0|2:0,2:0:0:0:
209,28,88484,1,0,2:0:0:0:
315,328,88642,1,0,2:0:0:0:
93,247,88800,6,0,P|81:194|68:141,1,107.999996704102,0|0,2:0|2:0,2:0:0:0:
297,84,89115,2,0,P|285:136|272:189,1,107.999996704102,0|0,2:0|2:0,2:0:0:0:
510,244,89431,2,0,P|514:142|424:94,1,215.999993408203,0|0,2:0|2:0,2:0:0:0:
190,350,89905,5,0,2:0:0:0:
177,345,90221,6,0,B|163:323|146:300|146:300|167:251,1,107.999996704102,0|0,2:0|2:0,2:0:0:0:
278,29,90537,2,0,P|293:115|308:199,1,161.999995056153,0|0,2:0|2:0,2:0:0:0:
296,198,90852,1,0,2:0:0:0:
141,143,91010,2,0,P|87:131|33:116,1,107.999996704102,0|0,2:0|2:0,2:0:0:0:
289,302,91326,2,0,P|335:283|408:262,2,107.999996704102,0|0|0,2:0|2:0|2:0,2:0:0:0:
122,371,91800,6,0,P|69:301|78:280,1,107.999996704102,0|0,2:0|2:0,2:0:0:0:
202,62,92115,2,0,P|196:113|151:140,1,107.999996704102,0|0,2:0|2:0,2:0:0:0:
26,60,92431,1,0,2:0:0:0:
331,19,92589,5,0,2:0:0:0:
331,19,92668,1,0,2:0:0:0:
331,19,92747,1,0,2:0:0:0:
362,25,92825,1,0,2:0:0:0:
395,30,92904,1,0,2:0:0:0:
427,34,92983,1,0,2:0:0:0:
459,39,93063,2,0,L|535:50,3,53.9999983520508,0|0|0|0,2:0|2:0|2:0|2:0,2:0:0:0:
460,111,93379,5,0,2:0:0:0:
425,131,93457,1,0,2:0:0:0:
402,164,93536,1,0,2:0:0:0:
395,204,93615,1,0,2:0:0:0:
405,242,93694,2,0,L|427:300,3,53.9999983520508,0|0|0|0,2:0|2:0|2:0|2:0,2:0:0:0:
371,341,94010,5,0,2:0:0:0:
342,366,94088,1,0,2:0:0:0:
304,379,94167,1,0,2:0:0:0:
264,376,94246,1,0,2:0:0:0:
228,357,94326,2,0,L|238:278,3,53.9999983520508,0|0|0|0,2:0|2:0|2:0|2:0,2:0:0:0:
258,237,94642,5,0,2:0:0:0:
231,213,94720,1,0,2:0:0:0:
197,206,94799,1,0,2:0:0:0:
165,216,94878,1,0,2:0:0:0:
140,239,94958,1,0,2:0:0:0:
114,264,95037,1,0,2:0:0:0:
82,274,95116,1,0,2:0:0:0:
49,268,95195,1,0,2:0:0:0:
23,244,95273,6,0,L|-7:110,1,107.999996704102,0|0,2:0|2:0,2:0:0:0:
119,344,95589,1,0,2:0:0:0:
247,75,95747,2,0,L|226:203,1,107.999996704102,0|0,2:0|2:0,2:0:0:0:
72,53,96063,1,0,2:0:0:0:
287,283,96221,1,0,2:0:0:0:
423,127,96379,5,0,2:0:0:0:
423,127,96458,1,0,2:0:0:0:
423,127,96537,2,0,L|499:115,1,53.9999983520508,0|0,2:0|2:0,2:0:0:0:
274,290,96694,2,0,P|209:258|203:200,1,107.999996704102,0|0,2:0|2:0,2:0:0:0:
328,7,97010,2,0,P|321:62|308:195,1,161.999995056153,0|0,2:0|2:0,2:0:0:0:
321,176,97326,5,0,2:0:0:0:
434,65,97484,1,0,2:0:0:0:
481,219,97642,1,0,2:0:0:0:
512,383,97800,54,0,P|454:374|406:341,1,116.999994644165,0|0,2:0|2:0,2:0:0:0:
317,247,98431,6,0,P|284:199|233:172,1,116.999994644165,0|0,2:0|2:0,2:0:0:0:
154,86,99063,6,0,P|106:53|79:2,1,116.999994644165,0|0,2:0|2:0,2:0:0:0:
8,129,99694,6,0,B|-21:176|-21:176|13:262|10:333,1,215.999993408203,0|0,2:0|2:0,2:0:0:0:
0,350,100326,6,0,B|85:327|47:272|142:250,1,180,0|0,2:0|2:0,2:0:0:0:
277,197,100800,2,0,P|257:245|245:291,1,90,0|0,2:0|2:0,2:0:0:0:
213,141,101115,1,0,2:0:0:0:
295,349,101273,2,0,P|362:340|433:296,1,135,0|0,2:0|2:0,2:0:0:0:
425,301,101589,6,0,P|452:336|450:387,2,90,0|0|0,2:0|2:0|2:0,2:0:0:0:
340,235,102063,2,0,P|308:205|307:161,1,90,0|0,2:0|2:0,2:0:0:0:
369,47,102379,1,0,2:0:0:0:
229,11,102537,2,0,P|285:37|361:55,1,135,0|0,2:0|2:0,2:0:0:0:
431,80,102852,6,0,P|412:149|301:135,1,180,0|0,2:0|2:0,2:0:0:0:
223,238,103326,2,0,L|203:150,2,90,0|0|0,2:0|2:0|2:0,2:0:0:0:
81,384,103800,1,0,2:0:0:0:
84,378,103958,2,0,L|105:273,1,90,0|0,2:0|2:0,2:0:0:0:
137,157,104273,1,0,2:0:0:0:
3,237,104431,1,0,2:0:0:0:
182,337,104589,6,0,P|139:331|105:291,1,90,0|0,2:0|2:0,2:0:0:0:
26,115,104905,1,0,2:0:0:0:
0,228,105063,2,0,P|49:163|2:101,1,135,0|0,2:0|2:0,2:0:0:0:
19,114,105379,6,0,P|21:53|141:31,1,180,0|0,2:0|2:0,2:0:0:0:
155,110,105852,2,0,L|125:300,1,180,0|0,2:0|2:0,2:0:0:0:
169,379,106326,6,0,P|208:358|225:311,1,90,0|0,2:0|2:0,2:0:0:0:
326,235,106642,1,0,2:0:0:0:
331,246,106800,1,0,2:0:0:0:
178,159,106958,1,0,2:0:0:0:
298,86,107115,2,0,P|337:107|354:150,1,90,0|0,2:0|2:0,2:0:0:0:
420,293,107431,1,0,2:0:0:0:
490,181,107589,2,0,P|439:224|414:286,1,135,0|0,2:0|2:0,2:0:0:0:
363,378,107905,6,0,P|308:319|216:257,1,180,0|0,2:0|2:0,2:0:0:0:
300,141,108379,1,0,2:0:0:0:
308,146,108537,2,0,P|333:190|348:238,1,90,0|0,2:0|2:0,2:0:0:0:
418,164,108852,2,0,P|427:118|454:70,1,90,0|0,2:0|2:0,2:0:0:0:
503,42,109168,1,0,2:0:0:0:
235,49,109326,6,0,P|279:43|310:11,1,90,0|0,2:0|2:0,2:0:0:0:
152,165,109642,2,0,P|175:202|216:218,1,90,0|0,2:0|2:0,2:0:0:0:
53,84,109958,1,0,2:0:0:0:
33,243,110115,2,0,L|8:375,1,135,0|0,2:0|2:0,2:0:0:0:
0,384,110431,6,0,P|40:328|70:322,1,90,0|0,2:0|2:0,2:0:0:0:
198,244,110747,1,0,2:0:0:0:
71,140,110905,2,0,P|108:219|189:253,1,180,0|0,2:0|2:0,2:0:0:0:
225,38,111379,2,0,L|267:195,1,135,0|0,2:0|2:0,2:0:0:0:
247,186,111694,5,0,2:0:0:0:
332,106,111852,1,0,2:0:0:0:
162,80,112010,1,0,2:0:0:0:
339,222,112168,2,0,P|378:219|427:204,1,90,0|0,2:0|2:0,2:0:0:0:
244,323,112484,2,0,P|163:276|174:181,1,180,0|0,2:0|2:0,2:0:0:0:
275,0,112958,6,0,P|319:57|286:115,1,135,0|0,2:0|2:0,2:0:0:0:
280,108,113273,1,0,2:0:0:0:
176,204,113431,2,0,L|83:179,2,90,0|0|0,2:0|2:0|2:0,2:0:0:0:
313,330,113905,1,0,2:0:0:0:
321,322,114221,6,0,P|342:316|365:312,1,45,0|0,2:0|2:0,2:0:0:0:
464,232,114379,2,0,P|441:228|419:222,1,45,0|0,2:0|2:0,2:0:0:0:
313,330,114537,1,0,2:0:0:0:
449,372,114694,2,0,P|489:353|508:314,1,90,0|0,2:0|2:0,2:0:0:0:
352,85,115010,2,0,P|343:136|336:180,1,90,0|0,2:0|2:0,2:0:0:0:
195,279,115326,5,0,2:0:0:0:
195,279,115405,1,0,2:0:0:0:
195,279,115484,2,0,P|273:261|315:353,1,180,0|0,2:0|2:0,2:0:0:0:
439,251,115958,2,0,P|503:224|507:116,1,180,0|0,2:0|2:0,2:0:0:0:
398,55,116431,5,0,2:0:0:0:
296,308,116589,2,0,P|305:264|320:221,1,90,0|0,2:0|2:0,2:0:0:0:
194,45,116905,2,0,P|207:81|218:131,1,90,0|0,2:0|2:0,2:0:0:0:
391,170,117221,2,0,P|371:130|332:110,1,90,0|0,2:0|2:0,2:0:0:0:
151,210,117537,2,0,P|160:252|139:291,2,90,0|0|0,2:0|2:0|2:0,2:0:0:0:
23,46,118010,6,0,B|10:17|10:17|71:64|147:66,1,180,0|0,2:0|2:0,2:0:0:0:
297,173,118484,2,0,B|255:144|255:144|203:200|131:200,1,180,0|0,2:0|2:0,2:0:0:0:
19,140,118958,1,0,2:0:0:0:
244,12,119115,6,0,L|287:28,1,45,0|0,2:0|2:0,2:0:0:0:
94,161,119431,6,0,L|139:154,1,45,0|0,2:0|2:0,2:0:0:0:
35,364,119747,6,0,L|70:336,1,45,0|0,2:0|2:0,2:0:0:0:
340,311,120063,5,0,2:0:0:0:
134,176,120221,2,0,L|163:334,1,135,0|0,2:0|2:0,2:0:0:0:
199,368,120537,6,0,P|236:344|248:301,1,90,0|0,2:0|2:0,2:0:0:0:
286,216,120852,1,0,2:0:0:0:
443,265,121010,2,0,P|356:283|285:214,1,180,0|0,2:0|2:0,2:0:0:0:
483,117,121484,2,0,B|415:133|440:172|376:194,1,135,0|0,2:0|2:0,2:0:0:0:
369,191,121800,5,0,2:0:0:0:
282,129,121958,2,0,L|302:41,1,90,0|0,2:0|2:0,2:0:0:0:
138,63,122273,2,0,L|156:151,1,90,0|0,2:0|2:0,2:0:0:0:
243,350,122589,1,0,2:0:0:0:
293,274,122747,2,0,P|285:230|203:204,1,135,0|0,2:0|2:0,2:0:0:0:
161,148,123063,6,0,P|184:79|302:107,1,180,0|0,2:0|2:0,2:0:0:0:
512,232,123537,2,0,P|471:215|448:178,1,90,0|0,2:0|2:0,2:0:0:0:
398,12,123852,1,0,2:0:0:0:
297,249,124010,1,0,2:0:0:0:
299,239,124326,6,0,B|303:223|313:208|313:208|300:153,2,90,0|0|0,2:0|2:0|2:0,2:0:0:0:
178,294,124800,5,0,2:0:0:0:
105,242,124958,1,0,2:0:0:0:
79,146,125115,1,0,2:0:0:0:
131,44,125273,1,0,2:0:0:0:
255,16,125431,1,0,2:0:0:0:
387,86,125589,1,0,2:0:0:0:
363,284,125905,5,0,2:0:0:0:
493,208,126063,1,0,2:0:0:0:
383,97,126221,1,0,2:0:0:0:
262,178,126379,1,0,2:0:0:0:
361,294,126537,1,0,2:0:0:0:
170,297,126694,6,0,L|111:285,2,45,0|0|0,2:0|2:0|2:0,2:0:0:0:
179,307,127010,1,0,2:0:0:0:
254,201,127168,5,0,2:0:0:0:
208,61,127326,1,0,2:0:0:0:
208,61,127405,1,0,2:0:0:0:
208,61,127484,1,0,2:0:0:0:
254,201,127642,1,0,2:0:0:0:
309,333,127800,1,0,2:0:0:0:
309,333,127879,1,0,2:0:0:0:
309,333,127958,1,0,2:0:0:0:
340,108,128115,6,0,L|399:121,2,45,0|0|0,2:0|2:0|2:0,2:0:0:0:
179,256,128431,5,0,2:0:0:0:
0,202,128589,1,0,2:0:0:0:
53,328,128747,1,0,2:0:0:0:
120,114,128905,1,0,2:0:0:0:
127,99,129063,1,0,2:0:0:0:
49,344,129221,6,0,L|26:405,1,33.7500012874604,0|0,2:0|2:0,2:0:0:0:
186,195,129537,6,0,L|193:248,1,33.7500012874604,0|0,2:0|2:0,2:0:0:0:
288,21,129852,6,0,L|312:56,1,33.7500012874604,0|0,2:0|2:0,2:0:0:0:
284,288,130168,6,0,B|302:311|302:311|245:293|207:335,1,135,0|0,2:0|2:0,2:0:0:0:
185,355,130484,21,0,2:0:0:0:
158,375,130563,1,0,2:0:0:0:
123,377,130642,1,0,2:0:0:0:
89,364,130721,1,0,2:0:0:0:
65,337,130800,1,0,2:0:0:0:
57,301,130879,1,0,2:0:0:0:
68,268,130958,2,0,L|101:203,1,45,0|0,2:0|2:0,2:0:0:0:
361,198,131115,5,0,2:0:0:0:
399,221,131194,1,0,2:0:0:0:
405,266,131273,1,0,2:0:0:0:
374,298,131352,1,0,2:0:0:0:
340,303,131431,2,0,L|202:274,1,135,0|0,2:0|2:0,2:0:0:0:
191,266,131905,6,0,B|105:287|105:287|90:321|90:321|2:342,1,216,0|0,2:0|2:0,2:0:0:0:
266,147,132379,2,0,P|317:161|377:173,1,108,0|0,2:0|2:0,2:0:0:0:
259,356,132694,1,0,2:0:0:0:
190,42,132852,1,0,2:0:0:0:
413,276,133010,6,0,P|465:267|518:240,1,107.999996704102,0|0,2:0|2:0,2:0:0:0:
334,16,133326,2,0,P|325:69|303:118,1,107.999996704102,0|0,2:0|2:0,2:0:0:0:
119,192,133642,2,0,P|96:81|-15:40,1,215.999993408203,0|0,2:0|2:0,2:0:0:0:
31,326,134115,6,0,P|125:305|259:279,1,202.5,0|0,2:0|2:0,2:0:0:0:
245,271,134431,6,0,P|279:313|329:331,1,108,0|0,2:0|2:0,2:0:0:0:
502,177,134747,1,0,2:0:0:0:
368,18,134905,2,0,P|327:124|371:182,1,162,0|0,2:0|2:0,2:0:0:0:
353,172,135221,1,0,2:0:0:0:
486,371,135379,5,0,2:0:0:0:
486,371,135458,1,0,2:0:0:0:
486,371,135537,2,0,B|498:351|522:336|522:336|500:275|476:149,1,216,0|0,2:0|2:0,2:0:0:0:
274,56,136010,2,0,L|257:120,1,53.9999983520508,0|0,2:0|2:0,2:0:0:0:
324,277,136168,1,0,2:0:0:0:
469,27,136326,1,0,2:0:0:0:
137,46,136484,6,0,P|225:89|258:214,1,216,0|0,2:0|2:0,2:0:0:0:
91,374,136958,6,0,P|1:327|11:225,1,216,0|0,2:0|2:0,2:0:0:0:
288,57,137431,2,0,P|268:106|220:126,1,108,0|0,2:0|2:0,2:0:0:0:
88,20,137747,1,0,2:0:0:0:
181,310,137905,1,0,2:0:0:0:
408,210,138063,6,0,P|458:193|521:181,1,108,0|0,2:0|2:0,2:0:0:0:
416,384,138379,2,0,P|367:360|315:345,1,108,0|0,2:0|2:0,2:0:0:0:
222,148,138694,2,0,P|315:102|331:1,1,216,0|0,2:0|2:0,2:0:0:0:
116,134,139168,6,0,L|159:329,1,162,0|0,2:0|2:0,2:0:0:0:
144,313,139484,6,0,P|81:329|6:201,1,216,0|0,2:0|2:0,2:0:0:0:
119,21,139958,2,0,P|168:39|195:85,1,108,0|0,2:0|2:0,2:0:0:0:
278,222,140273,1,0,2:0:0:0:
430,128,140431,1,0,2:0:0:0:
510,382,140589,6,0,P|492:329|482:274,1,112.5,0|0,2:0|2:0,2:0:0:0:
279,210,140905,2,0,P|260:263|250:318,1,112.5,0|0,2:0|2:0,2:0:0:0:
40,366,141221,2,0,P|21:312|11:257,1,112.5,0|0,2:0|2:0,2:0:0:0:
204,68,141537,6,0,B|272:48|277:105|340:92,1,144,0|0,2:0|2:0,2:0:0:0:
398,10,141931,5,0,2:0:0:0:
383,0,142010,2,0,L|352:213,1,216,0|0,2:0|2:0,2:0:0:0:
182,358,142484,2,0,B|163:341|141:325|141:325|150:299|159:254,1,108,0|0,2:0|2:0,2:0:0:0:
253,38,142800,1,0,2:0:0:0:
436,297,142958,1,0,2:0:0:0:
493,74,143115,6,0,P|431:94|379:100,1,108,0|0,2:0|2:0,2:0:0:0:
196,206,143431,2,0,P|249:214|300:231,1,108,0|0,2:0|2:0,2:0:0:0:
23,89,143747,2,0,P|47:195|64:301,1,216,0|0,2:0|2:0,2:0:0:0:
295,92,144221,6,0,P|228:109|187:212,1,162,0|0,2:0|2:0,2:0:0:0:
136,251,144537,6,0,P|211:276|258:340,1,162,0|0,2:0|2:0,2:0:0:0:
265,347,144852,2,0,P|279:369|301:384,1,54,0|0,2:0|2:0,2:0:0:0:
486,231,145010,2,0,B|496:212|508:201|508:201|491:132,1,108,0|0,2:0|2:0,2:0:0:0:
344,29,145326,1,0,2:0:0:0:
241,168,145484,1,0,2:0:0:0:
372,315,145642,6,0,P|425:323|477:338,1,107.999996704102,0|0,2:0|2:0,2:0:0:0:
408,146,145958,1,0,2:0:0:0:
406,139,146115,2,0,B|376:130|376:130|339:162|310:167,1,108,0|0,2:0|2:0,2:0:0:0:
512,34,146431,1,0,2:0:0:0:
292,277,146589,6,0,P|228:230|149:234,1,162,0|0,2:0|2:0,2:0:0:0:
295,0,147063,6,0,P|277:114|360:163,1,216,0|0,2:0|2:0,2:0:0:0:
512,384,147537,2,0,P|475:348|415:333,1,108,0|0,2:0|2:0,2:0:0:0:
177,211,147852,1,0,2:0:0:0:
361,147,148010,2,0,P|294:231|211:241,1,161.999995056153,0|0,2:0|2:0,2:0:0:0:
167,321,148326,6,0,P|149:300|143:274,1,54,0|0,2:0|2:0,2:0:0:0:
9,206,148484,2,0,P|17:180|37:162,1,54,0|0,2:0|2:0,2:0:0:0:
252,103,148642,1,0,2:0:0:0:
15,4,148800,2,0,P|68:6|110:39,1,107.999996704102,0|0,2:0|2:0,2:0:0:0:
199,192,149115,1,0,2:0:0:0:
0,367,149273,2,0,P|18:318|63:289,1,108,0|0,2:0|2:0,2:0:0:0:
92,123,149589,5,0,2:0:0:0:
268,340,149747,1,0,2:0:0:0:
92,123,149905,1,0,2:0:0:0:
268,340,150063,1,0,2:0:0:0:
162,384,150221,5,0,2:0:0:0:
317,77,150379,1,0,2:0:0:0:
162,384,150537,1,0,2:0:0:0:
317,77,150694,1,0,2:0:0:0:
416,192,150852,5,0,2:0:0:0:
61,235,151010,1,0,2:0:0:0:
61,235,151089,1,0,2:0:0:0:
61,235,151168,1,0,2:0:0:0:
142,90,151326,1,0,2:0:0:0:
375,348,151484,5,0,2:0:0:0:
375,348,151563,1,0,2:0:0:0:
375,348,151642,1,0,2:0:0:0:
202,379,151800,1,0,2:0:0:0:
257,53,151958,2,0,L|272:-31,1,53.9999983520508,0|0,2:0|2:0,2:0:0:0:
509,143,152115,6,0,P|404:148|352:255,1,216,0|0,2:0|2:0,2:0:0:0:
512,384,152589,2,0,P|511:331|480:288,1,108,0|0,2:0|2:0,2:0:0:0:
307,142,152905,1,0,2:0:0:0:
507,31,153063,1,0,2:0:0:0:
218,250,153221,6,0,P|165:237|122:203,1,107.999996704102,0|0,2:0|2:0,2:0:0:0:
300,16,153537,2,0,L|324:144,1,107.999996704102,0|0,2:0|2:0,2:0:0:0:
512,257,153852,2,0,P|463:244|372:390,1,215.999993408203,0|0,2:0|2:0,2:0:0:0:
159,296,154326,6,0,B|92:226|92:226|129:127,1,202.500007724762,0|0,2:0|2:0,2:0:0:0:
186,72,154642,6,0,P|223:109|274:126,1,107.999996704102,0|0,2:0|2:0,2:0:0:0:
419,43,154958,1,0,2:0:0:0:
508,225,155115,2,0,P|431:246|385:311,1,161.999995056153,0|0,2:0|2:0,2:0:0:0:
396,324,155431,1,0,2:0:0:0:
223,376,155589,1,0,2:0:0:0:
17,193,155747,6,0,B|-20:206|-47:148|15:129|84:176|45:232|120:264,1,215.999993408203,0|0,2:0|2:0,2:0:0:0:
281,335,156221,1,0,2:0:0:0:
406,203,156379,1,0,2:0:0:0:
231,45,156537,1,0,2:0:0:0:
410,359,156694,6,0,P|471:352|495:221,1,180,0|0,2:0|2:0,2:0:0:0:
397,50,157168,6,0,P|379:149|357:278,1,215.999993408203,0|0,2:0|2:0,2:0:0:0:
199,367,157642,2,0,P|175:291|83:248,1,161.999995056153,0|0,2:0|2:0,2:0:0:0:
94,258,157958,1,0,2:0:0:0:
290,156,158115,1,0,2:0:0:0:
6,9,158273,6,0,P|59:20|111:35,1,107.999996704102,0|0,2:0|2:0,2:0:0:0:
288,162,158589,2,0,P|235:173|183:188,1,107.999996704102,0|0,2:0|2:0,2:0:0:0:
0,347,158905,2,0,B|105:310|102:403|206:370,1,215.999993408203,0|0,2:0|2:0,2:0:0:0:
379,61,159379,6,0,P|302:73|285:149,1,161.999995056153,0|0,2:0|2:0,2:0:0:0:
295,153,159694,6,0,P|267:219|119:206,1,215.999993408203,0|0,2:0|2:0,2:0:0:0:
0,0,160168,2,0,P|60:60|49:100,1,107.999996704102,0|0,2:0|2:0,2:0:0:0:
166,318,160484,1,0,2:0:0:0:
262,41,160642,1,0,2:0:0:0:
452,168,160800,6,0,B|471:146|485:132|485:132|475:111|458:69,1,116.999994644165,0|0,2:0|2:0,2:0:0:0:
182,139,161115,2,0,B|168:157|149:175|149:175|164:208|177:237,1,116.999994644165,0|0,2:0|2:0,2:0:0:0:
399,375,161431,2,0,P|414:318|438:265,1,116.999994644165,0|0,2:0|2:0,2:0:0:0:
223,8,161747,6,0,P|253:93|268:181,1,180,0|0,2:0|2:0,2:0:0:0:
25,366,162221,6,0,P|30:269|137:278,1,215.999993408203,0|0,2:0|2:0,2:0:0:0:
301,374,162694,2,0,P|311:294|329:215,1,161.999995056153,0|0,2:0|2:0,2:0:0:0:
316,199,163010,1,0,2:0:0:0:
124,345,163168,1,0,2:0:0:0:
409,287,163326,6,0,P|453:259|460:207,1,107.999996704102,0|0,2:0|2:0,2:0:0:0:
195,59,163642,2,0,P|235:94|248:146,1,107.999996704102,0|0,2:0|2:0,2:0:0:0:
0,372,163958,2,0,P|30:287|166:277,1,215.999993408203,0|0,2:0|2:0,2:0:0:0:
391,115,164431,5,0,2:0:0:0:
385,122,164747,6,0,P|407:210|469:233,1,162,0|0,2:0|2:0,2:0:0:0:
474,241,165063,2,0,B|494:314|494:314|482:344,1,108,0|0,2:0|2:0,2:0:0:0:
320,225,165379,1,0,2:0:0:0:
453,46,165537,1,0,2:0:0:0:
315,235,165694,1,0,2:0:0:0:
238,30,165852,6,0,L|213:156,1,108,0|0,2:0|2:0,2:0:0:0:
72,304,166168,1,0,2:0:0:0:
0,109,166326,2,0,P|50:91|94:60,1,108,0|0,2:0|2:0,2:0:0:0:
228,286,166642,2,0,P|184:255|134:238,1,108,0|0,2:0|2:0,2:0:0:0:
312,81,166958,1,0,2:0:0:0:
475,325,167115,6,0,P|510:280|536:270,1,54,0|0,2:0|2:0,2:0:0:0:
345,238,167273,2,0,P|324:221|311:197,1,54,0|0,2:0|2:0,2:0:0:0:
424,51,167431,1,0,2:0:0:0:
424,51,167510,1,0,2:0:0:0:
424,51,167589,1,0,2:0:0:0:
424,51,167668,1,0,2:0:0:0:
424,51,167747,2,0,L|434:121,1,54,0|0,2:0|2:0,2:0:0:0:
484,231,167905,5,0,2:0:0:0:
444,236,167984,1,0,2:0:0:0:
404,243,168063,1,0,2:0:0:0:
365,254,168142,1,0,2:0:0:0:
327,268,168221,2,0,P|305:284|286:302,3,54,0|0|0|0,2:0|2:0|2:0|2:0,2:0:0:0:
228,203,168537,5,0,2:0:0:0:
188,199,168615,1,0,2:0:0:0:
148,192,168694,1,0,2:0:0:0:
109,181,168773,1,0,2:0:0:0:
71,167,168852,2,0,P|47:151|26:131,3,54,0|0|0|0,2:0|2:0|2:0|2:0,2:0:0:0:
51,33,169168,5,0,2:0:0:0:
77,3,169247,1,0,2:0:0:0:
117,0,169326,1,0,2:0:0:0:
146,26,169405,1,0,2:0:0:0:
149,65,169484,2,0,P|139:93|131:130,1,54,0|0,2:0|2:0,2:0:0:0:
8,279,169642,2,0,P|18:251|26:214,1,54,0|0,2:0|2:0,2:0:0:0:
237,207,169800,6,0,P|310:229|308:305,1,162,0|0,2:0|2:0,2:0:0:0:
251,371,170115,2,0,P|227:311|230:304,1,54,0|0,2:0|2:0,2:0:0:0:
401,174,170273,1,0,2:0:0:0:
201,51,170431,2,0,P|149:61|116:102,1,108,0|0,2:0|2:0,2:0:0:0:
103,258,170747,1,0,2:0:0:0:
355,40,170905,5,0,2:0:0:0:
355,40,170984,1,0,2:0:0:0:
355,40,171063,1,0,2:0:0:0:
483,195,171221,6,0,L|508:242,1,54,0|0,2:0|2:0,2:0:0:0:
226,268,171537,6,0,L|246:199,1,54,0|0,2:0|2:0,2:0:0:0:
399,3,171852,5,0,2:0:0:0:
262,97,172010,5,0,2:0:0:0:
374,307,172168,5,0,2:0:0:0:
0,182,172326,6,0,B|130:143|130:143|131:133|131:133|222:104|222:104|222:95|222:95|328:60|328:60|368:108|357:168|357:168|254:202|254:202|248:193|248:193|157:219|157:219|147:211|147:211|23:247|23:247|37:256|37:256|141:226|141:226|174:235|174:235|175:275|175:275|207:314|207:314|214:362|214:362|183:321|183:321|175:279|175:279|139:319|139:319|133:361|133:361|163:327,1,1368,0|0,2:0|2:0,2:0:0:0:
399,255,175484,38,1,B|415:271|435:274|435:274|429:292|431:311|431:311|411:310|392:321|392:321|388:300|372:286|372:286|391:277|399:255,1,202.500000000001,0|0,2:0|2:0,2:0:0:0:
359,51,176273,5,0,2:0:0:0:
499,200,176431,1,0,2:0:0:0:
512,0,176589,1,0,2:0:0:0:
314,233,176747,6,0,P|237:174|248:78,1,202.500000000001,0|0,2:0|2:0,2:0:0:0:
467,130,177379,6,1,B|537:174|522:325|403:396|293:369|237:296|237:296|325:336|456:340|488:217|466:142,1,810.000030899049,0|0,2:0|2:0,2:0:0:0:
32,231,179668,5,0,2:0:0:0:
32,231,179747,1,0,2:0:0:0:
32,231,179826,1,0,2:0:0:0:
32,231,179905,1,0,2:0:0:0:
70,309,180063,1,0,2:0:0:0:
7,366,180379,5,0,2:0:0:0:
82,162,180537,1,0,2:0:0:0:
127,236,181010,5,0,2:0:0:0:
127,236,181326,5,0,2:0:0:0:
34,95,181484,1,0,2:0:0:0:
34,95,181642,1,0,2:0:0:0:
193,2,181800,5,0,2:0:0:0:
253,67,182115,5,0,2:0:0:0:
9,14,182273,1,0,2:0:0:0:
182,216,182431,6,0,B|483:354|591:83|276:-33|62:-30|2:102|129:188,1,810.000000000002,0|0,2:0|2:0,2:0:0:0:
258,140,184721,5,0,2:0:0:0:
258,140,184800,1,0,2:0:0:0:
258,140,184879,1,0,2:0:0:0:
258,140,184958,1,0,2:0:0:0:
169,249,185431,5,0,2:0:0:0:
346,211,185589,1,0,2:0:0:0:
305,106,186063,5,0,2:0:0:0:
351,22,186379,5,0,2:0:0:0:
512,56,186537,1,0,2:0:0:0:
512,56,186694,1,0,2:0:0:0:
465,239,186852,5,0,2:0:0:0:
261,143,187168,5,0,2:0:0:0:
201,225,187326,1,0,2:0:0:0:
261,306,187484,2,0,B|395:344,1,135,0|0,2:0|2:0,2:0:0:0:
401,339,187958,1,0,2:0:0:0:
426,188,188115,6,1,B|369:180|331:228|331:228|272:218|283:151|283:151|298:67|213:22|131:27|70:110|96:203|180:217,1,594.000000000003,0|0,2:0|2:0,2:0:0:0:
250,345,190168,5,0,2:0:0:0:
245,356,190484,5,0,2:0:0:0:
71,324,190642,1,0,2:0:0:0:
57,315,191115,5,0,2:0:0:0:
42,306,191431,5,0,2:0:0:0:
3,150,191589,1,0,2:0:0:0:
3,150,191747,1,0,2:0:0:0:
116,9,191905,5,0,2:0:0:0:
129,11,192221,5,0,2:0:0:0:
315,50,192379,1,0,2:0:0:0:
163,120,192537,6,0,P|127:182|114:247,1,135.000005149842,0|0,2:0|2:0,2:0:0:0:
41,329,193010,2,0,P|26:299|4:275,1,67.5000000000002,0|0,2:0|2:0,2:0:0:0:
129,380,193326,1,0,2:0:0:0:
141,364,193484,2,0,P|170:322|211:293,1,101.250003862381,0|0,2:0|2:0,2:0:0:0:
224,297,193800,1,0,2:0:0:0:
309,351,193958,1,0,2:0:0:0:
407,330,194115,1,0,2:0:0:0:
444,235,194273,2,0,L|378:217,1,67.5000025749208,0|0,2:0|2:0,2:0:0:0:
325,106,194589,1,0,2:0:0:0:
442,43,194747,2,0,P|397:93|333:113,1,135,0|0,2:0|2:0,2:0:0:0:
212,47,195379,5,0,2:0:0:0:
242,128,195537,2,0,L|265:212,1,67.5000000000002,0|0,2:0|2:0,2:0:0:0:
129,321,195852,1,0,2:0:0:0:
158,217,196010,2,0,P|146:275|131:320,1,101.25,0|0,2:0|2:0,2:0:0:0:
139,325,196326,1,0,2:0:0:0:
46,346,196484,1,0,2:0:0:0:
0,263,196642,1,0,2:0:0:0:
8,249,196800,1,0,2:0:0:0:
123,80,196958,2,0,L|268:60,1,135,0|0,2:0|2:0,2:0:0:0:
268,69,197431,1,0,2:0:0:0:
418,86,197589,6,0,P|427:113|366:172,1,101.25,0|0,2:0|2:0,2:0:0:0:
374,163,197905,1,0,2:0:0:0:
365,309,198063,2,0,P|332:301|305:271,1,67.5000025749208,0|0,2:0|2:0,2:0:0:0:
267,197,198379,1,0,2:0:0:0:
149,369,198537,2,0,P|144:309|200:258,1,135,0|0,2:0|2:0,2:0:0:0:
261,175,199010,1,0,2:0:0:0:
206,81,199168,1,0,2:0:0:0:
302,31,199326,2,0,L|382:11,1,67.5000000000002,0|0,2:0|2:0,2:0:0:0:
269,159,199642,1,0,2:0:0:0:
186,85,199800,2,0,L|62:69,1,101.25,0|0,2:0|2:0,2:0:0:0:
87,94,200115,6,0,P|131:145|105:227,1,135,0|0,2:0|2:0,2:0:0:0:
174,304,200589,2,0,L|238:282,1,67.5000000000002,0|0,2:0|2:0,2:0:0:0:
364,203,200905,1,0,2:0:0:0:
448,237,201063,2,0,L|521:261,2,67.5000000000002,0|0|0,2:0|2:0|2:0,2:0:0:0:
418,149,201537,6,0,L|469:121,1,33.7500000000001,0|0,2:0|2:0,2:0:0:0:
509,95,201694,1,0,2:0:0:0:
348,98,201852,6,0,L|377:47,1,33.7500000000001,0|0,2:0|2:0,2:0:0:0:
399,5,202010,1,0,2:0:0:0:
247,113,202168,5,0,2:0:0:0:
179,28,202326,2,0,B|113:15|112:66|42:50,1,135,0|0,2:0|2:0,2:0:0:0:
0,199,202958,5,0,2:0:0:0:
48,256,203115,2,0,P|77:308|90:351,1,101.25,0|0,2:0|2:0,2:0:0:0:
93,368,203431,1,0,2:0:0:0:
186,310,203589,2,0,L|206:245,1,67.5000000000002,0|0,2:0|2:0,2:0:0:0:
249,384,203905,1,0,2:0:0:0:
329,334,204063,1,0,2:0:0:0:
329,334,204221,1,0,2:0:0:0:
408,274,204379,2,0,P|390:221|364:208,1,67.5000000000002,0|0,2:0|2:0,2:0:0:0:
316,176,204694,1,0,2:0:0:0:
386,46,204852,2,0,P|441:41|517:77,1,135,0|0,2:0|2:0,2:0:0:0:
310,81,205484,5,0,2:0:0:0:
240,132,205642,2,0,P|185:133|113:85,1,135,0|0,2:0|2:0,2:0:0:0:
73,200,206115,2,0,P|106:240|107:273,1,67.5000000000002,0|0,2:0|2:0,2:0:0:0:
62,357,206431,1,0,2:0:0:0:
0,278,206589,1,0,2:0:0:0:
58,367,206747,1,0,2:0:0:0:
155,317,206905,2,0,L|226:300,2,67.5000000000002,0|0|0,2:0|2:0|2:0,2:0:0:0:
286,207,207379,2,0,L|370:223,1,67.5000000000002,0|0,2:0|2:0,2:0:0:0:
450,278,207694,1,0,2:0:0:0:
512,41,208010,5,0,2:0:0:0:
407,81,208168,2,0,P|356:66|313:-16,1,135,0|0,2:0|2:0,2:0:0:0:
191,57,208642,2,0,P|177:106|196:153,1,101.250003862381,0|0,2:0|2:0,2:0:0:0:
209,162,208958,1,0,2:0:0:0:
209,162,209115,1,0,2:0:0:0:
138,220,209273,2,0,P|103:231|63:246,1,67.5000000000002,0|0,2:0|2:0,2:0:0:0:
218,291,209589,1,0,2:0:0:0:
218,291,209747,1,0,2:0:0:0:
278,350,209905,2,0,P|313:361|353:376,1,67.5000000000002,0|0,2:0|2:0,2:0:0:0:
512,370,210221,5,0,2:0:0:0:
461,238,210379,1,0,2:0:0:0:
315,384,210537,5,0,2:0:0:0:
368,196,210694,1,0,2:0:0:0:
147,328,210852,5,0,2:0:0:0:
292,137,211010,1,0,2:0:0:0:
16,180,211168,5,0,2:0:0:0:
245,56,211326,1,0,2:0:0:0:
30,44,211484,5,0,2:0:0:0:
335,198,211642,1,0,2:0:0:0:
0,253,211800,5,0,2:0:0:0:
237,13,211958,1,0,2:0:0:0:
237,13,212037,1,0,2:0:0:0:
237,13,212115,1,0,2:0:0:0:
184,350,212273,5,0,2:0:0:0:
422,154,212431,5,0,2:0:0:0:
422,154,212510,1,0,2:0:0:0:
422,154,212589,1,0,2:0:0:0:
422,154,212668,1,0,2:0:0:0:
422,154,212747,2,0,P|393:215|228:289,1,234,0|0,2:0|2:0,2:0:0:0:
57,261,213221,2,0,P|108:322|123:379,1,117,0|0,2:0|2:0,2:0:0:0:
313,190,213537,1,0,2:0:0:0:
171,150,213694,2,0,B|127:127|127:127|85:151|-1:177,1,175.499991966248,0|0,2:0|2:0,2:0:0:0:
0,182,214010,5,0,2:0:0:0:
144,59,214168,1,0,2:0:0:0:
144,59,214247,1,0,2:0:0:0:
144,59,214326,1,0,2:0:0:0:
271,128,214484,1,0,2:0:0:0:
395,24,214642,2,0,B|444:16|444:16|462:26|462:26|532:14,1,117,0|0,2:0|2:0,2:0:0:0:
512,84,214852,2,0,B|503:92|503:92|488:158,1,78,0|0,2:0|2:0,2:0:0:0:
242,225,215115,1,0,2:0:0:0:
72,59,215273,6,0,B|51:39|51:39|58:10,2,58.5,0|0|0,2:0|2:0|2:0,2:0:0:0:
161,157,215589,1,0,2:0:0:0:
61,330,215747,1,0,2:0:0:0:
61,330,215826,1,0,2:0:0:0:
61,330,215905,2,0,B|120:340|107:376|176:387,1,117,0|0,2:0|2:0,2:0:0:0:
234,351,216115,2,0,L|257:264,1,78,0|0,2:0|2:0,2:0:0:0:
325,90,216379,1,0,2:0:0:0:
512,202,216537,6,0,B|455:224|455:224|403:190,1,117,0|0,2:0|2:0,2:0:0:0:
129,83,216852,1,0,2:0:0:0:
340,8,217010,2,0,B|357:69|357:69|307:177|307:177|325:231,1,234,0|0,2:0|2:0,2:0:0:0:
393,322,217484,1,0,2:0:0:0:
470,272,217642,1,0,2:0:0:0:
488,174,217800,5,0,2:0:0:0:
355,157,217958,1,0,2:0:0:0:
249,235,218115,1,0,2:0:0:0:
225,365,218273,1,0,2:0:0:0:
42,98,218431,1,0,2:0:0:0:
171,126,218589,1,0,2:0:0:0:
249,235,218747,1,0,2:0:0:0:
225,365,218905,1,0,2:0:0:0:
225,365,218984,1,0,2:0:0:0:
225,365,219063,1,0,2:0:0:0:
287,81,219221,1,0,2:0:0:0:
132,250,219379,6,0,L|16:280,2,117,0|0|0,2:0|2:0|2:0,2:0:0:0:
265,138,219852,1,0,2:0:0:0:
265,138,219931,1,0,2:0:0:0:
265,138,220010,1,0,2:0:0:0:
71,62,220168,2,0,L|57:133,1,58.5,0|0,2:0|2:0,2:0:0:0:
126,363,220326,5,0,2:0:0:0:
231,289,220484,1,0,2:0:0:0:
270,166,220642,1,0,2:0:0:0:
227,44,220800,1,0,2:0:0:0:
227,44,220879,2,0,P|144:93|85:81,1,117,0|0,2:0|2:0,2:0:0:0:
110,88,221115,1,0,2:0:0:0:
0,65,221273,1,0,2:0:0:0:
96,320,221431,6,0,P|124:310|152:302,1,58.5,0|0,2:0|2:0,2:0:0:0:
55,141,221589,2,0,P|27:151|-1:159,1,58.5,0|0,2:0|2:0,2:0:0:0:
0,378,221747,2,0,B|20:372|29:336|29:336|165:374,1,175.5,0|0,2:0|2:0,2:0:0:0:
244,284,222063,2,0,B|231:253|231:253|279:171|279:171|258:111,1,175.5,0|0,2:0|2:0,2:0:0:0:
345,48,222379,2,0,B|427:32|427:32|432:24|432:24|513:7,1,175.5,0|0,2:0|2:0,2:0:0:0:
462,86,222694,2,0,B|384:60,1,58.5,0|0,2:0|2:0,2:0:0:0:
185,188,222852,54,1,B|179:211|191:230|191:230|249:208|323:172|323:172|340:194|330:225,1,234,0|0,2:0|2:0,2:0:0:0:
184,372,223326,2,0,P|127:360|69:349,1,117,0|0,2:0|2:0,2:0:0:0:
197,114,223642,1,0,2:0:0:0:
332,281,223800,2,0,B|383:293|417:256|400:246|440:213|490:234,1,175.5,0|0,2:0|2:0,2:0:0:0:
490,242,224115,6,0,L|476:310,1,58.5,0|0,2:0|2:0,2:0:0:0:
295,176,224273,1,0,2:0:0:0:
295,176,224352,1,0,2:0:0:0:
295,176,224431,2,0,L|281:108,1,58.5,0|0,2:0|2:0,2:0:0:0:
472,0,224589,2,0,L|458:68,1,58.5,0|0,2:0|2:0,2:0:0:0:
216,237,224747,6,0,B|192:217|190:190|190:190|41:229,2,175.5,0|0|0,2:0|2:0|2:0,2:0:0:0:
359,115,225379,1,0,2:0:0:0:
103,71,225537,1,0,2:0:0:0:
103,71,225615,1,0,2:0:0:0:
103,71,225694,1,0,2:0:0:0:
188,364,225852,1,0,2:0:0:0:
357,267,226010,6,0,P|332:237|321:200,1,78,0|0,2:0|2:0,2:0:0:0:
319,4,226221,2,0,P|306:40|279:69,1,78,0|0,2:0|2:0,2:0:0:0:
109,167,226431,2,0,P|147:160|185:169,1,78,0|0,2:0|2:0,2:0:0:0:
188,370,226642,38,0,P|190:323|224:267,1,90,0|0,2:0|2:0,2:0:0:0:
316,140,226958,1,0,2:0:0:0:
57,53,227115,2,0,P|100:113|113:177,1,135,0|0,2:0|2:0,2:0:0:0:
111,189,227431,1,0,2:0:0:0:
258,384,227589,2,0,P|264:362|279:345,1,45,0|0,2:0|2:0,2:0:0:0:
365,303,227747,2,0,P|406:281|418:263,1,45,0|0,2:0|2:0,2:0:0:0:
512,184,227905,5,0,2:0:0:0:
512,184,227984,1,0,2:0:0:0:
512,184,228063,2,0,P|495:168|475:159,1,45,0|0,2:0|2:0,2:0:0:0:
411,70,228221,5,0,2:0:0:0:
411,70,228300,1,0,2:0:0:0:
411,70,228379,2,0,P|390:60|368:59,1,45,0|0,2:0|2:0,2:0:0:0:
207,249,228537,5,0,2:0:0:0:
207,249,228615,1,0,2:0:0:0:
207,249,228694,2,0,P|190:264|170:273,1,45,0|0,2:0|2:0,2:0:0:0:
100,349,228852,5,0,2:0:0:0:
100,349,228931,1,0,2:0:0:0:
100,349,229010,2,0,P|79:358|57:359,1,45,0|0,2:0|2:0,2:0:0:0:
28,153,229168,5,0,2:0:0:0:
202,73,229326,5,0,2:0:0:0:
202,73,229405,1,0,2:0:0:0:
202,73,229484,2,0,L|249:94,1,45,0|0,2:0|2:0,2:0:0:0:
162,283,229642,2,0,L|114:261,1,45,0|0,2:0|2:0,2:0:0:0:
337,133,229800,6,0,L|345:177,1,45,0|0,2:0|2:0,2:0:0:0:
40,210,229958,2,0,L|31:165,1,45,0|0,2:0|2:0,2:0:0:0:
202,73,230115,6,0,L|193:117,1,45,0|0,2:0|2:0,2:0:0:0:
151,384,230273,1,0,2:0:0:0:
151,384,230352,1,0,2:0:0:0:
151,384,230431,5,0,2:0:0:0:
0,279,230589,1,0,2:0:0:0:
104,130,230747,1,0,2:0:0:0:
253,234,230905,1,0,2:0:0:0:
401,20,231063,5,0,2:0:0:0:
237,134,231221,1,0,2:0:0:0:
350,297,231379,1,0,2:0:0:0:
512,181,231537,1,0,2:0:0:0:
387,30,231694,6,0,P|376:63|370:96,1,58.5,0|0,2:0|2:0,2:0:0:0:
176,139,231852,2,0,B|165:108|165:108|198:144|237:148,1,117,0|0,2:0|2:0,2:0:0:0:
495,334,232168,2,0,B|502:319|521:311|521:311|458:293|462:362|390:344,1,175.5,0|0,2:0|2:0,2:0:0:0:
334,286,232484,2,0,P|345:253|351:220,1,58.5,0|0,2:0|2:0,2:0:0:0:
234,58,232642,1,0,2:0:0:0:
258,84,232721,1,0,2:0:0:0:
291,98,232800,1,0,2:0:0:0:
326,93,232879,1,0,2:0:0:0:
361,71,232958,22,0,P|464:79|474:180,1,216,0|0,2:0|2:0,2:0:0:0:
282,367,233431,2,0,P|292:292|367:287,1,162,0|0,2:0|2:0,2:0:0:0:
424,332,233747,2,0,P|407:351|381:358,1,54,0|0,2:0|2:0,2:0:0:0:
158,119,233905,1,0,2:0:0:0:
470,26,234063,22,1,B|477:41|491:48|491:48|479:59|477:74|477:74|461:67|446:68|446:68|447:54|443:39|443:39|459:37|470:25,1,153,0|0,2:0|2:0,2:0:0:0:
221,190,234379,22,1,B|213:205|199:212|199:212|207:223|213:238|213:238|229:231|244:232|244:232|243:218|247:203|247:203|231:201|221:190,1,153,0|0,2:0|2:0,2:0:0:0:
501,330,234694,22,1,B|501:347|513:356|513:356|498:365|493:378|493:378|480:367|465:364|465:364|470:350|470:335|470:335|486:338|501:330,1,153,0|0,2:0|2:0,2:0:0:0:
284,74,235010,1,0,2:0:0:0:
512,189,235168,6,0,B|481:164|481:164|408:208|318:185,1,195.75,0|0,2:0|2:0,2:0:0:0:
257,253,235484,6,0,P|177:270|102:299,1,162,0|0,2:0|2:0,2:0:0:0:
16,201,235800,2,0,P|40:213|65:221,1,54,0|0,2:0|2:0,2:0:0:0:
268,334,235958,2,0,P|319:327|347:279,1,108,0|0,2:0|2:0,2:0:0:0:
179,171,236273,1,0,2:0:0:0:
0,343,236431,1,0,2:0:0:0:
262,172,236589,6,0,P|272:96|212:47,1,162,0|0,2:0|2:0,2:0:0:0:
201,43,236905,2,0,P|191:67|183:93,1,54,0|0,2:0|2:0,2:0:0:0:
371,160,237063,2,0,P|360:134|351:109,1,54,0|0,2:0|2:0,2:0:0:0:
222,291,237221,1,0,2:0:0:0:
512,201,237379,2,0,P|502:225|494:251,1,54,0|0,2:0|2:0,2:0:0:0:
247,374,237537,6,0,B|292:371|333:320|311:295|336:229|427:240,1,216,0|0,2:0|2:0,2:0:0:0:
121,43,238010,6,0,P|176:135|207:249,1,216,0|0,2:0|2:0,2:0:0:0:
8,368,238484,2,0,P|47:301|124:305,1,162,0|0,2:0|2:0,2:0:0:0:
173,362,238800,2,0,P|196:348|210:326,1,54,0|0,2:0|2:0,2:0:0:0:
328,160,238958,2,0,P|328:133|316:109,1,54,0|0,2:0|2:0,2:0:0:0:
76,36,239115,6,0,B|67:44|62:53|59:66|59:66|50:57|41:50|29:47|29:47|39:38|43:26|45:15|45:15|53:25|63:31|76:36,1,144,0|0,2:0|2:0,2:0:0:0:
228,201,239431,6,0,B|235:210|240:219|243:232|243:232|252:223|262:216|274:213|274:213|264:204|260:192|258:181|258:181|249:191|239:197|228:201,1,144,0|0,2:0|2:0,2:0:0:0:
36,343,239747,6,0,B|28:352|23:361|20:374|20:374|11:365|1:358|-10:355|-10:355|0:346|3:334|5:323|5:323|14:333|24:339|36:343,1,144,0|0,2:0|2:0,2:0:0:0:
206,62,240063,1,0,2:0:0:0:
167,339,240221,6,0,L|115:134,1,175.5,0|0,2:0|2:0,2:0:0:0:
210,69,240537,6,0,P|267:109|344:108,1,108,0|0,2:0|2:0,2:0:0:0:
475,7,240852,1,0,2:0:0:0:
351,256,241010,2,0,P|400:184|483:161,1,162,0|0,2:0|2:0,2:0:0:0:
492,282,241326,2,0,P|466:267|452:242,1,54,0|0,2:0|2:0,2:0:0:0:
334,14,241484,1,0,2:0:0:0:
181,182,241642,6,0,P|127:203|100:254,1,117,0|0,2:0|2:0,2:0:0:0:
308,372,241958,2,0,P|270:322|275:267,1,117,0|0,2:0|2:0,2:0:0:0:
108,26,242273,2,0,P|165:34|215:64,1,117,0|0,2:0|2:0,2:0:0:0:
32,384,242589,2,0,L|0:244,1,144,0|0,2:0|2:0,2:0:0:0:
259,157,243063,6,0,P|151:176|128:281,1,203.400000620728,0|0,2:0|2:0,2:0:0:0:
3,35,243537,2,0,P|72:109|47:137,1,152.55,0|0,2:0|2:0,2:0:0:0:
45,144,243852,2,0,P|45:170|60:193,1,54,0|0,2:0|2:0,2:0:0:0:
217,291,244010,2,0,P|235:280|253:254,1,53.9999983520508,0|0,2:0|2:0,2:0:0:0:
259,57,244168,6,1,B|275:21|233:10|233:10|247:34|250:62,1,107.999996704102,0|0,2:0|2:0,2:0:0:0:
427,170,244484,6,1,B|463:156|442:119|442:119|434:146|417:167,1,107.999996704102,0|0,2:0|2:0,2:0:0:0:
463,361,244800,6,1,B|498:377|509:335|509:335|485:349|457:352,1,107.999996704102,0|0,2:0|2:0,2:0:0:0:
377,78,245115,1,0,2:0:0:0:
274,228,245273,6,0,P|183:211|145:113,1,175.5,0|0,2:0|2:0,2:0:0:0:
110,62,245589,6,0,P|11:93|14:206,1,205.2,0|0,2:0|2:0,2:0:0:0:
120,337,246063,2,0,P|171:313|185:258,1,102.6,0|0,2:0|2:0,2:0:0:0:
229,41,246379,1,0,2:0:0:0:
436,223,246537,2,0,P|416:173|377:136,1,102.6,0|0,2:0|2:0,2:0:0:0:
236,23,246852,1,0,2:0:0:0:
115,130,247010,1,0,2:0:0:0:
294,246,247168,6,0,L|195:221,1,102.6,0|0,2:0|2:0,2:0:0:0:
416,367,247484,1,0,2:0:0:0:
200,228,247642,2,0,P|299:195|335:98,1,205.2,0|0,2:0|2:0,2:0:0:0:
404,373,248115,6,0,P|316:363|299:264,1,162,0|0,2:0|2:0,2:0:0:0:
295,294,248431,1,0,2:0:0:0:
512,130,248589,2,0,P|508:170|447:219,1,108,0|0,2:0|2:0,2:0:0:0:
267,82,248905,1,0,2:0:0:0:
422,352,249063,6,0,P|410:277|332:252,1,162,0|0,2:0|2:0,2:0:0:0:
244,230,249379,2,0,P|232:205|213:187,1,54,0|0,2:0|2:0,2:0:0:0:
442,26,249537,2,0,P|426:42|418:76,1,54,0|0,2:0|2:0,2:0:0:0:
512,292,249694,1,0,2:0:0:0:
300,339,249852,6,0,P|305:284|352:262,1,108,0|0,2:0|2:0,2:0:0:0:
505,123,250168,1,0,2:0:0:0:
286,2,250326,2,0,L|311:138,1,108,0|0,2:0|2:0,2:0:0:0:
385,346,250642,5,0,2:0:0:0:
279,235,250800,1,0,2:0:0:0:
132,195,250958,1,0,2:0:0:0:
0,256,251115,1,0,2:0:0:0:
74,48,251273,5,0,2:0:0:0:
219,90,251431,1,0,2:0:0:0:
287,226,251589,1,0,2:0:0:0:
223,362,251747,1,0,2:0:0:0:
14,161,251905,5,0,2:0:0:0:
234,371,252063,1,0,2:0:0:0:
234,371,252142,1,0,2:0:0:0:
234,371,252221,1,0,2:0:0:0:
182,54,252379,1,0,2:0:0:0:
35,357,252537,5,0,2:0:0:0:
35,357,252615,1,0,2:0:0:0:
35,357,252694,1,0,2:0:0:0:
333,197,252852,1,0,2:0:0:0:
0,153,253010,2,0,P|15:182|31:226,1,53.9999983520508,0|0,2:0|2:0,2:0:0:0:
212,372,253168,6,0,B|269:381|313:337|285:313|329:263|403:280,1,216,0|0,2:0|2:0,2:0:0:0:
159,61,253642,2,0,P|177:139|194:219,1,162,0|0,2:0|2:0,2:0:0:0:
132,300,253958,2,0,L|97:252,1,54,0|0,2:0|2:0,2:0:0:0:
351,100,254115,2,0,L|336:152,1,54,0|0,2:0|2:0,2:0:0:0:
374,354,254273,6,0,B|401:354|424:371|424:371|430:341|446:322,1,108,0|0,2:0|2:0,2:0:0:0:
265,103,254589,2,0,P|246:153|261:204,1,108,0|0,2:0|2:0,2:0:0:0:
512,71,254905,2,0,B|485:45|471:0|471:0|439:29|398:33,1,162,0|0,2:0|2:0,2:0:0:0:
391,45,255221,1,0,2:0:0:0:
158,225,255379,6,0,P|248:212|314:275,1,189,0|0,2:0|2:0,2:0:0:0:
131,316,255694,6,0,P|137:263|181:226,1,108,0|0,2:0|2:0,2:0:0:0:
323,111,256010,1,0,2:0:0:0:
62,19,256168,2,0,P|94:148|105:202,1,162,0|0,2:0|2:0,2:0:0:0:
52,259,256484,2,0,P|37:237|7:212,1,54,0|0,2:0|2:0,2:0:0:0:
205,19,256642,1,0,2:0:0:0:
149,329,256800,6,0,P|163:225|255:176,1,216,0|0,2:0|2:0,2:0:0:0:
512,91,257273,1,0,2:0:0:0:
309,39,257431,1,0,2:0:0:0:
490,254,257589,1,0,2:0:0:0:
294,310,257747,2,0,L|252:98,1,216,0|0,2:0|2:0,2:0:0:0:
440,375,258221,6,0,P|409:271|313:243,1,216,0|0,2:0|2:0,2:0:0:0:
113,125,258694,2,0,P|227:74|238:40,1,162,0|0,2:0|2:0,2:0:0:0:
291,0,259010,2,0,P|308:19|312:46,1,54,0|0,2:0|2:0,2:0:0:0:
61,173,259168,2,0,P|43:153|39:126,1,54,0|0,2:0|2:0,2:0:0:0:
250,278,259326,6,0,P|256:330|227:374,1,108,0|0,2:0|2:0,2:0:0:0:
13,217,259642,2,0,L|136:194,1,108,0|0,2:0|2:0,2:0:0:0:
379,58,259958,2,0,B|326:62|301:32|309:23|281:-4|232:7,1,162,0|0,2:0|2:0,2:0:0:0:
226,24,260273,1,0,2:0:0:0:
358,184,260431,6,0,P|440:191|529:232,1,162,0|0,2:0|2:0,2:0:0:0:
497,231,260747,6,0,P|446:250|408:288,1,108,0|0,2:0|2:0,2:0:0:0:
278,376,261063,1,0,2:0:0:0:
146,126,261221,2,0,P|127:202|174:264,1,162,0|0,2:0|2:0,2:0:0:0:
211,323,261537,2,0,P|233:306|243:281,1,54,0|0,2:0|2:0,2:0:0:0:
84,72,261694,1,0,2:0:0:0:
0,320,261852,6,0,P|27:368|79:385,1,112.5,0|0,2:0|2:0,2:0:0:0:
241,155,262168,2,0,P|229:210|238:265,1,112.5,0|0,2:0|2:0,2:0:0:0:
476,10,262484,2,0,P|425:32|398:80,1,112.5,0|0,2:0|2:0,2:0:0:0:
466,356,262800,6,0,B|478:345|493:336|493:336|484:324|480:305|480:305|467:318|453:325|453:325|461:339|466:356,1,135,0|0,2:0|2:0,2:0:0:0:
501,121,263273,6,0,P|431:200|329:174,1,216,0|0,2:0|2:0,2:0:0:0:
69,280,263747,2,0,P|146:259|208:310,1,162,0|0,2:0|2:0,2:0:0:0:
211,327,264063,2,0,P|224:350|248:364,1,54,0|0,2:0|2:0,2:0:0:0:
408,129,264221,1,0,2:0:0:0:
191,8,264379,6,0,P|126:55|140:115,1,108,0|0,2:0|2:0,2:0:0:0:
331,216,264694,2,0,P|265:173|218:184,1,108,0|0,2:0|2:0,2:0:0:0:
4,366,265010,2,0,P|87:345|99:217,1,216,0|0,2:0|2:0,2:0:0:0:
297,138,265484,5,0,2:0:0:0:
305,132,265800,6,0,B|422:110|422:110|403:125|396:142,1,161.999995056153,0|0,2:0|2:0,2:0:0:0:
315,237,266115,2,0,P|239:227|215:176,1,107.999996704102,0|0,2:0|2:0,2:0:0:0:
346,39,266431,1,0,2:0:0:0:
487,242,266589,2,0,L|456:367,1,107.999996704102,0|0,2:0|2:0,2:0:0:0:
258,57,266905,5,0,2:0:0:0:
258,57,266984,1,0,2:0:0:0:
258,57,267063,1,0,2:0:0:0:
364,180,267221,1,0,2:0:0:0:
217,339,267379,1,0,2:0:0:0:
267,186,267537,1,0,2:0:0:0:
389,334,267694,1,0,2:0:0:0:
133,215,267852,1,0,2:0:0:0:
358,62,268010,1,0,2:0:0:0:
270,299,268168,5,0,2:0:0:0:
249,290,268247,1,0,2:0:0:0:
227,284,268326,1,0,2:0:0:0:
200,294,268405,1,0,2:0:0:0:
174,305,268484,1,0,2:0:0:0:
147,315,268563,1,0,2:0:0:0:
120,324,268642,2,0,L|15:304,3,54,0|0|0|0,2:0|2:0|2:0|2:0,2:0:0:0:
0,196,268958,5,0,2:0:0:0:
48,186,269037,1,0,2:0:0:0:
73,149,269115,1,0,2:0:0:0:
82,111,269194,1,0,2:0:0:0:
77,77,269273,2,0,L|49:14,3,54,0|0|0|0,2:0|2:0|2:0|2:0,2:0:0:0:
216,74,269589,5,0,2:0:0:0:
264,84,269668,1,0,2:0:0:0:
289,121,269747,1,0,2:0:0:0:
298,159,269826,1,0,2:0:0:0:
289,191,269905,2,0,L|261:254,3,54,0|0|0|0,2:0|2:0|2:0|2:0,2:0:0:0:
300,340,270221,5,0,2:0:0:0:
340,330,270300,1,0,2:0:0:0:
380,321,270379,1,0,2:0:0:0:
421,311,270458,1,0,2:0:0:0:
461,302,270537,2,0,L|527:283,1,54,0|0,2:0|2:0,2:0:0:0:
393,42,270694,5,0,2:0:0:0:
393,42,270773,1,0,2:0:0:0:
393,42,270852,2,0,P|322:47|335:154,1,162,0|0,2:0|2:0,2:0:0:0:
240,167,271168,2,0,P|283:205|301:206,1,54,0|0,2:0|2:0,2:0:0:0:
512,271,271326,1,0,2:0:0:0:
340,364,271484,2,0,B|320:343|320:343|210:371,1,108,0|0,2:0|2:0,2:0:0:0:
230,378,271721,1,0,2:0:0:0:
230,378,271800,1,0,2:0:0:0:
27,256,271958,6,0,P|15:230|0:208,2,54,0|0|0,2:0|2:0|2:0,2:0:0:0:
200,64,272273,2,0,P|179:114|164:168,1,108,0|0,2:0|2:0,2:0:0:0:
290,374,272589,2,0,P|318:276|406:268,1,198,0|0,2:0|2:0,2:0:0:0:
498,46,273063,5,0,2:0:0:0:
464,59,273142,1,0,2:0:0:0:
428,67,273221,1,0,2:0:0:0:
393,77,273300,1,0,2:0:0:0:
357,86,273379,2,0,P|239:58|112:37,1,234,0|0,2:0|2:0,2:0:0:0:
52,244,273852,2,0,P|102:231|153:222,1,99,0|0,2:0|2:0,2:0:0:0:
291,137,274168,1,0,2:0:0:0:
374,349,274326,2,0,B|296:366|307:307|233:322,1,148.5,0|0,2:0|2:0,2:0:0:0:
230,329,274642,5,0,2:0:0:0:
344,228,274800,1,0,2:0:0:0:
115,140,274958,1,0,2:0:0:0:
336,21,275115,2,0,L|314:149,1,99,0|0,2:0|2:0,2:0:0:0:
176,281,275431,1,0,2:0:0:0:
77,28,275589,1,0,2:0:0:0:
42,364,275905,6,0,P|153:358|178:275,1,198,0|0,2:0|2:0,2:0:0:0:
313,215,276379,2,0,P|299:168|261:138,1,99,0|0,2:0|2:0,2:0:0:0:
38,81,276694,1,0,2:0:0:0:
241,0,276852,2,0,P|202:61|132:81,1,148.5,0|0,2:0|2:0,2:0:0:0:
110,89,277168,5,0,2:0:0:0:
33,187,277326,1,0,2:0:0:0:
141,344,277484,1,0,2:0:0:0:
146,353,277642,1,0,2:0:0:0:
0,268,277800,1,0,2:0:0:0:
81,32,277958,1,0,2:0:0:0:
265,152,278115,1,0,2:0:0:0:
0,54,278431,6,0,B|87:41|87:41|94:49|94:49|214:33,1,198,0|0,2:0|2:0,2:0:0:0:
370,142,278905,2,0,B|339:158|339:158|335:187|320:235,1,99,0|0,2:0|2:0,2:0:0:0:
247,371,279221,1,0,2:0:0:0:
439,281,279379,2,0,P|349:253|205:234,1,198,0|0,2:0|2:0,2:0:0:0:
420,45,279852,2,0,P|432:111|435:170,1,99,0|0,2:0|2:0,2:0:0:0:
313,326,280168,1,0,2:0:0:0:
512,187,280326,1,0,2:0:0:0:
420,382,280484,1,0,2:0:0:0:
300,92,280642,1,0,2:0:0:0:
510,383,280958,6,0,P|462:314|328:241,1,198,0|0,2:0|2:0,2:0:0:0:
159,331,281431,2,0,B|202:347|202:347|252:296,1,99,0|0,2:0|2:0,2:0:0:0:
306,75,281747,1,0,2:0:0:0:
512,163,281905,2,0,P|463:172|416:187,1,99,0|0,2:0|2:0,2:0:0:0:
137,238,282221,6,0,L|160:176,1,49.5,0|0,2:0|2:0,2:0:0:0:
293,212,282379,2,0,L|270:135,1,49.5,0|0,2:0|2:0,2:0:0:0:
412,119,282537,2,0,L|364:54,1,49.5,0|0,2:0|2:0,2:0:0:0:
295,225,282694,1,0,2:0:0:0:
512,14,282852,5,0,2:0:0:0:
512,14,282931,1,0,2:0:0:0:
512,14,283010,1,0,2:0:0:0:
389,246,283168,5,0,2:0:0:0:
389,246,283247,1,0,2:0:0:0:
389,246,283326,1,0,2:0:0:0:
389,246,283405,1,0,2:0:0:0:
389,246,283484,2,0,B|434:256|469:231|461:210|483:182|531:190|531:190|512:206|512:221,1,198.000006042481,0|0,2:0|2:0,2:0:0:0:
229,104,283958,2,1,B|199:38|277:16|277:16|239:52|239:93,1,198,0|0,2:0|2:0,2:0:0:0:
81,294,284431,2,0,B|8:253|25:174|25:174|40:201|65:210,1,198,0|0,2:0|2:0,2:0:0:0:
121,369,284905,5,0,2:0:0:0:
216,310,285063,1,0,2:0:0:0:
368,345,285221,1,0,2:0:0:0:
488,234,285379,1,0,2:0:0:0:
383,115,285537,1,0,2:0:0:0:
512,0,285694,1,0,2:0:0:0:
39,188,286010,6,0,B|6:209|-39:124|108:134|37:234|133:247,1,198,0|0,2:0|2:0,2:0:0:0:
364,85,286484,2,1,B|361:94|387:104|403:87|402:74|386:31|302:34|275:132,1,198,0|0,2:0|2:0,2:0:0:0:
504,364,286958,2,0,P|497:313|412:270,1,148.5,0|0,2:0|2:0,2:0:0:0:
360,239,287273,54,0,B|347:263|347:263|353:284,2,49.5,0|0|0,2:0|2:0|2:0,2:0:0:0:
317,90,287589,1,0,2:0:0:0:
137,69,287747,1,0,2:0:0:0:
17,168,287905,1,0,2:0:0:0:
0,296,288063,1,0,2:0:0:0:
56,382,288221,1,0,2:0:0:0:
443,185,288537,6,0,B|443:201|449:217|462:229|462:229|446:232|430:240|420:253|420:253|420:237|414:221|401:209|401:209|417:207|432:199|443:185,1,198,0|0,2:0|2:0,2:0:0:0:
187,78,289010,2,1,B|180:57|161:48|161:48|176:34|181:14|181:14|199:25|219:24|219:24|217:43|222:60|222:60|203:63|187:78,1,198,0|0,2:0|2:0,2:0:0:0:
11,279,289484,2,0,B|-7:302|-7:302|21:365|21:365|81:324|81:324|76:297,1,198,0|0,2:0|2:0,2:0:0:0:
286,55,289958,22,0,B|309:104|309:104|288:162,1,99,0|0,2:0|2:0,2:0:0:0:
59,228,290273,1,0,2:0:0:0:
264,308,290431,2,0,B|222:336|222:336|165:323,1,99,0|0,2:0|2:0,2:0:0:0:
0,89,290747,2,0,P|24:25|117:30,1,148.5,0|0,2:0|2:0,2:0:0:0:
100,24,291063,6,0,L|121:102,1,49.5,0|0,2:0|2:0,2:0:0:0:
172,158,291221,5,0,2:0:0:0:
172,158,291300,1,0,2:0:0:0:
172,158,291379,2,0,L|193:236,1,49.5,0|0,2:0|2:0,2:0:0:0:
243,293,291537,5,0,2:0:0:0:
243,293,291615,1,0,2:0:0:0:
243,293,291694,2,0,L|264:371,1,49.5,0|0,2:0|2:0,2:0:0:0:
419,155,291852,5,0,2:0:0:0:
422,115,291931,1,0,2:0:0:0:
406,81,292010,1,0,2:0:0:0:
375,60,292089,1,0,2:0:0:0:
336,57,292168,1,0,2:0:0:0:
302,75,292247,1,0,2:0:0:0:
282,107,292326,1,0,2:0:0:0:
304,241,292484,5,0,2:0:0:0:
425,282,292642,5,0,2:0:0:0:
512,191,292800,5,0,2:0:0:0:
366,51,292958,5,0,2:0:0:0:
188,146,293115,5,0,2:0:0:0:
222,346,293273,5,0,2:0:0:0:
424,374,293431,37,0,2:0:0:0:
