osu file format v14

[General]
AudioFilename: audio.mp3
AudioLeadIn: 0
PreviewTime: 131109
Countdown: 0
SampleSet: Normal
StackLeniency: 0.8
Mode: 0
LetterboxInBreaks: 0
WidescreenStoryboard: 1

[Editor]
Bookmarks: 25721,35905,46010,51063,55326,57379,65431,82115,100247,117221,120458,125589,131826,152589,175405,192458,210142,212668,217721,225221,232879,242273,262484,268879,297379
DistanceSpacing: 0.1
BeatDivisor: 4
GridSize: 8
TimelineZoom: 2.2

[Metadata]
Title:Star map
TitleUnicode:Star map
Artist:Shimotsuki Haruka
ArtistUnicode:霜月はるか
Creator:Oooodriiin
Version:Ayesha's Extra
Source:見上げてごらん、夜空の星を
Tags:a sky full of stars Miagete Goran Yozora no Hoshi o Pulltop Visual novel Eroge shimotsuki haruka Asagi Miazora full ver version galgame
BeatmapID:3731387
BeatmapSetID:748422

[Difficulty]
HPDrainRate:6
CircleSize:4
OverallDifficulty:9
ApproachRate:9.2
SliderMultiplier:1.9
SliderTickRate:1

[Events]
//Background and Video events
0,0,"Dw96pDpUcAENMGs.jpg",0,0
//Break Periods
//Storyboard Layer 0 (Background)
//Storyboard Layer 1 (Fail)
//Storyboard Layer 2 (Pass)
//Storyboard Layer 3 (Foreground)
//Storyboard Layer 4 (Overlay)
//Storyboard Sound Samples

[TimingPoints]
537,315.789473684211,4,1,1,35,1,0
5589,-125,4,2,1,40,0,0
23273,-100,4,2,1,40,0,0
25800,-100,4,1,1,40,0,0
35273,-125,4,1,1,40,0,0
35905,-166.666666666667,4,1,1,40,0,0
40958,-166.666666666667,4,2,1,40,0,0
45694,-166.666666666667,4,2,1,50,0,0
46010,-166.666666666667,4,2,1,40,0,0
51063,-111.111111111111,4,2,1,40,0,0
54694,-83.3333333333333,4,2,1,50,0,0
57063,-83.3333333333333,4,2,1,70,0,0
57379,-90.9090909090909,4,2,1,100,0,1
57537,-90.9090909090909,4,2,1,80,0,1
61958,-142.857142857143,4,2,1,80,0,1
62431,-90.9090909090909,4,2,1,80,0,1
82168,-142.857142857143,4,2,1,80,0,1
82168,-142.857142857143,4,2,1,80,0,1
82641,-90.9090909090909,4,2,1,80,0,1
82641,-90.9090909090909,4,2,1,80,0,1
97800,-100,4,2,1,80,0,0
99931,-100,4,2,1,5,0,0
100010,-100,4,2,1,75,0,0
100326,-111.111111111111,4,2,1,65,0,0
105418,-111.111111111111,4,2,1,5,0,0
105537,-111.111111111111,4,2,1,65,0,0
106721,-111.111111111111,4,2,1,5,0,0
106800,-111.111111111111,4,2,1,65,0,0
106879,-111.111111111111,4,2,1,5,0,0
106958,-111.111111111111,4,2,1,65,0,0
110037,-111.111111111111,4,2,1,5,0,0
110115,-111.111111111111,4,2,1,65,0,0
120142,-111.111111111111,4,2,1,5,0,0
120221,-111.111111111111,4,2,1,65,0,0
129221,-100,4,2,1,65,0,0
131589,-100,4,3,1,75,0,0
131905,-90.9090909090909,4,2,1,65,0,1
136484,-142.857142857143,4,2,1,65,0,1
136958,-90.9090909090909,4,2,1,65,0,1
156694,-142.857142857143,4,2,1,65,0,1
157168,-90.9090909090909,4,2,1,65,0,1
172958,-125,4,2,1,65,0,0
192537,-100,4,2,1,65,0,0
210537,-100,4,2,1,69,0,0
210852,-100,4,2,1,73,0,0
211168,-100,4,2,1,77,0,0
211484,-100,4,2,1,81,0,0
211800,-100,4,2,1,85,0,0
212115,-100,4,2,1,87,0,0
212273,-100,4,2,1,35,0,0
212510,-100,4,2,1,45,0,0
212589,-100,4,2,1,55,0,0
212747,-90.9090909090909,4,2,1,100,0,1
212826,-90.9090909090909,4,2,3,100,0,1
213221,-90.9090909090909,4,2,3,80,0,1
217484,-100,4,2,3,80,0,0
217800,-90.9090909090909,4,2,1,95,0,1
217879,-90.9090909090909,4,2,3,80,0,1
221747,-100,4,2,1,80,0,0
222852,-90.9090909090909,4,2,1,80,0,1
222931,-90.9090909090909,4,2,3,80,0,1
225379,-90.9090909090909,4,2,1,80,0,1
225458,-90.9090909090909,4,2,3,80,0,1
226010,-90.9090909090909,4,2,1,80,0,1
226089,-90.9090909090909,4,2,3,80,0,1
226642,-90.9090909090909,4,2,1,80,0,1
226721,-90.9090909090909,4,2,3,80,0,1
230589,-100,4,2,3,80,0,0
231694,-100,4,2,1,80,0,0
232958,-90.9090909090909,4,2,1,95,0,1
233037,-90.9090909090909,4,2,1,80,0,1
237537,-142.857142857143,4,2,1,80,0,1
238010,-90.9090909090909,4,2,1,80,0,1
257747,-142.857142857143,4,2,1,80,0,1
258221,-90.9090909090909,4,2,1,80,0,1
267142,-90.9090909090909,4,2,1,5,0,1
267221,-90.9090909090909,4,2,1,80,0,1
267300,-90.9090909090909,4,2,1,5,0,1
267379,-90.9090909090909,4,2,1,80,0,1
273379,-90.9090909090909,4,2,1,65,0,0
293431,-100,4,1,1,90,0,1
293510,-100,4,1,1,30,0,0
297379,-100,4,1,1,5,0,0

[Colours]
Combo1 : 252,182,105
Combo2 : 179,219,255
Combo3 : 125,251,225
Combo4 : 86,33,243
Combo5 : 226,45,124

[HitObjects]
502,168,5589,6,0,B|459:179|426:160|438:149|398:130|357:142,1,152,6|0,0:0|0:0,0:0:0:0:
294,89,6063,2,0,P|302:52|313:16,1,76,0|10,0:0|0:0,0:0:0:0:
313,16,6537,2,0,P|255:55|168:43,1,152,2|4,0:0|0:0,0:0:0:0:
126,124,7010,1,2,0:0:0:0:
36,98,7168,2,0,P|28:60|18:24,1,76,2|0,0:0|0:0,0:0:0:0:
211,157,7484,6,0,P|178:197|67:192,1,152,8|4,0:0|0:0,0:0:0:0:
83,202,7958,1,2,0:0:0:0:
156,87,8115,6,0,P|228:110|302:127,1,152,2|6,2:0|0:0,0:0:0:0:
302,127,8589,1,0,0:0:0:0:
494,10,8747,2,0,P|442:58|355:41,1,152,8|0,0:0|0:0,0:0:0:0:
365,49,9221,1,2,0:0:0:0:
444,167,9379,2,0,P|452:125|463:92,1,76,4|0,0:0|0:0,0:0:0:0:
353,213,9694,1,2,0:0:0:0:
497,284,9852,1,2,0:0:0:0:
391,370,10010,6,0,P|333:333|246:349,1,152,8|4,0:0|0:0,0:0:0:0:
99,255,10484,1,8,0:0:0:0:
159,384,10642,6,0,P|174:309|194:231,1,152,2|4,0:0|0:0,0:0:0:0:
77,127,11115,2,0,B|47:151|47:151|-3:145,1,76,0|8,0:0|0:0,0:0:0:0:
9,146,11589,6,0,P|94:132|168:117,1,152,4|4,0:0|0:0,0:0:0:0:
307,101,12063,1,0,0:0:0:0:
251,0,12221,2,0,P|236:40|227:71,1,76,0|2,0:0|0:0,0:0:0:0:
353,193,12537,6,0,P|433:191|494:146,1,152,12|0,0:0|0:0,0:0:0:0:
490,150,13010,1,2,0:0:0:0:
403,277,13168,5,4,0:0:0:0:
403,277,13326,2,0,P|345:240|262:244,1,152,2|0,0:0|0:0,0:0:0:0:
148,192,13800,2,0,P|163:265|178:343,1,152,8|0,0:0|0:0,0:0:0:0:
177,341,14273,1,0,0:0:0:0:
267,197,14431,5,4,0:0:0:0:
267,197,14589,2,0,P|257:238|250:277,1,76,0|6,0:0|0:0,0:0:0:0:
352,376,14905,2,0,P|358:338|368:301,1,76,2|8,0:0|0:0,0:0:0:0:
490,105,15221,5,0,0:0:0:0:
448,232,15379,1,4,0:0:0:0:
344,137,15537,1,4,0:0:0:0:
250,271,15694,6,0,P|192:309|104:295,1,152,2|2,0:0|0:0,0:0:0:0:
4,258,16168,2,0,L|19:335,1,76,2|8,0:0|0:0,0:0:0:0:
18,332,16642,6,0,P|43:250|53:169,1,152,2|4,0:0|0:0,0:0:0:0:
0,98,17115,2,0,P|51:139|138:127,1,152,2|0,0:0|0:0,0:0:0:0:
250,12,17589,1,12,0:0:0:0:
250,12,17905,2,0,P|236:67|230:101,1,76,2|0,0:0|0:0,0:0:0:0:
358,201,18221,5,4,0:0:0:0:
443,164,18379,2,0,P|375:116|294:139,1,152
276,224,18852,2,0,P|318:216|354:203,1,76,8|0,0:0|0:0,0:0:0:0:
450,299,19168,2,0,P|412:305|376:317,1,76,0|2,0:0|0:0,0:0:0:0:
204,156,19484,6,0,P|181:210|221:297,1,152,4|0,0:0|0:0,0:0:0:0:
122,345,19958,1,2,0:0:0:0:
276,365,20115,2,0,P|209:332|109:352,1,152,8|4,0:0|0:0,0:0:0:0:
40,380,20589,1,4,0:0:0:0:
0,205,20747,6,0,L|158:233,1,152,2|6,0:0|0:0,0:0:0:0:
316,186,21221,1,2,0:0:0:0:
173,21,21379,6,0,B|151:79|151:79|178:136,1,114,8|0,0:0|0:0,0:0:0:0:
183,135,21694,2,0,P|216:121|255:121,1,76,2|0,0:0|0:0,0:0:0:0:
407,61,22010,5,8,0:0:0:0:
317,36,22168,1,0,0:0:0:0:
455,147,22326,5,8,0:0:0:0:
418,55,22484,1,0,0:0:0:0:
415,247,22642,5,8,0:0:0:0:
459,158,22800,1,0,0:0:0:0:
326,299,22958,5,8,0:0:0:0:
424,262,23115,1,0,0:0:0:0:
348,203,23273,5,8,0:0:0:0:
405,347,23431,1,0,0:0:0:0:
263,174,23589,5,8,0:0:0:0:
237,372,23747,1,0,0:0:0:0:
197,96,23905,5,8,0:0:0:0:
106,380,24063,1,0,0:0:0:0:
31,128,24221,5,8,0:0:0:0:
257,263,24379,1,2,0:0:0:0:
0,303,24537,1,8,0:0:0:0:
105,76,24694,5,10,0:0:0:0:
105,76,24773,1,10,0:0:0:0:
105,76,24852,2,0,P|110:98|115:128,1,47.5,8|0,0:0|0:0,0:0:0:0:
247,309,25010,5,8,0:0:0:0:
247,309,25089,1,8,0:0:0:0:
247,309,25168,2,0,P|252:287|257:257,1,47.5,8|0,0:0|0:0,0:0:0:0:
232,120,25326,5,0,0:0:0:0:
276,135,25405,1,0,0:0:0:0:
321,118,25484,1,8,0:0:0:0:
338,74,25563,1,0,0:0:0:0:
375,49,25642,1,8,0:0:0:0:
424,48,25721,1,0,0:0:0:0:
457,76,25800,5,4,0:0:0:0:
501,154,26115,1,0,0:0:0:0:
501,154,26273,1,0,0:0:0:0:
469,240,26589,1,0,0:0:0:0:
379,264,26905,1,0,0:0:0:0:
305,220,27221,1,0,0:0:0:0:
287,139,27537,1,8,0:0:0:0:
321,65,27852,1,8,0:0:0:0:
321,65,28009,1,0,0:0:0:0:
379,264,28326,5,8,0:0:0:0:
354,233,28484,1,0,0:0:0:0:
305,225,28642,1,8,0:0:0:0:
252,239,28800,1,8,0:0:0:0:
207,334,29115,1,8,0:0:0:0:
104,364,29431,1,8,0:0:0:0:
16,318,29747,1,0,0:0:0:0:
3,213,30063,1,8,0:0:0:0:
99,145,30379,1,8,1:0:0:0:
99,145,30537,6,0,L|195:166,1,95,8|0,1:0|3:0,0:0:0:0:
285,342,30852,5,8,0:0:0:0:
364,373,31168,1,0,0:0:0:0:
364,373,31326,1,0,0:0:0:0:
451,344,31642,1,0,0:0:0:0:
492,260,31958,1,8,0:0:0:0:
467,169,32273,1,8,1:0:0:0:
384,116,32589,1,8,0:0:0:0:
296,135,32905,1,8,0:0:0:0:
296,135,33063,1,8,0:0:0:0:
206,9,33379,5,8,0:0:0:0:
171,38,33537,1,0,0:0:0:0:
113,51,33694,1,0,0:0:0:0:
46,35,33852,1,8,0:0:0:0:
1,140,34168,1,0,0:0:0:0:
66,256,34484,1,0,0:0:0:0:
167,289,34800,5,8,0:0:0:0:
167,289,34879,1,8,0:0:0:0:
167,289,34958,2,0,L|264:270,1,95,8|8,0:0|0:0,0:0:0:0:
290,180,35273,2,0,L|381:203,1,76,8|8,0:0|0:0,0:0:0:0:
468,272,35589,5,8,0:0:0:0:
487,164,35905,6,0,P|463:215|467:271,1,113.999996520996,8|8,0:0|0:0,0:0:0:0:
484,365,36379,2,0,L|428:352,1,56.9999982604981,0|8,0:0|0:0,0:0:0:0:
360,288,36694,2,0,L|304:275,1,56.9999982604981,0|8,0:0|0:0,0:0:0:0:
242,359,37010,1,0,0:0:0:0:
38,349,37168,6,0,P|94:349|146:322,1,113.999996520996,8|8,0:0|0:0,0:0:0:0:
144,323,37642,2,0,L|157:258,1,56.9999982604981,0|8,0:0|0:0,0:0:0:0:
37,130,37958,5,0,0:0:0:0:
119,151,38115,1,8,0:0:0:0:
174,84,38273,1,2,2:0:0:0:
288,8,38431,6,0,P|268:61|271:117,1,113.999996520996,8|8,0:0|0:0,0:0:0:0:
456,122,38905,2,0,P|452:93|442:66,1,56.9999982604981,0|8,0:0|0:0,0:0:0:0:
365,159,39221,1,0,0:0:0:0:
490,211,39379,1,8,0:0:0:0:
398,295,39537,6,0,P|348:267|292:265,1,113.999996520996
232,196,40010,1,8,0:0:0:0:
207,339,40168,5,8,0:0:0:0:
207,339,40247,1,0,0:0:0:0:
207,339,40326,1,8,0:0:0:0:
78,228,40484,1,8,0:0:0:0:
25,383,40642,1,8,0:0:0:0:
102,311,40800,1,2,2:0:0:0:
293,384,40958,6,0,P|301:327|315:272,1,113.999996520996,4|2,0:0|0:0,0:0:0:0:
315,272,41431,1,2,0:0:0:0:
192,24,41589,6,0,P|183:80|169:135,1,113.999996520996,8|2,0:0|0:0,0:0:0:0:
264,196,42063,2,0,P|295:185|324:182,1,56.9999982604981,0|4,0:0|0:0,0:0:0:0:
496,110,42379,2,0,P|438:112|374:69,1,113.999996520996,2|0,0:0|0:0,0:0:0:0:
255,122,42852,1,8,0:0:0:0:
299,0,43010,2,0,P|305:27|312:55,1,56.9999982604981,2|4,0:0|0:0,0:0:0:0:
248,275,43484,6,0,P|198:247|142:249,1,113.999996520996,2|2,0:0|0:0,0:0:0:0:
0,183,43958,1,2,0:0:0:0:
127,48,44115,2,0,P|118:104|102:160,1,113.999996520996,8|0,0:0|0:0,0:0:0:0:
281,345,44589,5,8,0:0:0:0:
316,183,44905,1,8,0:0:0:0:
192,292,45221,1,8,0:0:0:0:
359,276,45537,1,2,0:0:0:0:
215,192,45694,2,0,L|226:133,1,56.9999982604981,8|0,0:0|0:0,0:0:0:0:
147,0,46010,6,0,P|97:27|41:25,1,113.999996520996,4|2,0:0|0:0,0:0:0:0:
140,105,46484,1,0,0:0:0:0:
34,181,46642,2,0,P|42:153|46:125,1,56.9999982604981,4|2,0:0|0:0,0:0:0:0:
130,219,46958,2,0,P|121:246|117:274,1,56.9999982604981,2|2,0:0|0:0,0:0:0:0:
225,136,47273,5,4,0:0:0:0:
349,185,47431,2,0,P|315:193|281:202,1,56.9999982604981,2|2,0:0|0:0,0:0:0:0:
169,149,47747,2,0,P|196:141|224:135,1,56.9999982604981,4|0,0:0|0:0,0:0:0:0:
322,43,48063,1,2,0:0:0:0:
322,43,48221,2,0,P|313:75|308:104,1,56.9999982604981,6|0,0:0|0:0,0:0:0:0:
436,258,48537,6,0,P|464:211|450:141,1,113.999996520996,4|2,0:0|0:0,0:0:0:0:
457,154,49010,1,2,0:0:0:0:
463,333,49168,6,0,P|415:301|355:297,1,113.999996520996,4|2,0:0|0:0,0:0:0:0:
232,333,49642,1,0,0:0:0:0:
232,333,49721,1,0,0:0:0:0:
232,333,49800,2,0,L|206:214,1,113.999996520996,4|4,0:0|0:0,0:0:0:0:
242,125,50273,1,2,0:0:0:0:
298,195,50431,1,6,0:0:0:0:
148,148,50589,1,2,0:0:0:0:
263,42,50747,1,4,0:0:0:0:
263,42,51063,6,0,B|304:76|378:62|378:62|426:30,1,170.999994781494,4|4,0:0|0:0,0:0:0:0:
345,182,51537,1,2,0:0:0:0:
512,130,51694,1,8,0:0:0:0:
472,273,51852,2,0,P|462:231|444:192,1,85.4999973907472,0|2,0:0|0:0,0:0:0:0:
381,384,52168,6,0,P|313:334|229:338,1,170.999994781494,8|2,0:0|0:0,0:0:0:0:
31,192,52642,5,8,0:0:0:0:
135,379,52800,1,2,0:0:0:0:
135,379,52879,1,2,0:0:0:0:
135,379,52958,1,8,0:0:0:0:
184,160,53115,1,2,0:0:0:0:
22,317,53273,1,8,0:0:0:0:
236,265,53431,1,2,0:0:0:0:
100,107,53589,1,6,0:0:0:0:
100,106,53905,6,0,P|98:148|107:190,1,85.4999973907472
247,344,54221,1,8,0:0:0:0:
78,302,54379,2,0,L|164:282,1,85.4999973907472,2|4,0:0|0:0,0:0:0:0:
512,196,54694,6,0,P|427:195|361:144,1,170.999994781494,8|0,0:0|0:0,0:0:0:0:
323,75,55010,2,0,P|321:131|288:176,1,113.999996520996,8|0,0:0|0:0,0:0:0:0:
432,336,55326,2,0,P|400:290|349:266,1,113.999996520996,8|0,2:0|3:0,0:0:0:0:
21,308,55642,6,0,P|84:362|168:368,1,170.999994781494,8|0,2:0|0:0,0:0:0:0:
244,322,55958,5,2,2:0:0:0:
263,301,56037,1,2,2:0:0:0:
262,271,56115,1,2,2:0:0:0:
245,245,56194,1,2,2:0:0:0:
208,241,56273,1,2,2:0:0:0:
183,255,56352,1,2,2:0:0:0:
172,283,56431,1,2,2:0:0:0:
32,152,56589,5,2,3:0:0:0:
69,161,56668,1,2,3:0:0:0:
89,128,56747,1,2,3:0:0:0:
64,98,56826,1,2,3:0:0:0:
28,113,56905,1,2,0:0:0:0:
256,0,57063,6,0,B|272:104|208:53|231:163,1,170.999994781494,8|8,1:0|1:0,0:0:0:0:
182,240,57379,6,0,P|245:196|322:199,1,156.750004783631,6|0,1:2|0:0,0:0:0:0:
342,210,57694,1,8,2:0:0:0:
496,108,57852,2,0,P|487:26|382:62,1,209.000006378174,2|2,0:0|0:0,0:0:0:0:
490,218,58326,1,8,0:0:0:0:
370,310,58484,6,0,P|359:258|341:209,1,104.500003189087,0|2,0:0|0:0,0:0:0:0:
261,116,58800,1,2,0:0:0:0:
199,305,58958,1,8,0:0:0:0:
0,227,59115,6,0,P|44:192|169:191,1,156.750004783631,2|0,0:0|0:0,0:0:0:0:
179,201,59431,1,0,0:0:0:0:
323,133,59589,1,8,0:0:0:0:
168,31,59747,1,0,0:0:0:0:
278,220,59905,6,0,B|369:235|343:175|451:195,1,156.750004783631,6|0,0:0|0:0,0:0:0:0:
441,200,60221,1,8,0:0:0:0:
297,31,60379,2,0,P|312:80|322:132,1,104.500003189087,2|0,0:0|0:0,0:0:0:0:
441,200,60694,1,0,0:0:0:0:
296,363,60852,1,8,0:0:0:0:
480,384,61010,6,0,B|492:364|512:355|512:355|497:294|420:273|371:307,1,209.000006378174,2|0,0:0|0:0,0:0:0:0:
171,369,61484,5,8,0:0:0:0:
190,279,61642,1,2,0:0:0:0:
209,189,61800,1,2,0:0:0:0:
167,374,61958,6,0,P|105:377|62:310,1,132.999995941162,8|0,0:0|0:0,0:0:0:0:
69,318,62431,6,0,P|171:334|246:260,1,209.000006378174,6|8,1:2|2:0,0:0:0:0:
352,58,62905,2,0,P|325:107|331:166,1,104.500003189087,2|0,0:0|0:0,0:0:0:0:
413,331,63221,1,0,0:0:0:0:
224,184,63379,1,8,0:0:0:0:
496,197,63537,6,0,P|451:207|396:227,1,104.500003189087
272,360,63852,1,2,0:0:0:0:
326,154,64010,1,8,0:0:0:0:
128,229,64168,6,0,P|73:171|78:88,1,156.750004783631,2|0,0:0|0:0,0:0:0:0:
82,82,64484,1,2,0:0:0:0:
207,13,64642,2,0,P|193:68|181:136,1,104.500003189087,8|0,0:0|0:0,0:0:0:0:
12,370,64958,6,0,P|63:323|164:333,1,156.750004783631,4|0,0:0|0:0,0:0:0:0:
167,337,65273,1,8,0:0:0:0:
348,176,65431,2,0,P|300:197|250:212,1,104.500003189087,2|0,0:0|0:0,0:0:0:0:
484,350,65747,1,0,0:0:0:0:
250,212,65905,1,10,0:0:0:0:
511,208,66063,6,0,P|464:271|376:263,1,156.750004783631,8|0,0:0|0:0,0:0:0:0:
208,307,66379,2,0,P|241:360|343:357,1,156.750004783631,8|0,0:0|0:0,0:0:0:0:
380,286,66694,6,0,P|363:209|342:131,1,156.750004783631,8|0,0:0|0:0,0:0:0:0:
342,133,67010,1,2,0:0:0:0:
456,48,67168,1,8,0:0:0:0:
496,176,67326,1,8,0:0:0:0:
221,106,67484,6,0,B|154:144|154:144|67:133,1,156.750004783631,4|0,0:0|0:0,0:0:0:0:
65,138,67800,1,8,0:0:0:0:
208,328,67958,2,0,P|218:276|231:226,1,104.500003189087,0|2,0:0|0:0,0:0:0:0:
358,117,68273,1,2,0:0:0:0:
433,374,68431,1,8,0:0:0:0:
512,269,68589,6,0,P|447:226|371:235,1,156.750004783631
283,284,68905,2,0,P|342:278|374:240,1,104.500003189087,2|8,0:0|0:0,0:0:0:0:
321,7,69221,6,0,P|306:82|292:161,1,156.750004783631,2|0,0:0|0:0,0:0:0:0:
292,161,69537,1,2,0:0:0:0:
229,43,69694,1,8,0:0:0:0:
401,131,69852,1,0,0:0:0:0:
191,275,70010,6,0,P|131:236|38:250,1,156.750004783631,2|0,0:0|0:0,0:0:0:0:
43,249,70326,1,8,0:0:0:0:
110,101,70484,2,0,P|127:149|135:201,1,104.500003189087,2|0,0:0|0:0,0:0:0:0:
91,358,70800,1,0,0:0:0:0:
226,189,70958,1,8,0:0:0:0:
341,347,71115,6,0,P|446:340|510:250,1,209.000006378174,2|0,0:0|0:0,0:0:0:0:
433,96,71589,2,0,P|414:154|405:210,1,104.500003189087,8|2,0:0|0:0,0:0:0:0:
256,85,71905,1,4,0:0:0:0:
300,277,72063,1,0,0:0:0:0:
77,187,72221,6,0,B|97:179|129:161|129:161|175:186|234:189,1,156.750004783631,8|0,0:0|0:0,0:0:0:0:
241,196,72537,6,0,P|250:136|260:92,1,104.500003189087,6|0,0:0|0:0,0:0:0:0:
411,19,72852,1,8,0:0:0:0:
499,65,73010,2,0,P|435:108|359:101,1,156.750004783631,2|0,0:0|0:0,0:0:0:0:
359,101,73326,1,2,0:0:0:0:
491,228,73484,1,8,0:0:0:0:
390,314,73642,5,2,0:0:0:0:
390,314,73721,1,0,0:0:0:0:
390,314,73800,2,0,B|370:282|370:282|377:248|403:203,1,104.500003189087,2|2,0:0|0:0,0:0:0:0:
243,6,74115,2,0,B|263:38|263:38|255:71|230:117,1,104.500003189087,8|2,0:0|0:0,0:0:0:0:
180,239,74431,1,2,0:0:0:0:
85,133,74589,1,2,0:0:0:0:
10,293,74747,1,8,0:0:0:0:
151,373,74905,5,2,0:0:0:0:
151,373,74984,1,0,0:0:0:0:
151,373,75063,2,0,B|188:323|254:328|254:328|296:353,1,156.750004783631,4|0,0:0|0:0,0:0:0:0:
298,358,75379,1,8,0:0:0:0:
434,162,75537,1,0,0:0:0:0:
507,291,75694,6,0,P|441:293|338:199,1,209.000006378174,4|8,0:0|0:0,0:0:0:0:
223,12,76168,1,2,0:0:0:0:
114,219,76326,5,4,0:0:0:0:
345,100,76484,1,10,0:0:0:0:
345,100,76563,1,10,0:0:0:0:
345,100,76642,1,10,0:0:0:0:
89,62,76800,5,2,0:0:0:0:
263,253,76958,1,10,0:0:0:0:
263,253,77037,1,10,0:0:0:0:
263,253,77115,1,10,0:0:0:0:
223,12,77273,1,8,0:0:0:0:
0,227,77431,5,8,0:0:0:0:
0,227,77510,1,8,0:0:0:0:
0,227,77589,2,0,P|0:325|112:370,1,209.000006378174,4|8,0:0|0:0,0:0:0:0:
263,253,78063,2,0,P|211:254|163:274,1,104.500003189087,2|0,0:0|0:0,0:0:0:0:
301,360,78379,5,2,0:0:0:0:
408,219,78537,1,8,0:0:0:0:
251,151,78694,2,0,P|247:201|263:253,1,104.500003189087,0|6,0:0|0:0,0:0:0:0:
507,217,79010,2,0,P|510:166|494:114,1,104.500003189087,2|8,0:0|0:0,0:0:0:0:
365,3,79326,6,0,P|351:76|335:166,1,156.750004783631
337,158,79642,1,2,0:0:0:0:
491,348,79800,2,0,P|446:323|390:323,1,104.500003189087,8|0,0:0|0:0,0:0:0:0:
71,256,80115,6,0,P|143:258|218:199,1,156.750004783631,2|0,0:0|0:0,0:0:0:0:
210,211,80431,1,8,0:0:0:0:
103,61,80589,2,0,P|102:117|129:184,1,104.500003189087,2|0,0:0|0:0,0:0:0:0:
280,288,80905,1,2,0:0:0:0:
360,56,81063,1,8,0:0:0:0:
512,219,81221,6,0,P|413:191|307:173,1,209.000006378174,2|0,0:0|0:0,0:0:0:0:
71,238,81694,5,8,0:0:0:0:
194,130,81852,1,0,0:0:0:0:
30,62,82010,1,0,0:0:0:0:
76,248,82168,2,0,P|92:314|56:371,1,132.999995941162,12|0,0:0|0:0,0:0:0:0:
0,300,82642,6,0,B|116:283|80:358|230:335,1,209.000006378174,6|8,0:0|0:0,0:0:0:0:
399,275,83115,1,0,0:0:0:0:
399,275,83194,1,0,0:0:0:0:
399,275,83273,1,0,0:0:0:0:
245,168,83431,1,2,0:0:0:0:
329,384,83589,1,8,0:0:0:0:
512,279,83747,2,0,P|461:279|409:256,1,104.500003189087
244,379,84063,1,2,0:0:0:0:
155,135,84221,1,8,0:0:0:0:
18,291,84379,6,0,P|103:291|180:243,1,156.750004783631
171,248,84694,1,0,0:0:0:0:
290,79,84852,2,0,P|278:131|267:180,1,104.500003189087,8|2,0:0|0:0,0:0:0:0:
428,373,85168,6,0,P|486:288|460:210,1,156.750004783631,4|0,0:0|0:0,0:0:0:0:
460,210,85484,1,8,0:0:0:0:
288,264,85642,2,0,P|348:279|397:292,1,104.500003189087,2|0,0:0|0:0,0:0:0:0:
365,143,85958,1,2,0:0:0:0:
266,352,86115,1,8,0:0:0:0:
80,315,86273,6,0,P|26:263|25:186,1,156.750004783631,8|0,0:0|0:0,0:0:0:0:
150,72,86589,2,0,P|129:147|113:224,1,156.750004783631,8|0,0:0|0:0,0:0:0:0:
215,309,86905,2,0,P|231:232|251:156,1,156.750004783631,8|0,0:0|0:0,0:0:0:0:
256,151,87221,1,2,0:0:0:0:
409,105,87379,1,8,0:0:0:0:
289,0,87537,1,8,0:0:0:0:
512,141,87694,6,0,P|464:189|361:189,1,156.750004783631,4|0,0:0|0:0,0:0:0:0:
364,188,88010,1,8,0:0:0:0:
152,278,88168,2,0,P|208:288|265:306,1,104.500003189087,2|0,0:0|0:0,0:0:0:0:
235,197,88484,1,2,0:0:0:0:
175,384,88642,1,8,0:0:0:0:
29,257,88800,6,0,P|19:201|2:149,1,104.500003189087,0|4,0:0|0:0,0:0:0:0:
216,6,89115,1,0,0:0:0:0:
125,168,89273,1,8,0:0:0:0:
288,321,89431,6,0,B|391:295|372:360|496:318,1,209.000006378174,2|2,0:0|0:0,0:0:0:0:
296,177,89905,1,8,0:0:0:0:
445,122,90063,1,2,0:0:0:0:
445,122,90142,1,0,0:0:0:0:
445,122,90221,2,0,P|430:173|418:232,1,104.500003189087,4|0,0:0|0:0,0:0:0:0:
189,380,90537,2,0,P|151:312|164:230,1,156.750004783631,8|0,0:0|0:0,0:0:0:0:
171,217,90852,1,2,0:0:0:0:
102,106,91010,2,0,P|50:121|-10:135,1,104.500003189087,2|8,0:0|0:0,0:0:0:0:
317,35,91326,6,0,P|292:136|270:248,1,209.000006378174,2|2,0:0|0:0,0:0:0:0:
406,322,91800,1,10,0:0:0:0:
173,244,91958,1,2,0:0:0:0:
173,244,92037,1,0,0:0:0:0:
173,244,92115,1,2,0:0:0:0:
394,187,92273,1,2,0:0:0:0:
233,363,92431,1,8,0:0:0:0:
271,155,92589,5,2,0:0:0:0:
271,155,92668,1,0,0:0:0:0:
271,155,92747,2,0,P|262:104|242:56,1,104.500003189087,4|2,2:1|2:0,0:0:0:0:
38,247,93063,1,10,2:0:0:0:
82,145,93221,1,2,0:0:0:0:
217,282,93379,5,4,2:0:0:0:
263,293,93458,1,0,2:0:0:0:
297,281,93536,1,2,2:0:0:0:
329,266,93615,1,0,2:0:0:0:
375,271,93694,1,10,2:0:0:0:
504,136,93852,6,0,P|474:144|443:152,1,52.2500015945435,2|2,0:0|0:0,0:0:0:0:
303,16,94010,5,4,0:0:0:0:
322,4,94089,1,0,0:0:0:0:
345,2,94168,1,2,0:0:0:0:
366,15,94247,1,0,0:0:0:0:
378,35,94326,2,0,P|366:69|357:105,1,52.2500015945435,10|0,0:0|0:0,0:0:0:0:
252,131,94484,2,0,P|264:165|273:201,1,52.2500015945435,2|2,0:0|0:0,0:0:0:0:
236,364,94642,5,4,0:0:0:0:
208,339,94721,1,0,0:0:0:0:
168,330,94800,1,2,0:0:0:0:
125,338,94879,1,0,0:0:0:0:
78,319,94958,5,8,0:0:0:0:
103,327,95037,1,0,0:0:0:0:
123,323,95115,1,8,0:0:0:0:
147,312,95194,1,0,0:0:0:0:
161,297,95273,5,2,0:0:0:0:
140,255,95352,1,2,0:0:0:0:
138,209,95431,1,2,0:0:0:0:
161,173,95510,1,2,0:0:0:0:
203,151,95589,1,10,0:0:0:0:
254,149,95668,1,2,0:0:0:0:
310,170,95747,1,2,0:0:0:0:
336,217,95826,1,2,0:0:0:0:
383,237,95905,1,6,0:0:0:0:
436,235,95984,1,2,0:0:0:0:
483,212,96063,1,2,0:0:0:0:
507,160,96142,1,2,0:0:0:0:
501,103,96221,1,10,0:0:0:0:
462,59,96300,1,0,0:0:0:0:
415,40,96379,2,0,L|351:59,1,52.2500015945435,2|2,0:0|0:0,0:0:0:0:
251,8,96537,5,6,0:0:0:0:
222,48,96615,1,0,0:0:0:0:
210,92,96694,1,10,0:0:0:0:
216,139,96773,1,0,0:0:0:0:
237,182,96852,2,0,L|294:171,1,52.2500015945435
495,326,97010,6,0,P|416:275|339:294,1,156.750004783631,2|0,0:0|0:0,0:0:0:0:
326,299,97326,1,4,0:0:0:0:
492,204,97484,1,2,0:0:0:0:
316,97,97642,1,2,0:0:0:0:
373,207,97800,5,6,0:0:0:0:
381,190,98115,1,0,0:0:0:0:
378,171,98431,1,0,0:0:0:0:
362,160,98747,1,0,0:0:0:0:
343,161,99063,1,0,0:0:0:0:
326,169,99379,1,0,0:0:0:0:
314,183,99694,1,0,0:0:0:0:
316,201,100010,1,8,0:0:0:0:
261,372,100326,6,0,P|182:336|96:354,1,170.999994781494,6|8,0:0|0:0,0:0:0:0:
0,384,100800,2,0,L|37:202,1,170.999994781494,2|2,0:0|0:0,0:0:0:0:
86,106,101273,2,0,P|41:120|1:129,1,85.4999973907472,8|0,0:0|0:0,0:0:0:0:
146,266,101589,2,0,P|213:236|321:237,1,170.999994781494,4|8,0:0|0:0,0:0:0:0:
402,191,102063,2,0,P|413:236|424:279,1,85.4999973907472
509,223,102379,1,2,0:0:0:0:
357,107,102537,2,0,P|401:137|495:137,1,128.249996086121,8|0,0:0|0:0,0:0:0:0:
436,58,102852,6,0,P|351:72|231:94,1,170.999994781494,4|8,0:0|0:0,0:0:0:0:
139,25,103326,2,0,P|126:70|114:110,1,85.4999973907472,2|0,0:0|0:0,0:0:0:0:
173,259,103642,1,0,0:0:0:0:
39,143,103800,1,8,0:0:0:0:
215,162,103958,6,0,P|256:173|301:182,1,85.4999973907472
104,376,104273,2,0,P|93:334|78:291,1,85.4999973907472,2|8,0:0|0:0,0:0:0:0:
280,288,104589,6,0,B|376:268|360:312|456:296,1,170.999994781494,4|0,0:0|0:0,0:0:0:0:
308,204,105063,1,8,0:0:0:0:
426,135,105221,1,2,0:0:0:0:
426,135,105300,1,2,0:0:0:0:
426,135,105379,2,0,P|414:172|403:222,1,85.4999973907472,6|2,0:0|0:0,0:0:0:0:
191,342,105694,1,8,0:0:0:0:
346,381,105852,2,0,P|280:337|160:361,1,170.999994781494,2|2,0:0|0:0,0:0:0:0:
46,215,106326,1,10,0:0:0:0:
17,314,106484,6,0,P|65:300|110:289,1,85.4999973907472,2|6,0:0|0:0,0:0:0:0:
212,151,106800,2,0,P|200:197|187:247,1,85.4999973907472,0|8,0:0|0:0,0:0:0:0:
352,347,107115,6,0,P|427:346|501:283,1,170.999994781494,2|2,0:0|0:0,0:0:0:0:
327,219,107589,1,8,0:0:0:0:
464,67,107747,1,0,0:0:0:0:
464,67,107826,1,0,0:0:0:0:
464,67,107905,2,0,P|447:134|422:240,1,170.999994781494,0|8,0:0|0:0,0:0:0:0:
277,138,108379,1,0,0:0:0:0:
324,312,108537,2,0,P|283:297|233:287,1,85.4999973907472
50,154,108852,1,8,0:0:0:0:
0,241,109010,6,0,P|80:247|152:175,1,170.999994781494,0|2,0:0|0:0,0:0:0:0:
156,156,109405,1,0,0:0:0:0:
156,156,109484,2,0,P|145:112|134:62,1,85.4999973907472,8|2,0:0|0:0,0:0:0:0:
289,6,109800,1,0,0:0:0:0:
238,171,109958,1,0,0:0:0:0:
416,132,110115,2,0,P|375:97|276:116,1,128.249996086121,10|0,0:0|0:0,0:0:0:0:
338,179,110431,6,0,P|422:163|511:151,1,170.999994781494,4|8,0:0|0:0,0:0:0:0:
401,327,110905,2,0,P|353:288|251:304,1,170.999994781494
161,246,111379,2,0,P|152:286|144:341,1,85.4999973907472,8|0,0:0|0:0,0:0:0:0:
13,165,111694,6,0,P|82:176|178:111,1,170.999994781494,0|8,0:0|0:0,0:0:0:0:
281,52,112168,2,0,P|268:98|257:140,1,85.4999973907472,0|4,0:0|0:0,0:0:0:0:
343,251,112484,1,0,0:0:0:0:
343,251,112642,2,0,P|353:209|365:168,1,85.4999973907472,8|0,0:0|0:0,0:0:0:0:
512,44,112958,6,0,B|470:85|396:88|396:88|358:51,1,170.999994781494,4|8,0:0|0:0,0:0:0:0:
172,2,113431,2,0,P|194:83|210:184,1,170.999994781494
139,329,113905,1,8,0:0:0:0:
45,208,114063,2,0,P|91:219|129:233,1,85.4999973907472,0|6,0:0|0:0,0:0:0:0:
288,375,114379,1,2,0:0:0:0:
139,329,114537,1,8,0:0:0:0:
381,215,114694,6,0,P|323:271|223:270,1,170.999994781494
60,197,115168,1,8,0:0:0:0:
130,364,115326,1,8,0:0:0:0:
130,364,115405,1,8,0:0:0:0:
130,364,115484,2,0,P|138:315|156:269,1,85.4999973907472,4|0,0:0|0:0,0:0:0:0:
168,141,115800,1,8,0:0:0:0:
2,115,115958,2,0,P|59:162|157:153,1,170.999994781494
311,82,116431,1,8,0:0:0:0:
236,7,116589,6,0,P|227:50|216:96,1,85.4999973907472,0|4,0:0|0:0,0:0:0:0:
357,236,116905,1,0,0:0:0:0:
262,163,117063,1,8,0:0:0:0:
463,33,117221,2,0,P|394:81|310:81,1,170.999994781494,0|2,0:0|0:0,0:0:0:0:
436,166,117694,1,8,0:0:0:0:
319,296,117852,5,0,0:0:0:0:
319,296,117931,1,0,0:0:0:0:
319,296,118010,2,0,P|328:246|343:201,1,85.4999973907472,4|0,0:0|0:0,0:0:0:0:
209,6,118326,2,0,P|200:56|185:101,1,85.4999973907472,8|0,0:0|0:0,0:0:0:0:
92,278,118642,1,0,0:0:0:0:
29,113,118800,1,0,0:0:0:0:
221,172,118958,1,8,0:0:0:0:
30,369,119115,6,0,P|76:330|188:333,2,170.999994781494,8|8|8,0:0|0:0|0:0,0:0:0:0:
263,283,120063,5,2,0:0:0:0:
337,360,120221,1,8,0:0:0:0:
436,328,120379,1,0,0:0:0:0:
436,328,120458,1,0,0:0:0:0:
436,328,120537,2,0,P|451:246|478:158,1,170.999994781494,6|8,0:0|0:0,0:0:0:0:
474,30,121010,2,0,P|415:75|318:58,1,170.999994781494,2|2,0:0|0:0,0:0:0:0:
212,14,121484,1,8,0:0:0:0:
136,117,121642,5,0,0:0:0:0:
136,117,121721,1,0,0:0:0:0:
136,117,121800,1,4,0:0:0:0:
264,191,121958,2,0,P|255:142|241:99,1,85.4999973907472,0|8,0:0|0:0,0:0:0:0:
48,61,122273,2,0,P|44:137|118:202,1,170.999994781494,4|2,0:0|0:0,0:0:0:0:
219,277,122747,1,8,0:0:0:0:
56,330,122905,1,2,0:0:0:0:
243,383,123063,6,0,B|289:348|341:341|341:341|407:374,1,170.999994781494,4|8,0:0|0:0,0:0:0:0:
465,178,123537,1,0,0:0:0:0:
261,207,123694,2,0,P|314:250|418:248,1,170.999994781494,2|8,0:0|0:0,0:0:0:0:
495,103,124168,1,0,0:0:0:0:
322,11,124326,2,0,P|346:97|363:176,1,170.999994781494,2|8,0:0|0:0,0:0:0:0:
173,287,124800,5,2,0:0:0:0:
173,287,124879,1,2,0:0:0:0:
173,287,124958,1,2,0:0:0:0:
261,120,125115,1,0,0:0:0:0:
81,198,125273,1,8,0:0:0:0:
272,235,125431,1,2,0:0:0:0:
127,98,125589,1,4,0:0:0:0:
127,98,125905,6,0,P|86:108|37:119,1,85.4999973907472,8|2,0:0|0:0,0:0:0:0:
43,117,126142,1,0,0:0:0:0:
43,117,126221,1,0,0:0:0:0:
161,201,126379,1,2,0:0:0:0:
202,43,126537,1,8,0:0:0:0:
161,201,126694,6,0,P|149:266|209:352,1,170.999994781494,4|0,0:0|0:0,0:0:0:0:
359,281,127168,1,8,2:0:0:0:
338,254,127247,1,0,0:0:0:0:
310,243,127326,1,8,2:0:0:0:
277,244,127405,1,8,0:0:0:0:
245,255,127484,1,8,0:0:0:0:
93,76,127642,1,0,0:0:0:0:
15,207,127800,6,0,L|60:198,1,42.7499986953736,8|8,0:0|0:0,0:0:0:0:
211,68,127958,2,0,L|197:115,1,42.7499986953736,8|0,0:0|0:0,0:0:0:0:
141,268,128115,1,4,0:0:0:0:
141,268,128431,6,0,P|181:258|236:247,1,85.4999973907472,8|2,0:0|0:0,0:0:0:0:
448,316,128747,1,4,0:0:0:0:
254,160,128905,1,2,0:0:0:0:
316,365,129063,1,8,0:0:0:0:
509,170,129221,6,0,P|455:216|374:216,1,142.5,8|0,0:0|0:0,0:0:0:0:
311,202,129537,2,0,P|341:240|344:292,1,95,8|0,0:0|0:0,0:0:0:0:
200,371,129852,2,0,P|170:333|167:281,1,95,8|0,0:0|0:0,0:0:0:0:
277,21,130168,6,0,P|226:76|147:69,1,142.5,8|0,0:0|0:0,0:0:0:0:
139,57,130484,2,0,L|78:73,1,47.5,2|2,3:0|3:0,0:0:0:0:
2,224,130642,5,2,3:0:0:0:
47,237,130721,1,2,3:0:0:0:
73,198,130800,1,2,3:0:0:0:
44,161,130879,1,2,3:0:0:0:
0,177,130958,1,2,3:0:0:0:
200,288,131115,5,2,3:0:0:0:
204,322,131194,1,2,3:0:0:0:
238,328,131273,1,2,3:0:0:0:
255,298,131352,1,2,3:0:0:0:
231,272,131431,1,0,3:0:0:0:
139,57,131589,6,0,P|196:97|265:89,1,142.5,8|8,1:0|1:0,0:0:0:0:
340,3,131905,6,0,P|319:74|292:216,1,209.000006378174,6|8,0:0|0:0,0:0:0:0:
499,384,132379,2,0,P|458:351|384:351,1,104.500003189087,2|0,0:0|0:0,0:0:0:0:
265,89,132694,5,2,0:0:0:0:
407,253,132852,1,8,0:0:0:0:
505,120,133010,6,0,P|428:138|356:168,1,156.750004783631
344,179,133326,1,2,0:0:0:0:
182,42,133484,1,8,0:0:0:0:
229,247,133642,6,0,P|150:301|34:281,1,209.000006378174,2|0,0:0|0:0,0:0:0:0:
243,133,134115,1,8,0:0:0:0:
95,95,134273,1,0,0:0:0:0:
95,95,134352,1,0,0:0:0:0:
95,95,134431,2,0,P|108:150|119:198,1,104.500003189087,4|0,0:0|0:0,0:0:0:0:
243,133,134747,1,8,0:0:0:0:
345,349,134905,6,0,P|422:360|492:319,1,156.750004783631
488,322,135221,1,2,0:0:0:0:
294,226,135379,1,8,0:0:0:0:
448,65,135537,6,0,P|423:164|404:269,1,209.000006378174,2|0,0:0|0:0,0:0:0:0:
205,371,136010,5,8,0:0:0:0:
183,265,136168,1,0,0:0:0:0:
163,161,136326,1,2,0:0:0:0:
205,371,136484,6,0,P|145:371|79:330,1,132.999995941162,8|0,0:0|0:0,0:0:0:0:
83,334,136958,6,0,B|189:334|160:262|275:270,1,209.000006378174,6|8,0:0|0:0,0:0:0:0:
406,328,137431,1,0,0:0:0:0:
406,328,137510,1,0,0:0:0:0:
406,328,137589,1,4,0:0:0:0:
283,160,137747,1,2,0:0:0:0:
244,369,137905,1,8,0:0:0:0:
506,231,138063,6,0,P|464:204|407:204,1,104.500003189087,0|4,0:0|0:0,0:0:0:0:
252,55,138379,1,2,0:0:0:0:
304,248,138537,1,8,0:0:0:0:
94,180,138694,6,0,P|49:237|69:329,1,156.750004783631,2|0,0:0|0:0,0:0:0:0:
59,316,139009,1,0,0:0:0:0:
240,279,139168,2,0,P|188:271|137:258,1,104.500003189087,12|0,0:0|0:0,0:0:0:0:
6,99,139484,6,0,P|105:99|193:36,1,209.000006378174,4|8,0:0|0:0,0:0:0:0:
351,167,139958,1,2,0:0:0:0:
306,0,140115,2,0,P|293:50|279:105,1,104.500003189087,4|2,0:0|0:0,0:0:0:0:
448,279,140431,1,8,0:0:0:0:
492,117,140589,6,0,P|427:160|349:166,1,156.750004783631,8|0,0:0|0:0,0:0:0:0:
312,241,140905,2,0,P|325:299|334:345,1,104.500003189087,8|0,0:0|0:0,0:0:0:0:
146,384,141221,2,0,P|135:332|124:281,1,104.500003189087,8|0,0:0|0:0,0:0:0:0:
168,40,141537,6,0,P|165:65|156:90,1,52.2500015945435,2|2,0:0|0:0,0:0:0:0:
208,219,141694,2,0,P|210:193|219:168,1,52.2500015945435,8|8,0:0|0:0,0:0:0:0:
65,68,141852,5,8,0:0:0:0:
65,68,141931,1,8,0:0:0:0:
65,68,142010,2,0,P|164:72|265:2,1,209.000006378174,4|8,0:0|0:0,0:0:0:0:
505,177,142484,2,0,P|454:156|390:156,1,104.500003189087,2|4,0:0|0:0,0:0:0:0:
283,223,142800,1,0,0:0:0:0:
356,14,142958,1,8,0:0:0:0:
377,259,143115,6,0,P|313:313|228:302,1,156.750004783631
219,298,143431,1,2,0:0:0:0:
359,147,143589,1,8,0:0:0:0:
192,22,143747,2,0,P|213:111|229:186,1,156.750004783631,2|0,0:0|0:0,0:0:0:0:
232,199,144063,1,0,0:0:0:0:
159,384,144221,2,0,P|112:365|50:374,1,104.500003189087,8|2,0:0|0:0,0:0:0:0:
0,166,144537,6,0,P|97:178|189:115,1,209.000006378174,4|8,0:0|0:0,0:0:0:0:
334,24,145010,2,0,P|323:75|311:136,1,104.500003189087,2|4,0:0|0:0,0:0:0:0:
438,292,145326,1,2,0:0:0:0:
253,202,145484,1,8,0:0:0:0:
512,179,145642,6,0,P|456:236|331:236,1,209.000006378174,2|0,0:0|0:0,0:0:0:0:
171,347,146115,1,10,0:0:0:0:
190,249,146273,1,2,0:0:0:0:
209,151,146431,1,4,0:0:0:0:
34,39,146589,6,0,B|57:53|57:53|101:44,1,52.2500015945435
170,2,146747,2,0,P|117:56|131:138,1,156.750004783631,8|2,0:0|0:0,0:0:0:0:
58,198,147063,6,0,P|170:176|266:161,1,209.000006378174,4|8,0:0|0:0,0:0:0:0:
506,207,147537,1,0,0:0:0:0:
506,207,147615,1,0,0:0:0:0:
506,207,147694,1,4,0:0:0:0:
334,44,147852,1,2,0:0:0:0:
368,270,148010,1,8,0:0:0:0:
487,82,148168,1,0,0:0:0:0:
263,161,148326,1,4,0:0:0:0:
263,161,148642,6,0,P|209:147|157:137,1,104.500003189087,8|2,0:0|0:0,0:0:0:0:
161,137,148879,1,2,0:0:0:0:
161,137,148958,1,2,0:0:0:0:
265,48,149115,1,2,0:0:0:0:
344,214,149273,2,0,P|266:209|200:248,1,156.750004783631,8|0,0:0|0:0,0:0:0:0:
94,324,149589,6,0,P|100:271|109:215,1,104.500003189087,4|2,0:0|0:0,0:0:0:0:
28,67,149905,1,8,0:0:0:0:
196,215,150063,1,2,0:0:0:0:
356,28,150221,6,0,B|253:15|271:115|137:90,1,209.000006378174,4|8,0:0|0:0,0:0:0:0:
378,209,150694,1,2,0:0:0:0:
138,320,150852,5,0,0:0:0:0:
264,117,151010,1,8,0:0:0:0:
264,117,151089,1,8,0:0:0:0:
264,117,151168,1,8,0:0:0:0:
300,349,151326,5,0,0:0:0:0:
139,180,151484,1,8,0:0:0:0:
139,180,151563,1,8,0:0:0:0:
139,180,151642,1,8,0:0:0:0:
378,209,151800,5,0,0:0:0:0:
143,364,151958,1,8,0:0:0:0:
143,364,152037,1,8,0:0:0:0:
143,364,152115,2,0,P|70:333|48:256,1,156.750004783631,4|0,0:0|0:0,0:0:0:0:
47,263,152431,1,8,0:0:0:0:
235,83,152589,2,0,P|220:137|205:199,1,104.500003189087,2|0,0:0|0:0,0:0:0:0:
304,363,152905,1,2,0:0:0:0:
146,259,153063,1,8,0:0:0:0:
298,155,153221,6,0,B|340:192|405:187|405:187|451:158,1,156.750004783631
451,158,153537,2,0,P|438:107|438:53,1,104.500003189087,2|8,0:0|0:0,0:0:0:0:
502,319,153852,2,0,P|419:274|307:288,1,209.000006378174,0|2,0:0|0:0,0:0:0:0:
174,383,154326,1,8,0:0:0:0:
220,202,154484,1,0,0:0:0:0:
23,259,154642,6,0,P|-14:192|8:103,1,156.750004783631,4|0,0:0|0:0,0:0:0:0:
0,116,154958,1,8,0:0:0:0:
151,10,155115,2,0,P|137:63|122:122,1,104.500003189087,2|4,0:0|0:0,0:0:0:0:
244,261,155431,1,0,0:0:0:0:
124,111,155589,1,8,0:0:0:0:
408,138,155747,6,0,B|362:103|292:112|292:112|270:153|210:165,1,209.000006378174,4|2,0:0|0:0,0:0:0:0:
5,291,156221,5,8,0:0:0:0:
86,222,156379,1,2,0:0:0:0:
125,322,156537,1,4,0:0:0:0:
256,383,156694,6,0,P|239:319|276:252,1,132.999995941162,2|2,0:0|0:0,0:0:0:0:
217,188,157168,6,0,P|294:244|404:215,1,209.000006378174,4|8,0:0|0:0,0:0:0:0:
492,82,157642,2,0,P|441:99|382:118,1,104.500003189087,0|4,0:0|0:0,0:0:0:0:
218,16,157958,1,2,0:0:0:0:
306,225,158115,1,8,0:0:0:0:
56,127,158273,6,0,P|5:184|4:261,1,156.750004783631
28,300,158589,2,0,P|75:288|143:272,1,104.500003189087,0|8,0:0|0:0,0:0:0:0:
388,368,158905,2,0,B|292:375|331:328|226:341,1,156.750004783631,2|0,0:0|0:0,0:0:0:0:
221,352,159221,1,0,0:0:0:0:
367,252,159379,1,8,0:0:0:0:
218,144,159537,5,0,0:0:0:0:
218,144,159615,1,0,0:0:0:0:
218,144,159694,2,0,P|233:194|248:247,1,104.500003189087,4|0,0:0|0:0,0:0:0:0:
417,104,160010,1,8,0:0:0:0:
471,196,160168,2,0,P|408:153|309:166,1,156.750004783631,2|0,0:0|0:0,0:0:0:0:
330,155,160484,1,0,0:0:0:0:
151,71,160642,1,0,0:0:0:0:
207,0,160800,6,0,B|248:39|248:39|221:158,1,156.750004783631,12|0,0:0|0:0,0:0:0:0:
220,166,161115,2,0,P|167:178|105:197,1,104.500003189087,8|0,0:0|0:0,0:0:0:0:
335,289,161431,2,0,P|388:301|450:320,1,104.500003189087,8|0,0:0|0:0,0:0:0:0:
210,351,161747,6,0,P|183:357|152:366,1,52.2500015945435,2|2,0:0|0:0,0:0:0:0:
388,220,161905,2,0,P|414:226|445:235,1,52.2500015945435,8|8,0:0|0:0,0:0:0:0:
163,101,162063,1,8,0:0:0:0:
323,1,162221,6,0,P|305:77|289:156,1,156.750004783631,4|0,0:0|0:0,0:0:0:0:
289,154,162537,1,8,0:0:0:0:
457,384,162694,6,0,B|507:370|507:370|499:253|392:265,1,209.000006378174,2|2,0:0|0:0,0:0:0:0:
244,328,163168,1,8,0:0:0:0:
289,154,163326,2,0,P|308:210|319:267,1,104.500003189087,0|4,0:0|0:0,0:0:0:0:
132,384,163642,1,0,0:0:0:0:
205,194,163800,1,8,0:0:0:0:
5,197,163958,6,0,P|38:271|161:288,1,209.000006378174,0|2,0:0|0:0,0:0:0:0:
318,173,164431,1,8,0:0:0:0:
293,381,164589,1,0,0:0:0:0:
293,381,164668,1,0,0:0:0:0:
293,381,164747,2,0,P|282:326|260:266,1,104.500003189087,4|0,0:0|0:0,0:0:0:0:
433,108,165063,1,8,0:0:0:0:
507,201,165221,6,0,B|457:197|415:149|415:149|309:175,1,209.000006378174,0|2,0:0|0:0,0:0:0:0:
122,212,165694,1,8,0:0:0:0:
181,7,165852,6,0,P|217:62|217:153,1,156.750004783631,2|0,0:0|0:0,0:0:0:0:
217,150,166168,1,0,0:0:0:0:
122,374,166326,1,8,0:0:0:0:
378,317,166484,6,0,B|281:313|321:270|216:272,1,156.750004783631
219,283,166800,2,0,P|229:313|236:346,1,52.2500015945435,2|0,0:0|0:0,0:0:0:0:
122,374,166958,2,0,P|115:348|107:323,1,52.2500015945435,8|0,0:0|0:0,0:0:0:0:
182,132,167115,1,2,0:0:0:0:
5,181,167273,5,6,0:0:0:0:
32,212,167352,1,0,0:0:0:0:
67,226,167431,1,2,0:0:0:0:
102,226,167510,1,0,0:0:0:0:
142,211,167589,1,10,0:0:0:0:
275,41,167747,6,0,L|263:91,1,52.2500015945435,2|2,0:0|0:0,0:0:0:0:
295,279,167905,5,6,0:0:0:0:
206,163,168063,1,2,0:0:0:0:
206,163,168142,1,0,0:0:0:0:
206,163,168221,2,0,P|262:174|316:184,1,104.500003189087,10|2,0:0|0:0,0:0:0:0:
491,84,168537,5,4,0:0:0:0:
465,59,168615,1,0,0:0:0:0:
420,56,168694,1,2,0:0:0:0:
394,89,168773,1,0,0:0:0:0:
399,127,168852,1,8,0:0:0:0:
468,267,169010,6,0,P|473:241|481:216,1,52.2500015945435,2|2,0:0|0:0,0:0:0:0:
399,127,169168,5,4,0:0:0:0:
370,153,169247,1,0,0:0:0:0:
327,158,169326,1,2,0:0:0:0:
297,133,169405,1,0,0:0:0:0:
291,93,169484,1,8,0:0:0:0:
284,61,169563,1,0,0:0:0:0:
260,40,169642,1,2,0:0:0:0:
238,38,169721,1,0,0:0:0:0:
229,43,169800,5,2,0:0:0:0:
260,77,169879,1,2,0:0:0:0:
306,74,169958,1,2,0:0:0:0:
341,52,170037,1,2,0:0:0:0:
387,42,170115,1,10,0:0:0:0:
440,51,170194,1,2,0:0:0:0:
472,84,170273,1,2,0:0:0:0:
486,133,170352,1,2,0:0:0:0:
472,185,170431,1,2,0:0:0:0:
434,211,170510,1,2,0:0:0:0:
386,217,170589,1,2,0:0:0:0:
354,257,170668,1,2,0:0:0:0:
343,300,170747,2,0,L|357:362,1,52.2500015945435,8|0,0:0|0:0,0:0:0:0:
504,328,170905,5,2,0:0:0:0:
476,296,170984,1,2,0:0:0:0:
432,298,171063,1,4,0:0:0:0:
201,383,171221,6,0,P|242:318|232:242,1,156.750004783631
297,180,171537,2,0,P|227:198|117:222,1,156.750004783631
65,178,171852,2,0,L|77:123,1,52.2500015945435,2|0,0:0|0:0,0:0:0:0:
22,0,172010,2,0,L|10:51,1,52.2500015945435,8|0,0:0|0:0,0:0:0:0:
144,216,172168,1,2,0:0:0:0:
256,40,172326,5,6,0:0:0:0:
256,192,172405,12,12,174852,1:0:0:0:
335,164,176431,6,0,P|370:182|411:182,1,76,2|0,0:0|0:0,0:0:0:0:
452,0,176747,6,0,P|384:35|386:103,1,152,8|4,0:0|0:0,0:0:0:0:
385,102,177221,1,4,0:0:0:0:
271,49,177379,6,0,P|300:31|348:32,1,76,2|0,0:0|0:0,0:0:0:0:
255,201,177694,2,0,P|232:170|226:133,1,76,2|0,0:0|0:0,0:0:0:0:
119,26,178010,6,0,P|99:87|19:107,1,152,8|0,0:0|0:0,0:0:0:0:
20,107,178484,1,2,0:0:0:0:
130,189,178642,6,0,P|131:151|115:112,1,76,4|2,0:0|0:0,0:0:0:0:
256,8,178958,2,0,P|254:45|267:80,1,76,2|0,0:0|0:0,0:0:0:0:
386,234,179273,6,0,P|327:188|254:200,1,152,8|0,0:0|0:0,0:0:0:0:
359,108,179747,1,0,0:0:0:0:
504,165,179905,6,0,P|459:223|385:233,1,152
329,172,180379,1,0,0:0:0:0:
428,318,180537,6,0,P|370:271|297:279,1,152,8|0,0:0|0:0,0:0:0:0:
197,384,181010,2,0,P|215:350|216:313,1,76
135,285,181326,1,0,0:0:0:0:
135,285,181484,2,0,P|116:318|115:355,1,76
27,187,181800,6,0,P|92:194|182:143,1,152,8|4,0:0|0:0,0:0:0:0:
256,224,182273,1,4,0:0:0:0:
238,15,182431,6,0,P|242:89|292:144,1,152,2|0,0:0|0:0,0:0:0:0:
392,88,182905,1,0,0:0:0:0:
207,111,183063,6,0,P|141:76|68:92,1,152,8|0,0:0|0:0,0:0:0:0:
212,250,183537,2,0,P|234:179|206:110,1,152,2|2,0:0|0:0,0:0:0:0:
11,152,184010,2,0,P|46:174|84:172,1,76,2|0,0:0|0:0,0:0:0:0:
294,14,184326,6,0,P|224:40|217:136,1,152,8|0,0:0|0:0,0:0:0:0:
317,231,184800,1,0,0:0:0:0:
438,148,184958,6,0,P|370:148|292:103,1,152,0|4,0:0|0:0,0:0:0:0:
297,108,185431,1,0,0:0:0:0:
328,244,185589,6,0,P|347:208|354:169,1,76,8|0,0:0|0:0,0:0:0:0:
200,53,185905,1,0,0:0:0:0:
128,104,186063,2,0,P|128:169|191:241,1,152,2|0,0:0|0:0,0:0:0:0:
164,325,186537,2,0,P|127:341|84:340,1,76
38,265,186852,6,0,P|99:231|193:241,1,152,8|4,0:0|0:0,0:0:0:0:
268,338,187326,1,4,0:0:0:0:
100,205,187484,6,0,P|59:147|59:60,1,152,2|2,0:0|0:0,0:0:0:0:
124,6,187958,1,0,0:0:0:0:
213,26,188115,2,0,P|254:84|254:171,1,152,8|4,0:0|0:0,0:0:0:0:
196,240,188589,2,0,P|237:251|274:264,1,76,2|4,0:0|0:0,0:0:0:0:
390,122,188905,2,0,P|330:167|248:158,1,152,2|0,0:0|0:0,0:0:0:0:
215,339,189379,2,0,P|275:294|357:303,1,152,8|0,0:0|0:0,0:0:0:0:
416,357,189852,1,0,0:0:0:0:
499,265,190010,6,0,L|465:111,1,152,4|0,0:0|0:0,0:0:0:0:
509,16,190484,2,0,P|475:32|434:32,1,76,2|8,0:0|0:0,0:0:0:0:
357,178,190800,2,0,L|373:101,1,76,0|2,0:0|0:0,0:0:0:0:
265,46,191115,6,0,L|234:194,1,152,2|2,0:0|0:0,0:0:0:0:
287,347,191589,1,2,0:0:0:0:
287,347,191905,5,12,0:0:0:0:
383,315,192063,1,2,0:0:0:0:
306,254,192221,1,8,0:0:0:0:
287,347,192379,1,8,0:0:0:0:
110,368,192537,6,0,P|46:309|52:199,1,190,12|10,1:0|2:0,0:0:0:0:
224,101,193010,2,0,P|192:135|132:139,1,95,8|0,2:1|0:0,0:0:0:0:
45,88,193326,1,2,0:0:0:0:
128,271,193484,6,0,P|212:240|318:222,1,190,8|2,2:0|0:0,0:0:0:0:
482,281,193958,1,2,0:0:0:0:
444,118,194115,1,8,0:0:0:0:
391,307,194273,1,2,0:0:0:0:
391,307,194352,1,0,0:0:0:0:
391,307,194431,1,4,0:0:0:0:
510,190,194589,1,0,0:0:0:0:
347,148,194747,2,0,P|323:105|327:56,1,95,8|0,0:0|0:0,0:0:0:0:
391,307,195063,6,0,P|348:365|217:343,1,190,6|8,0:0|0:0,0:0:0:0:
82,236,195537,2,0,P|97:284|109:338,1,95,2|0,0:0|0:0,0:0:0:0:
184,264,195852,1,2,0:0:0:0:
0,184,196010,6,0,P|86:191|159:125,1,190,8|4,0:0|0:0,0:0:0:0:
275,29,196484,2,0,P|252:69|252:124,1,95,2|8,0:0|0:0,0:0:0:0:
414,154,196800,2,0,P|437:114|437:59,1,95,2|4,0:0|0:0,0:0:0:0:
362,7,197115,5,2,0:0:0:0:
341,92,197273,1,8,0:0:0:0:
320,177,197431,1,8,0:0:0:0:
483,342,197589,6,0,B|405:342|437:291|355:291,1,142.5,4|0,0:0|0:0,0:0:0:0:
355,291,197905,1,8,0:0:0:0:
248,384,198063,2,0,B|294:347|276:278|222:269|222:269|188:291,1,190,2|2,0:0|0:0,0:0:0:0:
11,202,198537,6,0,P|106:210|188:149,1,190,8|2,0:0|0:0,0:0:0:0:
340,66,199010,1,2,0:0:0:0:
264,3,199168,2,0,P|253:47|245:100,1,95,8|2,0:0|0:0,0:0:0:0:
422,254,199484,5,4,0:0:0:0:
491,212,199642,1,2,0:0:0:0:
475,127,199800,1,8,0:0:0:0:
396,110,199958,1,2,0:0:0:0:
320,296,200115,6,0,P|411:281|484:339,1,190,6|8,0:0|0:0,0:0:0:0:
323,165,200589,2,0,P|254:220|154:204,1,190,2|2,0:0|0:0,0:0:0:0:
208,344,201063,2,0,P|217:297|230:251,1,95,8|8,0:2|0:1,0:0:0:0:
28,49,201379,5,8,0:1:0:0:
91,119,201537,1,8,0:1:0:0:
121,32,201694,1,8,0:0:0:0:
263,184,201852,5,8,0:1:0:0:
263,184,201931,1,0,0:0:0:0:
263,184,202010,2,0,B|291:205|291:205|325:200|355:190,1,95,0|2,0:0|0:0,0:0:0:0:
501,254,202326,1,8,0:0:0:0:
304,111,202484,1,2,0:0:0:0:
504,0,202642,6,0,P|495:99|399:130,1,190,4|10,0:0|0:0,0:0:0:0:
467,337,203115,2,0,P|501:279|492:230,1,95,2|0,0:0|0:0,0:0:0:0:
371,199,203431,1,2,0:0:0:0:
399,384,203589,6,0,P|338:337|226:348,1,190,8|4,0:0|0:0,0:0:0:0:
51,283,204063,1,2,0:0:0:0:
228,203,204221,1,8,0:0:0:0:
152,384,204379,1,2,0:0:0:0:
152,384,204458,1,0,0:0:0:0:
152,384,204537,2,0,P|137:336|137:292,1,95,4|2,0:0|0:0,0:0:0:0:
228,203,204852,1,8,0:0:0:0:
58,63,205010,1,0,0:0:0:0:
25,173,205168,6,0,P|76:158|119:148,1,95,4|0,0:0|0:0,0:0:0:0:
302,250,205484,1,8,0:0:0:0:
265,23,205642,2,0,P|220:71|220:190,1,190,2|0,0:0|0:0,0:0:0:0:
404,290,206115,2,0,P|449:277|496:268,1,95,8|2,0:0|0:0,0:0:0:0:
390,182,206431,5,4,0:0:0:0:
315,370,206589,1,0,0:0:0:0:
189,272,206747,2,0,B|94:251|109:309|-3:285,1,190,8|4,0:0|0:0,0:0:0:0:
32,100,207221,1,2,0:0:0:0:
32,100,207379,2,0,P|42:146|53:199,1,95,8|8,0:0|0:0,0:0:0:0:
111,367,207694,6,0,P|186:318|288:334,1,190,4|10,0:0|0:0,0:0:0:0:
479,202,208168,2,0,P|432:217|374:234,1,95,4|0,0:0|0:0,0:0:0:0:
198,129,208484,1,2,2:0:0:0:
296,29,208642,6,0,B|322:58|330:107|330:107|302:157,1,142.5,8|0,2:0|0:0,0:0:0:0:
294,170,208958,5,4,2:0:0:0:
106,207,209115,1,2,0:0:0:0:
283,274,209273,1,8,0:0:0:0:
189,115,209431,1,2,0:0:0:0:
167,312,209589,5,4,0:0:0:0:
305,155,209747,1,2,0:0:0:0:
93,207,209905,1,8,0:0:0:0:
297,288,210063,1,2,0:0:0:0:
185,100,210221,5,4,0:0:0:0:
164,328,210379,1,2,0:0:0:0:
312,139,210537,1,8,0:0:0:0:
72,202,210694,1,4,0:0:0:0:
318,302,210852,5,2,0:0:0:0:
182,82,211010,1,8,0:0:0:0:
159,342,211168,1,4,0:0:0:0:
327,126,211326,1,2,0:0:0:0:
54,198,211484,5,8,0:0:0:0:
342,117,211642,1,2,0:0:0:0:
157,363,211800,1,8,0:0:0:0:
177,60,211958,1,2,0:0:0:0:
311,334,212115,6,0,L|260:324,1,47.5,8|0,0:0|0:0,0:0:0:0:
55,257,212273,1,8,1:0:0:0:
55,257,212352,1,8,1:0:0:0:
55,257,212431,2,0,L|106:247,1,47.5,8|8,1:0|1:0,0:0:0:0:
290,122,212589,2,0,L|278:171,1,47.5,8|8,1:0|1:0,0:0:0:0:
210,384,212747,6,0,P|145:340|70:344,1,156.750004783631,12|0,0:1|0:0,0:0:0:0:
69,344,213063,1,12,2:0:0:0:
278,168,213221,2,0,P|376:173|470:105,1,209.000006378174,0|2,2:0|0:0,0:0:0:0:
315,286,213694,1,12,0:0:0:0:
228,82,213852,1,0,0:0:0:0:
111,262,214010,6,0,P|96:319|86:364,1,104.500003189087,4|2,0:0|0:0,0:0:0:0:
86,363,214247,1,0,0:0:0:0:
86,363,214326,1,12,0:0:0:0:
194,325,214484,1,2,0:0:0:0:
26,160,214642,6,0,P|11:103|1:58,1,104.500003189087,6|2,0:0|0:0,0:0:0:0:
1,59,214879,1,0,0:0:0:0:
1,59,214958,1,12,0:0:0:0:
109,97,215116,1,0,0:0:0:0:
288,16,215273,6,0,P|338:29|391:42,1,104.500003189087,4|0,0:0|0:0,0:0:0:0:
389,41,215510,1,0,0:0:0:0:
389,41,215589,1,12,0:0:0:0:
243,135,215747,1,2,0:0:0:0:
453,300,215905,6,0,P|403:287|350:274,1,104.500003189087,4|2,0:0|0:0,0:0:0:0:
351,274,216142,1,0,0:0:0:0:
351,274,216221,1,12,0:0:0:0:
498,181,216379,1,2,0:0:0:0:
480,379,216537,6,0,P|386:327|285:347,1,209.000006378174,6|8,0:0|0:0,0:0:0:0:
135,243,217010,2,0,P|120:293|109:346,1,104.500003189087,2|6,0:0|0:0,0:0:0:0:
253,235,217326,1,2,0:0:0:0:
13,114,217484,2,0,P|82:124|144:92,1,142.5,8|0,0:0|0:0,0:0:0:0:
261,19,217800,6,0,P|258:45|251:75,1,52.2500015945435,4|0,0:0|0:0,0:0:0:0:
279,144,217958,2,0,P|282:118|289:88,1,52.2500015945435,2|0,0:0|0:0,0:0:0:0:
490,89,218115,6,0,P|493:115|500:145,1,52.2500015945435,12|0,0:0|0:0,0:0:0:0:
429,234,218273,2,0,P|426:208|419:178,1,52.2500015945435,0|2,0:0|0:0,0:0:0:0:
186,237,218431,6,0,P|203:256|222:280,1,52.2500015945435,4|0,0:0|0:0,0:0:0:0:
429,234,218589,2,0,P|403:229|373:220,1,52.2500015945435
231,380,218747,2,0,P|254:368|283:358,1,52.2500015945435,12|0,0:0|0:0,0:0:0:0:
305,148,218905,2,0,P|292:170|274:196,1,52.2500015945435,2|0,0:0|0:0,0:0:0:0:
377,327,219063,6,0,P|378:353|382:379,1,52.2500015945435,6|2,0:0|0:0,0:0:0:0:
219,276,219221,2,0,P|203:255|186:237,1,52.2500015945435,2|0,0:0|0:0,0:0:0:0:
378,221,219379,2,0,P|403:229|429:234,1,52.2500015945435,12|0,0:0|0:0,0:0:0:0:
279,360,219537,2,0,P|254:368|231:380,1,52.2500015945435,2|0,0:0|0:0,0:0:0:0:
48,280,219694,5,4,0:0:0:0:
276,192,219852,1,2,0:0:0:0:
48,133,220010,1,12,0:0:0:0:
194,315,220168,1,8,0:0:0:0:
187,101,220326,6,0,P|179:52|162:-7,1,104.500003189087,4|0,0:0|0:0,0:0:0:0:
276,192,220642,1,12,0:0:0:0:
512,98,220800,6,0,P|450:52|361:65,1,156.750004783631,2|0,0:0|0:0,0:0:0:0:
349,70,221115,6,0,P|343:101|336:131,1,52.2500015945435,2|0,0:0|0:0,0:0:0:0:
411,246,221273,2,0,P|417:215|424:185,1,52.2500015945435,12|0,0:0|0:0,0:0:0:0:
260,103,221431,1,2,0:0:0:0:
316,325,221589,5,4,0:0:0:0:
126,256,221747,2,0,P|173:248|219:233,1,95,8|0,1:0|0:0,0:0:0:0:
505,82,222063,6,0,P|435:89|373:56,1,142.5,8|0,0:0|0:0,0:0:0:0:
356,33,222379,1,8,1:0:0:0:
299,189,222537,1,8,1:0:0:0:
150,76,222694,1,8,1:0:0:0:
313,280,222852,6,0,B|397:289|375:243|472:256,1,156.750004783631,4|0,1:0|0:0,0:0:0:0:
464,255,223168,1,0,0:0:0:0:
391,66,223326,2,0,P|375:119|375:171,1,104.500003189087
159,384,223642,1,0,0:0:0:0:
402,374,223800,6,0,P|323:311|194:336,1,209.000006378174
37,246,224273,5,6,2:0:0:0:
16,202,224352,1,2,0:0:0:0:
28,156,224431,1,8,0:0:0:0:
68,130,224510,1,2,0:0:0:0:
117,129,224589,1,2,0:0:0:0:
161,153,224668,1,2,0:0:0:0:
185,187,224747,6,0,P|231:213|292:207,1,104.500003189087,4|0,0:0|0:0,0:0:0:0:
330,186,224984,1,2,0:0:0:0:
362,142,225063,2,0,P|367:91|349:42,1,104.500003189087,12|2,0:0|0:0,0:0:0:0:
510,372,225379,6,0,P|457:317|318:320,1,209.000006378174,6|12,0:0|0:0,0:0:0:0:
167,178,225852,1,2,0:0:0:0:
167,178,225931,1,0,0:0:0:0:
167,178,226010,1,4,0:0:0:0:
82,380,226168,1,0,0:0:0:0:
266,250,226326,1,12,0:0:0:0:
88,273,226484,6,0,L|147:293,1,52.2500015945435,2|0,0:0|0:0,0:0:0:0:
387,384,226642,6,0,P|442:298|419:199,1,209.000006378174,6|12,0:0|0:0,0:0:0:0:
262,1,227115,2,0,P|250:50|237:110,1,104.500003189087,2|4,0:0|0:0,0:0:0:0:
301,258,227431,1,0,0:0:0:0:
144,106,227589,1,12,0:0:0:0:
373,139,227747,6,0,P|347:145|322:153,1,52.2500015945435
34,264,227905,5,4,0:0:0:0:
24,309,227984,1,2,0:0:0:0:
45,353,228063,1,2,0:0:0:0:
92,367,228142,1,2,0:0:0:0:
138,344,228221,1,12,0:0:0:0:
144,296,228300,1,2,0:0:0:0:
178,262,228379,1,2,0:0:0:0:
224,253,228458,1,0,0:0:0:0:
261,282,228537,1,4,2:0:0:0:
275,325,228615,1,0,2:0:0:0:
301,353,228694,1,2,2:0:0:0:
344,366,228773,1,2,2:0:0:0:
383,355,228852,1,14,0:0:0:0:
414,330,228931,1,2,0:0:0:0:
413,298,229010,1,2,0:0:0:0:
393,273,229089,1,2,0:0:0:0:
358,271,229168,5,6,0:0:0:0:
498,198,229326,2,0,P|518:151|511:100,1,104.500003189087,2|12,0:0|0:0,0:0:0:0:
275,325,229642,2,0,P|191:266|89:281,1,209.000006378174,2|2,0:0|0:0,0:0:0:0:
265,116,230115,1,12,0:0:0:0:
74,82,230273,5,2,2:0:0:0:
74,82,230352,1,0,0:0:0:0:
74,82,230431,1,4,0:0:0:0:
212,218,230589,1,2,0:0:0:0:
181,43,230747,1,12,0:0:0:0:
85,187,230905,1,2,0:0:0:0:
265,116,231063,5,6,0:0:0:0:
307,263,231221,1,2,0:0:0:0:
512,200,231379,1,12,0:0:0:0:
470,347,231537,1,2,0:0:0:0:
307,263,231694,6,0,L|318:213,1,47.5,4|0,0:0|0:0,0:0:0:0:
359,53,231852,1,2,0:0:0:0:
362,38,231931,1,2,0:0:0:0:
366,19,232010,1,8,0:0:0:0:
459,174,232168,5,4,0:0:0:0:
465,187,232247,1,0,0:0:0:0:
473,205,232326,1,0,0:0:0:0:
262,122,232484,6,0,L|203:133,1,47.5,8|8,2:0|2:0,0:0:0:0:
45,52,232642,1,8,2:0:0:0:
73,90,232721,1,8,2:0:0:0:
118,75,232800,1,8,2:0:0:0:
118,28,232879,1,8,2:0:0:0:
73,14,232958,6,0,P|52:122|131:199,1,209.000006378174,4|8,1:0|0:0,0:0:0:0:
324,370,233431,2,0,P|256:332|180:341,1,156.750004783631,2|0,0:0|0:0,0:0:0:0:
170,347,233747,1,2,0:0:0:0:
354,245,233905,1,8,0:0:0:0:
214,130,234063,6,0,P|217:181|244:225,1,104.500003189087,0|4,0:0|0:0,0:0:0:0:
402,161,234379,1,0,0:0:0:0:
496,342,234537,1,8,0:0:0:0:
317,384,234694,6,0,B|328:288|368:335|380:235,1,156.750004783631,2|0,0:0|0:0,0:0:0:0:
379,244,235010,1,0,0:0:0:0:
512,54,235168,2,0,P|461:68|408:79,1,104.500003189087,8|2,0:0|0:0,0:0:0:0:
119,20,235484,6,0,P|180:34|223:131,1,156.750004783631,4|0,0:0|0:0,0:0:0:0:
224,111,235800,1,8,0:0:0:0:
47,227,235958,2,0,P|86:195|152:190,1,104.500003189087,4|0,0:0|0:0,0:0:0:0:
317,83,236273,5,2,0:0:0:0:
245,262,236431,1,8,0:0:0:0:
485,349,236589,2,0,P|473:246|373:194,1,209.000006378174,4|0,0:0|0:0,0:0:0:0:
217,349,237063,1,8,0:0:0:0:
245,262,237221,1,0,0:0:0:0:
194,184,237379,1,4,0:0:0:0:
125,364,237537,6,0,P|60:356|16:302,1,132.999995941162,2|2,0:0|0:0,0:0:0:0:
0,210,238010,6,0,P|77:207|139:161,1,156.750004783631,4|0,0:0|0:0,0:0:0:0:
139,161,238326,1,8,0:0:0:0:
59,21,238484,2,0,P|40:66|47:120,1,104.500003189087,2|0,0:0|0:0,0:0:0:0:
208,248,238800,1,2,0:0:0:0:
263,50,238958,1,8,0:0:0:0:
401,127,239115,6,0,P|353:146|301:152,1,104.500003189087,0|4,0:0|0:0,0:0:0:0:
491,339,239431,1,0,0:0:0:0:
325,273,239589,1,8,0:0:0:0:
485,89,239747,6,0,P|490:165|438:221,1,156.750004783631,2|0,0:0|0:0,0:0:0:0:
438,221,240063,1,0,0:0:0:0:
305,375,240221,2,0,P|314:320|325:269,1,104.500003189087,8|2,0:0|0:0,0:0:0:0:
263,50,240537,6,0,B|152:31|182:120|28:83,1,209.000006378174,4|8,0:0|0:0,0:0:0:0:
236,172,241010,1,0,0:0:0:0:
236,172,241089,1,0,0:0:0:0:
236,172,241168,1,4,0:0:0:0:
26,249,241326,1,2,0:0:0:0:
251,349,241484,1,8,0:0:0:0:
5,370,241642,6,0,P|64:325|152:325,1,156.750004783631,8|0,0:0|0:0,0:0:0:0:
288,253,241958,2,0,P|210:251|148:205,1,156.750004783631,8|0,0:0|0:0,0:0:0:0:
21,78,242273,6,0,P|40:147|56:230,1,156.750004783631,8|0,0:0|0:0,0:0:0:0:
56,230,242589,1,2,0:0:0:0:
243,145,242747,1,8,0:0:0:0:
115,15,242905,1,8,0:0:0:0:
243,145,243063,6,0,B|316:149|305:98|405:117,1,156.750004783631,4|0,0:0|0:0,0:0:0:0:
393,115,243379,1,8,0:0:0:0:
505,339,243537,2,0,B|445:347|394:369|394:369|328:327|386:251,1,209.000006378174,2|2,0:0|0:0,0:0:0:0:
472,198,244010,1,8,0:0:0:0:
298,77,244168,6,0,P|310:119|327:189,1,104.500003189087,2|4,0:0|0:0,0:0:0:0:
180,329,244484,1,0,0:0:0:0:
216,180,244642,1,8,0:0:0:0:
281,353,244800,6,0,B|177:322|186:400|54:356,1,209.000006378174,2|2,0:0|0:0,0:0:0:0:
287,224,245273,1,8,0:0:0:0:
32,153,245431,1,0,0:0:0:0:
126,277,245589,6,0,P|169:206|161:118,1,156.750004783631,4|0,0:0|0:0,0:0:0:0:
144,106,245905,1,8,0:0:0:0:
321,5,246063,2,0,P|310:54|296:118,1,104.500003189087,2|4,0:0|0:0,0:0:0:0:
476,277,246379,1,2,0:0:0:0:
285,203,246537,1,8,0:0:0:0:
463,69,246694,2,0,B|488:81|502:106|502:106|481:201|381:175,1,209.000006378174,2|2,0:0|0:0,0:0:0:0:
201,127,247168,5,8,0:0:0:0:
238,304,247326,1,2,0:0:0:0:
62,248,247484,1,6,0:0:0:0:
169,222,247642,1,0,0:0:0:0:
296,378,247800,6,0,B|374:386|360:325|454:340,1,156.750004783631,8|0,0:0|0:0,0:0:0:0:
512,296,248115,6,0,P|411:283|381:167,1,209.000006378174,4|8,0:0|0:0,0:0:0:0:
475,37,248589,1,2,0:0:0:0:
475,37,248668,1,0,0:0:0:0:
475,37,248747,2,0,P|483:91|444:144,1,104.500003189087,4|2,0:0|0:0,0:0:0:0:
267,224,249063,1,8,0:0:0:0:
184,19,249221,1,2,0:0:0:0:
38,153,249379,1,4,0:0:0:0:
38,153,249694,6,0,P|108:115|191:139,1,156.750004783631,8|2,0:0|0:0,0:0:0:0:
188,138,250010,1,6,0:0:0:0:
356,176,250168,1,0,0:0:0:0:
322,10,250326,2,0,P|292:51|292:103,1,104.500003189087,8|0,0:0|0:0,0:0:0:0:
503,308,250642,6,0,P|452:261|351:276,1,156.750004783631,4|0,0:0|0:0,0:0:0:0:
295,297,250958,2,0,P|320:252|312:202,1,104.500003189087,8|2,0:0|0:0,0:0:0:0:
34,19,251273,6,0,P|59:117|182:139,1,209.000006378174,4|8,0:0|0:0,0:0:0:0:
241,49,251747,1,2,0:0:0:0:
445,305,251905,5,6,0:0:0:0:
283,140,252063,1,8,0:0:0:0:
283,140,252142,1,8,0:0:0:0:
283,140,252221,1,8,0:0:0:0:
512,179,252379,5,2,0:0:0:0:
291,277,252537,1,8,0:0:0:0:
291,277,252615,1,8,0:0:0:0:
291,277,252694,1,8,0:0:0:0:
390,88,252852,6,0,P|394:114|402:146,1,52.2500015945435,10|0,0:0|0:0,0:0:0:0:
255,375,253010,1,8,0:0:0:0:
255,375,253089,1,8,0:0:0:0:
255,375,253168,2,0,B|166:375|201:322|106:322,1,156.750004783631,4|0,1:0|0:0,0:0:0:0:
112,322,253484,1,8,2:0:0:0:
9,162,253642,2,0,B|30:108|118:81|167:116|167:116|139:166,1,209.000006378174,4|0,0:0|0:0,0:0:0:0:
330,234,254115,1,8,0:0:0:0:
286,37,254273,2,0,P|267:90|258:143,1,104.500003189087,0|4,0:0|0:0,0:0:0:0:
461,295,254589,1,0,0:0:0:0:
351,140,254747,1,8,0:0:0:0:
227,318,254905,6,0,P|141:363|74:345,1,156.750004783631,2|0,0:0|0:0,0:0:0:0:
64,343,255221,1,2,0:0:0:0:
111,164,255379,2,0,P|130:218|138:273,1,104.500003189087,8|2,0:0|0:0,0:0:0:0:
306,384,255694,6,0,B|321:291|367:350|381:248,1,156.750004783631,4|0,0:0|0:0,0:0:0:0:
376,248,256010,1,8,0:0:0:0:
401,36,256168,2,0,P|454:54|508:72,1,104.500003189087,2|0,0:0|0:0,0:0:0:0:
304,171,256484,5,2,0:0:0:0:
214,1,256642,1,8,0:0:0:0:
60,81,256800,2,0,P|19:146|31:222,1,156.750004783631,4|0,0:0|0:0,0:0:0:0:
49,245,257115,1,0,0:0:0:0:
215,316,257273,5,8,0:0:0:0:
194,230,257431,1,2,0:0:0:0:
173,144,257589,1,4,0:0:0:0:
285,10,257747,6,0,L|269:78,1,66.4999979705811,2|8,0:0|0:0,0:0:0:0:
269,74,258221,6,0,B|356:61|330:107|438:90,1,156.750004783631,4|0,0:0|0:0,0:0:0:0:
437,82,258537,1,8,0:0:0:0:
490,262,258694,2,0,P|391:265|329:169,1,209.000006378174,2|2,0:0|0:0,0:0:0:0:
111,95,259168,1,8,0:0:0:0:
271,16,259326,6,0,P|256:61|241:125,1,104.500003189087,0|4,0:0|0:0,0:0:0:0:
193,269,259642,1,2,0:0:0:0:
27,183,259800,1,8,0:0:0:0:
136,344,259958,6,0,P|211:306|299:319,1,156.750004783631,2|0,0:0|0:0,0:0:0:0:
315,333,260273,1,2,0:0:0:0:
496,210,260431,2,0,B|451:233|451:233|379:219,1,104.500003189087,8|2,0:0|0:0,0:0:0:0:
224,4,260747,6,0,P|209:63|187:161,1,156.750004783631,4|0,0:0|0:0,0:0:0:0:
187,156,261063,1,8,0:0:0:0:
21,97,261221,2,0,P|64:68|126:82,1,104.500003189087,2|4,0:0|0:0,0:0:0:0:
266,231,261537,1,2,0:0:0:0:
206,30,261694,1,8,0:0:0:0:
49,178,261852,6,0,B|23:272|23:272|51:291|67:326,1,156.750004783631,8|0,0:0|0:0,0:0:0:0:
9,384,262168,2,0,P|64:342|168:362,1,156.750004783631,8|0,0:0|0:0,0:0:0:0:
231,384,262484,2,0,P|306:360|383:344,1,156.750004783631,8|0,0:0|0:0,0:0:0:0:
459,373,262800,5,2,0:0:0:0:
238,273,262958,1,8,0:0:0:0:
439,129,263115,2,0,B|453:154|453:154|438:202,1,52.2500015945435,8|8,0:0|0:0,0:0:0:0:
359,253,263273,6,0,P|340:156|324:93,1,156.750004783631,4|0,0:0|0:0,0:0:0:0:
324,93,263589,1,8,0:0:0:0:
71,16,263747,2,0,P|66:91|189:127,1,209.000006378174,2|2,0:0|0:0,0:0:0:0:
235,49,264221,1,8,0:0:0:0:
60,228,264379,6,0,P|74:278|86:341,1,104.500003189087,0|2,0:0|0:0,0:0:0:0:
263,165,264694,1,2,0:0:0:0:
220,384,264852,1,8,0:0:0:0:
444,335,265010,6,0,P|391:289|287:303,1,156.750004783631,2|0,0:0|0:0,0:0:0:0:
287,303,265326,1,0,0:0:0:0:
441,203,265484,2,0,P|459:153|450:100,1,104.500003189087,8|2,0:0|0:0,0:0:0:0:
181,16,265800,5,4,0:0:0:0:
374,138,265958,1,0,0:0:0:0:
179,241,266115,1,8,0:0:0:0:
258,74,266273,6,0,P|273:126|284:180,1,104.500003189087,2|2,0:0|0:0,0:0:0:0:
227,374,266589,1,2,0:0:0:0:
283,175,266747,1,8,0:0:0:0:
454,338,266905,6,0,B|423:347|408:372|408:372|344:381|303:314|340:256,1,209.000006378174,0|2,0:0|0:0,0:0:0:0:
176,196,267379,1,10,0:0:0:0:
113,274,267537,2,0,P|56:291|3:306,1,104.500003189087,2|4,0:0|0:0,0:0:0:0:
256,165,267852,1,2,0:0:0:0:
189,358,268010,1,8,0:0:0:0:
53,184,268168,5,0,0:0:0:0:
53,184,268247,1,0,0:0:0:0:
53,184,268326,6,0,P|78:175|125:163,1,52.2500015945435,2|0,0:0|0:0,0:0:0:0:
173,238,268484,2,0,P|198:247|245:259,1,52.2500015945435,2|0,0:0|0:0,0:0:0:0:
333,139,268642,1,8,0:0:0:0:
394,359,268800,1,2,0:0:0:0:
506,273,268958,5,2,0:0:0:0:
483,240,269037,1,0,0:0:0:0:
449,228,269115,1,2,0:0:0:0:
416,230,269194,1,0,0:0:0:0:
386,248,269273,2,0,P|339:239|283:222,1,104.500003189087,10|2,0:0|0:0,0:0:0:0:
64,48,269589,5,2,0:0:0:0:
88,21,269668,1,0,0:0:0:0:
133,9,269747,1,0,0:0:0:0:
175,15,269826,1,0,0:0:0:0:
195,46,269905,2,0,P|181:80|173:107,1,52.2500015945435,8|0,0:0|0:0,0:0:0:0:
45,163,270063,1,2,0:0:0:0:
107,323,270221,5,2,0:0:0:0:
142,304,270300,1,0,0:0:0:0:
183,299,270379,1,2,0:0:0:0:
216,308,270458,1,0,0:0:0:0:
243,331,270537,1,10,0:0:0:0:
254,354,270615,1,2,0:0:0:0:
271,368,270694,1,0,0:0:0:0:
296,374,270773,1,0,0:0:0:0:
320,367,270852,5,2,0:0:0:0:
358,343,270931,1,2,0:0:0:0:
374,300,271010,1,2,0:0:0:0:
364,258,271089,1,2,0:0:0:0:
328,226,271168,1,8,0:0:0:0:
309,170,271247,1,0,0:0:0:0:
318,120,271326,1,2,0:0:0:0:
348,92,271405,1,2,0:0:0:0:
396,81,271484,1,2,0:0:0:0:
444,88,271563,1,2,0:0:0:0:
479,129,271642,1,2,0:0:0:0:
485,178,271721,1,2,0:0:0:0:
458,219,271800,1,10,0:0:0:0:
320,367,271958,5,0,3:0:0:0:
296,341,272037,1,0,3:0:0:0:
293,307,272115,1,6,0:0:0:0:
217,83,272273,5,2,3:0:0:0:
241,109,272352,1,0,0:0:0:0:
244,143,272430,1,0,0:0:0:0:
321,205,272589,6,0,P|346:198|371:194,2,52.2500015945435,2|0|0,0:0|0:0|0:0,0:0:0:0:
131,384,272905,1,8,0:0:0:0:
87,379,272983,1,0,0:0:0:0:
50,358,273062,1,8,0:0:0:0:
23,323,273141,1,8,0:0:0:0:
14,281,273220,1,8,0:0:0:0:
21,238,273299,1,8,0:0:0:0:
46,203,273379,6,0,B|97:212|139:222|139:222|172:213|202:204,1,156.750004783631,14|0,2:1|0:0,0:0:0:0:
210,198,273694,1,8,0:0:0:0:
153,36,273852,2,0,B|135:84|135:84|153:145,1,104.500003189087,2|0,2:0|0:0,0:0:0:0:
351,331,274168,1,2,0:0:0:0:
154,353,274326,6,0,P|216:303|342:325,1,209.000006378174,8|4,0:0|0:0,0:0:0:0:
488,244,274800,1,2,0:0:0:0:
341,147,274958,1,8,0:0:0:0:
436,338,275115,1,2,0:0:0:0:
436,338,275194,1,2,0:0:0:0:
436,338,275273,1,2,0:0:0:0:
276,230,275431,1,2,0:0:0:0:
440,164,275589,2,0,B|466:139|466:139|441:52,1,104.500003189087,8|0,0:0|0:0,0:0:0:0:
219,14,275905,6,0,P|150:55|65:39,1,156.750004783631,4|0,0:0|0:0,0:0:0:0:
63,39,276221,1,8,0:0:0:0:
147,200,276379,2,0,P|157:152|174:100,1,104.500003189087,2|0,0:0|0:0,0:0:0:0:
280,173,276694,1,0,0:0:0:0:
66,308,276852,6,0,P|112:267|220:273,1,156.750004783631,8|0,0:0|0:0,0:0:0:0:
229,289,277168,1,4,0:0:0:0:
380,145,277326,2,0,P|329:159|280:172,1,104.500003189087,0|8,0:0|0:0,0:0:0:0:
414,384,277642,6,0,P|353:322|360:239,1,156.750004783631,2|0,0:0|0:0,0:0:0:0:
352,256,277958,1,2,0:0:0:0:
493,130,278115,2,0,P|477:178|461:233,1,104.500003189087,8|2,0:0|0:0,0:0:0:0:
274,384,278431,6,0,P|226:349|125:362,1,156.750004783631,4|0,0:0|0:0,0:0:0:0:
124,364,278747,1,8,0:0:0:0:
4,228,278905,2,0,P|53:238|104:256,1,104.500003189087,0|2,0:0|0:0,0:0:0:0:
262,140,279221,1,2,0:0:0:0:
88,50,279379,1,8,0:0:0:0:
242,253,279537,1,0,0:0:0:0:
242,253,279615,1,0,0:0:0:0:
242,253,279694,2,0,P|295:241|345:227,1,104.500003189087,4|2,0:0|0:0,0:0:0:0:
167,123,280010,1,8,0:0:0:0:
345,27,280168,1,2,0:0:0:0:
125,218,280326,6,0,P|64:149|84:41,1,209.000006378174,6|8,0:0|0:0,0:0:0:0:
273,137,280800,1,0,0:0:0:0:
99,333,280958,6,0,P|148:318|208:304,1,104.500003189087,4|0,0:0|0:0,0:0:0:0:
421,189,281273,1,8,0:0:0:0:
462,338,281431,6,0,P|386:340|284:252,1,209.000006378174
462,45,281905,2,0,P|449:96|437:148,1,104.500003189087,8|0,0:0|0:0,0:0:0:0:
421,189,282142,1,0,0:0:0:0:
421,189,282221,1,4,0:0:0:0:
250,55,282379,5,8,0:0:0:0:
220,282,282537,1,8,0:0:0:0:
101,82,282694,1,2,0:0:0:0:
323,173,282852,1,8,0:0:0:0:
76,227,283010,1,8,0:0:0:0:
323,173,283168,5,8,0:0:0:0:
323,173,283247,1,8,0:0:0:0:
323,173,283326,2,0,L|377:187,1,52.2500015945435,8|8,0:0|0:0,0:0:0:0:
512,11,283484,6,0,P|448:65|307:61,1,209.000006378174,4|8,0:0|0:0,0:0:0:0:
140,12,283958,2,0,P|151:67|162:122,1,104.500003189087,2|0,0:0|0:0,0:0:0:0:
216,288,284273,1,0,0:0:0:0:
29,203,284431,1,8,0:0:0:0:
0,382,284589,6,0,P|49:340|144:354,1,156.750004783631
152,358,284905,1,2,0:0:0:0:
332,293,285063,1,8,0:0:0:0:
121,198,285221,1,0,0:0:0:0:
332,135,285379,6,0,B|389:177|460:160|460:160|477:127|523:103,1,209.000006378174,4|8,0:0|0:0,0:0:0:0:
409,258,285852,1,0,0:0:0:0:
260,62,286010,6,0,B|247:117|232:153|232:153|250:182|268:224,1,156.750004783631,4|0,0:0|0:0,0:0:0:0:
261,208,286326,1,8,0:0:0:0:
143,355,286484,2,0,P|99:365|31:381,1,104.500003189087,0|4,0:0|0:0,0:0:0:0:
174,262,286800,1,0,0:0:0:0:
336,373,286958,2,0,P|401:336|486:344,1,156.750004783631,8|0,0:0|0:0,0:0:0:0:
486,344,287273,5,4,0:0:0:0:
326,251,287431,1,2,0:0:0:0:
466,142,287589,2,0,P|452:192|439:250,1,104.500003189087,8|0,0:0|0:0,0:0:0:0:
277,370,287905,2,0,P|288:319|302:268,1,104.500003189087,4|0,0:0|0:0,0:0:0:0:
129,104,288221,1,8,0:0:0:0:
185,305,288379,1,0,0:0:0:0:
6,264,288537,6,0,B|99:247|42:213|156:196,1,156.750004783631,6|0,0:0|0:0,0:0:0:0:
170,207,288852,1,8,0:0:0:0:
356,66,289010,2,0,B|336:16|257:-4|207:32|207:32|231:72,1,209.000006378174
312,204,289484,1,8,0:0:0:0:
483,90,289642,5,0,0:0:0:0:
483,90,289721,1,0,0:0:0:0:
483,90,289800,1,4,0:0:0:0:
312,204,289958,1,2,0:0:0:0:
469,291,290115,2,0,P|469:238|440:189,1,104.500003189087,8|2,0:0|0:0,0:0:0:0:
257,11,290431,6,0,P|185:70|46:67,1,209.000006378174,4|8,0:0|0:0,0:0:0:0:
253,227,290905,1,0,0:0:0:0:
50,336,291063,5,8,0:0:0:0:
23,310,291142,1,8,0:0:0:0:
39,276,291221,1,8,0:0:0:0:
76,281,291300,1,8,0:0:0:0:
83,318,291379,1,8,0:0:0:0:
353,142,291537,5,8,0:0:0:0:
380,168,291616,1,8,0:0:0:0:
364,202,291695,1,8,0:0:0:0:
327,197,291774,1,0,0:0:0:0:
320,160,291853,1,2,0:0:0:0:
105,79,292010,5,8,0:0:0:0:
78,53,292089,1,8,0:0:0:0:
94,19,292168,1,8,0:0:0:0:
131,24,292247,1,8,0:0:0:0:
138,61,292326,1,8,0:0:0:0:
324,313,292484,5,8,1:0:0:0:
465,64,292642,1,8,1:0:0:0:
198,182,292800,1,8,1:0:0:0:
477,230,292957,1,8,1:0:0:0:
272,37,293115,1,8,1:0:0:0:
324,313,293273,1,8,1:0:0:0:
465,64,293431,5,12,0:0:0:0:
