osu file format v14

[General]
AudioFilename: audio.mp3
AudioLeadIn: 0
PreviewTime: 232281
Countdown: 1
SampleSet: Soft
StackLeniency: 0.5
Mode: 0
LetterboxInBreaks: 0
WidescreenStoryboard: 1

[Editor]
Bookmarks: 25794,35899,57373,97794,131899,172320,192531,212741,232952,273373,293583
DistanceSpacing: 1.4
BeatDivisor: 4
GridSize: 32
TimelineZoom: 2.999999

[Metadata]
Title:Star map
TitleUnicode:Star map
Artist:Shimotsuki Haruka
ArtistUnicode:霜月はるか
Creator:Oooodriiin
Version:Asagi's Hard
Source:見上げてごらん、夜空の星を
Tags:a sky full of stars Miagete Goran Yozora no Hoshi o Pulltop Visual novel Eroge shimotsuki haruka Asagi Miazora full ver version galgame
BeatmapID:4134194
BeatmapSetID:748422

[Difficulty]
HPDrainRate:4.5
CircleSize:3.8
OverallDifficulty:6.2
ApproachRate:8
SliderMultiplier:1.4
SliderTickRate:1

[Events]
//Background and Video events
0,0,"Dw96pDpUcAENMGs.jpg",0,0
//Break Periods
2,25993,35149
2,175678,191781
//Storyboard Layer 0 (Background)
//Storyboard Layer 1 (Fail)
//Storyboard Layer 2 (Pass)
//Storyboard Layer 3 (Foreground)
//Storyboard Layer 4 (Overlay)
//Storyboard Sound Samples

[TimingPoints]
531,315.789473684211,4,2,1,30,1,0
531,-142.857142857143,4,2,1,30,0,0
5583,-111.111111111111,4,2,1,30,0,0
14267,-99.9999999999999,4,2,1,30,0,0
15688,-111.111111111111,4,2,1,30,0,0
24215,-99.9999999999999,4,2,1,30,0,0
35899,-125,4,2,1,30,0,0
40952,-111.111111111111,4,2,1,30,0,0
46004,-125,4,2,1,30,0,0
51057,-99.9999999999999,4,2,1,30,0,0
54688,-83.3333333333333,4,2,1,30,0,0
55952,-100,4,2,1,30,0,0
57373,-90.9090909090909,4,2,1,30,0,0
97794,-125,4,2,1,30,0,0
100320,-100,4,2,1,30,0,0
129215,-83.3333333333333,4,2,1,30,0,0
130478,-100,4,2,1,30,0,0
131899,-90.9090909090909,4,2,1,30,0,0
192531,-100,4,2,1,30,0,0
211478,-90.9090909090909,4,2,1,30,0,0
212741,-90.9090909090909,4,2,1,30,0,0
273373,-100,4,2,1,30,0,0
293267,-83.3333333333333,4,2,1,30,0,0

[Colours]
Combo1 : 255,221,170
Combo2 : 0,91,174
Combo3 : 129,174,243
Combo4 : 152,236,254
Combo5 : 252,105,7
Combo6 : 252,137,10

[HitObjects]
209,345,531,6,0,B|122:333|160:388|54:371,2,146.999995513916
209,345,2425,2,0,P|206:296|190:248,1,97.9999970092774
314,189,3057,6,0,B|401:177|363:232|469:215,2,146.999995513916
314,189,4952,2,0,P|317:140|333:92,1,97.9999970092774
102,18,5583,6,0,P|135:99|222:91,1,188.999994232178
294,49,6215,2,0,P|355:61|418:62,1,125.999996154785
483,120,6688,1,0,0:0:0:0:
483,120,6846,2,0,P|476:152|475:184,1,62.9999980773926
400,218,7162,2,0,P|342:203|300:246,2,125.999996154785
292,341,8109,6,0,B|216:328|243:368|166:357,1,125.999996154785
92,374,8583,1,0,0:0:0:0:
92,374,8741,2,0,P|44:334|55:273,1,125.999996154785
126,240,9215,1,0,0:0:0:0:
82,170,9373,2,0,P|47:167|12:153,1,62.9999980773926
42,78,9688,2,0,P|72:89|103:90,1,62.9999980773926
162,31,10004,1,0,0:0:0:0:
316,113,10320,2,0,P|320:81|328:50,1,62.9999980773926
258,5,10636,6,0,P|240:66|234:129,1,125.999996154785
162,164,11109,1,0,0:0:0:0:
162,163,11267,2,0,P|102:160|70:212,1,125.999996154785
125,278,11741,1,0,0:0:0:0:
125,278,11899,2,0,P|154:270|194:269,1,62.9999980773926
229,350,12215,2,0,P|166:347|107:368,2,125.999996154785
416,373,13162,6,0,P|463:334|458:274,1,125.999996154785
498,190,13636,1,0,0:0:0:0:
498,190,13794,2,0,P|436:188|371:169,1,125.999996154785
354,87,14267,5,0,0:0:0:0:
354,87,14425,1,0,0:0:0:0:
263,95,14583,2,0,P|267:60|272:25,1,70
180,14,14899,2,0,P|174:48|169:83,1,70
125,164,15215,1,0,0:0:0:0:
36,127,15373,1,0,0:0:0:0:
36,127,15531,1,0,0:0:0:0:
0,229,15688,6,0,B|118:217|52:292|181:281,1,188.999994232178
242,238,16320,2,0,P|303:226|339:275,1,125.999996154785
411,321,16794,1,0,0:0:0:0:
411,321,16952,2,0,P|414:288|418:257,1,62.9999980773926
499,236,17267,2,0,P|491:301|486:361,2,125.999996154785
511,61,18215,6,0,P|478:109|411:96,1,125.999996154785
368,42,18688,1,0,0:0:0:0:
368,42,18846,2,0,P|305:42|243:31,1,125.999996154785
164,41,19320,1,0,0:0:0:0:
164,41,19478,2,0,P|153:72|151:106,1,62.9999980773926
85,151,19794,2,0,P|52:148|25:169,1,62.9999980773926
11,244,20109,1,0,0:0:0:0:
118,368,20425,2,0,P|126:337|127:306,1,62.9999980773926
168,234,20741,6,0,P|228:226|262:275,1,125.999996154785
299,353,21215,1,0,0:0:0:0:
299,353,21373,2,0,P|363:353|430:369,1,125.999996154785
489,315,21846,5,0,0:0:0:0:
457,239,22004,2,0,P|458:208|468:168,1,62.9999980773926
416,111,22320,2,0,P|385:109|345:99,1,62.9999980773926
283,145,22636,2,0,P|281:175|271:215,1,62.9999980773926
320,275,22952,2,0,P|351:276|381:283,1,62.9999980773926
246,333,23267,6,0,P|215:330|191:308,1,62.9999980773926
151,237,23583,2,0,P|152:203|159:174,1,62.9999980773926
77,159,23899,2,0,P|70:190|67:223,1,62.9999980773926
33,85,24215,5,0,0:0:0:0:
33,85,24373,1,0,0:0:0:0:
99,23,24531,1,0,0:0:0:0:
168,80,24688,2,0,P|202:83|231:66,1,70
313,14,25004,2,0,P|316:48|319:83,1,70
276,161,25320,1,0,0:0:0:0:
276,161,25399,1,0,0:0:0:0:
276,161,25478,2,0,P|278:178|280:195,4,35
89,55,35899,6,0,P|144:52|199:41,1,112
213,123,36373,1,0,0:0:0:0:
213,123,36531,2,0,P|158:135|100:139,1,112
46,194,37004,1,0,0:0:0:0:
80,263,37162,6,0,P|132:252|166:293,1,112
302,371,37794,2,0,P|305:315|317:260,1,112
391,229,38267,1,0,0:0:0:0:
391,229,38425,6,0,P|444:237|482:179,1,112
485,118,38899,1,0,0:0:0:0:
485,118,39058,2,0,P|428:114|372:100,1,112
304,131,39531,1,0,0:0:0:0:
304,131,39688,1,0,0:0:0:0:
241,73,39846,6,0,P|242:45|250:18,2,56
162,65,40320,2,0,P|163:36|170:9,2,56
89,121,40794,1,0,0:0:0:0:
111,214,40952,6,0,B|229:194|171:274|301:250,1,188.999994232178
333,320,41583,2,0,P|338:258|343:195,1,125.999996154785
405,130,42057,2,0,P|440:129|464:106,1,62.9999980773926
426,35,42373,1,0,0:0:0:0:
426,35,42531,2,0,P|363:35|291:17,2,125.999996154785
246,102,43478,6,0,P|187:88|146:131,1,125.999996154785
110,213,43952,1,0,0:0:0:0:
24,194,44109,2,0,P|21:127|9:67,1,125.999996154785
86,24,44583,5,0,0:0:0:0:
297,58,44899,1,0,0:0:0:0:
241,264,45215,1,0,0:0:0:0:
30,221,45531,1,0,0:0:0:0:
107,156,45688,2,0,P|150:168|202:171,1,94.499997116089
199,171,46004,5,0,0:0:0:0:
296,309,46320,2,0,P|330:269|383:279,1,112
505,179,46952,2,0,P|506:152|512:123,1,56
461,62,47267,5,0,0:0:0:0:
461,62,47425,2,0,P|433:60|399:53,1,56
325,9,47741,2,0,P|321:64|309:119,1,112
361,185,48215,1,0,0:0:0:0:
232,53,48531,6,0,P|176:47|145:94,1,112
77,137,49004,1,0,0:0:0:0:
77,137,49162,2,0,P|133:131|163:178,1,112
169,256,49636,1,0,0:0:0:0:
252,247,49794,6,0,P|258:193|262:133,1,112
335,95,50267,1,0,0:0:0:0:
396,152,50425,2,0,P|423:158|450:158,1,56
391,232,50741,2,0,P|418:238|445:238,1,56
354,340,51057,6,0,P|321:282|255:287,1,140
200,351,51531,1,0,0:0:0:0:
116,343,51688,2,0,P|114:308|107:273,1,70
4,140,52162,6,0,P|36:81|102:86,1,140
174,131,52636,1,0,0:0:0:0:
257,101,52794,1,0,0:0:0:0:
257,101,52873,1,0,0:0:0:0:
257,101,52952,2,0,P|253:64|250:32,1,70
333,28,53267,2,0,P|336:64|340:97,1,70
310,178,53583,6,0,B|394:166|355:218|456:210,1,140
482,284,54057,1,0,0:0:0:0:
431,351,54215,2,0,P|397:355|368:336,1,70
169,237,54688,6,0,P|89:231|48:300,2,167.999994873047
358,166,55636,1,0,0:0:0:0:
214,78,55952,5,0,0:0:0:0:
216,66,56031,1,0,0:0:0:0:
218,52,56109,2,0,L|224:2,4,35
138,111,56583,2,0,L|134:147,4,35
94,32,57057,1,0,0:0:0:0:
262,162,57373,6,0,B|364:148|316:212|440:191,1,154.000004699707
489,152,57846,2,0,P|505:186|501:224,1,77.0000023498536
481,318,58162,1,0,0:0:0:0:
481,318,58320,1,0,0:0:0:0:
406,366,58478,6,0,P|367:360|329:356,1,77.0000023498536
304,266,58794,2,0,P|265:270|227:273,1,77.0000023498536
194,359,59109,2,0,P|117:348|41:341,1,154.000004699707
0,258,59583,2,0,P|23:208|78:208,1,115.50000352478
99,221,59899,6,0,P|107:182|109:142,1,77.0000023498536
51,67,60215,1,0,0:0:0:0:
140,45,60373,2,0,P|178:53|212:36,1,77.0000023498536
299,9,60688,2,0,P|293:45|291:85,1,77.0000023498536
220,143,61004,6,0,P|291:130|331:190,1,154.000004699707
421,212,61478,2,0,P|458:221|496:218,1,77.0000023498536
510,304,61794,1,0,0:0:0:0:
425,341,61952,2,0,B|330:326|370:385|267:371,1,154.000004699707
187,365,62425,6,0,P|189:288|205:213,1,154.000004699707
114,236,62899,2,0,P|105:273|103:311,1,77.0000023498536
25,223,63215,1,0,0:0:0:0:
25,223,63373,1,0,0:0:0:0:
68,141,63531,6,0,P|106:144|136:121,1,77.0000023498536
102,35,63846,2,0,P|64:32|34:55,1,77.0000023498536
188,56,64162,2,0,B|287:45|231:101|358:84,1,154.000004699707
417,45,64636,2,0,P|454:43|481:69,1,77.0000023498536
495,161,64952,6,0,P|487:198|484:237,1,77.0000023498536
442,310,65267,1,0,0:0:0:0:
365,257,65425,2,0,P|328:252|294:277,1,77.0000023498536
237,345,65741,2,0,P|197:338|157:340,1,77.0000023498536
102,259,66057,5,0,0:0:0:0:
172,48,66373,1,0,0:0:0:0:
220,264,66688,1,0,0:0:0:0:
14,191,67004,2,0,P|56:132|130:144,1,154.000004699707
214,180,67478,6,0,P|227:101|228:27,1,154.000004699707
315,68,67952,2,0,P|314:107|308:147,1,77.0000023498536
350,232,68267,1,0,0:0:0:0:
350,232,68425,1,0,0:0:0:0:
440,214,68583,6,0,P|476:211|505:235,1,77.0000023498536
481,325,68899,2,0,P|443:326|414:302,1,77.0000023498536
350,232,69215,2,0,P|274:220|239:283,1,154.000004699707
185,353,69688,2,0,P|147:346|108:343,1,77.0000023498536
20,371,70004,6,0,P|12:333|27:298,1,77.0000023498536
111,259,70320,1,0,0:0:0:0:
74,173,70478,2,0,P|37:175|-3:166,1,77.0000023498536
10,80,70794,2,0,P|47:88|85:86,1,77.0000023498536
157,26,71109,6,0,P|228:14|268:75,1,154.000004699707
348,122,71583,2,0,P|354:84|355:45,1,77.0000023498536
441,18,71899,1,0,0:0:0:0:
490,96,72057,1,0,0:0:0:0:
432,168,72215,2,0,P|425:205|424:244,1,77.0000023498536
506,289,72531,6,0,B|412:270|457:338|330:309,1,154.000004699707
287,256,73004,2,0,P|246:253|216:286,1,77.0000023498536
170,353,73320,1,0,0:0:0:0:
76,344,73478,2,0,P|75:305|65:267,1,77.0000023498536
4,187,73794,6,0,P|41:186|71:162,1,77.0000023498536
121,85,74109,2,0,P|163:79|197:113,1,77.0000023498536
240,176,74425,1,0,0:0:0:0:
329,152,74583,2,0,P|328:75|314:-1,1,154.000004699707
409,24,75057,6,0,P|416:64|416:105,1,77.0000023498536
488,158,75373,1,0,0:0:0:0:
417,218,75531,1,0,0:0:0:0:
489,273,75688,2,0,P|460:340|387:335,1,154.000004699707
329,263,76162,1,0,0:0:0:0:
246,305,76320,5,0,0:0:0:0:
216,217,76478,2,0,L|220:176,2,38.5000011749268
144,276,76794,1,0,0:0:0:0:
119,186,76952,2,0,L|124:125,2,38.5000011749268
44,240,77267,2,0,L|40:281,3,38.5000011749268
18,321,77583,6,0,B|113:312|69:367|172:355,1,154.000004699707
252,380,78057,2,0,P|252:341|261:304,1,77.0000023498536
195,245,78373,1,0,0:0:0:0:
195,245,78531,1,0,0:0:0:0:
281,212,78688,6,0,P|318:223|356:224,1,77.0000023498536
376,134,79004,2,0,P|338:133|302:122,1,77.0000023498536
293,20,79320,2,0,P|364:47|440:44,1,154.000004699707
497,115,79794,2,0,P|516:167|486:214,1,115.50000352478
460,224,80109,6,0,P|450:260|447:299,1,77.0000023498536
385,368,80425,1,0,0:0:0:0:
343,285,80583,2,0,P|304:289|266:293,1,77.0000023498536
210,368,80899,2,0,P|171:363|133:359,1,77.0000023498536
42,341,81215,6,0,P|-3:284|26:217,1,154.000004699707
111,183,81688,2,0,P|110:144|100:107,1,77.0000023498536
93,14,82004,1,0,0:0:0:0:
175,56,82162,2,0,P|198:131|199:215,1,154.000004699707
162,291,82636,6,0,B|256:282|216:339|308:329,1,154.000004699707
388,369,83109,2,0,P|389:330|398:292,1,77.0000023498536
331,235,83425,1,0,0:0:0:0:
331,235,83583,1,0,0:0:0:0:
402,176,83741,6,0,P|438:189|477:192,1,77.0000023498536
421,90,84057,2,0,P|457:103|496:106,1,77.0000023498536
352,29,84373,2,0,P|281:10|232:65,1,154.000004699707
200,151,84846,2,0,P|160:150|123:141,1,77.0000023498536
41,85,85162,6,0,P|38:124|28:168,1,77.0000023498536
1,249,85478,1,0,0:0:0:0:
78,299,85636,2,0,P|113:281|151:290,1,77.0000023498536
211,356,85952,2,0,P|249:366|284:345,1,77.0000023498536
359,298,86267,5,0,0:0:0:0:
139,174,86583,1,0,0:0:0:0:
387,136,86899,1,0,0:0:0:0:
248,277,87215,2,0,P|253:200|272:125,1,154.000004699707
247,33,87688,6,0,P|286:94|359:88,1,154.000004699707
437,38,88162,2,0,P|477:38|505:69,1,77.0000023498536
504,159,88478,1,0,0:0:0:0:
504,159,88636,1,0,0:0:0:0:
429,213,88794,6,0,P|414:249|409:288,1,77.0000023498536
338,190,89109,2,0,P|325:226|318:264,1,77.0000023498536
253,350,89425,2,0,P|215:288|142:297,1,154.000004699707
65,352,89899,2,0,P|61:313|51:276,1,77.0000023498536
0,188,90215,6,0,P|36:186|69:152,1,77.0000023498536
107,76,90531,2,0,P|146:84|190:84,1,77.0000023498536
212,172,90846,1,0,0:0:0:0:
276,238,91004,2,0,P|315:230|359:230,1,77.0000023498536
426,172,91320,6,0,P|433:101|366:74,1,154.000004699707
287,26,91794,2,0,P|277:63|273:101,1,77.0000023498536
197,155,92109,1,0,0:0:0:0:
156,71,92267,2,0,P|117:72|79:65,1,77.0000023498536
18,150,92583,5,0,0:0:0:0:
18,150,92662,1,0,0:0:0:0:
18,150,92741,2,0,P|55:146|85:181,1,77.0000023498536
53,260,93057,1,0,0:0:0:0:
128,313,93215,2,0,B|218:304|182:358|276:345,1,154.000004699707
361,374,93688,2,0,P|363:332|374:297,1,77.0000023498536
462,264,94004,5,0,0:0:0:0:
462,264,94162,1,0,0:0:0:0:
414,184,94320,1,0,0:0:0:0:
444,96,94478,2,0,P|404:157|331:146,1,154.000004699707
245,114,94952,2,0,P|248:74|263:31,1,77.0000023498536
172,9,95267,6,0,P|158:55|153:122,1,115.50000352478
136,140,95583,2,0,P|98:138|63:172,1,77.0000023498536
23,242,95899,2,0,B|117:230|68:292|184:276,1,154.000004699707
240,351,96373,5,0,0:0:0:0:
240,351,96452,1,0,0:0:0:0:
240,351,96531,1,0,0:0:0:0:
318,303,96688,2,0,P|320:264|312:227,1,77.0000023498536
371,154,97004,2,0,P|409:156|446:148,1,77.0000023498536
502,73,97320,2,0,P|470:8|398:18,1,154.000004699707
324,70,97794,6,0,P|269:69|215:55,1,112
35,149,98425,2,0,P|90:148|144:134,1,112
309,239,99057,2,0,P|253:238|199:224,1,112
55,304,99688,1,0,0:0:0:0:
256,367,100004,1,0,0:0:0:0:
457,304,100320,6,0,P|500:245|470:174,1,140
486,96,100794,2,0,P|420:116|350:117,1,140
268,143,101267,2,0,P|269:108|276:73,1,70
211,27,101583,5,0,0:0:0:0:
211,27,101741,1,0,0:0:0:0:
135,64,101899,1,0,0:0:0:0:
54,16,102057,2,0,P|52:85|40:154,1,140
15,234,102531,2,0,P|50:239|82:226,1,70
144,169,102846,6,0,P|178:175|213:176,1,70
248,253,103162,1,0,0:0:0:0:
311,308,103320,2,0,P|380:297|450:298,1,140
506,235,103794,1,0,0:0:0:0:
434,83,104109,6,0,P|431:49|434:10,2,70
375,143,104583,2,0,P|310:125|264:174,1,140
181,188,105057,2,0,P|179:152|172:115,1,70
84,94,105373,6,0,P|99:162|100:233,1,140
38,288,105846,2,0,P|102:271|145:326,1,140
216,371,106320,2,0,P|223:337|221:297,1,70
302,271,106636,5,0,0:0:0:0:
302,271,106794,1,0,0:0:0:0:
358,333,106952,1,0,0:0:0:0:
439,315,107109,2,0,P|483:264|469:198,1,140
429,121,107583,2,0,P|464:121|498:111,1,70
512,19,107899,6,0,P|446:41|376:37,1,140
294,18,108373,1,0,0:0:0:0:
216,49,108531,2,0,P|208:83|205:118,1,70
120,108,108846,2,0,P|122:73|129:38,1,70
35,113,109162,5,0,0:0:0:0:
62,192,109320,2,0,P|96:188|122:210,1,70
96,290,109636,2,0,P|61:293|35:271,1,70
181,273,109952,1,0,0:0:0:0:
225,343,110109,2,0,P|276:333|328:339,1,105
352,349,110425,6,0,P|399:300|384:229,1,140
330,173,110899,2,0,P|333:103|350:33,1,140
260,55,111373,2,0,P|253:92|249:128,1,70
187,179,111688,5,0,0:0:0:0:
187,179,111846,1,0,0:0:0:0:
126,121,112004,1,0,0:0:0:0:
48,152,112162,2,0,P|6:210|32:274,1,140
111,249,112636,2,0,P|108:283|101:318,1,70
164,375,112952,6,0,P|198:374|233:382,1,70
270,307,113267,1,0,0:0:0:0:
323,242,113425,2,0,P|394:259|461:258,1,140
493,336,113899,1,0,0:0:0:0:
439,174,114215,6,0,P|405:174|369:165,2,70
485,103,114688,2,0,P|464:40|398:36,1,140
334,92,115162,1,0,0:0:0:0:
279,155,115320,5,0,0:0:0:0:
279,155,115399,1,0,0:0:0:0:
279,155,115478,2,0,B|191:138|226:191|133:172,1,140
109,97,115952,2,0,P|94:166|88:236,1,140
11,188,116425,2,0,P|13:153|20:118,1,70
12,38,116741,5,0,0:0:0:0:
12,38,116899,1,0,0:0:0:0:
90,7,117057,1,0,0:0:0:0:
144,70,117215,2,0,P|209:92|259:48,1,140
332,89,117688,2,0,P|332:124|325:163,1,70
367,231,118004,6,0,P|449:237|514:256,1,140
494,336,118478,2,0,P|426:318|356:314,1,140
285,357,118952,5,0,0:0:0:0:
285,357,119109,1,0,0:0:0:0:
65,310,119425,1,0,0:0:0:0:
117,92,119741,1,0,0:0:0:0:
336,135,120057,1,0,0:0:0:0:
261,195,120215,2,0,P|209:189|160:172,1,105
160,172,120531,5,0,0:0:0:0:
212,331,120846,1,0,0:0:0:0:
286,292,121004,2,0,P|351:282|389:337,1,140
466,372,121478,2,0,P|469:334|481:295,1,70
509,224,121794,5,0,0:0:0:0:
465,151,121952,2,0,P|429:149|388:137,1,70
326,93,122267,2,0,P|315:126|312:161,1,70
260,227,122583,1,0,0:0:0:0:
227,149,122741,2,0,P|229:114|240:80,1,70
168,33,123057,6,0,P|146:92|143:186,1,140
77,224,123531,1,0,0:0:0:0:
45,308,123688,2,0,P|85:255|150:268,1,140
202,334,124162,1,0,0:0:0:0:
277,293,124320,5,0,0:0:0:0:
277,293,124478,1,0,0:0:0:0:
330,358,124637,2,0,P|365:360|395:333,1,70
422,261,124952,2,0,P|456:271|497:272,1,70
439,175,125267,2,0,P|473:185|514:186,1,70
421,85,125583,6,0,P|350:71|314:132,1,140
292,201,126057,1,0,0:0:0:0:
227,146,126215,2,0,P|226:110|233:74,1,70
166,25,126531,1,0,0:0:0:0:
140,104,126688,6,0,B|58:93|85:141|-5:129,1,140
31,218,127162,1,0,0:0:0:0:
115,220,127320,2,0,P|117:202|118:185,2,35
73,293,127636,1,0,0:0:0:0:
147,350,127794,1,0,0:0:0:0:
147,350,127873,1,0,0:0:0:0:
147,350,127952,1,0,0:0:0:0:
197,283,128109,6,0,P|269:273|310:335,1,140
372,375,128583,1,0,0:0:0:0:
446,336,128741,2,0,P|447:302|456:266,1,70
488,69,129215,6,0,P|409:75|364:8,2,167.999994873047
357,241,130162,1,0,0:0:0:0:
246,108,130478,5,0,0:0:0:0:
233,107,130557,1,0,0:0:0:0:
218,106,130636,2,0,P|195:104|173:102,4,35
272,186,131109,2,0,L|310:189,4,35
190,227,131583,1,0,0:0:0:0:
370,347,131899,6,0,P|433:312|427:234,1,154.000004699707
392,152,132373,2,0,P|392:113|401:76,1,77.0000023498536
349,5,132688,1,0,0:0:0:0:
349,5,132846,1,0,0:0:0:0:
286,73,133004,6,0,P|247:72|211:63,1,77.0000023498536
266,167,133320,2,0,P|227:165|190:154,1,77.0000023498536
123,89,133636,2,0,P|52:71|8:129,1,154.000004699707
30,218,134109,2,0,P|84:210|117:257,1,115.50000352478
115,280,134425,6,0,P|112:319|105:357,1,77.0000023498536
193,384,134741,1,0,0:0:0:0:
245,308,134899,2,0,P|282:315|321:314,1,77.0000023498536
397,368,135215,2,0,P|440:368|468:340,1,77.0000023498536
479,254,135531,6,0,P|482:178|499:103,1,154.000004699707
407,117,136004,2,0,P|397:152|393:197,1,77.0000023498536
345,272,136320,1,0,0:0:0:0:
292,195,136478,2,0,P|220:179|177:238,1,154.000004699707
201,328,136952,6,0,B|103:316|151:374|36:348,1,154.000004699707
6,271,137425,2,0,P|6:234|-2:191,1,77.0000023498536
38,112,137741,1,0,0:0:0:0:
38,112,137899,1,0,0:0:0:0:
126,138,138057,6,0,P|166:136|200:124,1,77.0000023498536
102,46,138373,2,0,P|140:45|177:33,1,77.0000023498536
266,54,138688,2,0,P|338:42|378:103,1,154.000004699707
457,153,139162,2,0,P|447:190|443:228,1,77.0000023498536
458,320,139478,6,0,P|420:320|386:297,1,77.0000023498536
324,232,139794,1,0,0:0:0:0:
259,298,139952,2,0,P|250:334|249:379,1,77.0000023498536
157,364,140267,2,0,P|158:326|168:281,1,77.0000023498536
90,233,140583,5,0,0:0:0:0:
151,8,140899,1,0,0:0:0:0:
262,212,141215,1,0,0:0:0:0:
27,109,141531,2,0,B|133:96|81:153|192:138,1,154.000004699707
186,131,141925,1,0,0:0:0:0:
198,119,142004,6,0,P|271:114|308:177,1,154.000004699707
395,145,142478,2,0,P|397:106|408:69,1,77.0000023498536
479,184,142794,1,0,0:0:0:0:
479,184,142952,1,0,0:0:0:0:
435,264,143109,6,0,P|406:239|368:239,1,77.0000023498536
340,328,143425,2,0,P|368:352|406:352,1,77.0000023498536
285,261,143741,2,0,B|191:246|228:303|125:282,1,154.000004699707
50,317,144215,2,0,P|48:277|39:240,1,77.0000023498536
15,157,144531,6,0,P|52:151|85:169,1,77.0000023498536
175,190,144846,1,0,0:0:0:0:
221,110,145004,2,0,P|218:71|210:33,1,77.0000023498536
303,22,145320,2,0,P|310:59|313:98,1,77.0000023498536
393,145,145636,6,0,P|465:134|505:199,1,154.000004699707
482,284,146109,2,0,P|444:282|395:264,1,77.0000023498536
331,215,146425,1,0,0:0:0:0:
256,265,146583,2,0,P|245:301|241:340,1,77.0000023498536
152,375,146899,1,0,0:0:0:0:
63,347,147057,6,0,P|68:270|94:196,1,154.000004699707
72,107,147531,2,0,P|108:171|183:169,1,154.000004699707
249,110,148004,2,0,P|249:71|240:34,1,77.0000023498536
331,5,148320,5,0,0:0:0:0:
331,5,148478,1,0,0:0:0:0:
381,82,148636,2,0,P|418:84|457:76,1,77.0000023498536
510,152,148952,1,0,0:0:0:0:
468,234,149109,2,0,B|379:218|410:274|318:257,1,154.000004699707
242,209,149583,6,0,P|233:246|230:284,1,77.0000023498536
141,259,149899,1,0,0:0:0:0:
94,338,150057,1,0,0:0:0:0:
8,303,150215,2,0,P|19:231|22:150,1,154.000004699707
66,68,150688,1,0,0:0:0:0:
143,118,150846,5,0,0:0:0:0:
214,58,151004,2,0,L|218:12,2,38.5000011749268
252,142,151320,1,0,0:0:0:0:
326,87,151478,2,0,L|329:48,2,38.5000011749268
386,157,151794,2,0,L|382:203,3,38.5000011749268
388,245,152109,6,0,P|314:228|267:282,1,154.000004699707
185,324,152583,2,0,P|183:285|176:247,1,77.0000023498536
222,168,152899,1,0,0:0:0:0:
222,168,153057,1,0,0:0:0:0:
132,145,153215,6,0,P|93:154|54:154,1,77.0000023498536
120,51,153531,2,0,P|82:58|44:58,1,77.0000023498536
205,83,153846,2,0,B|311:70|260:131|378:114,1,154.000004699707
425,62,154320,2,0,P|479:58|508:105,1,115.50000352478
504,134,154636,6,0,P|495:169|493:215,1,77.0000023498536
496,302,154952,1,0,0:0:0:0:
412,341,155109,2,0,P|372:339|340:311,1,77.0000023498536
267,263,155425,2,0,P|257:300|254:342,1,77.0000023498536
166,370,155741,6,0,P|117:310|45:326,1,154.000004699707
3,241,156215,2,0,P|11:203|10:161,1,77.0000023498536
67,91,156531,1,0,0:0:0:0:
118,166,156688,2,0,P|190:180|240:126,1,154.000004699707
217,36,157162,6,0,B|315:23|273:83|381:66,1,154.000004699707
440,18,157635,2,0,P|451:54|450:94,1,77.0000023498536
381,154,157951,1,0,0:0:0:0:
381,154,158109,1,0,0:0:0:0:
415,239,158267,6,0,P|453:243|490:233,1,77.0000023498536
429,331,158583,2,0,P|467:335|504:325,1,77.0000023498536
344,298,158899,2,0,P|272:288|232:353,1,154.000004699707
141,368,159372,2,0,P|141:331|130:287,1,77.0000023498536
70,221,159688,6,0,P|32:221|4:195,1,77.0000023498536
2,102,160004,1,0,0:0:0:0:
60,29,160162,2,0,P|98:34|136:38,1,77.0000023498536
201,105,160478,2,0,P|239:100|277:95,1,77.0000023498536
338,26,160793,5,0,0:0:0:0:
512,175,161109,1,0,0:0:0:0:
298,240,161425,1,0,0:0:0:0:
430,78,161741,2,0,P|410:152|404:228,1,154.000004699707
446,324,162214,6,0,P|407:263|334:269,1,154.000004699707
284,348,162688,2,0,P|243:347|213:316,1,77.0000023498536
201,236,163004,1,0,0:0:0:0:
201,236,163162,1,0,0:0:0:0:
117,277,163320,6,0,P|104:313|99:351,1,77.0000023498536
26,256,163636,2,0,P|13:292|8:331,1,77.0000023498536
0,160,163951,2,0,P|72:175|120:120,1,154.000004699707
195,64,164425,2,0,P|233:68|271:62,1,77.0000023498536
359,89,164741,6,0,P|359:50|349:13,1,77.0000023498536
444,5,165057,2,0,P|452:44|452:81,1,77.0000023498536
411,168,165372,1,0,0:0:0:0:
436,256,165530,2,0,P|474:259|512:253,1,77.0000023498536
478,353,165846,6,0,B|393:333|425:389|330:372,1,154.000004699707
272,299,166320,2,0,P|235:291|203:310,1,77.0000023498536
134,373,166635,1,0,0:0:0:0:
43,347,166793,2,0,P|41:308|32:271,1,77.0000023498536
54,186,167109,5,0,0:0:0:0:
54,186,167188,1,0,0:0:0:0:
54,186,167267,2,0,P|91:190|127:157,1,77.0000023498536
140,76,167583,1,0,0:0:0:0:
217,25,167741,2,0,P|288:41|370:46,1,154.000004699707
450,2,168214,2,0,P|467:35|462:75,1,77.0000023498536
398,140,168530,5,0,0:0:0:0:
398,140,168688,1,0,0:0:0:0:
475,189,168846,1,0,0:0:0:0:
441,274,169004,2,0,P|369:256|321:313,1,154.000004699707
232,339,169478,2,0,P|232:298|241:263,1,77.0000023498536
196,182,169793,6,0,P|141:172|99:218,1,115.50000352478
87,224,170109,2,0,P|87:183|78:148,1,77.0000023498536
53,58,170425,2,0,B|147:46|110:102|212:87,1,154.000004699707
284,45,170899,5,0,0:0:0:0:
284,45,170978,1,0,0:0:0:0:
284,45,171057,1,0,0:0:0:0:
371,71,171214,2,0,P|359:108|356:146,1,77.0000023498536
400,229,171530,2,0,P|436:239|474:236,1,77.0000023498536
344,326,171846,2,0,P|301:266|229:278,1,154.000004699707
162,342,172320,5,0,0:0:0:0:
256,192,172399,12,0,175478,0:0:0:0:
83,354,192531,6,0,P|161:349|221:332,1,140
206,248,193004,2,0,P|140:268|69:271,1,140
11,209,193478,1,0,0:0:0:0:
80,61,193794,6,0,P|115:62|149:53,1,70
217,102,194109,1,0,0:0:0:0:
262,31,194267,2,0,P|327:17|371:69,1,140
447,102,194741,2,0,P|437:135|434:170,1,70
505,225,195057,6,0,P|441:202|388:243,1,140
304,257,195531,2,0,P|313:290|316:325,1,70
250,378,195846,1,0,0:0:0:0:
177,335,196004,2,0,P|139:335|111:362,1,70
31,341,196320,6,0,P|29:306|19:271,1,70
47,192,196636,1,0,0:0:0:0:
119,235,196794,2,0,P|185:241|226:188,1,140
304,155,197267,2,0,P|338:164|373:166,1,70
424,81,197583,6,0,P|355:83|287:62,1,140
212,23,198057,2,0,P|146:12|105:65,1,140
80,145,198531,1,0,0:0:0:0:
65,311,198846,6,0,P|30:309|4:287,1,70
67,231,199162,1,0,0:0:0:0:
146,202,199320,2,0,B|231:192|188:245|296:232,1,140
360,252,199794,2,0,P|366:286|366:321,1,70
450,351,200109,6,0,P|451:281|441:211,1,140
459,111,200583,2,0,P|427:169|361:166,1,140
304,102,201057,2,0,P|307:67|315:33,1,70
219,50,201373,6,0,P|183:48|144:37,2,70
225,133,201846,1,0,0:0:0:0:
84,226,202162,1,0,0:0:0:0:
108,306,202320,2,0,P|146:307|180:318,1,70
249,355,202636,6,0,P|315:367|357:311,1,140
427,269,203109,2,0,P|361:281|319:225,1,140
316,144,203583,1,0,0:0:0:0:
457,52,203899,6,0,P|466:85|460:121,1,70
401,180,204215,1,0,0:0:0:0:
377,93,204373,2,0,B|291:83|328:134|234:120,1,140
159,143,204846,2,0,P|161:108|170:74,1,70
93,29,205162,6,0,P|75:96|71:166,1,140
0,216,205636,2,0,P|65:205|103:259,1,140
159,322,206109,2,0,P|193:320|227:329,1,70
280,264,206425,5,0,0:0:0:0:
280,264,206583,1,0,0:0:0:0:
334,327,206741,1,0,0:0:0:0:
416,319,206899,2,0,P|463:270|450:204,1,140
407,130,207373,2,0,P|409:95|420:60,1,70
346,8,207688,6,0,P|329:63|320:150,1,140
245,185,208162,2,0,P|206:130|141:140,1,140
75,193,208636,2,0,P|81:227|81:268,1,70
40,337,208952,5,0,0:0:0:0:
40,337,209109,1,0,0:0:0:0:
118,367,209267,2,0,P|151:367|181:341,1,70
224,273,209583,2,0,P|262:271|291:299,1,70
333,359,209899,2,0,P|367:361|393:340,1,70
446,274,210215,5,0,0:0:0:0:
446,274,210373,1,0,0:0:0:0:
503,212,210531,2,0,P|499:177|496:142,1,70
428,102,210846,1,0,0:0:0:0:
428,102,211004,1,0,0:0:0:0:
361,153,211162,2,0,P|364:187|367:222,1,70
309,295,211478,6,0,P|270:299|233:271,1,77.0000023498536
156,179,211794,2,0,P|194:178|231:167,1,77.0000023498536
130,293,212109,2,0,P|91:292|54:281,1,77.0000023498536
10,198,212425,2,0,P|9:178|6:159,3,38.5000011749268
0,127,212741,6,0,P|37:64|112:80,1,154.000004699707
152,157,213215,2,0,B|257:145|208:202|312:190,1,154.000004699707
362,125,213688,2,0,P|361:85|352:49,1,77.0000023498536
431,0,214004,6,0,P|448:74|451:151,1,154.000004699707
371,205,214478,1,0,0:0:0:0:
437,269,214636,2,0,P|473:281|512:285,1,77.0000023498536
419,358,214952,2,0,P|455:372|494:376,1,77.0000023498536
341,299,215267,6,0,P|270:277|217:327,1,154.000004699707
140,379,215741,1,0,0:0:0:0:
50,357,215899,2,0,P|47:314|37:277,1,77.0000023498536
43,187,216215,2,0,P|81:186|110:162,1,77.0000023498536
83,73,216531,6,0,B|179:60|143:115|232:106,1,154.000004699707
307,58,217004,1,0,0:0:0:0:
398,48,217162,2,0,P|435:46|463:72,1,77.0000023498536
428,158,217478,2,0,P|390:159|362:133,1,77.0000023498536
283,182,217794,6,0,P|272:220|268:261,1,77.0000023498536
216,333,218109,2,0,P|180:321|145:337,1,77.0000023498536
65,381,218425,1,0,0:0:0:0:
65,381,218583,1,0,0:0:0:0:
4,310,218741,2,0,P|12:273|12:235,1,77.0000023498536
1,142,219057,6,0,P|41:140|71:172,1,77.0000023498536
121,238,219373,1,0,0:0:0:0:
193,176,219531,2,0,P|199:99|221:23,1,154.000004699707
297,77,220004,2,0,P|287:113|284:152,1,77.0000023498536
360,205,220320,6,0,P|397:214|440:211,1,77.0000023498536
509,268,220636,1,0,0:0:0:0:
473,353,220794,2,0,B|388:339|418:394|321:379,1,154.000004699707
238,348,221267,1,0,0:0:0:0:
176,278,221425,6,0,P|137:286|96:288,1,77.0000023498536
47,364,221741,1,0,0:0:0:0:
263,216,222057,1,0,0:0:0:0:
21,114,222373,1,0,0:0:0:0:
173,326,222688,1,0,0:0:0:0:
121,248,222846,6,0,P|126:172|145:97,1,154.000004699707
124,9,223320,2,0,P|164:70|237:64,1,154.000004699707
318,18,223794,2,0,P|355:25|395:28,1,77.0000023498536
479,62,224109,6,0,P|475:80|474:100,3,38.5000011749268
456,123,224425,2,0,P|416:116|384:138,1,77.0000023498536
377,227,224741,2,0,P|415:229|453:222,1,77.0000023498536
386,324,225057,2,0,P|424:326|462:319,1,77.0000023498536
299,290,225373,6,0,P|244:280|206:321,1,115.50000352478
208,341,225688,1,0,0:0:0:0:
125,383,225846,1,0,0:0:0:0:
40,345,226004,2,0,P|43:306|47:268,1,77.0000023498536
132,229,226320,2,0,P|127:190|123:152,1,77.0000023498536
97,62,226636,6,0,B|199:50|149:105|259:91,1,154.000004699707
328,128,227109,1,0,0:0:0:0:
393,62,227267,1,0,0:0:0:0:
393,62,227425,1,0,0:0:0:0:
475,103,227583,2,0,P|465:141|462:178,1,77.0000023498536
419,263,227899,6,0,P|421:284|426:308,2,38.5000011749268
375,167,228215,2,0,P|375:147|378:126,2,38.5000011749268
317,255,228531,2,0,P|318:272|321:293,2,38.5000011749268
249,193,228846,2,0,P|212:192|179:226,1,77.0000023498536
148,305,229162,5,0,0:0:0:0:
148,305,229320,1,0,0:0:0:0:
64,264,229478,2,0,P|61:228|49:183,1,77.0000023498536
135,145,229794,1,0,0:0:0:0:
135,145,229952,1,0,0:0:0:0:
225,163,230109,2,0,P|227:127|240:82,1,77.0000023498536
302,20,230425,6,0,P|339:19|367:46,1,77.0000023498536
366,138,230741,2,0,B|464:129|417:188|527:177,1,154.000004699707
502,271,231215,1,0,0:0:0:0:
411,290,231373,2,0,P|373:289|344:314,1,77.0000023498536
279,378,231688,5,0,0:0:0:0:
203,324,231846,2,0,L|207:280,2,38.5000011749268
110,335,232162,2,0,L|117:258,1,77.0000023498536
39,206,232478,1,0,0:0:0:0:
37,193,232557,1,0,0:0:0:0:
36,181,232636,2,0,P|34:158|33:140,3,38.5000011749268
12,114,232952,6,0,P|42:49|114:59,1,154.000004699707
190,112,233425,2,0,P|197:76|200:30,1,77.0000023498536
297,20,233741,1,0,0:0:0:0:
297,20,233899,1,0,0:0:0:0:
379,61,234057,6,0,P|416:70|457:69,1,77.0000023498536
369,152,234373,2,0,P|405:160|443:160,1,77.0000023498536
485,272,234688,2,0,P|416:249|369:304,1,154.000004699707
303,374,235162,2,0,P|243:371|212:318,1,115.50000352478
212,305,235478,6,0,P|215:263|223:229,1,77.0000023498536
150,170,235794,1,0,0:0:0:0:
111,254,235952,2,0,P|74:243|35:241,1,77.0000023498536
1,155,236267,2,0,P|8:117|10:78,1,77.0000023498536
88,27,236583,6,0,P|159:11|203:69,1,154.000004699707
266,137,237057,2,0,P|308:144|341:121,1,77.0000023498536
367,39,237373,1,0,0:0:0:0:
437,98,237531,2,0,P|422:172|419:260,1,154.000004699707
500,293,238004,6,0,B|404:273|449:336|330:308,1,154.000004699707
290,242,238478,2,0,P|252:239|222:271,1,77.0000023498536
203,357,238794,1,0,0:0:0:0:
203,357,238952,1,0,0:0:0:0:
127,303,239109,6,0,P|125:264|117:227,1,77.0000023498536
35,312,239425,2,0,P|32:274|24:237,1,77.0000023498536
2,145,239741,2,0,P|31:79|103:85,1,154.000004699707
158,159,240215,2,0,P|195:163|230:145,1,77.0000023498536
298,82,240531,6,0,P|297:42|292:4,1,77.0000023498536
389,43,240846,1,0,0:0:0:0:
461,100,241004,2,0,P|460:137|465:176,1,77.0000023498536
453,270,241320,2,0,P|421:249|383:253,1,77.0000023498536
329,333,241636,5,0,0:0:0:0:
131,191,241952,1,0,0:0:0:0:
360,104,242267,1,0,0:0:0:0:
204,306,242583,2,0,B|108:294|154:363|32:337,1,154.000004699707
16,258,243057,6,0,P|12:182|0:106,1,154.000004699707
68,42,243531,2,0,P|105:38|137:58,1,77.0000023498536
208,126,243846,1,0,0:0:0:0:
208,126,244004,1,0,0:0:0:0:
287,79,244162,6,0,P|294:41|298:2,1,77.0000023498536
381,93,244478,2,0,P|387:55|390:16,1,77.0000023498536
452,159,244794,2,0,P|384:131|334:186,1,154.000004699707
268,245,245267,2,0,P|230:248|199:225,1,77.0000023498536
126,167,245583,6,0,P|88:176|50:176,1,77.0000023498536
9,259,245899,1,0,0:0:0:0:
91,301,246057,2,0,P|98:339|99:376,1,77.0000023498536
191,370,246373,2,0,P|190:332|182:292,1,77.0000023498536
234,217,246688,6,0,P|307:201|354:261,1,154.000004699707
446,262,247162,2,0,P|449:223|459:185,1,77.0000023498536
511,110,247477,1,0,0:0:0:0:
448,40,247636,2,0,P|409:37|372:26,1,77.0000023498536
323,104,247952,1,0,0:0:0:0:
243,56,248109,6,0,B|152:39|188:97|73:70,1,154.000004699707
10,115,248583,2,0,P|9:154|0:193,1,77.0000023498536
35,277,248899,1,0,0:0:0:0:
112,225,249057,2,0,P|154:227|177:260,1,77.0000023498536
206,339,249373,6,0,P|245:333|283:330,1,77.0000023498536
303,240,249688,2,0,P|341:245|379:248,1,77.0000023498536
450,316,250004,1,0,0:0:0:0:
450,316,250162,1,0,0:0:0:0:
491,226,250320,2,0,P|493:188|503:151,1,77.0000023498536
466,65,250636,6,0,P|427:63|390:53,1,77.0000023498536
307,10,250952,1,0,0:0:0:0:
243,77,251110,1,0,0:0:0:0:
168,23,251267,2,0,P|95:11|50:72,1,154.000004699707
109,140,251741,1,0,0:0:0:0:
36,197,251899,5,0,0:0:0:0:
88,273,252057,2,0,L|82:319,2,38.5000011749268
163,218,252373,1,0,0:0:0:0:
218,292,252531,2,0,L|211:341,2,38.5000011749268
300,250,252846,2,0,L|307:199,3,38.5000011749268
317,177,253162,6,0,P|387:160|431:218,1,154.000004699707
461,306,253636,2,0,P|422:306|384:298,1,77.0000023498536
298,332,253952,1,0,0:0:0:0:
257,248,254110,1,0,0:0:0:0:
176,292,254267,6,0,P|166:329|163:367,1,77.0000023498536
83,281,254583,2,0,P|73:318|70:356,1,77.0000023498536
0,229,254899,2,0,P|72:241|122:183,1,154.000004699707
180,113,255373,2,0,P|241:104|271:149,1,115.50000352478
284,166,255688,6,0,P|322:170|362:163,1,77.0000023498536
440,209,256004,1,0,0:0:0:0:
458,299,256162,2,0,P|420:302|386:285,1,77.0000023498536
292,283,256478,2,0,P|284:320|281:359,1,77.0000023498536
187,383,256794,6,0,P|191:307|211:232,1,154.000004699707
152,167,257267,2,0,P|114:165|80:133,1,77.0000023498536
73,47,257583,1,0,0:0:0:0:
159,79,257741,2,0,B|258:69|215:124|307:114,1,154.000004699707
381,63,258215,6,0,P|453:54|489:117,1,154.000004699707
459,205,258688,2,0,P|419:203|381:192,1,77.0000023498536
316,128,259004,1,0,0:0:0:0:
237,176,259162,1,0,0:0:0:0:
185,98,259320,6,0,P|187:59|196:22,1,77.0000023498536
96,88,259636,2,0,P|99:50|108:12,1,77.0000023498536
7,111,259952,2,0,P|47:172|121:173,1,154.000004699707
205,210,260425,2,0,P|212:247|212:288,1,77.0000023498536
273,356,260741,6,0,P|310:361|344:340,1,77.0000023498536
365,251,261057,1,0,0:0:0:0:
433,188,261215,2,0,P|470:182|515:184,1,77.0000023498536
505,90,261531,2,0,P|466:88|428:93,1,77.0000023498536
358,32,261846,5,0,0:0:0:0:
118,123,262162,1,0,0:0:0:0:
346,246,262478,1,0,0:0:0:0:
245,53,262794,2,0,P|245:129|234:206,1,154.000004699707
315,275,263267,6,0,B|227:264|269:317|165:302,1,154.000004699707
80,331,263741,2,0,P|74:293|86:257,1,77.0000023498536
160,200,264057,1,0,0:0:0:0:
160,200,264215,1,0,0:0:0:0:
85,144,264373,6,0,P|44:140|8:127,1,77.0000023498536
108,53,264688,2,0,P|69:50|33:38,1,77.0000023498536
202,27,265004,2,0,P|274:18|312:80,1,154.000004699707
368,154,265478,2,0,P|406:164|445:165,1,77.0000023498536
506,232,265794,6,0,P|498:269|495:307,1,77.0000023498536
416,357,266110,2,0,P|378:358|345:332,1,77.0000023498536
303,251,266425,1,0,0:0:0:0:
212,271,266583,2,0,P|203:307|200:346,1,77.0000023498536
110,378,266899,6,0,P|115:301|135:226,1,154.000004699707
90,144,267373,2,0,P|62:158|6:150,1,77.0000023498536
45,67,267688,1,0,0:0:0:0:
132,38,267846,2,0,P|163:59|205:61,1,77.0000023498536
288,21,268162,5,0,0:0:0:0:
288,21,268241,1,0,0:0:0:0:
288,21,268320,2,0,P|297:63|294:107,1,77.0000023498536
226,159,268636,1,0,0:0:0:0:
289,224,268794,2,0,P|339:171|410:189,1,154.000004699707
448,273,269267,2,0,P|441:310|439:353,1,77.0000023498536
354,383,269583,5,0,0:0:0:0:
354,383,269741,1,0,0:0:0:0:
278,329,269899,1,0,0:0:0:0:
193,371,270057,2,0,P|205:295|207:217,1,154.000004699707
128,166,270531,2,0,P|89:167|46:153,1,77.0000023498536
55,64,270846,6,0,P|108:80|168:74,1,115.50000352478
192,60,271162,2,0,P|230:57|258:82,1,77.0000023498536
297,166,271478,2,0,B|391:154|342:216|458:200,1,154.000004699707
491,292,271952,5,0,0:0:0:0:
491,292,272031,1,0,0:0:0:0:
491,292,272110,1,0,0:0:0:0:
405,325,272267,2,0,P|367:320|337:342,1,77.0000023498536
250,376,272583,2,0,P|250:336|242:289,1,77.0000023498536
184,243,272899,1,0,0:0:0:0:
184,243,272978,1,0,0:0:0:0:
184,243,273057,2,0,P|187:218|197:189,3,38.5000011749268
207,182,273373,5,0,0:0:0:0:
256,192,273452,12,0,277794,0:0:0:0:
256,192,278109,5,0,0:0:0:0:
177,340,278425,2,0,P|109:343|70:289,1,140
75,204,278899,2,0,P|72:134|59:65,1,140
147,77,279373,2,0,P|155:111|158:149,1,70
224,194,279688,6,0,P|259:197|287:178,1,70
295,93,280004,1,0,0:0:0:0:
369,54,280162,2,0,P|435:44|477:98,1,140
448,176,280636,2,0,P|439:209|435:250,1,70
507,289,280952,6,0,B|425:271|454:330|355:304,1,140
308,253,281425,2,0,P|273:251|246:277,1,70
192,337,281741,1,0,0:0:0:0:
109,321,281899,2,0,P|100:287|99:252,1,70
40,191,282215,5,0,0:0:0:0:
84,120,282373,2,0,P|82:102|80:85,2,35
146,178,282688,1,0,0:0:0:0:
205,119,282846,1,0,0:0:0:0:
205,119,282925,1,0,0:0:0:0:
205,119,283004,1,0,0:0:0:0:
280,154,283162,2,0,P|280:172|282:189,3,35
300,219,283478,6,0,B|385:215|351:264|435:252,1,140
494,196,283952,2,0,P|495:157|508:113,1,70
463,52,284267,1,0,0:0:0:0:
387,87,284425,2,0,P|352:86|318:76,1,70
253,31,284741,5,0,0:0:0:0:
253,31,284899,1,0,0:0:0:0:
170,45,285057,2,0,P|160:79|157:114,1,70
95,164,285373,2,0,P|60:167|26:159,1,70
15,243,285688,2,0,P|47:251|88:251,1,70
165,228,286004,6,0,P|241:226|265:291,1,140
315,344,286478,2,0,P|379:360|428:312,1,140
482,248,286952,2,0,P|484:213|492:179,1,70
509,96,287267,6,0,P|475:89|445:106,1,70
397,177,287583,1,0,0:0:0:0:
397,177,287741,1,0,0:0:0:0:
314,160,287899,2,0,P|316:90|332:20,1,140
248,4,288373,1,0,0:0:0:0:
209,78,288531,6,0,B|124:69|159:114|73:97,1,140
5,146,289004,2,0,P|4:181|-5:227,1,70
22,296,289320,1,0,0:0:0:0:
94,335,289478,2,0,P|128:342|159:327,1,70
203,256,289794,5,0,0:0:0:0:
203,256,289952,1,0,0:0:0:0:
284,269,290109,2,0,P|278:303|276:338,1,70
359,384,290425,2,0,P|363:313|374:245,1,140
437,188,290899,1,0,0:0:0:0:
405,103,291057,6,0,P|422:106|439:108,4,35
341,47,291531,2,0,L|345:2,2,35
287,112,291846,1,0,0:0:0:0:
287,112,291925,1,0,0:0:0:0:
287,112,292004,2,0,L|291:150,4,35
199,56,292478,5,0,0:0:0:0:
199,56,292636,1,0,0:0:0:0:
120,115,292794,1,0,0:0:0:0:
120,115,292952,1,0,0:0:0:0:
190,182,293109,1,0,0:0:0:0:
273,122,293267,6,0,P|277:80|283:38,1,83.9999974365235
