osu file format v14

[General]
AudioFilename: audio.mp3
AudioLeadIn: 0
PreviewTime: 46686
Countdown: 0
SampleSet: Normal
StackLeniency: 0.7
Mode: 1
LetterboxInBreaks: 0
WidescreenStoryboard: 1

[Editor]
DistanceSpacing: 0.5
BeatDivisor: 4
GridSize: 16
TimelineZoom: 0.5999998

[Metadata]
Title:Star map
TitleUnicode:Star map
Artist:Shimotsuki Haruka
ArtistUnicode:霜月はるか
Creator:Erowdi
Version:Kantan
Source:見上げてごらん、夜空の星を
Tags:j-pop gaston_2199 joltZZZ female vocals vocalist vn video videogame game Miagete goran Yozora no Hoshi o A sky full of stars PULLTOP eroge galgame visual novel opening op japanese pop jpop jrock j-rock rock short ver version
BeatmapID:4345836
BeatmapSetID:2075796

[Difficulty]
HPDrainRate:8
CircleSize:5
OverallDifficulty:2.5
ApproachRate:5
SliderMultiplier:1.4
SliderTickRate:1

[Events]
//Background and Video events
0,0,"korona.jpg",0,5
//Break Periods
//Storyboard Layer 0 (Background)
//Storyboard Layer 1 (Fail)
//Storyboard Layer 2 (Pass)
//Storyboard Layer 3 (Foreground)
//Storyboard Layer 4 (Overlay)
//Storyboard Sound Samples

[TimingPoints]
739,315.789473684211,4,1,0,20,1,0
739,-100,4,1,0,20,0,0
5771,-100,4,1,0,55,0,0
13047,-100,4,1,0,62,0,0
13126,-100,4,1,0,63,0,0
13205,-100,4,1,0,65,0,0
13284,-100,4,1,0,66,0,0
13363,-100,4,1,0,68,0,0
13521,-100,4,1,0,70,0,0
13679,-100,4,1,0,70,0,0
13837,-100,4,1,0,70,0,0
13995,-100,4,1,0,70,0,0
14153,-100,4,1,0,70,0,0
14310,-100,4,1,0,70,0,0
14389,-100,4,1,0,70,0,0
14468,-100,4,1,0,70,0,0
14547,-100,4,1,0,70,0,0
14626,-100,4,1,0,70,0,0
14784,-100,4,1,0,70,0,0
14863,-100,4,1,0,70,0,0
14942,-100,4,1,0,70,0,0
15100,-100,4,1,0,70,0,0
15179,-100,4,1,0,70,0,0
15258,-100,4,1,0,70,0,0
15416,-100,4,1,0,75,0,0
15495,-100,4,1,0,75,0,0
15574,-100,4,1,0,75,0,0
15653,-100,4,1,0,75,0,0
15732,-100,4,1,0,75,0,0
15810,-100,4,1,0,75,0,0
15889,-100,4,1,0,75,0,0
15975,-100,4,1,0,50,0,0
25923,-100,4,1,0,55,0,0
30975,-100,4,1,0,60,0,0
34607,-100,4,1,0,74,0,0
36028,-100,4,1,0,60,0,0
41002,-100,4,1,0,64,0,0
42186,-100,4,1,0,68,0,0
43607,-100,4,1,0,72,0,0
44712,-100,4,1,0,92,0,0
45889,-100,4,1,0,65,0,0
45968,-100,4,1,0,65,0,0
46047,-100,4,1,0,65,0,0
46126,-100,4,1,0,65,0,0
46205,-100,4,1,0,65,0,0
46284,-100,4,1,0,64,0,0
46363,-100,4,1,0,63,0,0
46442,-100,4,1,0,63,0,0
46521,-100,4,1,0,63,0,0
46600,-100,4,1,0,63,0,0
46679,-100,4,1,0,63,0,0
46758,-100,4,1,0,63,0,0
46837,-100,4,1,0,62,0,0
46916,-100,4,1,0,62,0,0
46995,-100,4,1,0,62,0,0
47074,-100,4,1,0,61,0,0
47153,-100,4,1,0,61,0,0
47396,-100,4,1,0,60,0,0
47475,-100,4,1,0,80,0,1
56140,-100,4,1,0,80,0,1
57265,-100,4,1,0,80,0,1
57561,-100,4,1,0,80,0,1
57581,-100,4,1,0,75,0,1
66416,-100,4,1,0,80,0,1
66495,-100,4,1,0,80,0,1
66574,-100,4,1,0,80,0,1
66653,-100,4,1,0,80,0,1
66732,-100,4,1,0,80,0,1
66810,-100,4,1,0,80,0,1
66889,-100,4,1,0,80,0,1
66968,-100,4,1,0,80,0,1
67047,-100,4,1,0,80,0,1
67126,-100,4,1,0,80,0,1
67205,-100,4,1,0,80,0,1
67284,-100,4,1,0,80,0,1
67363,-100,4,1,0,80,0,1
67442,-100,4,1,0,80,0,1
67521,-100,4,1,0,80,0,1
67600,-100,4,1,0,80,0,1
67686,-100,4,1,0,85,0,1
76350,-100,4,1,0,85,0,1
77278,-100,4,1,0,85,0,1
77712,-100,4,1,0,85,0,1
77791,-100,4,1,0,77,0,1
82824,-100,4,1,0,77,0,1
82844,-100,4,1,0,90,0,1
83153,-100,4,1,0,90,0,1
83310,-100,4,1,0,90,0,1
83389,-100,4,1,0,90,0,1
83468,-100,4,1,0,90,0,1
83547,-100,4,1,0,90,0,1
83626,-100,4,1,0,90,0,1
83705,-100,4,1,0,90,0,1
83784,-100,4,1,0,90,0,1
83863,-100,4,1,0,90,0,1
83942,-100,4,1,0,90,0,1
84021,-100,4,1,0,90,0,1
84100,-100,4,1,0,90,0,1
84258,-100,4,1,0,90,0,1
84337,-100,4,1,0,90,0,1
84416,-100,4,1,0,90,0,1
84574,-100,4,1,0,90,0,1
84732,-100,4,1,0,90,0,1
84810,-100,4,1,0,90,0,1
84889,-100,4,1,0,90,0,1
84968,-100,4,1,0,90,0,1
85047,-100,4,1,0,90,0,1
85205,-100,4,1,0,90,0,1
85363,-100,4,1,0,90,0,1
85442,-100,4,1,0,90,0,1
85521,-100,4,1,0,90,0,1
85600,-100,4,1,0,90,0,1
85679,-100,4,1,0,90,0,1
85758,-100,4,1,0,90,0,1
85837,-100,4,1,0,90,0,1
85916,-100,4,1,0,90,0,1
85995,-100,4,1,0,90,0,1
86074,-100,4,1,0,90,0,1
86153,-100,4,1,0,90,0,1
86232,-100,4,1,0,90,0,1
86310,-100,4,1,0,90,0,1
86389,-100,4,1,0,90,0,1
86468,-100,4,1,0,90,0,1
86547,-100,4,1,0,90,0,1
86626,-100,4,1,0,90,0,1
86705,-100,4,1,0,90,0,1
86784,-100,4,1,0,90,0,1
87100,-100,4,1,0,90,0,1
87416,-100,4,1,0,90,0,1
87574,-100,4,1,0,90,0,1
87732,-100,4,1,0,90,0,1
87896,-100,4,1,0,100,0,0
88375,-100,4,1,0,85,0,0
88686,-100,4,1,0,81,0,0
89140,-100,4,1,0,76,0,0
89739,-100,4,1,0,71,0,0
89992,-100,4,1,0,68,0,0
90418,-100,4,1,0,65,0,0
91016,-100,4,1,0,59,0,0
91349,-100,4,1,0,57,0,0
91675,-100,4,1,0,55,0,0
92070,-100,4,1,0,50,0,0
92317,-100,4,1,0,47,0,0
92527,-100,4,1,0,40,0,0
92932,-100,4,1,0,28,0,0

[HitObjects]
264,206,5791,5,12,0:0:0:0:
284,195,6423,1,0,0:0:0:0:
284,195,6896,1,0,0:0:0:0:
284,195,7370,1,0,0:0:0:0:
284,195,7686,1,8,0:0:0:0:
281,189,8317,1,8,0:0:0:0:
262,177,8949,1,0,0:0:0:0:
268,177,9581,1,8,0:0:0:0:
280,181,10212,1,0,0:0:0:0:
280,181,10528,1,0,0:0:0:0:
280,181,10844,1,8,0:0:0:0:
278,185,11475,1,0,0:0:0:0:
278,185,12107,1,8,0:0:0:0:
278,185,12739,1,0,0:0:0:0:
278,185,13054,1,0,0:0:0:0:
278,185,13370,1,8,0:0:0:0:
278,185,14002,1,0,0:0:0:0:
278,185,14317,1,8,0:0:0:0:
278,185,14633,1,0,0:0:0:0:
278,185,15107,1,8,0:0:0:0:
278,185,15423,1,8,0:0:0:0:
210,160,15896,1,0,0:0:0:0:
295,165,17160,1,8,0:0:0:0:
295,165,17633,1,8,0:0:0:0:
295,165,18423,1,0,0:0:0:0:
295,165,18896,1,0,0:0:0:0:
295,165,19686,1,8,0:0:0:0:
295,165,20160,1,0,0:0:0:0:
295,165,20949,1,8,0:0:0:0:
297,153,21896,1,0,0:0:0:0:
307,142,22370,1,0,0:0:0:0:
307,142,23002,1,8,0:0:0:0:
306,183,23475,1,8,0:0:0:0:
355,201,24107,1,0,0:0:0:0:
350,202,25686,1,0,0:0:0:0:
350,202,26002,1,8,0:0:0:0:
350,202,26949,1,8,0:0:0:0:
350,202,27265,1,0,0:0:0:0:
350,202,27739,1,0,0:0:0:0:
350,202,28054,1,8,0:0:0:0:
350,202,28528,1,0,0:0:0:0:
350,202,29002,1,8,0:0:0:0:
176,147,29475,1,0,0:0:0:0:
256,96,29949,1,8,0:0:0:0:
288,176,30739,1,8,0:0:0:0:
288,176,31054,1,4,0:0:0:0:
320,192,31686,1,0,0:0:0:0:
320,192,32317,1,8,0:0:0:0:
320,192,32949,1,8,0:0:0:0:
320,192,33265,1,8,0:0:0:0:
320,192,33581,1,0,0:0:0:0:
320,192,34212,1,8,0:0:0:0:
320,192,34686,1,4,0:0:0:0:
320,192,36107,1,12,0:0:0:0:
320,192,37054,1,0,0:0:0:0:
320,192,37370,1,8,0:0:0:0:
320,192,37844,1,0,0:0:0:0:
320,192,38317,1,8,0:0:0:0:
320,192,38633,1,0,0:0:0:0:
320,192,39265,1,0,0:0:0:0:
320,192,39896,1,8,0:0:0:0:
320,192,40528,1,8,0:0:0:0:
320,192,40844,1,0,0:0:0:0:
320,192,41160,1,12,0:0:0:0:
320,208,42265,1,4,0:0:0:0:
320,208,42739,1,8,0:0:0:0:
336,208,43370,1,8,0:0:0:0:
336,208,43686,1,4,0:0:0:0:
304,176,44317,1,8,0:0:0:0:
258,187,44791,5,4,0:0:0:0:
276,183,45423,1,4,0:0:0:0:
320,192,46844,1,0,0:0:0:0:
320,192,47160,1,0,0:0:0:0:
255,187,47475,5,12,0:0:0:0:
293,203,48265,1,0,0:0:0:0:
293,203,48581,1,8,0:0:0:0:
293,203,49212,1,0,0:0:0:0:
293,203,49686,1,8,0:0:0:0:
293,203,50002,1,0,0:0:0:0:
293,203,50475,1,0,0:0:0:0:
293,203,50791,1,8,0:0:0:0:
292,186,51107,1,8,0:0:0:0:
292,186,51581,1,0,0:0:0:0:
292,186,52054,1,0,0:0:0:0:
292,186,52528,1,12,0:0:0:0:
293,203,53317,1,8,0:0:0:0:
293,203,53633,1,0,0:0:0:0:
293,203,54264,1,8,0:0:0:0:
293,203,54738,1,8,0:0:0:0:
293,203,55054,1,0,0:0:0:0:
293,203,55527,1,0,0:0:0:0:
293,203,55843,1,8,0:0:0:0:
292,186,56159,1,4,0:0:0:0:
287,199,57107,1,0,0:0:0:0:
292,186,57580,1,12,0:0:0:0:
293,203,58370,1,0,0:0:0:0:
293,203,58686,1,0,0:0:0:0:
298,175,59317,1,8,0:0:0:0:
298,175,60107,1,0,0:0:0:0:
298,175,60581,1,0,0:0:0:0:
298,175,60896,1,8,0:0:0:0:
316,169,61212,1,0,0:0:0:0:
316,169,62002,1,8,0:0:0:0:
316,169,62633,1,4,0:0:0:0:
316,169,63581,1,8,0:0:0:0:
316,169,64212,1,0,0:0:0:0:
316,169,64528,1,8,0:0:0:0:
316,169,65160,1,0,0:0:0:0:
316,169,65791,1,8,0:0:0:0:
316,169,66423,1,8,0:0:0:0:
316,169,67686,1,12,0:0:0:0:
293,203,68475,1,8,0:0:0:0:
293,203,68791,1,8,0:0:0:0:
293,203,69422,1,0,0:0:0:0:
293,203,69896,1,0,0:0:0:0:
293,203,70212,1,8,0:0:0:0:
293,203,70685,1,0,0:0:0:0:
293,203,71001,1,8,0:0:0:0:
292,186,71317,1,8,0:0:0:0:
292,186,71791,1,8,0:0:0:0:
292,186,72264,1,0,0:0:0:0:
292,186,72738,1,12,0:0:0:0:
293,203,73527,1,0,0:0:0:0:
293,203,73843,1,0,0:0:0:0:
293,203,74474,1,8,0:0:0:0:
293,203,74948,1,8,0:0:0:0:
293,203,75265,1,0,0:0:0:0:
293,203,75739,1,0,0:0:0:0:
293,203,76053,1,8,0:0:0:0:
292,186,76369,1,4,0:0:0:0:
287,199,77317,1,0,0:0:0:0:
292,186,77790,1,12,0:0:0:0:
293,203,78581,1,0,0:0:0:0:
293,203,78897,1,0,0:0:0:0:
298,175,79528,1,8,0:0:0:0:
298,175,80317,1,0,0:0:0:0:
317,179,80949,1,8,0:0:0:0:
316,169,81423,1,0,0:0:0:0:
317,179,81896,1,0,0:0:0:0:
316,169,82213,1,8,0:0:0:0:
316,169,82844,1,4,0:0:0:0:
174,114,83475,1,8,0:0:0:0:
174,114,83791,1,0,0:0:0:0:
174,114,84107,1,8,0:0:0:0:
174,114,84739,1,0,0:0:0:0:
174,114,85370,1,8,0:0:0:0:
174,114,85686,1,8,0:0:0:0:
174,114,86002,1,8,0:0:0:0:
174,114,86317,1,0,0:0:0:0:
174,114,86633,1,8,0:0:0:0:
174,114,87107,1,0,0:0:0:0:
298,138,87423,1,8,0:0:0:0:
298,138,87896,1,4,0:0:0:0:
256,192,88212,12,0,92949,0:0:0:0:
