osu file format v14

[General]
AudioFilename: audio.mp3
AudioLeadIn: 0
PreviewTime: 46686
Countdown: 0
SampleSet: Normal
StackLeniency: 0.7
Mode: 1
LetterboxInBreaks: 0
WidescreenStoryboard: 0

[Editor]
DistanceSpacing: 0.5
BeatDivisor: 4
GridSize: 16
TimelineZoom: 1.9

[Metadata]
Title:Star map
TitleUnicode:Star map
Artist:Shimotsuki Haruka
ArtistUnicode:霜月はるか
Creator:Erowdi
Version:Inner Oni
Source:見上げてごらん、夜空の星を
Tags:j-pop gaston_2199 joltZZZ female vocals vocalist vn video videogame game Miagete goran Yozora no Hoshi o A sky full of stars PULLTOP eroge galgame visual novel opening op japanese pop jpop jrock j-rock rock short ver version
BeatmapID:4345835
BeatmapSetID:2075796

[Difficulty]
HPDrainRate:6
CircleSize:5
OverallDifficulty:6
ApproachRate:5
SliderMultiplier:1.4
SliderTickRate:1

[Events]
//Background and Video events
0,0,"korona.jpg",0,5
//Break Periods
//Storyboard Layer 0 (Background)
//Storyboard Layer 1 (Fail)
//Storyboard Layer 2 (Pass)
//Storyboard Layer 3 (Foreground)
//Storyboard Layer 4 (Overlay)
//Storyboard Sound Samples

[TimingPoints]
739,315.789473684211,4,1,0,20,1,0
739,-142.857142857143,4,1,0,20,0,0
5771,-125,4,1,0,55,0,0
13047,-123.456790123457,4,1,0,62,0,0
13126,-122.323369272817,4,1,0,63,0,0
13205,-121.210570312367,4,1,0,65,0,0
13284,-120.117835512107,4,1,0,66,0,0
13363,-119.044627074485,4,1,0,68,0,0
13521,-116.954732510288,4,1,0,70,0,0
13679,-114.936950490565,4,1,0,70,0,0
13837,-112.98761191419,4,1,0,70,0,0
13995,-111.103292441692,4,1,0,70,0,0
14153,-109.280792420327,4,1,0,70,0,0
14310,-107.528102216017,4,1,0,70,0,0
14389,-106.667267186116,4,1,0,70,0,0
14468,-105.820105820106,4,1,0,70,0,0
14547,-104.986294892539,4,1,0,70,0,0
14626,-104.165521285759,4,1,0,70,0,0
14784,-102.561881768741,4,1,0,70,0,0
14863,-101.778436723322,4,1,0,70,0,0
14942,-101.006870030956,4,1,0,70,0,0
15100,-99.4983072684179,4,1,0,70,0,0
15179,-98.760798704503,4,1,0,70,0,0
15258,-98.0341429256396,4,1,0,70,0,0
15416,-96.6124453962912,4,1,0,75,0,0
15495,-95.9169484775463,4,1,0,75,0,0
15574,-95.2313935214505,4,1,0,75,0,0
15653,-94.5555688638693,4,1,0,75,0,0
15732,-93.8892688067606,4,1,0,75,0,0
15810,-93.2405520943035,4,1,0,75,0,0
15889,-92.5925925925926,4,1,0,75,0,0
15975,-113.636363636364,4,1,0,50,0,0
25923,-108.695652173913,4,1,0,55,0,0
30975,-104.166666666667,4,1,0,60,0,0
34607,-92.5925925925926,4,1,0,74,0,0
36028,-100,4,1,0,60,0,0
41002,-96.1538461538461,4,1,0,64,0,0
42186,-92.5925925925926,4,1,0,68,0,0
43607,-89.2857142857143,4,1,0,72,0,0
44712,-81.9672131147541,4,1,0,92,0,0
45889,-87.719298245614,4,1,0,65,0,0
45968,-88.2515168229454,4,1,0,65,0,0
46047,-88.7902330743618,4,1,0,65,0,0
46126,-89.3355667225014,4,1,0,65,0,0
46205,-89.8876404494382,4,1,0,65,0,0
46284,-90.4465799886942,4,1,0,64,0,0
46363,-91.0125142207054,4,1,0,63,0,0
46442,-91.5855752718947,4,1,0,63,0,0
46521,-92.1658986175115,4,1,0,63,0,0
46600,-92.7536231884058,4,1,0,63,0,0
46679,-93.3488914819137,4,1,0,63,0,0
46758,-93.9518496770405,4,1,0,63,0,0
46837,-94.5626477541371,4,1,0,62,0,0
46916,-95.1814396192742,4,1,0,62,0,0
46995,-95.8083832335329,4,1,0,62,0,0
47074,-96.4436407474382,4,1,0,61,0,0
47153,-97.0873786407767,4,1,0,61,0,0
47396,-90.9090909090909,4,1,0,60,0,0
47475,-90.9090909090909,4,1,0,80,0,1
56140,-83.3333333333333,4,1,0,80,0,1
57265,-98.0392156862745,4,1,0,80,0,1
57561,-95.2380952380952,4,1,0,80,0,1
57581,-95.2380952380952,4,1,0,75,0,1
66416,-94.3396226415094,4,1,0,80,0,1
66495,-94.0067881386209,4,1,0,80,0,1
66574,-93.6762938899025,4,1,0,80,0,1
66653,-93.3481152993348,4,1,0,80,0,1
66732,-93.0222281143665,4,1,0,80,0,1
66810,-92.7026908001938,4,1,0,80,0,1
66889,-92.381286755025,4,1,0,80,0,1
66968,-92.0621036518697,4,1,0,80,0,1
67047,-91.7451185495118,4,1,0,80,0,1
67126,-91.4303088216132,4,1,0,80,0,1
67205,-91.1176521513289,4,1,0,80,0,1
67284,-90.8071265260343,4,1,0,80,0,1
67363,-90.4987102321582,4,1,0,80,0,1
67442,-90.1923818501221,4,1,0,80,0,1
67521,-89.8881202493808,4,1,0,80,0,1
67600,-89.5859045835639,4,1,0,80,0,1
67686,-89.2857142857143,4,1,0,85,0,1
76350,-81.9672131147541,4,1,0,85,0,1
77278,-96.1538461538461,4,1,0,85,0,1
77712,-92.5925925925926,4,1,0,85,0,1
77791,-92.5925925925926,4,1,0,77,0,1
82824,-86.2068965517241,4,1,0,77,0,1
82844,-86.2068965517241,4,1,0,90,0,1
83153,-95.2380952380952,4,1,0,90,0,1
83310,-94.5760098352799,4,1,0,90,0,1
83389,-94.2463278713204,4,1,0,90,0,1
83468,-93.9189363958511,4,1,0,90,0,1
83547,-93.5938116215109,4,1,0,90,0,1
83626,-93.2709300891866,4,1,0,90,0,1
83705,-92.9502686623711,4,1,0,90,0,1
83784,-92.6318045216362,4,1,0,90,0,1
83863,-92.3155151592195,4,1,0,90,0,1
83942,-92.0013783737217,4,1,0,90,0,1
84021,-91.6893722649118,4,1,0,90,0,1
84100,-91.3794752286374,4,1,0,90,0,1
84258,-90.7659234076592,4,1,0,90,0,1
84337,-90.4622268506638,4,1,0,90,0,1
84416,-90.1605558121403,4,1,0,90,0,1
84574,-89.5632097717877,4,1,0,90,0,1
84732,-88.9737268989311,4,1,0,90,0,1
84810,-88.6855680175075,4,1,0,90,0,1
84889,-88.395611137214,4,1,0,90,0,1
84968,-88.1075441023028,4,1,0,90,0,1
85047,-87.8213484966852,4,1,0,90,0,1
85205,-87.2544990976573,4,1,0,90,0,1
85363,-86.6949203127798,4,1,0,90,0,1
85442,-86.4178138268502,4,1,0,90,0,1
85521,-86.1424731501669,4,1,0,90,0,1
85600,-85.8688814579027,4,1,0,90,0,1
85679,-85.597022138299,4,1,0,90,0,1
85758,-85.326878789303,4,1,0,90,0,1
85837,-85.0584352152698,4,1,0,90,0,1
85916,-84.7916754237249,4,1,0,90,0,1
85995,-84.5265836221888,4,1,0,90,0,1
86074,-84.2631442150602,4,1,0,90,0,1
86153,-84.0013418005575,4,1,0,90,0,1
86232,-83.7411611677176,4,1,0,90,0,1
86310,-83.4858504014495,4,1,0,90,0,1
86389,-83.2288483887161,4,1,0,90,0,1
86468,-82.9734238248669,4,1,0,90,0,1
86547,-82.7195622310361,4,1,0,90,0,1
86626,-82.467249305013,4,1,0,90,0,1
86705,-82.2164709185556,4,1,0,90,0,1
86784,-81.9672131147541,4,1,0,90,0,1
87100,-83.3333333333333,4,1,0,90,0,1
87416,-85.1063829787234,4,1,0,90,0,1
87574,-86.0215053763441,4,1,0,90,0,1
87732,-86.9565217391304,4,1,0,90,0,1
87896,-76.9230769230769,4,1,0,100,0,0
88375,-76.9230769230769,4,1,0,85,0,0
88686,-76.9230769230769,4,1,0,81,0,0
89140,-80,4,1,0,76,0,0
89739,-80,4,1,0,71,0,0
89992,-80,4,1,0,68,0,0
90418,-83.3333333333333,4,1,0,65,0,0
91016,-83.3333333333333,4,1,0,59,0,0
91349,-83.3333333333333,4,1,0,57,0,0
91675,-87.719298245614,4,1,0,55,0,0
92070,-87.719298245614,4,1,0,50,0,0
92317,-87.719298245614,4,1,0,47,0,0
92527,-87.719298245614,4,1,0,40,0,0
92932,-96.1538461538461,4,1,0,28,0,0

[HitObjects]
268,184,5791,5,12,0:0:0:0:
278,193,6265,1,0,0:0:0:0:
275,193,6423,1,8,0:0:0:0:
275,193,6739,1,0,0:0:0:0:
275,193,6896,1,0,0:0:0:0:
275,193,7212,1,0,0:0:0:0:
275,193,7370,1,0,0:0:0:0:
275,193,7686,1,8,0:0:0:0:
275,193,8002,1,0,0:0:0:0:
275,193,8317,1,8,0:0:0:0:
275,193,8791,1,0,0:0:0:0:
275,193,8949,1,8,0:0:0:0:
279,202,9265,1,0,0:0:0:0:
279,202,9423,1,0,0:0:0:0:
279,202,9581,1,8,0:0:0:0:
279,202,9739,1,0,0:0:0:0:
279,202,9896,1,0,0:0:0:0:
279,202,10054,1,0,0:0:0:0:
279,202,10212,1,8,0:0:0:0:
279,202,10528,1,0,0:0:0:0:
288,192,10686,1,0,0:0:0:0:
279,202,10844,1,8,0:0:0:0:
288,192,11317,1,0,0:0:0:0:
288,192,11475,1,8,0:0:0:0:
288,192,11791,1,8,0:0:0:0:
308,180,11949,1,0,0:0:0:0:
287,159,12107,1,8,0:0:0:0:
290,193,12265,1,0,0:0:0:0:
287,159,12423,1,8,0:0:0:0:
287,159,12502,1,8,0:0:0:0:
287,159,12581,1,0,0:0:0:0:
304,176,12739,1,8,0:0:0:0:
304,176,12896,1,8,0:0:0:0:
304,176,13054,1,0,0:0:0:0:
160,160,13133,1,0,0:0:0:0:
276,132,13212,1,0,0:0:0:0:
276,132,13291,1,0,0:0:0:0:
276,132,13370,1,8,0:0:0:0:
276,132,13528,1,0,0:0:0:0:
276,132,13686,1,8,0:0:0:0:
301,188,13844,1,8,0:0:0:0:
301,188,14002,1,0,0:0:0:0:
301,188,14160,1,0,0:0:0:0:
301,188,14317,1,8,0:0:0:0:
301,188,14396,1,8,0:0:0:0:
301,188,14475,1,0,0:0:0:0:
301,188,14554,1,0,0:0:0:0:
301,188,14633,1,8,0:0:0:0:
252,192,14791,1,0,0:0:0:0:
252,192,14870,1,0,0:0:0:0:
252,192,14949,1,8,0:0:0:0:
252,192,15107,1,8,0:0:0:0:
160,160,15186,1,8,0:0:0:0:
301,188,15265,1,0,0:0:0:0:
301,188,15423,1,8,0:0:0:0:
301,188,15502,1,8,0:0:0:0:
301,188,15581,1,0,0:0:0:0:
301,188,15660,1,0,0:0:0:0:
301,188,15739,1,0,0:0:0:0:
301,188,15817,1,0,0:0:0:0:
301,188,15896,1,8,0:0:0:0:
251,198,16212,1,8,0:0:0:0:
251,198,16370,1,0,0:0:0:0:
286,172,16686,1,8,0:0:0:0:
275,105,16844,1,8,0:0:0:0:
286,172,17002,1,0,0:0:0:0:
286,172,17160,1,8,0:0:0:0:
301,158,17475,1,8,0:0:0:0:
301,159,17633,1,0,0:0:0:0:
301,159,17949,1,0,0:0:0:0:
301,159,18107,1,0,0:0:0:0:
301,158,18423,1,8,0:0:0:0:
301,159,18739,1,8,0:0:0:0:
301,159,18896,1,0,0:0:0:0:
301,158,19212,1,8,0:0:0:0:
299,141,19528,1,0,0:0:0:0:
299,141,19686,1,8,0:0:0:0:
278,159,19844,1,0,0:0:0:0:
278,159,20002,1,0,0:0:0:0:
278,159,20160,1,8,0:0:0:0:
280,151,20475,1,8,0:0:0:0:
280,151,20633,1,8,0:0:0:0:
280,151,20949,1,0,0:0:0:0:
272,160,21265,1,8,0:0:0:0:
272,160,21423,1,0,0:0:0:0:
272,160,21739,1,0,0:0:0:0:
272,160,21896,1,8,0:0:0:0:
336,208,22054,1,0,0:0:0:0:
112,160,22370,5,8,0:0:0:0:
272,144,22686,1,0,0:0:0:0:
272,160,23002,1,8,0:0:0:0:
272,160,23160,1,8,0:0:0:0:
272,160,23475,1,0,0:0:0:0:
256,160,23791,1,8,0:0:0:0:
256,160,23949,1,0,0:0:0:0:
256,160,24107,1,8,0:0:0:0:
256,160,24265,1,8,0:0:0:0:
256,160,24581,1,0,0:0:0:0:
256,160,24896,5,8,0:0:0:0:
256,160,24975,1,8,0:0:0:0:
256,160,25054,1,0,0:0:0:0:
208,160,25212,1,8,0:0:0:0:
272,160,25370,1,0,0:0:0:0:
272,160,25528,1,0,0:0:0:0:
272,160,25686,1,8,0:0:0:0:
272,192,26002,5,8,0:0:0:0:
272,192,26317,1,0,0:0:0:0:
272,176,26633,1,0,0:0:0:0:
272,176,26791,1,8,0:0:0:0:
272,176,26870,1,8,0:0:0:0:
272,176,26949,1,8,0:0:0:0:
272,176,27107,1,0,0:0:0:0:
272,176,27265,1,8,0:0:0:0:
272,176,27581,1,0,0:0:0:0:
272,176,27896,1,0,0:0:0:0:
288,176,28054,1,8,0:0:0:0:
272,176,28212,1,0,0:0:0:0:
288,176,28370,1,0,0:0:0:0:
288,176,28528,1,8,0:0:0:0:
272,160,28844,1,0,0:0:0:0:
272,160,29160,1,0,0:0:0:0:
272,160,29317,1,8,0:0:0:0:
272,160,29475,1,8,0:0:0:0:
272,160,29633,1,0,0:0:0:0:
272,160,29791,1,8,0:0:0:0:
272,144,29949,1,0,0:0:0:0:
272,144,30107,1,8,0:0:0:0:
272,144,30265,1,8,0:0:0:0:
272,144,30423,1,0,0:0:0:0:
272,144,30581,1,8,0:0:0:0:
272,144,30739,1,0,0:0:0:0:
272,144,30896,1,8,0:0:0:0:
251,197,31054,5,4,0:0:0:0:
251,197,31686,1,8,0:0:0:0:
251,197,32002,1,8,0:0:0:0:
251,197,32160,1,0,0:0:0:0:
251,197,32317,1,8,0:0:0:0:
251,197,32475,1,8,0:0:0:0:
251,197,32633,1,0,0:0:0:0:
251,197,32949,1,8,0:0:0:0:
251,197,33265,1,0,0:0:0:0:
251,197,33581,1,8,0:0:0:0:
256,176,33896,1,0,0:0:0:0:
256,192,34054,1,8,0:0:0:0:
256,192,34212,1,8,0:0:0:0:
256,192,34528,1,0,0:0:0:0:
256,192,34686,1,12,0:0:0:0:
256,192,35002,1,4,0:0:0:0:
256,192,35317,1,12,0:0:0:0:
256,176,35633,1,0,0:0:0:0:
256,176,35791,1,8,0:0:0:0:
251,193,36107,1,4,0:0:0:0:
262,194,36423,1,0,0:0:0:0:
262,196,36739,1,0,0:0:0:0:
280,195,37054,1,8,0:0:0:0:
280,195,37370,1,8,0:0:0:0:
225,180,37528,1,0,0:0:0:0:
303,182,37844,1,0,0:0:0:0:
303,182,38002,1,8,0:0:0:0:
303,182,38160,1,0,0:0:0:0:
303,182,38317,1,8,0:0:0:0:
303,182,38633,1,8,0:0:0:0:
310,188,38949,1,0,0:0:0:0:
320,193,39107,1,8,0:0:0:0:
320,193,39265,1,8,0:0:0:0:
320,193,39581,1,0,0:0:0:0:
320,193,39896,1,0,0:0:0:0:
288,160,40212,1,8,0:0:0:0:
288,160,40370,1,0,0:0:0:0:
272,144,40449,1,0,0:0:0:0:
288,160,40528,1,0,0:0:0:0:
288,160,40686,1,8,0:0:0:0:
288,160,40844,1,0,0:0:0:0:
258,192,41160,1,12,0:0:0:0:
304,160,41475,1,8,0:0:0:0:
304,160,41633,1,0,0:0:0:0:
304,160,41791,1,8,0:0:0:0:
304,160,41949,1,8,0:0:0:0:
304,160,42107,1,0,0:0:0:0:
304,160,42265,1,12,0:0:0:0:
304,160,42581,1,8,0:0:0:0:
304,160,42739,1,0,0:0:0:0:
304,160,42817,1,0,0:0:0:0:
304,160,42896,1,0,0:0:0:0:
304,160,42975,1,0,0:0:0:0:
304,160,43054,1,8,0:0:0:0:
304,160,43212,1,0,0:0:0:0:
304,160,43370,1,8,0:0:0:0:
304,160,43528,1,8,0:0:0:0:
304,160,43686,5,4,0:0:0:0:
288,144,44002,1,8,0:0:0:0:
288,144,44160,1,0,0:0:0:0:
288,144,44239,1,0,0:0:0:0:
288,144,44317,1,8,0:0:0:0:
288,144,44475,1,0,0:0:0:0:
288,144,44633,1,0,0:0:0:0:
251,191,44791,5,12,0:0:0:0:
269,169,45107,1,12,0:0:0:0:
269,169,45423,1,4,0:0:0:0:
269,169,45739,1,12,0:0:0:0:
267,196,45896,5,0,0:0:0:0:
267,196,45975,1,0,0:0:0:0:
267,196,46054,1,0,0:0:0:0:
267,196,46133,1,0,0:0:0:0:
267,196,46212,1,8,0:0:0:0:
267,196,46291,1,8,0:0:0:0:
267,196,46370,1,0,0:0:0:0:
267,196,46449,1,0,0:0:0:0:
298,192,46528,1,8,0:0:0:0:
298,192,46607,1,0,0:0:0:0:
298,192,46686,1,8,0:0:0:0:
298,192,46765,1,8,0:0:0:0:
298,192,46844,1,0,0:0:0:0:
298,192,46923,1,0,0:0:0:0:
298,192,47002,1,0,0:0:0:0:
298,192,47081,1,0,0:0:0:0:
298,192,47160,1,8,0:0:0:0:
241,192,47475,5,12,0:0:0:0:
255,164,47791,1,8,0:0:0:0:
255,164,47949,1,0,0:0:0:0:
255,164,48028,1,0,0:0:0:0:
255,164,48107,1,8,0:0:0:0:
255,164,48265,1,0,0:0:0:0:
266,174,48423,5,8,0:0:0:0:
255,164,48581,1,8,0:0:0:0:
255,164,48660,1,8,0:0:0:0:
255,164,48739,1,0,0:0:0:0:
266,174,48896,1,0,0:0:0:0:
311,197,48975,1,0,0:0:0:0:
307,173,49054,1,8,0:0:0:0:
307,173,49212,1,8,0:0:0:0:
307,173,49291,1,0,0:0:0:0:
307,173,49370,1,8,0:0:0:0:
307,173,49528,1,0,0:0:0:0:
307,173,49686,1,8,0:0:0:0:
307,173,49765,1,8,0:0:0:0:
307,173,49844,1,0,0:0:0:0:
307,173,49923,1,0,0:0:0:0:
307,173,50002,1,8,0:0:0:0:
326,173,50317,1,8,0:0:0:0:
326,173,50475,1,0,0:0:0:0:
326,173,50554,1,0,0:0:0:0:
326,173,50633,1,0,0:0:0:0:
325,174,50791,1,8,0:0:0:0:
325,174,50949,1,0,0:0:0:0:
325,174,51028,1,0,0:0:0:0:
326,173,51107,1,8,0:0:0:0:
318,177,51186,1,8,0:0:0:0:
318,177,51265,1,0,0:0:0:0:
326,167,51423,1,8,0:0:0:0:
326,167,51581,1,0,0:0:0:0:
326,167,51660,1,0,0:0:0:0:
326,167,51739,1,8,0:0:0:0:
326,167,51896,1,0,0:0:0:0:
319,177,52054,1,8,0:0:0:0:
319,177,52133,1,0,0:0:0:0:
318,177,52212,1,8,0:0:0:0:
318,177,52291,1,8,0:0:0:0:
319,177,52370,1,0,0:0:0:0:
326,167,52449,1,0,0:0:0:0:
319,177,52528,1,8,0:0:0:0:
255,164,52844,1,8,0:0:0:0:
255,164,53002,1,0,0:0:0:0:
255,164,53081,1,0,0:0:0:0:
255,164,53160,1,8,0:0:0:0:
255,164,53318,1,0,0:0:0:0:
266,174,53476,5,8,0:0:0:0:
255,164,53634,1,8,0:0:0:0:
255,164,53713,1,8,0:0:0:0:
255,164,53792,1,0,0:0:0:0:
266,174,53949,1,0,0:0:0:0:
311,197,54028,1,0,0:0:0:0:
307,173,54107,1,8,0:0:0:0:
307,173,54265,1,8,0:0:0:0:
307,173,54344,1,0,0:0:0:0:
307,173,54423,1,8,0:0:0:0:
307,173,54581,1,0,0:0:0:0:
307,173,54739,1,8,0:0:0:0:
307,173,54818,1,8,0:0:0:0:
307,173,54897,1,0,0:0:0:0:
307,173,54976,1,0,0:0:0:0:
307,173,55055,1,8,0:0:0:0:
283,169,55370,1,8,0:0:0:0:
283,169,55528,1,0,0:0:0:0:
283,169,55607,1,0,0:0:0:0:
283,169,55686,1,0,0:0:0:0:
283,169,55844,1,8,0:0:0:0:
283,167,55923,1,8,0:0:0:0:
283,169,56002,1,8,0:0:0:0:
284,167,56081,1,8,0:0:0:0:
283,169,56160,1,4,0:0:0:0:
295,164,56475,1,12,0:0:0:0:
196,166,56791,1,4,0:0:0:0:
237,148,57107,1,12,0:0:0:0:
151,214,57423,1,0,0:0:0:0:
237,148,57581,1,12,0:0:0:0:
303,216,57896,1,0,0:0:0:0:
303,216,58054,1,0,0:0:0:0:
306,192,58212,1,8,0:0:0:0:
303,216,58370,1,0,0:0:0:0:
303,216,58528,1,8,0:0:0:0:
303,216,58686,1,0,0:0:0:0:
303,216,58765,1,0,0:0:0:0:
303,216,58844,1,8,0:0:0:0:
303,216,59002,1,8,0:0:0:0:
237,178,59081,1,8,0:0:0:0:
229,184,59160,1,0,0:0:0:0:
242,185,59317,1,8,0:0:0:0:
242,185,59396,1,0,0:0:0:0:
242,185,59475,1,8,0:0:0:0:
242,185,59633,1,0,0:0:0:0:
242,185,59791,1,8,0:0:0:0:
242,185,59949,1,0,0:0:0:0:
242,185,60028,1,0,0:0:0:0:
242,185,60107,1,8,0:0:0:0:
289,175,60423,1,8,0:0:0:0:
289,175,60581,1,0,0:0:0:0:
289,175,60739,1,0,0:0:0:0:
289,175,60896,1,8,0:0:0:0:
301,196,60975,1,8,0:0:0:0:
301,196,61054,1,0,0:0:0:0:
301,196,61212,1,8,0:0:0:0:
306,181,61370,1,0,0:0:0:0:
309,187,61528,1,0,0:0:0:0:
296,199,61607,1,0,0:0:0:0:
309,187,61686,1,8,0:0:0:0:
309,187,61844,1,0,0:0:0:0:
296,199,62002,1,8,0:0:0:0:
296,199,62160,1,0,0:0:0:0:
296,199,62475,1,0,0:0:0:0:
296,199,62633,1,12,0:0:0:0:
299,186,62949,1,0,0:0:0:0:
299,186,63107,1,0,0:0:0:0:
240,128,63265,1,8,0:0:0:0:
299,186,63423,1,0,0:0:0:0:
299,186,63581,1,8,0:0:0:0:
299,186,63739,1,8,0:0:0:0:
299,186,63817,1,8,0:0:0:0:
299,186,63896,1,0,0:0:0:0:
299,186,64054,5,0,0:0:0:0:
299,186,64212,1,8,0:0:0:0:
308,170,64528,1,8,0:0:0:0:
308,170,64686,1,0,0:0:0:0:
308,170,64844,1,8,0:0:0:0:
308,170,64923,1,8,0:0:0:0:
308,170,65002,1,0,0:0:0:0:
259,177,65160,5,8,0:0:0:0:
266,172,65317,1,0,0:0:0:0:
266,172,65396,1,0,0:0:0:0:
268,171,65475,1,0,0:0:0:0:
268,171,65633,1,8,0:0:0:0:
268,171,65791,1,0,0:0:0:0:
268,171,65870,1,0,0:0:0:0:
268,171,65949,1,8,0:0:0:0:
248,167,66028,1,8,0:0:0:0:
248,167,66107,1,0,0:0:0:0:
248,167,66265,1,8,0:0:0:0:
260,167,66423,1,0,0:0:0:0:
287,124,66581,1,8,0:0:0:0:
287,124,66660,1,8,0:0:0:0:
287,124,66739,1,0,0:0:0:0:
287,124,66817,1,0,0:0:0:0:
287,124,66896,1,8,0:0:0:0:
261,195,66975,1,0,0:0:0:0:
287,124,67054,1,8,0:0:0:0:
287,124,67133,1,8,0:0:0:0:
287,124,67212,1,0,0:0:0:0:
261,195,67291,1,0,0:0:0:0:
287,124,67370,1,8,0:0:0:0:
287,124,67449,1,8,0:0:0:0:
287,124,67528,1,8,0:0:0:0:
287,124,67607,1,8,0:0:0:0:
264,170,67686,1,4,0:0:0:0:
255,164,68002,1,0,0:0:0:0:
255,164,68160,1,8,0:0:0:0:
255,164,68239,1,8,0:0:0:0:
255,164,68318,1,0,0:0:0:0:
255,164,68475,1,8,0:0:0:0:
266,174,68634,5,0,0:0:0:0:
208,160,68712,1,0,0:0:0:0:
255,164,68792,1,8,0:0:0:0:
255,164,68871,1,8,0:0:0:0:
255,164,68949,1,0,0:0:0:0:
266,174,69107,1,0,0:0:0:0:
311,197,69186,1,0,0:0:0:0:
307,173,69265,1,0,0:0:0:0:
307,173,69423,1,8,0:0:0:0:
307,173,69502,1,0,0:0:0:0:
307,173,69581,1,8,0:0:0:0:
307,173,69739,1,0,0:0:0:0:
307,173,69897,1,8,0:0:0:0:
307,173,69975,1,0,0:0:0:0:
307,173,70055,1,8,0:0:0:0:
307,173,70134,1,8,0:0:0:0:
307,173,70213,1,0,0:0:0:0:
326,173,70528,1,8,0:0:0:0:
326,173,70686,1,0,0:0:0:0:
326,173,70765,1,0,0:0:0:0:
326,173,70844,1,0,0:0:0:0:
325,174,71002,1,8,0:0:0:0:
325,174,71160,1,0,0:0:0:0:
325,174,71239,1,0,0:0:0:0:
326,173,71318,1,8,0:0:0:0:
318,177,71397,1,8,0:0:0:0:
318,177,71476,1,0,0:0:0:0:
326,167,71634,1,8,0:0:0:0:
326,167,71792,1,0,0:0:0:0:
326,167,71871,1,0,0:0:0:0:
326,167,71950,1,8,0:0:0:0:
326,167,72107,1,0,0:0:0:0:
319,177,72265,1,8,0:0:0:0:
319,177,72344,1,8,0:0:0:0:
318,177,72423,1,0,0:0:0:0:
318,177,72502,1,0,0:0:0:0:
319,177,72581,1,0,0:0:0:0:
326,167,72660,1,0,0:0:0:0:
319,177,72739,1,8,0:0:0:0:
255,164,73055,1,8,0:0:0:0:
255,164,73213,1,0,0:0:0:0:
255,164,73292,1,0,0:0:0:0:
255,164,73371,1,8,0:0:0:0:
255,164,73529,1,0,0:0:0:0:
266,174,73687,5,0,0:0:0:0:
256,144,73765,1,0,0:0:0:0:
255,164,73845,1,8,0:0:0:0:
255,164,73924,1,8,0:0:0:0:
255,164,74003,1,8,0:0:0:0:
266,174,74160,1,0,0:0:0:0:
311,197,74239,1,0,0:0:0:0:
307,173,74318,1,8,0:0:0:0:
307,173,74476,1,8,0:0:0:0:
307,173,74555,1,0,0:0:0:0:
307,173,74634,1,8,0:0:0:0:
307,173,74792,1,0,0:0:0:0:
307,173,74950,1,8,0:0:0:0:
307,173,75029,1,8,0:0:0:0:
307,173,75108,1,0,0:0:0:0:
307,173,75187,1,0,0:0:0:0:
307,173,75265,1,8,0:0:0:0:
283,169,75581,1,8,0:0:0:0:
283,169,75739,1,0,0:0:0:0:
283,169,75817,1,0,0:0:0:0:
283,169,75897,1,8,0:0:0:0:
283,169,76055,1,0,0:0:0:0:
283,167,76134,1,0,0:0:0:0:
283,169,76213,1,8,0:0:0:0:
284,167,76292,1,8,0:0:0:0:
283,169,76371,1,4,0:0:0:0:
296,162,76686,1,12,0:0:0:0:
296,162,77002,1,4,0:0:0:0:
276,180,77317,1,0,0:0:0:0:
276,180,77475,1,8,0:0:0:0:
276,180,77633,1,0,0:0:0:0:
276,180,77791,1,12,0:0:0:0:
303,216,78107,1,0,0:0:0:0:
303,216,78265,1,0,0:0:0:0:
306,192,78423,1,8,0:0:0:0:
303,216,78581,1,0,0:0:0:0:
303,216,78739,1,8,0:0:0:0:
303,216,78897,1,0,0:0:0:0:
303,216,78976,1,0,0:0:0:0:
303,216,79055,1,8,0:0:0:0:
303,216,79213,1,8,0:0:0:0:
237,178,79292,1,8,0:0:0:0:
229,184,79371,1,0,0:0:0:0:
242,185,79528,1,8,0:0:0:0:
242,185,79607,1,0,0:0:0:0:
242,185,79686,1,8,0:0:0:0:
242,185,79844,1,0,0:0:0:0:
242,185,80002,1,8,0:0:0:0:
242,185,80160,1,0,0:0:0:0:
242,185,80239,1,0,0:0:0:0:
242,185,80318,1,8,0:0:0:0:
289,175,80634,1,8,0:0:0:0:
289,175,80792,1,8,0:0:0:0:
289,175,80950,1,0,0:0:0:0:
289,175,81107,1,8,0:0:0:0:
301,196,81186,1,8,0:0:0:0:
301,196,81265,1,0,0:0:0:0:
301,196,81423,5,8,0:0:0:0:
306,181,81581,1,0,0:0:0:0:
309,187,81739,1,8,0:0:0:0:
296,199,81818,1,0,0:0:0:0:
309,187,81897,1,8,0:0:0:0:
309,187,82055,1,0,0:0:0:0:
296,199,82213,1,8,0:0:0:0:
296,199,82371,1,0,0:0:0:0:
256,176,82449,1,8,0:0:0:0:
281,201,82528,5,0,0:0:0:0:
281,201,82607,1,0,0:0:0:0:
281,201,82686,1,8,0:0:0:0:
224,144,82765,1,8,0:0:0:0:
296,199,82844,1,4,0:0:0:0:
305,212,83160,1,8,0:0:0:0:
274,202,83317,1,0,0:0:0:0:
282,186,83396,1,0,0:0:0:0:
282,186,83475,1,8,0:0:0:0:
282,186,83554,1,8,0:0:0:0:
282,186,83633,1,0,0:0:0:0:
282,186,83712,1,8,0:0:0:0:
282,186,83791,1,0,0:0:0:0:
282,186,83870,1,0,0:0:0:0:
282,186,83949,1,0,0:0:0:0:
300,204,84028,1,0,0:0:0:0:
283,179,84107,1,8,0:0:0:0:
276,206,84265,1,0,0:0:0:0:
276,206,84344,1,0,0:0:0:0:
276,206,84423,1,8,0:0:0:0:
301,188,84581,1,0,0:0:0:0:
303,187,84739,1,8,0:0:0:0:
301,187,84817,1,8,0:0:0:0:
301,186,84896,1,0,0:0:0:0:
301,186,84975,1,0,0:0:0:0:
301,186,85054,1,8,0:0:0:0:
311,188,85212,1,0,0:0:0:0:
257,197,85370,1,8,0:0:0:0:
257,197,85449,1,8,0:0:0:0:
257,197,85528,1,8,0:0:0:0:
257,197,85607,1,8,0:0:0:0:
276,190,85686,1,0,0:0:0:0:
271,190,85765,1,0,0:0:0:0:
271,190,85844,1,8,0:0:0:0:
271,190,85923,1,0,0:0:0:0:
271,190,86002,1,8,0:0:0:0:
271,190,86081,1,8,0:0:0:0:
271,190,86160,1,0,0:0:0:0:
271,190,86239,1,0,0:0:0:0:
271,190,86317,1,8,0:0:0:0:
271,190,86396,1,0,0:0:0:0:
271,190,86475,1,8,0:0:0:0:
271,190,86554,1,8,0:0:0:0:
271,190,86633,1,0,0:0:0:0:
276,190,86712,1,0,0:0:0:0:
340,204,86791,1,8,0:0:0:0:
291,177,87107,1,0,0:0:0:0:
310,180,87423,1,0,0:0:0:0:
310,180,87581,1,8,0:0:0:0:
310,180,87739,1,8,0:0:0:0:
309,182,87896,1,4,0:0:0:0:
256,192,88212,12,0,92949,0:0:0:0:
