osu file format v14

[General]
AudioFilename: audio.mp3
AudioLeadIn: 0
PreviewTime: 46686
Countdown: 0
SampleSet: Normal
StackLeniency: 0.7
Mode: 1
LetterboxInBreaks: 0
WidescreenStoryboard: 1

[Editor]
DistanceSpacing: 0.5
BeatDivisor: 4
GridSize: 16
TimelineZoom: 0.9999998

[Metadata]
Title:Star map
TitleUnicode:Star map
Artist:Shimotsuki Haruka
ArtistUnicode:霜月はるか
Creator:Erowdi
Version:Futsuu
Source:見上げてごらん、夜空の星を
Tags:j-pop gaston_2199 joltZZZ female vocals vocalist vn video videogame game Miagete goran Yozora no Hoshi o A sky full of stars PULLTOP eroge galgame visual novel opening op japanese pop jpop jrock j-rock rock short ver version
BeatmapID:4345834
BeatmapSetID:2075796

[Difficulty]
HPDrainRate:7
CircleSize:5
OverallDifficulty:3.5
ApproachRate:5
SliderMultiplier:1.4
SliderTickRate:1

[Events]
//Background and Video events
0,0,"korona.jpg",0,5
//Break Periods
//Storyboard Layer 0 (Background)
//Storyboard Layer 1 (Fail)
//Storyboard Layer 2 (Pass)
//Storyboard Layer 3 (Foreground)
//Storyboard Layer 4 (Overlay)
//Storyboard Sound Samples

[TimingPoints]
739,315.789473684211,4,1,0,20,1,0
739,-100,4,1,0,20,0,0
5771,-100,4,1,0,55,0,0
13047,-100,4,1,0,62,0,0
13126,-100,4,1,0,63,0,0
13205,-100,4,1,0,65,0,0
13284,-100,4,1,0,66,0,0
13363,-100,4,1,0,68,0,0
13521,-100,4,1,0,70,0,0
13679,-100,4,1,0,70,0,0
13837,-100,4,1,0,70,0,0
13995,-100,4,1,0,70,0,0
14153,-100,4,1,0,70,0,0
14310,-100,4,1,0,70,0,0
14389,-100,4,1,0,70,0,0
14468,-100,4,1,0,70,0,0
14547,-100,4,1,0,70,0,0
14626,-100,4,1,0,70,0,0
14784,-100,4,1,0,70,0,0
14863,-100,4,1,0,70,0,0
14942,-100,4,1,0,70,0,0
15100,-100,4,1,0,70,0,0
15179,-100,4,1,0,70,0,0
15258,-100,4,1,0,70,0,0
15416,-100,4,1,0,75,0,0
15495,-100,4,1,0,75,0,0
15574,-100,4,1,0,75,0,0
15653,-100,4,1,0,75,0,0
15732,-100,4,1,0,75,0,0
15810,-100,4,1,0,75,0,0
15889,-100,4,1,0,75,0,0
15975,-100,4,1,0,50,0,0
25923,-100,4,1,0,55,0,0
30975,-100,4,1,0,60,0,0
34607,-100,4,1,0,74,0,0
36028,-100,4,1,0,60,0,0
41002,-100,4,1,0,64,0,0
42186,-100,4,1,0,68,0,0
43607,-100,4,1,0,72,0,0
44712,-100,4,1,0,92,0,0
45889,-100,4,1,0,65,0,0
45968,-100,4,1,0,65,0,0
46047,-100,4,1,0,65,0,0
46126,-100,4,1,0,65,0,0
46205,-100,4,1,0,65,0,0
46284,-100,4,1,0,64,0,0
46363,-100,4,1,0,63,0,0
46442,-100,4,1,0,63,0,0
46521,-100,4,1,0,63,0,0
46600,-100,4,1,0,63,0,0
46679,-100,4,1,0,63,0,0
46758,-100,4,1,0,63,0,0
46837,-100,4,1,0,62,0,0
46916,-100,4,1,0,62,0,0
46995,-100,4,1,0,62,0,0
47074,-100,4,1,0,61,0,0
47153,-100,4,1,0,61,0,0
47396,-100,4,1,0,60,0,0
47475,-100,4,1,0,80,0,1
56140,-100,4,1,0,80,0,1
57265,-100,4,1,0,80,0,1
57561,-100,4,1,0,80,0,1
57581,-100,4,1,0,75,0,1
66416,-100,4,1,0,80,0,1
66495,-100,4,1,0,80,0,1
66574,-100,4,1,0,80,0,1
66653,-100,4,1,0,80,0,1
66732,-100,4,1,0,80,0,1
66810,-100,4,1,0,80,0,1
66889,-100,4,1,0,80,0,1
66968,-100,4,1,0,80,0,1
67047,-100,4,1,0,80,0,1
67126,-100,4,1,0,80,0,1
67205,-100,4,1,0,80,0,1
67284,-100,4,1,0,80,0,1
67363,-100,4,1,0,80,0,1
67442,-100,4,1,0,80,0,1
67521,-100,4,1,0,80,0,1
67600,-100,4,1,0,80,0,1
67686,-100,4,1,0,85,0,1
76350,-100,4,1,0,85,0,1
77278,-100,4,1,0,85,0,1
77712,-100,4,1,0,85,0,1
77791,-100,4,1,0,77,0,1
82824,-100,4,1,0,77,0,1
82844,-100,4,1,0,90,0,1
83153,-100,4,1,0,90,0,1
83310,-100,4,1,0,90,0,1
83389,-100,4,1,0,90,0,1
83468,-100,4,1,0,90,0,1
83547,-100,4,1,0,90,0,1
83626,-100,4,1,0,90,0,1
83705,-100,4,1,0,90,0,1
83784,-100,4,1,0,90,0,1
83863,-100,4,1,0,90,0,1
83942,-100,4,1,0,90,0,1
84021,-100,4,1,0,90,0,1
84100,-100,4,1,0,90,0,1
84258,-100,4,1,0,90,0,1
84337,-100,4,1,0,90,0,1
84416,-100,4,1,0,90,0,1
84574,-100,4,1,0,90,0,1
84732,-100,4,1,0,90,0,1
84810,-100,4,1,0,90,0,1
84889,-100,4,1,0,90,0,1
84968,-100,4,1,0,90,0,1
85047,-100,4,1,0,90,0,1
85205,-100,4,1,0,90,0,1
85363,-100,4,1,0,90,0,1
85442,-100,4,1,0,90,0,1
85521,-100,4,1,0,90,0,1
85600,-100,4,1,0,90,0,1
85679,-100,4,1,0,90,0,1
85758,-100,4,1,0,90,0,1
85837,-100,4,1,0,90,0,1
85916,-100,4,1,0,90,0,1
85995,-100,4,1,0,90,0,1
86074,-100,4,1,0,90,0,1
86153,-100,4,1,0,90,0,1
86232,-100,4,1,0,90,0,1
86310,-100,4,1,0,90,0,1
86389,-100,4,1,0,90,0,1
86468,-100,4,1,0,90,0,1
86547,-100,4,1,0,90,0,1
86626,-100,4,1,0,90,0,1
86705,-100,4,1,0,90,0,1
86784,-100,4,1,0,90,0,1
87100,-100,4,1,0,90,0,1
87416,-100,4,1,0,90,0,1
87574,-100,4,1,0,90,0,1
87732,-100,4,1,0,90,0,1
87896,-100,4,1,0,100,0,0
88375,-100,4,1,0,85,0,0
88686,-100,4,1,0,81,0,0
89140,-100,4,1,0,76,0,0
89739,-100,4,1,0,71,0,0
89992,-100,4,1,0,68,0,0
90418,-100,4,1,0,65,0,0
91016,-100,4,1,0,59,0,0
91349,-100,4,1,0,57,0,0
91675,-100,4,1,0,55,0,0
92070,-100,4,1,0,50,0,0
92317,-100,4,1,0,47,0,0
92527,-100,4,1,0,40,0,0
92932,-100,4,1,0,28,0,0

[HitObjects]
261,213,5791,5,12,0:0:0:0:
285,219,6423,1,8,0:0:0:0:
283,186,6739,1,0,0:0:0:0:
283,186,6896,1,0,0:0:0:0:
283,186,7212,1,0,0:0:0:0:
283,186,7370,1,0,0:0:0:0:
293,180,7686,1,8,0:0:0:0:
317,182,8317,1,8,0:0:0:0:
290,172,8791,1,0,0:0:0:0:
290,172,8949,1,8,0:0:0:0:
290,172,9265,1,0,0:0:0:0:
290,172,9581,1,8,0:0:0:0:
290,172,9896,1,0,0:0:0:0:
150,144,10054,1,8,0:0:0:0:
150,144,10212,1,0,0:0:0:0:
290,172,10844,1,8,0:0:0:0:
300,156,11317,1,0,0:0:0:0:
300,156,11475,1,8,0:0:0:0:
300,156,11791,1,0,0:0:0:0:
300,156,11949,1,0,0:0:0:0:
300,156,12107,1,8,0:0:0:0:
300,156,12423,1,8,0:0:0:0:
300,156,12739,1,0,0:0:0:0:
300,156,13054,1,8,0:0:0:0:
300,156,13212,1,0,0:0:0:0:
300,156,13370,1,8,0:0:0:0:
323,147,13686,1,8,0:0:0:0:
323,147,13844,1,8,0:0:0:0:
323,147,14002,1,0,0:0:0:0:
323,147,14317,1,8,0:0:0:0:
323,147,14633,1,0,0:0:0:0:
323,147,14791,1,0,0:0:0:0:
323,147,15107,1,8,0:0:0:0:
327,152,15423,1,0,0:0:0:0:
327,152,15581,1,8,0:0:0:0:
327,152,15739,1,8,0:0:0:0:
327,152,15896,1,0,0:0:0:0:
327,152,16844,1,8,0:0:0:0:
327,152,17160,1,0,0:0:0:0:
327,152,17475,1,8,0:0:0:0:
327,152,17633,1,8,0:0:0:0:
310,160,17949,1,0,0:0:0:0:
309,160,18423,1,8,0:0:0:0:
310,160,18896,1,0,0:0:0:0:
310,160,19528,1,0,0:0:0:0:
310,160,19686,1,8,0:0:0:0:
310,160,20160,1,0,0:0:0:0:
310,160,20475,1,8,0:0:0:0:
301,157,20949,1,0,0:0:0:0:
301,157,21896,1,8,0:0:0:0:
301,157,22370,1,8,0:0:0:0:
301,157,22686,1,0,0:0:0:0:
301,157,23002,1,8,0:0:0:0:
301,157,23475,1,8,0:0:0:0:
301,157,24107,1,0,0:0:0:0:
301,157,24896,1,0,0:0:0:0:
315,172,25054,1,8,0:0:0:0:
315,172,25370,1,8,0:0:0:0:
315,172,25686,1,0,0:0:0:0:
315,172,26002,1,8,0:0:0:0:
160,96,26791,1,0,0:0:0:0:
315,172,26949,1,8,0:0:0:0:
315,172,27265,1,0,0:0:0:0:
172,156,27581,1,8,0:0:0:0:
172,156,27739,1,8,0:0:0:0:
209,131,28054,1,8,0:0:0:0:
314,178,28528,1,0,0:0:0:0:
319,164,28844,1,8,0:0:0:0:
195,86,29002,1,8,0:0:0:0:
319,164,29475,1,8,0:0:0:0:
318,189,29791,1,8,0:0:0:0:
318,189,29949,1,8,0:0:0:0:
268,124,30107,1,0,0:0:0:0:
341,185,30423,1,0,0:0:0:0:
341,185,30739,1,8,0:0:0:0:
341,185,30896,1,0,0:0:0:0:
341,185,31054,1,12,0:0:0:0:
261,99,31686,1,8,0:0:0:0:
261,99,32002,1,0,0:0:0:0:
261,99,32160,1,8,0:0:0:0:
261,99,32475,1,8,0:0:0:0:
261,99,32633,1,0,0:0:0:0:
261,99,32949,1,8,0:0:0:0:
261,99,33265,1,0,0:0:0:0:
261,99,33581,1,0,0:0:0:0:
281,147,34054,1,0,0:0:0:0:
281,147,34212,1,8,0:0:0:0:
281,147,34528,1,8,0:0:0:0:
281,147,34686,1,4,0:0:0:0:
299,164,35002,1,4,0:0:0:0:
299,164,35317,1,4,0:0:0:0:
265,161,35633,1,8,0:0:0:0:
265,161,35791,1,0,0:0:0:0:
265,161,36107,1,12,0:0:0:0:
310,181,36739,1,0,0:0:0:0:
310,181,37054,1,0,0:0:0:0:
310,181,37370,1,8,0:0:0:0:
310,181,37528,1,0,0:0:0:0:
310,181,37844,1,0,0:0:0:0:
310,181,38002,1,8,0:0:0:0:
310,181,38317,1,8,0:0:0:0:
310,181,38633,1,0,0:0:0:0:
368,208,39107,1,8,0:0:0:0:
368,208,39265,1,8,0:0:0:0:
368,208,39581,1,0,0:0:0:0:
368,208,39896,1,8,0:0:0:0:
368,208,40212,1,8,0:0:0:0:
368,208,40370,1,0,0:0:0:0:
368,208,40528,1,8,0:0:0:0:
240,224,41160,1,4,0:0:0:0:
256,208,41475,1,8,0:0:0:0:
256,208,41791,1,8,0:0:0:0:
304,208,41949,1,0,0:0:0:0:
256,208,42265,1,4,0:0:0:0:
272,208,42581,1,0,0:0:0:0:
272,208,42739,1,8,0:0:0:0:
272,208,43054,1,0,0:0:0:0:
288,192,43686,1,4,0:0:0:0:
304,208,44002,1,8,0:0:0:0:
304,208,44317,1,8,0:0:0:0:
304,208,44475,1,0,0:0:0:0:
272,169,44791,5,12,0:0:0:0:
277,169,45107,1,12,0:0:0:0:
277,169,45423,1,4,0:0:0:0:
277,169,45739,1,12,0:0:0:0:
334,172,46844,1,8,0:0:0:0:
334,172,47160,1,8,0:0:0:0:
334,172,47475,1,4,0:0:0:0:
358,177,47791,1,8,0:0:0:0:
358,177,47949,1,0,0:0:0:0:
356,178,48265,1,0,0:0:0:0:
356,178,48423,1,8,0:0:0:0:
358,177,48581,1,8,0:0:0:0:
358,177,48896,1,0,0:0:0:0:
356,178,49212,1,8,0:0:0:0:
336,187,49686,1,0,0:0:0:0:
356,178,50002,1,8,0:0:0:0:
358,177,50317,1,0,0:0:0:0:
358,177,50475,1,0,0:0:0:0:
356,178,50791,1,8,0:0:0:0:
358,177,51107,1,8,0:0:0:0:
352,178,51423,1,0,0:0:0:0:
356,178,51581,1,8,0:0:0:0:
356,178,51896,1,8,0:0:0:0:
358,177,52054,1,8,0:0:0:0:
356,178,52528,1,8,0:0:0:0:
358,177,52844,1,0,0:0:0:0:
358,177,53002,1,0,0:0:0:0:
356,178,53318,1,8,0:0:0:0:
356,178,53476,1,8,0:0:0:0:
358,177,53634,1,0,0:0:0:0:
358,177,53949,1,8,0:0:0:0:
356,178,54265,1,8,0:0:0:0:
336,187,54739,1,0,0:0:0:0:
356,178,55055,1,8,0:0:0:0:
358,177,55370,1,0,0:0:0:0:
358,177,55528,1,0,0:0:0:0:
356,178,55844,1,8,0:0:0:0:
356,178,56002,1,0,0:0:0:0:
358,177,56160,1,12,0:0:0:0:
260,164,56475,1,4,0:0:0:0:
260,164,56791,1,12,0:0:0:0:
340,187,57107,1,0,0:0:0:0:
356,178,57581,1,4,0:0:0:0:
300,182,58370,1,0,0:0:0:0:
300,182,58528,1,8,0:0:0:0:
300,182,58686,1,8,0:0:0:0:
327,171,59002,1,0,0:0:0:0:
327,171,59317,1,8,0:0:0:0:
327,171,59791,1,0,0:0:0:0:
327,171,60107,1,8,0:0:0:0:
327,171,60423,1,0,0:0:0:0:
327,171,60581,1,0,0:0:0:0:
327,171,60896,1,8,0:0:0:0:
327,171,61212,1,0,0:0:0:0:
327,171,61528,1,0,0:0:0:0:
327,171,61686,1,8,0:0:0:0:
327,171,62002,1,8,0:0:0:0:
327,171,62160,1,0,0:0:0:0:
327,171,62633,1,12,0:0:0:0:
366,186,63265,1,8,0:0:0:0:
366,186,63581,1,8,0:0:0:0:
366,186,63896,1,0,0:0:0:0:
391,204,64054,1,0,0:0:0:0:
391,204,64212,1,8,0:0:0:0:
391,204,64528,1,8,0:0:0:0:
391,204,64686,1,0,0:0:0:0:
391,204,64844,1,0,0:0:0:0:
391,204,65160,1,12,0:0:0:0:
431,173,65475,1,0,0:0:0:0:
431,173,65791,1,12,0:0:0:0:
346,170,66107,1,0,0:0:0:0:
346,170,66265,1,0,0:0:0:0:
346,170,66423,1,12,0:0:0:0:
278,152,67054,1,0,0:0:0:0:
322,192,67370,1,8,0:0:0:0:
278,152,67528,1,8,0:0:0:0:
322,192,67686,1,4,0:0:0:0:
358,177,68002,1,8,0:0:0:0:
358,177,68160,1,0,0:0:0:0:
356,178,68476,1,8,0:0:0:0:
356,178,68634,1,8,0:0:0:0:
358,177,68792,1,8,0:0:0:0:
358,177,69107,1,0,0:0:0:0:
356,178,69423,1,8,0:0:0:0:
360,184,69896,1,0,0:0:0:0:
356,178,70213,1,8,0:0:0:0:
358,177,70528,1,0,0:0:0:0:
358,177,70686,1,0,0:0:0:0:
356,178,71002,1,8,0:0:0:0:
358,177,71318,1,0,0:0:0:0:
352,178,71634,1,0,0:0:0:0:
356,178,71792,1,8,0:0:0:0:
356,178,72107,1,8,0:0:0:0:
358,177,72265,1,8,0:0:0:0:
356,178,72739,1,8,0:0:0:0:
358,177,73055,1,0,0:0:0:0:
358,177,73213,1,0,0:0:0:0:
356,178,73529,1,8,0:0:0:0:
356,178,73687,1,8,0:0:0:0:
358,177,73845,1,0,0:0:0:0:
358,177,74160,1,8,0:0:0:0:
356,178,74476,1,0,0:0:0:0:
357,170,74949,1,8,0:0:0:0:
356,178,75266,1,8,0:0:0:0:
358,177,75581,1,0,0:0:0:0:
358,177,75739,1,0,0:0:0:0:
356,178,76055,1,8,0:0:0:0:
356,178,76213,1,0,0:0:0:0:
358,177,76371,1,12,0:0:0:0:
260,164,76686,1,4,0:0:0:0:
260,164,77002,1,12,0:0:0:0:
340,187,77318,1,0,0:0:0:0:
356,178,77792,1,4,0:0:0:0:
338,174,78581,1,8,0:0:0:0:
338,174,78739,1,0,0:0:0:0:
338,174,78896,1,0,0:0:0:0:
338,174,79212,1,8,0:0:0:0:
338,174,79528,1,0,0:0:0:0:
338,174,80002,1,8,0:0:0:0:
338,174,80317,1,0,0:0:0:0:
304,192,80633,1,8,0:0:0:0:
320,192,80949,1,0,0:0:0:0:
320,192,81107,1,0,0:0:0:0:
320,192,81423,1,0,0:0:0:0:
320,192,81581,1,8,0:0:0:0:
320,192,81896,1,0,0:0:0:0:
288,160,82212,1,8,0:0:0:0:
288,192,82528,1,8,0:0:0:0:
288,192,82686,1,0,0:0:0:0:
298,207,82844,1,12,0:0:0:0:
292,193,83475,1,0,0:0:0:0:
323,199,83791,1,0,0:0:0:0:
323,199,83949,1,8,0:0:0:0:
323,199,84107,1,0,0:0:0:0:
323,199,84423,1,8,0:0:0:0:
323,199,84739,1,0,0:0:0:0:
323,199,85054,1,0,0:0:0:0:
323,199,85212,1,0,0:0:0:0:
323,199,85370,1,8,0:0:0:0:
323,199,85686,1,8,0:0:0:0:
329,195,85844,1,8,0:0:0:0:
323,199,86002,1,0,0:0:0:0:
323,199,86317,1,8,0:0:0:0:
323,199,86475,1,0,0:0:0:0:
323,199,86633,1,8,0:0:0:0:
329,195,86791,1,0,0:0:0:0:
323,199,87107,1,8,0:0:0:0:
331,192,87423,1,0,0:0:0:0:
331,192,87581,1,8,0:0:0:0:
331,192,87896,1,4,0:0:0:0:
256,192,88212,12,0,92949,0:0:0:0:
