osu file format v14

[General]
AudioFilename: audio.mp3
AudioLeadIn: 0
PreviewTime: 78771
Countdown: 0
SampleSet: None
StackLeniency: 0.7
Mode: 1
LetterboxInBreaks: 0
WidescreenStoryboard: 0

[Editor]
DistanceSpacing: 1
BeatDivisor: 4
GridSize: 32
TimelineZoom: 1.4

[Metadata]
Title:Star Map (Soleily Remix)
TitleUnicode:Star Map (Soleily Remix)
Artist:Shimotsuki Haruka
ArtistUnicode:霜月はるか
Creator:Nekoharu
Version:A Sky Full of Stars
Source:見上げてごらん、夜空の星を
Tags:Japanese pulltop eroge visual novel opening Drum&Bass
BeatmapID:2747864
BeatmapSetID:1326334

[Difficulty]
HPDrainRate:4
CircleSize:2
OverallDifficulty:6.5
ApproachRate:5
SliderMultiplier:1.4
SliderTickRate:1

[Events]
//Background and Video events
0,0,"bg2020-low.jpg",0,85
//Break Periods
2,264363,284537
2,306162,313526
//Storyboard Layer 0 (Background)
//Storyboard Layer 1 (Fail)
//Storyboard Layer 2 (Pass)
//Storyboard Layer 3 (Foreground)
//Storyboard Layer 4 (Overlay)
//Storyboard Sound Samples

[TimingPoints]
1243,337.078651685393,4,1,1,80,1,0
1243,-200,4,1,1,80,0,0
24164,-133.333333333333,4,1,1,90,0,0
34950,-111.111111111111,4,1,1,90,0,0
40344,-100,4,1,1,100,0,0
46748,-133.333333333333,4,1,1,80,0,0
67310,-111.111111111111,4,1,1,100,0,0
79445,-100,4,1,1,100,0,1
122591,-100,4,1,1,80,0,0
165653,-133.333333333333,4,1,1,80,0,0
171046,-125,4,1,1,90,0,0
173658,-117.647058823529,4,1,1,90,0,0
176186,-111.111111111111,4,1,1,95,0,0
177872,-100,4,1,1,100,0,1
221018,-100,4,1,1,80,0,0
265512,-166.666666666667,4,1,1,50,0,0
285400,-100,4,1,1,60,0,0
287422,-142.857142857143,4,1,1,60,0,0
288096,-100,4,1,1,65,0,0
289445,-142.857142857143,4,1,1,65,0,0
290793,-100,4,1,1,70,0,0
292141,-142.857142857143,4,1,1,70,0,0
293490,-100,4,1,1,75,0,0
294838,-125,4,1,1,75,0,0
296186,-100,4,1,1,80,0,0
297029,-125,4,1,1,80,0,0
298883,-100,4,1,1,85,0,0
299726,-117.647058823529,4,1,1,85,0,0
300484,-100,4,1,1,90,0,0
301158,-90.9090909090909,4,1,1,95,0,0
303181,-86.9565217391304,4,1,1,100,0,0
304529,-83.3333333333333,4,1,1,100,0,0
306299,-200,4,1,1,50,0,0
314389,-100,4,1,1,100,0,0
315400,-100,4,1,1,100,0,1
358546,-100,4,1,1,90,0,0
380287,-100,4,1,1,80,0,0
390905,-100,4,1,1,70,0,0
396130,-100,4,1,1,85,0,0

[HitObjects]
256,192,2591,5,12,0:0:0:0:
256,192,2928,1,0,0:0:0:0:
256,192,3096,1,8,0:0:0:0:
256,192,3602,1,0,0:0:0:0:
256,192,4613,1,0,0:0:0:0:
256,192,4950,1,0,0:0:0:0:
256,192,5287,1,8,0:0:0:0:
256,192,5625,1,0,0:0:0:0:
256,192,5793,1,8,0:0:0:0:
256,192,6299,1,0,0:0:0:0:
256,192,7310,1,0,0:0:0:0:
256,192,7647,1,0,0:0:0:0:
256,192,7984,1,8,0:0:0:0:
256,192,8322,1,0,0:0:0:0:
256,192,8490,1,8,0:0:0:0:
256,192,8996,1,0,0:0:0:0:
256,192,10007,1,0,0:0:0:0:
256,192,10344,1,0,0:0:0:0:
256,192,10681,1,8,0:0:0:0:
256,192,11019,1,0,0:0:0:0:
256,192,11187,1,8,0:0:0:0:
256,192,11523,1,0,0:0:0:0:
256,192,11693,1,0,0:0:0:0:
256,192,12703,1,0,0:0:0:0:
256,192,13040,1,8,0:0:0:0:
256,192,13377,1,8,0:0:0:0:
256,192,13715,1,0,0:0:0:0:
256,192,13883,1,8,0:0:0:0:
256,192,14220,1,0,0:0:0:0:
256,192,14389,1,0,0:0:0:0:
256,192,15400,1,8,0:0:0:0:
256,192,15737,1,8,0:0:0:0:
256,192,16074,1,0,0:0:0:0:
256,192,16412,1,0,0:0:0:0:
256,192,16580,1,8,0:0:0:0:
256,192,16917,1,8,0:0:0:0:
256,192,17086,1,0,0:0:0:0:
256,192,18096,1,0,0:0:0:0:
256,192,18433,1,0,0:0:0:0:
256,192,18771,1,8,0:0:0:0:
256,192,19108,1,0,0:0:0:0:
256,192,19276,1,8,0:0:0:0:
256,192,19613,1,8,0:0:0:0:
256,192,19782,1,0,0:0:0:0:
256,192,20793,1,8,0:0:0:0:
256,192,21130,1,8,0:0:0:0:
256,192,21467,1,0,0:0:0:0:
256,192,21805,1,0,0:0:0:0:
256,192,21973,1,8,0:0:0:0:
256,192,22310,1,8,0:0:0:0:
256,192,22479,1,0,0:0:0:0:
256,192,23490,1,0,0:0:0:0:
256,192,23827,1,8,0:0:0:0:
256,192,24164,1,8,0:0:0:0:
256,192,24502,1,0,0:0:0:0:
256,192,24669,1,8,0:0:0:0:
256,192,24838,1,0,0:0:0:0:
256,192,25175,1,8,0:0:0:0:
256,192,26186,1,8,0:0:0:0:
256,192,26523,1,0,0:0:0:0:
256,192,26860,1,8,0:0:0:0:
256,192,27198,1,8,0:0:0:0:
256,192,27366,1,8,0:0:0:0:
256,192,27535,1,0,0:0:0:0:
256,192,27872,1,0,0:0:0:0:
256,192,28883,1,8,0:0:0:0:
256,192,29219,1,0,0:0:0:0:
256,192,29557,1,8,0:0:0:0:
256,192,29895,1,0,0:0:0:0:
256,192,30062,1,8,0:0:0:0:
256,192,30231,1,0,0:0:0:0:
256,192,30568,1,0,0:0:0:0:
256,192,31580,1,8,0:0:0:0:
256,192,31917,1,0,0:0:0:0:
256,192,32254,1,8,0:0:0:0:
256,192,32591,1,0,0:0:0:0:
256,192,32759,1,8,0:0:0:0:
256,192,32928,1,0,0:0:0:0:
256,192,33265,1,8,0:0:0:0:
256,192,33602,1,8,0:0:0:0:
256,192,33940,1,0,0:0:0:0:
256,192,34276,1,8,0:0:0:0:
256,192,34445,1,0,0:0:0:0:
256,192,34613,1,8,0:0:0:0:
256,192,34950,1,4,0:0:0:0:
256,192,35203,1,0,0:0:0:0:
256,192,35287,1,8,0:0:0:0:
256,192,35456,1,0,0:0:0:0:
256,192,35540,1,0,0:0:0:0:
256,192,35625,1,8,0:0:0:0:
256,192,35793,1,0,0:0:0:0:
256,192,35962,1,8,0:0:0:0:
256,192,36299,1,8,0:0:0:0:
256,192,36467,1,0,0:0:0:0:
256,192,36636,1,8,0:0:0:0:
256,192,36720,1,8,0:0:0:0:
256,192,36804,1,0,0:0:0:0:
256,192,36972,1,8,0:0:0:0:
256,192,37141,1,0,0:0:0:0:
256,192,37310,1,8,0:0:0:0:
256,192,37647,1,8,0:0:0:0:
256,192,37900,1,0,0:0:0:0:
256,192,37984,1,8,0:0:0:0:
256,192,38153,1,0,0:0:0:0:
256,192,38237,1,0,0:0:0:0:
256,192,38322,1,8,0:0:0:0:
256,192,38490,1,0,0:0:0:0:
256,192,38658,1,8,0:0:0:0:
256,192,38996,1,8,0:0:0:0:
256,192,39164,1,0,0:0:0:0:
256,192,39333,1,8,0:0:0:0:
256,192,39417,1,8,0:0:0:0:
256,192,39501,1,0,0:0:0:0:
256,192,39669,1,8,0:0:0:0:
256,192,39838,1,0,0:0:0:0:
256,192,40007,1,8,0:0:0:0:
256,192,40344,1,4,0:0:0:0:
256,192,40512,1,0,0:0:0:0:
256,192,40596,1,0,0:0:0:0:
256,192,40680,1,8,0:0:0:0:
256,192,40850,1,0,0:0:0:0:
256,192,41018,1,0,0:0:0:0:
256,192,41186,1,8,0:0:0:0:
256,192,41355,1,0,0:0:0:0:
256,192,41524,1,8,0:0:0:0:
256,192,41608,1,0,0:0:0:0:
256,192,41692,1,8,0:0:0:0:
256,192,41777,1,8,0:0:0:0:
256,192,41860,1,0,0:0:0:0:
256,192,41945,1,8,0:0:0:0:
256,192,42029,1,8,0:0:0:0:
256,192,42113,1,0,0:0:0:0:
256,192,42198,1,8,0:0:0:0:
256,192,42282,1,0,0:0:0:0:
256,192,42366,1,8,0:0:0:0:
256,192,42450,1,8,0:0:0:0:
256,192,42535,1,0,0:0:0:0:
256,192,42619,1,0,0:0:0:0:
256,192,42703,1,8,0:0:0:0:
256,192,42872,1,0,0:0:0:0:
256,192,42956,1,0,0:0:0:0:
256,192,43040,1,8,0:0:0:0:
256,192,43209,1,0,0:0:0:0:
256,192,43377,1,0,0:0:0:0:
256,192,43462,1,0,0:0:0:0:
256,192,43546,1,8,0:0:0:0:
256,192,43630,1,0,0:0:0:0:
256,192,43714,1,8,0:0:0:0:
256,192,43799,1,8,0:0:0:0:
256,192,43883,1,0,0:0:0:0:
256,192,43967,1,0,0:0:0:0:
256,192,44051,1,8,0:0:0:0:
256,192,44220,1,0,0:0:0:0:
256,192,44304,1,0,0:0:0:0:
256,192,44389,1,8,0:0:0:0:
256,192,44726,1,0,0:0:0:0:
256,192,45063,1,8,0:0:0:0:
256,192,45400,1,0,0:0:0:0:
256,192,45737,1,12,0:0:0:0:
256,192,46748,1,0,0:0:0:0:
256,192,47085,1,8,0:0:0:0:
256,192,47422,1,8,0:0:0:0:
256,192,47591,1,0,0:0:0:0:
256,192,47928,1,8,0:0:0:0:
256,192,48434,1,0,0:0:0:0:
256,192,48771,1,8,0:0:0:0:
256,192,48939,1,0,0:0:0:0:
256,192,49613,1,0,0:0:0:0:
256,192,49782,1,8,0:0:0:0:
256,192,50119,1,0,0:0:0:0:
256,192,50287,1,8,0:0:0:0:
256,192,50625,1,8,0:0:0:0:
256,192,51130,1,0,0:0:0:0:
256,192,52141,1,0,0:0:0:0:
256,192,52310,1,8,0:0:0:0:
256,192,52647,1,8,0:0:0:0:
256,192,52984,1,0,0:0:0:0:
256,192,53321,1,8,0:0:0:0:
256,192,53827,1,8,0:0:0:0:
256,192,54332,1,8,0:0:0:0:
256,192,54501,1,0,0:0:0:0:
256,192,55512,1,0,0:0:0:0:
256,192,55681,1,8,0:0:0:0:
256,192,55849,1,0,0:0:0:0:
256,192,56018,1,0,0:0:0:0:
256,192,56186,1,8,0:0:0:0:
256,192,56523,1,8,0:0:0:0:
256,192,57535,1,0,0:0:0:0:
256,192,57872,1,8,0:0:0:0:
256,192,58209,1,0,0:0:0:0:
256,192,58377,1,8,0:0:0:0:
256,192,58714,1,8,0:0:0:0:
256,192,59220,1,0,0:0:0:0:
256,192,59557,1,8,0:0:0:0:
256,192,59726,1,0,0:0:0:0:
256,192,60231,1,8,0:0:0:0:
256,192,60400,1,0,0:0:0:0:
256,192,60737,1,8,0:0:0:0:
256,192,61074,1,0,0:0:0:0:
256,192,61411,1,0,0:0:0:0:
256,192,61917,1,8,0:0:0:0:
256,192,62928,1,8,0:0:0:0:
256,192,63096,1,0,0:0:0:0:
256,192,63434,1,8,0:0:0:0:
256,192,63771,1,0,0:0:0:0:
256,192,64108,1,8,0:0:0:0:
256,192,64613,1,8,0:0:0:0:
256,192,65625,1,0,0:0:0:0:
256,192,65793,1,8,0:0:0:0:
256,192,66130,1,8,0:0:0:0:
256,192,66467,1,0,0:0:0:0:
256,192,66804,1,8,0:0:0:0:
256,192,66973,1,0,0:0:0:0:
256,192,67310,1,4,0:0:0:0:
256,192,67647,1,0,0:0:0:0:
256,192,67984,1,0,0:0:0:0:
256,192,68153,1,8,0:0:0:0:
256,192,68237,1,8,0:0:0:0:
256,192,68321,1,0,0:0:0:0:
256,192,68490,1,0,0:0:0:0:
256,192,68658,1,8,0:0:0:0:
256,192,68827,1,0,0:0:0:0:
256,192,69164,1,8,0:0:0:0:
256,192,69332,1,0,0:0:0:0:
256,192,69501,1,8,0:0:0:0:
256,192,69585,1,0,0:0:0:0:
256,192,69669,1,0,0:0:0:0:
256,192,70007,1,8,0:0:0:0:
256,192,70259,1,8,0:0:0:0:
256,192,70344,1,0,0:0:0:0:
256,192,70512,1,8,0:0:0:0:
256,192,70681,1,0,0:0:0:0:
256,192,70849,1,8,0:0:0:0:
256,192,70934,1,8,0:0:0:0:
256,192,71018,1,0,0:0:0:0:
256,192,71186,1,8,0:0:0:0:
256,192,71355,1,0,0:0:0:0:
256,192,71607,1,8,0:0:0:0:
256,192,71691,1,0,0:0:0:0:
256,192,71860,1,0,0:0:0:0:
256,192,72029,1,8,0:0:0:0:
256,192,72198,1,0,0:0:0:0:
256,192,72282,1,0,0:0:0:0:
256,192,72366,1,8,0:0:0:0:
256,192,72703,1,4,0:0:0:0:
256,192,72872,1,0,0:0:0:0:
256,192,72956,1,0,0:0:0:0:
256,192,73040,1,8,0:0:0:0:
256,192,73209,1,0,0:0:0:0:
256,192,73377,1,8,0:0:0:0:
256,192,73462,1,8,0:0:0:0:
256,192,73546,1,0,0:0:0:0:
256,192,73714,1,8,0:0:0:0:
256,192,73883,1,4,0:0:0:0:
256,192,74220,1,0,0:0:0:0:
256,192,74388,1,8,0:0:0:0:
256,192,74557,1,8,0:0:0:0:
256,192,74641,1,8,0:0:0:0:
256,192,74726,1,0,0:0:0:0:
256,192,74894,1,0,0:0:0:0:
256,192,74978,1,0,0:0:0:0:
256,192,75063,1,8,0:0:0:0:
256,192,75400,1,8,0:0:0:0:
256,192,75568,1,0,0:0:0:0:
256,192,75653,1,0,0:0:0:0:
256,192,75737,1,0,0:0:0:0:
256,192,75905,1,0,0:0:0:0:
256,192,76074,1,8,0:0:0:0:
256,192,76242,1,8,0:0:0:0:
256,192,76327,1,0,0:0:0:0:
256,192,76411,1,0,0:0:0:0:
256,192,76580,1,12,0:0:0:0:
256,192,76917,1,4,0:0:0:0:
256,192,77085,1,0,0:0:0:0:
256,192,77254,1,12,0:0:0:0:
256,192,77591,1,12,0:0:0:0:
256,192,77928,1,0,0:0:0:0:
256,192,78012,1,0,0:0:0:0:
256,192,78096,1,8,0:0:0:0:
256,192,78181,1,8,0:0:0:0:
256,192,78265,1,0,0:0:0:0:
256,192,78349,1,0,0:0:0:0:
256,192,78434,1,8,0:0:0:0:
256,192,78518,1,0,0:0:0:0:
256,192,78602,1,8,0:0:0:0:
256,192,78686,1,0,0:0:0:0:
256,192,78771,1,8,0:0:0:0:
256,192,78855,1,8,0:0:0:0:
256,192,78939,1,0,0:0:0:0:
256,192,79108,1,12,0:0:0:0:
256,192,79445,1,12,0:0:0:0:
256,192,79613,1,0,0:0:0:0:
256,192,79698,1,0,0:0:0:0:
256,192,79782,1,8,0:0:0:0:
256,192,79950,1,0,0:0:0:0:
256,192,80119,1,8,0:0:0:0:
256,192,80287,1,0,0:0:0:0:
256,192,80372,1,0,0:0:0:0:
256,192,80456,1,8,0:0:0:0:
256,192,80540,1,8,0:0:0:0:
256,192,80625,1,0,0:0:0:0:
256,192,80793,1,8,0:0:0:0:
256,192,80962,1,0,0:0:0:0:
256,192,81130,1,8,0:0:0:0:
256,192,81214,1,8,0:0:0:0:
256,192,81299,1,0,0:0:0:0:
256,192,81467,1,8,0:0:0:0:
256,192,81636,1,0,0:0:0:0:
256,192,81804,1,8,0:0:0:0:
256,192,81973,1,8,0:0:0:0:
256,192,82057,1,8,0:0:0:0:
256,192,82141,1,0,0:0:0:0:
256,192,82310,1,0,0:0:0:0:
256,192,82394,1,0,0:0:0:0:
256,192,82478,1,8,0:0:0:0:
256,192,82647,1,8,0:0:0:0:
256,192,82816,1,0,0:0:0:0:
256,192,82900,1,8,0:0:0:0:
256,192,82984,1,0,0:0:0:0:
256,192,83153,1,8,0:0:0:0:
256,192,83321,1,8,0:0:0:0:
256,192,83490,1,0,0:0:0:0:
256,192,83658,1,0,0:0:0:0:
256,192,83743,1,0,0:0:0:0:
256,192,83827,1,0,0:0:0:0:
256,192,83995,1,4,0:0:0:0:
256,192,84332,1,12,0:0:0:0:
256,192,84669,1,0,0:0:0:0:
256,192,84838,1,12,0:0:0:0:
256,192,85007,1,0,0:0:0:0:
256,192,85091,1,0,0:0:0:0:
256,192,85175,1,8,0:0:0:0:
256,192,85344,1,0,0:0:0:0:
256,192,85512,1,8,0:0:0:0:
256,192,85681,1,0,0:0:0:0:
256,192,85765,1,0,0:0:0:0:
256,192,85849,1,8,0:0:0:0:
256,192,85934,1,8,0:0:0:0:
256,192,86018,1,8,0:0:0:0:
256,192,86186,1,8,0:0:0:0:
256,192,86355,1,0,0:0:0:0:
256,192,86524,1,8,0:0:0:0:
256,192,86608,1,8,0:0:0:0:
256,192,86692,1,0,0:0:0:0:
256,192,86860,1,8,0:0:0:0:
256,192,87029,1,0,0:0:0:0:
256,192,87198,1,8,0:0:0:0:
256,192,87366,1,0,0:0:0:0:
256,192,87450,1,8,0:0:0:0:
256,192,87535,1,0,0:0:0:0:
256,192,87788,1,0,0:0:0:0:
256,192,87872,1,8,0:0:0:0:
256,192,88040,1,8,0:0:0:0:
256,192,88209,1,0,0:0:0:0:
256,192,88377,1,8,0:0:0:0:
256,192,88462,1,8,0:0:0:0:
256,192,88546,1,0,0:0:0:0:
256,192,88714,1,12,0:0:0:0:
256,192,89051,1,12,0:0:0:0:
256,192,89220,1,4,0:0:0:0:
256,192,89389,1,12,0:0:0:0:
256,192,89726,1,12,0:0:0:0:
256,192,90063,1,8,0:0:0:0:
256,192,90231,1,4,0:0:0:0:
256,192,90399,1,0,0:0:0:0:
256,192,90484,1,0,0:0:0:0:
256,192,90568,1,8,0:0:0:0:
256,192,90737,1,0,0:0:0:0:
256,192,90905,1,8,0:0:0:0:
256,192,91074,1,0,0:0:0:0:
256,192,91159,1,0,0:0:0:0:
256,192,91243,1,8,0:0:0:0:
256,192,91327,1,0,0:0:0:0:
256,192,91411,1,8,0:0:0:0:
256,192,91580,1,8,0:0:0:0:
256,192,91748,1,0,0:0:0:0:
256,192,91917,1,8,0:0:0:0:
256,192,92001,1,8,0:0:0:0:
256,192,92085,1,0,0:0:0:0:
256,192,92254,1,8,0:0:0:0:
256,192,92423,1,0,0:0:0:0:
256,192,92591,1,8,0:0:0:0:
256,192,92760,1,0,0:0:0:0:
256,192,92844,1,8,0:0:0:0:
256,192,92928,1,0,0:0:0:0:
256,192,93096,1,0,0:0:0:0:
256,192,93181,1,0,0:0:0:0:
256,192,93265,1,8,0:0:0:0:
256,192,93433,1,8,0:0:0:0:
256,192,93602,1,0,0:0:0:0:
256,192,93770,1,8,0:0:0:0:
256,192,93855,1,0,0:0:0:0:
256,192,93939,1,0,0:0:0:0:
256,192,94108,1,8,0:0:0:0:
256,192,94276,1,0,0:0:0:0:
256,192,94445,1,8,0:0:0:0:
256,192,94529,1,8,0:0:0:0:
256,192,94613,1,0,0:0:0:0:
256,192,94782,1,12,0:0:0:0:
256,192,95119,1,12,0:0:0:0:
256,192,95456,1,0,0:0:0:0:
256,192,95625,1,12,0:0:0:0:
256,192,95793,1,0,0:0:0:0:
256,192,95877,1,0,0:0:0:0:
256,192,95962,1,8,0:0:0:0:
256,192,96130,1,0,0:0:0:0:
256,192,96299,1,8,0:0:0:0:
256,192,96383,1,8,0:0:0:0:
256,192,96467,1,0,0:0:0:0:
256,192,96636,1,8,0:0:0:0:
256,192,96804,1,0,0:0:0:0:
256,192,96973,1,8,0:0:0:0:
256,192,97141,1,8,0:0:0:0:
256,192,97226,1,8,0:0:0:0:
256,192,97310,1,0,0:0:0:0:
256,192,97478,1,8,0:0:0:0:
256,192,97563,1,0,0:0:0:0:
256,192,97647,1,8,0:0:0:0:
256,192,97816,1,0,0:0:0:0:
256,192,97984,1,8,0:0:0:0:
256,192,98153,1,0,0:0:0:0:
256,192,98321,1,12,0:0:0:0:
256,192,98490,1,8,0:0:0:0:
256,192,98574,1,0,0:0:0:0:
256,192,98658,1,8,0:0:0:0:
256,192,98742,1,8,0:0:0:0:
256,192,98827,1,0,0:0:0:0:
256,192,98995,1,4,0:0:0:0:
256,192,99164,1,8,0:0:0:0:
256,192,99248,1,8,0:0:0:0:
256,192,99332,1,0,0:0:0:0:
256,192,99417,1,0,0:0:0:0:
256,192,99501,1,8,0:0:0:0:
256,192,99669,1,12,0:0:0:0:
256,192,99838,1,0,0:0:0:0:
256,192,99922,1,0,0:0:0:0:
256,192,100007,1,0,0:0:0:0:
256,192,100175,1,12,0:0:0:0:
256,192,100344,1,0,0:0:0:0:
256,192,100428,1,0,0:0:0:0:
256,192,100512,1,0,0:0:0:0:
256,192,100681,1,12,0:0:0:0:
256,192,100849,1,0,0:0:0:0:
256,192,101018,1,12,0:0:0:0:
256,192,101186,1,0,0:0:0:0:
256,192,101271,1,0,0:0:0:0:
256,192,101355,1,8,0:0:0:0:
256,192,101523,1,0,0:0:0:0:
256,192,101692,1,8,0:0:0:0:
256,192,101860,1,0,0:0:0:0:
256,192,101945,1,0,0:0:0:0:
256,192,102029,1,8,0:0:0:0:
256,192,102113,1,8,0:0:0:0:
256,192,102198,1,0,0:0:0:0:
256,192,102366,1,8,0:0:0:0:
256,192,102535,1,0,0:0:0:0:
256,192,102703,1,8,0:0:0:0:
256,192,102787,1,8,0:0:0:0:
256,192,102872,1,0,0:0:0:0:
256,192,103040,1,8,0:0:0:0:
256,192,103209,1,0,0:0:0:0:
256,192,103377,1,8,0:0:0:0:
256,192,103546,1,8,0:0:0:0:
256,192,103630,1,8,0:0:0:0:
256,192,103714,1,0,0:0:0:0:
256,192,103882,1,0,0:0:0:0:
256,192,103967,1,0,0:0:0:0:
256,192,104051,1,8,0:0:0:0:
256,192,104219,1,8,0:0:0:0:
256,192,104388,1,0,0:0:0:0:
256,192,104556,1,8,0:0:0:0:
256,192,104641,1,8,0:0:0:0:
256,192,104725,1,0,0:0:0:0:
256,192,104894,1,12,0:0:0:0:
256,192,105231,1,12,0:0:0:0:
256,192,105400,1,4,0:0:0:0:
256,192,105568,1,12,0:0:0:0:
256,192,105905,1,12,0:0:0:0:
256,192,106242,1,8,0:0:0:0:
256,192,106411,1,4,0:0:0:0:
256,192,106579,1,0,0:0:0:0:
256,192,106664,1,0,0:0:0:0:
256,192,106748,1,8,0:0:0:0:
256,192,106916,1,0,0:0:0:0:
256,192,107085,1,8,0:0:0:0:
256,192,107253,1,0,0:0:0:0:
256,192,107338,1,0,0:0:0:0:
256,192,107422,1,8,0:0:0:0:
256,192,107506,1,8,0:0:0:0:
256,192,107591,1,8,0:0:0:0:
256,192,107759,1,8,0:0:0:0:
256,192,107928,1,0,0:0:0:0:
256,192,108096,1,8,0:0:0:0:
256,192,108180,1,8,0:0:0:0:
256,192,108265,1,0,0:0:0:0:
256,192,108433,1,8,0:0:0:0:
256,192,108602,1,0,0:0:0:0:
256,192,108770,1,8,0:0:0:0:
256,192,108939,1,8,0:0:0:0:
256,192,109023,1,8,0:0:0:0:
256,192,109107,1,0,0:0:0:0:
256,192,109276,1,0,0:0:0:0:
256,192,109361,1,0,0:0:0:0:
256,192,109445,1,8,0:0:0:0:
256,192,109613,1,8,0:0:0:0:
256,192,109782,1,0,0:0:0:0:
256,192,109950,1,8,0:0:0:0:
256,192,110035,1,8,0:0:0:0:
256,192,110119,1,0,0:0:0:0:
256,192,110287,1,12,0:0:0:0:
256,192,110625,1,12,0:0:0:0:
256,192,110793,1,4,0:0:0:0:
256,192,110962,1,12,0:0:0:0:
256,192,111299,1,12,0:0:0:0:
256,192,111636,1,8,0:0:0:0:
256,192,111804,1,4,0:0:0:0:
256,192,111972,1,0,0:0:0:0:
256,192,112057,1,0,0:0:0:0:
256,192,112141,1,8,0:0:0:0:
256,192,112309,1,0,0:0:0:0:
256,192,112478,1,8,0:0:0:0:
256,192,112646,1,0,0:0:0:0:
256,192,112731,1,0,0:0:0:0:
256,192,112815,1,8,0:0:0:0:
256,192,112899,1,0,0:0:0:0:
256,192,112984,1,8,0:0:0:0:
256,192,113152,1,8,0:0:0:0:
256,192,113321,1,0,0:0:0:0:
256,192,113489,1,8,0:0:0:0:
256,192,113573,1,8,0:0:0:0:
256,192,113658,1,0,0:0:0:0:
256,192,113826,1,8,0:0:0:0:
256,192,113995,1,0,0:0:0:0:
256,192,114163,1,8,0:0:0:0:
256,192,114332,1,0,0:0:0:0:
256,192,114416,1,8,0:0:0:0:
256,192,114500,1,0,0:0:0:0:
256,192,114669,1,0,0:0:0:0:
256,192,114754,1,0,0:0:0:0:
256,192,114838,1,8,0:0:0:0:
256,192,115006,1,8,0:0:0:0:
256,192,115175,1,0,0:0:0:0:
256,192,115343,1,8,0:0:0:0:
256,192,115428,1,8,0:0:0:0:
256,192,115512,1,0,0:0:0:0:
256,192,115681,1,8,0:0:0:0:
256,192,115849,1,0,0:0:0:0:
256,192,116018,1,0,0:0:0:0:
256,192,116102,1,0,0:0:0:0:
256,192,116186,1,8,0:0:0:0:
256,192,116355,1,8,0:0:0:0:
256,192,116523,1,0,0:0:0:0:
256,192,116692,1,8,0:0:0:0:
256,192,116860,1,0,0:0:0:0:
256,192,117029,1,0,0:0:0:0:
256,192,117113,1,0,0:0:0:0:
256,192,117198,1,8,0:0:0:0:
256,192,117366,1,8,0:0:0:0:
256,192,117450,1,8,0:0:0:0:
256,192,117535,1,0,0:0:0:0:
256,192,117703,1,0,0:0:0:0:
256,192,117872,1,8,0:0:0:0:
256,192,118040,1,0,0:0:0:0:
256,192,118125,1,0,0:0:0:0:
256,192,118209,1,8,0:0:0:0:
256,192,118377,1,0,0:0:0:0:
256,192,118546,1,8,0:0:0:0:
256,192,118714,1,8,0:0:0:0:
256,192,118799,1,0,0:0:0:0:
256,192,118883,1,8,0:0:0:0:
256,192,118967,1,8,0:0:0:0:
256,192,119051,1,0,0:0:0:0:
256,192,119220,1,8,0:0:0:0:
256,192,119304,1,8,0:0:0:0:
256,192,119389,1,0,0:0:0:0:
256,192,119557,1,8,0:0:0:0:
256,192,119726,1,0,0:0:0:0:
256,192,119894,1,12,0:0:0:0:
256,192,120063,1,0,0:0:0:0:
256,192,120147,1,0,0:0:0:0:
256,192,120231,1,8,0:0:0:0:
256,192,120400,1,0,0:0:0:0:
256,192,120568,1,12,0:0:0:0:
256,192,120737,1,8,0:0:0:0:
256,192,120821,1,0,0:0:0:0:
256,192,120905,1,8,0:0:0:0:
256,192,120990,1,8,0:0:0:0:
256,192,121074,1,0,0:0:0:0:
256,192,121242,1,12,0:0:0:0:
256,192,121411,1,0,0:0:0:0:
256,192,121495,1,0,0:0:0:0:
256,192,121580,1,0,0:0:0:0:
256,192,121748,1,12,0:0:0:0:
256,192,121917,1,0,0:0:0:0:
256,192,122085,1,12,0:0:0:0:
256,192,122254,1,8,0:0:0:0:
256,192,122338,1,8,0:0:0:0:
256,192,122422,1,0,0:0:0:0:
256,192,122591,1,12,0:0:0:0:
256,192,122844,1,0,0:0:0:0:
256,192,122928,1,8,0:0:0:0:
256,192,123096,1,0,0:0:0:0:
256,192,123265,1,8,0:0:0:0:
256,192,123434,1,0,0:0:0:0:
256,192,123518,1,0,0:0:0:0:
256,192,123602,1,0,0:0:0:0:
256,192,123771,1,8,0:0:0:0:
256,192,124107,1,8,0:0:0:0:
256,192,124444,1,0,0:0:0:0:
256,192,124613,1,8,0:0:0:0:
256,192,124781,1,0,0:0:0:0:
256,192,124866,1,0,0:0:0:0:
256,192,124950,1,8,0:0:0:0:
256,192,125118,1,0,0:0:0:0:
256,192,125287,1,8,0:0:0:0:
256,192,125540,1,8,0:0:0:0:
256,192,125625,1,8,0:0:0:0:
256,192,125793,1,0,0:0:0:0:
256,192,125962,1,8,0:0:0:0:
256,192,126130,1,8,0:0:0:0:
256,192,126214,1,0,0:0:0:0:
256,192,126299,1,0,0:0:0:0:
256,192,126467,1,8,0:0:0:0:
256,192,126804,1,8,0:0:0:0:
256,192,127141,1,0,0:0:0:0:
256,192,127310,1,8,0:0:0:0:
256,192,127478,1,0,0:0:0:0:
256,192,127563,1,0,0:0:0:0:
256,192,127647,1,8,0:0:0:0:
256,192,127984,1,8,0:0:0:0:
256,192,128237,1,8,0:0:0:0:
256,192,128321,1,8,0:0:0:0:
256,192,128490,1,0,0:0:0:0:
256,192,128658,1,8,0:0:0:0:
256,192,128827,1,0,0:0:0:0:
256,192,128911,1,0,0:0:0:0:
256,192,128995,1,0,0:0:0:0:
256,192,129164,1,8,0:0:0:0:
256,192,129501,1,8,0:0:0:0:
256,192,129585,1,8,0:0:0:0:
256,192,129669,1,0,0:0:0:0:
256,192,129838,1,8,0:0:0:0:
256,192,130007,1,8,0:0:0:0:
256,192,130175,1,0,0:0:0:0:
256,192,130259,1,0,0:0:0:0:
256,192,130344,1,8,0:0:0:0:
256,192,130681,1,8,0:0:0:0:
256,192,130934,1,8,0:0:0:0:
256,192,131018,1,0,0:0:0:0:
256,192,131186,1,0,0:0:0:0:
256,192,131355,1,8,0:0:0:0:
256,192,131523,1,0,0:0:0:0:
256,192,131608,1,0,0:0:0:0:
256,192,131692,1,8,0:0:0:0:
256,192,131860,1,8,0:0:0:0:
256,192,132198,1,8,0:0:0:0:
256,192,132282,1,8,0:0:0:0:
256,192,132367,1,0,0:0:0:0:
256,192,132451,1,0,0:0:0:0:
256,192,132535,1,8,0:0:0:0:
256,192,132619,1,0,0:0:0:0:
256,192,132703,1,8,0:0:0:0:
256,192,132787,1,8,0:0:0:0:
256,192,132872,1,0,0:0:0:0:
256,192,133040,1,8,0:0:0:0:
256,192,133209,1,8,0:0:0:0:
256,192,133293,1,8,0:0:0:0:
256,192,133377,1,0,0:0:0:0:
256,192,133630,1,0,0:0:0:0:
256,192,133714,1,8,0:0:0:0:
256,192,133883,1,0,0:0:0:0:
256,192,134051,1,8,0:0:0:0:
256,192,134220,1,0,0:0:0:0:
256,192,134304,1,0,0:0:0:0:
256,192,134389,1,8,0:0:0:0:
256,192,134557,1,8,0:0:0:0:
256,192,134726,1,0,0:0:0:0:
256,192,134894,1,8,0:0:0:0:
256,192,134978,1,8,0:0:0:0:
256,192,135063,1,0,0:0:0:0:
256,192,135231,1,0,0:0:0:0:
256,192,135316,1,0,0:0:0:0:
256,192,135400,1,8,0:0:0:0:
256,192,135568,1,0,0:0:0:0:
256,192,135653,1,0,0:0:0:0:
256,192,135737,1,8,0:0:0:0:
256,192,135905,1,8,0:0:0:0:
256,192,136074,1,0,0:0:0:0:
256,192,136326,1,0,0:0:0:0:
256,192,136411,1,8,0:0:0:0:
256,192,136580,1,0,0:0:0:0:
256,192,136664,1,0,0:0:0:0:
256,192,136748,1,8,0:0:0:0:
256,192,136832,1,0,0:0:0:0:
256,192,137001,1,0,0:0:0:0:
256,192,137085,1,8,0:0:0:0:
256,192,137254,1,8,0:0:0:0:
256,192,137591,1,8,0:0:0:0:
256,192,137675,1,8,0:0:0:0:
256,192,137759,1,0,0:0:0:0:
256,192,137928,1,0,0:0:0:0:
256,192,138096,1,8,0:0:0:0:
256,192,138265,1,0,0:0:0:0:
256,192,138349,1,0,0:0:0:0:
256,192,138434,1,8,0:0:0:0:
256,192,138518,1,8,0:0:0:0:
256,192,138686,1,8,0:0:0:0:
256,192,138771,1,0,0:0:0:0:
256,192,138939,1,0,0:0:0:0:
256,192,139023,1,0,0:0:0:0:
256,192,139108,1,8,0:0:0:0:
256,192,139276,1,0,0:0:0:0:
256,192,139445,1,8,0:0:0:0:
256,192,139613,1,8,0:0:0:0:
256,192,139698,1,8,0:0:0:0:
256,192,139782,1,0,0:0:0:0:
256,192,139950,1,8,0:0:0:0:
256,192,140287,1,8,0:0:0:0:
256,192,140372,1,0,0:0:0:0:
256,192,140456,1,8,0:0:0:0:
256,192,140540,1,8,0:0:0:0:
256,192,140625,1,0,0:0:0:0:
256,192,140793,1,8,0:0:0:0:
256,192,140962,1,0,0:0:0:0:
256,192,141046,1,0,0:0:0:0:
256,192,141130,1,8,0:0:0:0:
256,192,141299,1,8,0:0:0:0:
256,192,141467,1,8,0:0:0:0:
256,192,141551,1,8,0:0:0:0:
256,192,141636,1,0,0:0:0:0:
256,192,141720,1,8,0:0:0:0:
256,192,141804,1,0,0:0:0:0:
256,192,141889,1,0,0:0:0:0:
256,192,141973,1,8,0:0:0:0:
256,192,142057,1,0,0:0:0:0:
256,192,142141,1,8,0:0:0:0:
256,192,142226,1,8,0:0:0:0:
256,192,142310,1,0,0:0:0:0:
256,192,142394,1,0,0:0:0:0:
256,192,142478,1,8,0:0:0:0:
256,192,142647,1,0,0:0:0:0:
256,192,142731,1,0,0:0:0:0:
256,192,142815,1,8,0:0:0:0:
256,192,142900,1,0,0:0:0:0:
256,192,142984,1,0,0:0:0:0:
256,192,143068,1,8,0:0:0:0:
256,192,143153,1,0,0:0:0:0:
256,192,143237,1,0,0:0:0:0:
256,192,143321,1,8,0:0:0:0:
256,192,143405,1,0,0:0:0:0:
256,192,143490,1,8,0:0:0:0:
256,192,143574,1,8,0:0:0:0:
256,192,143658,1,0,0:0:0:0:
256,192,143827,1,8,0:0:0:0:
256,192,143911,1,0,0:0:0:0:
256,192,143995,1,0,0:0:0:0:
256,192,144164,1,12,0:0:0:0:
256,192,144501,1,0,0:0:0:0:
256,192,144669,1,8,0:0:0:0:
256,192,144838,1,0,0:0:0:0:
256,192,145007,1,0,0:0:0:0:
256,192,145091,1,0,0:0:0:0:
256,192,145175,1,8,0:0:0:0:
256,192,145259,1,8,0:0:0:0:
256,192,145344,1,8,0:0:0:0:
256,192,145512,1,0,0:0:0:0:
256,192,145681,1,0,0:0:0:0:
256,192,145849,1,8,0:0:0:0:
256,192,146018,1,0,0:0:0:0:
256,192,146355,1,0,0:0:0:0:
256,192,146439,1,0,0:0:0:0:
256,192,146523,1,8,0:0:0:0:
256,192,146608,1,0,0:0:0:0:
256,192,146692,1,0,0:0:0:0:
256,192,146860,1,8,0:0:0:0:
256,192,147029,1,8,0:0:0:0:
256,192,147113,1,8,0:0:0:0:
256,192,147198,1,0,0:0:0:0:
256,192,147366,1,8,0:0:0:0:
256,192,147535,1,0,0:0:0:0:
256,192,147703,1,0,0:0:0:0:
256,192,147787,1,0,0:0:0:0:
256,192,147872,1,8,0:0:0:0:
256,192,148040,1,8,0:0:0:0:
256,192,148209,1,0,0:0:0:0:
256,192,148377,1,0,0:0:0:0:
256,192,148462,1,0,0:0:0:0:
256,192,148546,1,8,0:0:0:0:
256,192,148630,1,8,0:0:0:0:
256,192,148714,1,0,0:0:0:0:
256,192,148883,1,8,0:0:0:0:
256,192,148967,1,0,0:0:0:0:
256,192,149051,1,8,0:0:0:0:
256,192,149136,1,8,0:0:0:0:
256,192,149220,1,0,0:0:0:0:
256,192,149304,1,0,0:0:0:0:
256,192,149389,1,8,0:0:0:0:
256,192,149473,1,0,0:0:0:0:
256,192,149557,1,8,0:0:0:0:
256,192,149726,1,0,0:0:0:0:
256,192,149810,1,0,0:0:0:0:
256,192,149894,1,8,0:0:0:0:
256,192,150063,1,8,0:0:0:0:
256,192,150231,1,0,0:0:0:0:
256,192,150400,1,8,0:0:0:0:
256,192,150484,1,8,0:0:0:0:
256,192,150568,1,0,0:0:0:0:
256,192,150737,1,8,0:0:0:0:
256,192,151074,1,0,0:0:0:0:
256,192,151158,1,0,0:0:0:0:
256,192,151242,1,0,0:0:0:0:
256,192,151411,1,8,0:0:0:0:
256,192,151748,1,8,0:0:0:0:
256,192,151917,1,0,0:0:0:0:
256,192,152086,1,8,0:0:0:0:
256,192,152254,1,0,0:0:0:0:
256,192,152422,1,8,0:0:0:0:
256,192,152507,1,8,0:0:0:0:
256,192,152591,1,0,0:0:0:0:
256,192,152759,1,0,0:0:0:0:
256,192,152844,1,0,0:0:0:0:
256,192,152928,1,8,0:0:0:0:
256,192,153012,1,8,0:0:0:0:
256,192,153096,1,0,0:0:0:0:
256,192,153265,1,8,0:0:0:0:
256,192,153434,1,8,0:0:0:0:
256,192,153518,1,8,0:0:0:0:
256,192,153602,1,0,0:0:0:0:
256,192,153771,1,8,0:0:0:0:
256,192,153855,1,8,0:0:0:0:
256,192,153939,1,0,0:0:0:0:
256,192,154023,1,0,0:0:0:0:
256,192,154108,1,8,0:0:0:0:
256,192,154192,1,0,0:0:0:0:
256,192,154276,1,8,0:0:0:0:
256,192,154360,1,8,0:0:0:0:
256,192,154445,1,0,0:0:0:0:
256,192,154613,1,8,0:0:0:0:
256,192,154782,1,8,0:0:0:0:
256,192,154866,1,8,0:0:0:0:
256,192,154950,1,8,0:0:0:0:
256,192,155203,1,0,0:0:0:0:
256,192,155287,1,8,0:0:0:0:
256,192,155456,1,8,0:0:0:0:
256,192,155625,1,0,0:0:0:0:
256,192,155793,1,8,0:0:0:0:
256,192,155877,1,8,0:0:0:0:
256,192,155962,1,0,0:0:0:0:
256,192,156130,1,8,0:0:0:0:
256,192,156299,1,0,0:0:0:0:
256,192,156467,1,0,0:0:0:0:
256,192,156551,1,0,0:0:0:0:
256,192,156636,1,8,0:0:0:0:
256,192,156804,1,0,0:0:0:0:
256,192,156973,1,8,0:0:0:0:
256,192,157141,1,8,0:0:0:0:
256,192,157226,1,8,0:0:0:0:
256,192,157310,1,0,0:0:0:0:
256,192,157394,1,0,0:0:0:0:
256,192,157478,1,8,0:0:0:0:
256,192,157647,1,0,0:0:0:0:
256,192,157900,1,0,0:0:0:0:
256,192,157984,1,8,0:0:0:0:
256,192,158153,1,8,0:0:0:0:
256,192,158322,1,0,0:0:0:0:
256,192,158490,1,8,0:0:0:0:
256,192,158574,1,8,0:0:0:0:
256,192,158658,1,0,0:0:0:0:
256,192,158827,1,8,0:0:0:0:
256,192,158995,1,0,0:0:0:0:
256,192,159164,1,0,0:0:0:0:
256,192,159332,1,8,0:0:0:0:
256,192,159501,1,8,0:0:0:0:
256,192,159585,1,8,0:0:0:0:
256,192,159669,1,0,0:0:0:0:
256,192,159838,1,8,0:0:0:0:
256,192,159922,1,8,0:0:0:0:
256,192,160007,1,0,0:0:0:0:
256,192,160091,1,8,0:0:0:0:
256,192,160175,1,8,0:0:0:0:
256,192,160259,1,8,0:0:0:0:
256,192,160344,1,0,0:0:0:0:
256,192,160512,1,0,0:0:0:0:
256,192,160596,1,0,0:0:0:0:
256,192,160681,1,8,0:0:0:0:
256,192,160849,1,0,0:0:0:0:
256,192,161018,1,8,0:0:0:0:
256,192,161186,1,8,0:0:0:0:
256,192,161271,1,8,0:0:0:0:
256,192,161355,1,0,0:0:0:0:
256,192,161439,1,8,0:0:0:0:
256,192,161523,1,0,0:0:0:0:
256,192,161692,1,8,0:0:0:0:
256,192,161860,1,0,0:0:0:0:
256,192,161945,1,0,0:0:0:0:
256,192,162029,1,8,0:0:0:0:
256,192,162198,1,8,0:0:0:0:
256,192,162366,1,0,0:0:0:0:
256,192,162535,1,8,0:0:0:0:
256,192,162619,1,8,0:0:0:0:
256,192,162703,1,0,0:0:0:0:
256,192,162872,1,8,0:0:0:0:
256,192,163040,1,0,0:0:0:0:
256,192,163209,1,0,0:0:0:0:
256,192,163293,1,0,0:0:0:0:
256,192,163377,1,8,0:0:0:0:
256,192,163462,1,8,0:0:0:0:
256,192,163546,1,0,0:0:0:0:
256,192,163630,1,8,0:0:0:0:
256,192,163714,1,0,0:0:0:0:
256,192,163799,1,0,0:0:0:0:
256,192,163883,1,8,0:0:0:0:
256,192,163967,1,0,0:0:0:0:
256,192,164051,1,8,0:0:0:0:
256,192,164220,1,0,0:0:0:0:
256,192,164557,1,12,0:0:0:0:
256,192,164894,1,12,0:0:0:0:
256,192,165231,1,4,0:0:0:0:
256,192,165400,1,12,0:0:0:0:
256,192,165737,1,0,0:0:0:0:
256,192,165990,1,0,0:0:0:0:
256,192,166074,1,0,0:0:0:0:
256,192,166243,1,0,0:0:0:0:
256,192,166411,1,8,0:0:0:0:
256,192,166580,1,0,0:0:0:0:
256,192,166664,1,0,0:0:0:0:
256,192,166748,1,0,0:0:0:0:
256,192,166917,1,0,0:0:0:0:
256,192,167085,1,8,0:0:0:0:
256,192,167169,1,0,0:0:0:0:
256,192,167254,1,0,0:0:0:0:
256,192,167422,1,0,0:0:0:0:
256,192,167591,1,0,0:0:0:0:
256,192,167675,1,0,0:0:0:0:
256,192,167759,1,8,0:0:0:0:
256,192,167844,1,0,0:0:0:0:
256,192,168012,1,0,0:0:0:0:
256,192,168096,1,8,0:0:0:0:
256,192,168265,1,8,0:0:0:0:
256,192,168349,1,8,0:0:0:0:
256,192,168434,1,0,0:0:0:0:
256,192,168771,1,0,0:0:0:0:
256,192,168939,1,0,0:0:0:0:
256,192,169023,1,0,0:0:0:0:
256,192,169108,1,8,0:0:0:0:
256,192,169192,1,0,0:0:0:0:
256,192,169360,1,0,0:0:0:0:
256,192,169445,1,8,0:0:0:0:
256,192,169613,1,8,0:0:0:0:
256,192,169950,1,0,0:0:0:0:
256,192,170119,1,8,0:0:0:0:
256,192,170287,1,0,0:0:0:0:
256,192,170372,1,0,0:0:0:0:
256,192,170455,1,8,0:0:0:0:
256,192,170540,1,8,0:0:0:0:
256,192,170625,1,0,0:0:0:0:
256,192,170793,1,8,0:0:0:0:
256,192,170962,1,8,0:0:0:0:
256,192,171130,1,4,0:0:0:0:
256,192,171299,1,0,0:0:0:0:
256,192,171383,1,0,0:0:0:0:
256,192,171467,1,8,0:0:0:0:
256,192,171636,1,0,0:0:0:0:
256,192,171804,1,8,0:0:0:0:
256,192,171889,1,0,0:0:0:0:
256,192,171973,1,0,0:0:0:0:
256,192,172141,1,8,0:0:0:0:
256,192,172310,1,4,0:0:0:0:
256,192,172478,1,0,0:0:0:0:
256,192,172647,1,8,0:0:0:0:
256,192,172731,1,0,0:0:0:0:
256,192,172815,1,8,0:0:0:0:
256,192,172984,1,8,0:0:0:0:
256,192,173068,1,8,0:0:0:0:
256,192,173153,1,0,0:0:0:0:
256,192,173321,1,0,0:0:0:0:
256,192,173405,1,0,0:0:0:0:
256,192,173490,1,8,0:0:0:0:
256,192,173658,1,0,0:0:0:0:
256,192,173827,1,8,0:0:0:0:
256,192,173995,1,8,0:0:0:0:
256,192,174080,1,0,0:0:0:0:
256,192,174164,1,8,0:0:0:0:
256,192,174332,1,0,0:0:0:0:
256,192,174501,1,8,0:0:0:0:
256,192,174669,1,8,0:0:0:0:
256,192,174754,1,0,0:0:0:0:
256,192,174838,1,0,0:0:0:0:
256,192,175007,1,12,0:0:0:0:
256,192,175344,1,4,0:0:0:0:
256,192,175512,1,0,0:0:0:0:
256,192,175681,1,12,0:0:0:0:
256,192,176018,1,12,0:0:0:0:
256,192,176355,1,8,0:0:0:0:
256,192,176439,1,0,0:0:0:0:
256,192,176523,1,8,0:0:0:0:
256,192,176608,1,8,0:0:0:0:
256,192,176692,1,0,0:0:0:0:
256,192,176776,1,8,0:0:0:0:
256,192,176861,1,8,0:0:0:0:
256,192,176945,1,8,0:0:0:0:
256,192,177029,1,0,0:0:0:0:
256,192,177113,1,0,0:0:0:0:
256,192,177198,1,8,0:0:0:0:
256,192,177282,1,8,0:0:0:0:
256,192,177366,1,0,0:0:0:0:
256,192,177535,1,12,0:0:0:0:
256,192,177872,1,12,0:0:0:0:
256,192,178040,1,0,0:0:0:0:
256,192,178125,1,0,0:0:0:0:
256,192,178209,1,8,0:0:0:0:
256,192,178377,1,0,0:0:0:0:
256,192,178546,1,8,0:0:0:0:
256,192,178630,1,8,0:0:0:0:
256,192,178714,1,0,0:0:0:0:
256,192,178883,1,8,0:0:0:0:
256,192,179052,1,8,0:0:0:0:
256,192,179136,1,0,0:0:0:0:
256,192,179220,1,8,0:0:0:0:
256,192,179389,1,0,0:0:0:0:
256,192,179557,1,8,0:0:0:0:
256,192,179726,1,8,0:0:0:0:
256,192,180063,1,0,0:0:0:0:
256,192,180147,1,0,0:0:0:0:
256,192,180231,1,8,0:0:0:0:
256,192,180315,1,0,0:0:0:0:
256,192,180400,1,8,0:0:0:0:
256,192,180484,1,8,0:0:0:0:
256,192,180568,1,0,0:0:0:0:
256,192,180737,1,0,0:0:0:0:
256,192,180821,1,0,0:0:0:0:
256,192,180905,1,8,0:0:0:0:
256,192,181074,1,8,0:0:0:0:
256,192,181243,1,0,0:0:0:0:
256,192,181411,1,8,0:0:0:0:
256,192,181495,1,8,0:0:0:0:
256,192,181580,1,0,0:0:0:0:
256,192,181748,1,8,0:0:0:0:
256,192,181917,1,0,0:0:0:0:
256,192,182086,1,8,0:0:0:0:
256,192,182170,1,8,0:0:0:0:
256,192,182254,1,8,0:0:0:0:
256,192,182422,1,4,0:0:0:0:
256,192,182759,1,12,0:0:0:0:
256,192,183096,1,8,0:0:0:0:
256,192,183265,1,4,0:0:0:0:
256,192,183434,1,0,0:0:0:0:
256,192,183518,1,0,0:0:0:0:
256,192,183602,1,8,0:0:0:0:
256,192,183686,1,8,0:0:0:0:
256,192,183771,1,0,0:0:0:0:
256,192,183939,1,8,0:0:0:0:
256,192,184192,1,0,0:0:0:0:
256,192,184276,1,0,0:0:0:0:
256,192,184445,1,8,0:0:0:0:
256,192,184529,1,8,0:0:0:0:
256,192,184613,1,0,0:0:0:0:
256,192,184782,1,8,0:0:0:0:
256,192,184866,1,8,0:0:0:0:
256,192,184950,1,0,0:0:0:0:
256,192,185035,1,0,0:0:0:0:
256,192,185119,1,8,0:0:0:0:
256,192,185456,1,0,0:0:0:0:
256,192,185541,1,0,0:0:0:0:
256,192,185625,1,8,0:0:0:0:
256,192,185709,1,8,0:0:0:0:
256,192,185793,1,0,0:0:0:0:
256,192,185877,1,8,0:0:0:0:
256,192,185962,1,0,0:0:0:0:
256,192,186130,1,0,0:0:0:0:
256,192,186215,1,0,0:0:0:0:
256,192,186299,1,8,0:0:0:0:
256,192,186467,1,8,0:0:0:0:
256,192,186636,1,0,0:0:0:0:
256,192,186804,1,8,0:0:0:0:
256,192,186889,1,8,0:0:0:0:
256,192,186973,1,0,0:0:0:0:
256,192,187141,1,12,0:0:0:0:
256,192,187478,1,12,0:0:0:0:
256,192,187647,1,4,0:0:0:0:
256,192,187816,1,12,0:0:0:0:
256,192,188153,1,12,0:0:0:0:
256,192,188490,1,8,0:0:0:0:
256,192,188658,1,4,0:0:0:0:
256,192,188827,1,0,0:0:0:0:
256,192,188911,1,0,0:0:0:0:
256,192,188995,1,8,0:0:0:0:
256,192,189079,1,8,0:0:0:0:
256,192,189164,1,0,0:0:0:0:
256,192,189332,1,8,0:0:0:0:
256,192,189585,1,0,0:0:0:0:
256,192,189669,1,0,0:0:0:0:
256,192,189838,1,8,0:0:0:0:
256,192,189922,1,8,0:0:0:0:
256,192,190006,1,0,0:0:0:0:
256,192,190175,1,8,0:0:0:0:
256,192,190259,1,8,0:0:0:0:
256,192,190344,1,0,0:0:0:0:
256,192,190428,1,0,0:0:0:0:
256,192,190512,1,0,0:0:0:0:
256,192,190849,1,0,0:0:0:0:
256,192,190934,1,0,0:0:0:0:
256,192,191018,1,8,0:0:0:0:
256,192,191187,1,8,0:0:0:0:
256,192,191355,1,0,0:0:0:0:
256,192,191523,1,0,0:0:0:0:
256,192,191608,1,0,0:0:0:0:
256,192,191692,1,8,0:0:0:0:
256,192,191860,1,8,0:0:0:0:
256,192,192029,1,0,0:0:0:0:
256,192,192198,1,8,0:0:0:0:
256,192,192282,1,8,0:0:0:0:
256,192,192366,1,0,0:0:0:0:
256,192,192534,1,8,0:0:0:0:
256,192,192871,1,0,0:0:0:0:
256,192,192956,1,0,0:0:0:0:
256,192,193040,1,8,0:0:0:0:
256,192,193208,1,12,0:0:0:0:
256,192,193545,1,12,0:0:0:0:
256,192,193882,1,0,0:0:0:0:
256,192,194051,1,12,0:0:0:0:
256,192,194220,1,0,0:0:0:0:
256,192,194304,1,0,0:0:0:0:
256,192,194389,1,8,0:0:0:0:
256,192,194557,1,0,0:0:0:0:
256,192,194726,1,8,0:0:0:0:
256,192,194894,1,0,0:0:0:0:
256,192,194978,1,0,0:0:0:0:
256,192,195063,1,8,0:0:0:0:
256,192,195231,1,8,0:0:0:0:
256,192,195400,1,0,0:0:0:0:
256,192,195568,1,8,0:0:0:0:
256,192,195653,1,8,0:0:0:0:
256,192,195737,1,0,0:0:0:0:
256,192,195905,1,8,0:0:0:0:
256,192,195990,1,0,0:0:0:0:
256,192,196074,1,8,0:0:0:0:
256,192,196327,1,0,0:0:0:0:
256,192,196411,1,0,0:0:0:0:
256,192,196580,1,0,0:0:0:0:
256,192,196748,1,12,0:0:0:0:
256,192,196917,1,8,0:0:0:0:
256,192,197001,1,0,0:0:0:0:
256,192,197085,1,8,0:0:0:0:
256,192,197169,1,8,0:0:0:0:
256,192,197254,1,0,0:0:0:0:
256,192,197422,1,4,0:0:0:0:
256,192,197591,1,8,0:0:0:0:
256,192,197675,1,8,0:0:0:0:
256,192,197759,1,0,0:0:0:0:
256,192,197844,1,0,0:0:0:0:
256,192,197928,1,8,0:0:0:0:
256,192,198096,1,12,0:0:0:0:
256,192,198265,1,0,0:0:0:0:
256,192,198349,1,0,0:0:0:0:
256,192,198434,1,0,0:0:0:0:
256,192,198602,1,12,0:0:0:0:
256,192,198771,1,0,0:0:0:0:
256,192,198855,1,0,0:0:0:0:
256,192,198939,1,0,0:0:0:0:
256,192,199108,1,12,0:0:0:0:
256,192,199276,1,0,0:0:0:0:
256,192,199445,1,12,0:0:0:0:
256,192,199613,1,0,0:0:0:0:
256,192,199697,1,0,0:0:0:0:
256,192,199781,1,8,0:0:0:0:
256,192,199865,1,8,0:0:0:0:
256,192,199950,1,0,0:0:0:0:
256,192,200118,1,8,0:0:0:0:
256,192,200372,1,0,0:0:0:0:
256,192,200456,1,0,0:0:0:0:
256,192,200625,1,8,0:0:0:0:
256,192,200709,1,8,0:0:0:0:
256,192,200793,1,0,0:0:0:0:
256,192,200961,1,0,0:0:0:0:
256,192,201045,1,0,0:0:0:0:
256,192,201129,1,8,0:0:0:0:
256,192,201214,1,0,0:0:0:0:
256,192,201298,1,8,0:0:0:0:
256,192,201635,1,0,0:0:0:0:
256,192,201720,1,0,0:0:0:0:
256,192,201804,1,8,0:0:0:0:
256,192,201973,1,8,0:0:0:0:
256,192,202141,1,0,0:0:0:0:
256,192,202309,1,0,0:0:0:0:
256,192,202394,1,0,0:0:0:0:
256,192,202478,1,8,0:0:0:0:
256,192,202646,1,8,0:0:0:0:
256,192,202815,1,0,0:0:0:0:
256,192,202983,1,8,0:0:0:0:
256,192,203068,1,8,0:0:0:0:
256,192,203152,1,0,0:0:0:0:
256,192,203321,1,12,0:0:0:0:
256,192,203658,1,12,0:0:0:0:
256,192,203827,1,4,0:0:0:0:
256,192,203995,1,12,0:0:0:0:
256,192,204332,1,12,0:0:0:0:
256,192,204669,1,8,0:0:0:0:
256,192,204838,1,4,0:0:0:0:
256,192,205007,1,0,0:0:0:0:
256,192,205091,1,0,0:0:0:0:
256,192,205175,1,8,0:0:0:0:
256,192,205259,1,8,0:0:0:0:
256,192,205344,1,0,0:0:0:0:
256,192,205512,1,8,0:0:0:0:
256,192,205765,1,0,0:0:0:0:
256,192,205849,1,0,0:0:0:0:
256,192,206018,1,8,0:0:0:0:
256,192,206102,1,8,0:0:0:0:
256,192,206186,1,0,0:0:0:0:
256,192,206355,1,8,0:0:0:0:
256,192,206439,1,8,0:0:0:0:
256,192,206523,1,8,0:0:0:0:
256,192,206608,1,0,0:0:0:0:
256,192,206692,1,8,0:0:0:0:
256,192,207029,1,0,0:0:0:0:
256,192,207114,1,0,0:0:0:0:
256,192,207198,1,8,0:0:0:0:
256,192,207367,1,8,0:0:0:0:
256,192,207535,1,0,0:0:0:0:
256,192,207703,1,0,0:0:0:0:
256,192,207788,1,0,0:0:0:0:
256,192,207872,1,8,0:0:0:0:
256,192,208040,1,8,0:0:0:0:
256,192,208209,1,0,0:0:0:0:
256,192,208377,1,8,0:0:0:0:
256,192,208462,1,8,0:0:0:0:
256,192,208546,1,0,0:0:0:0:
256,192,208714,1,12,0:0:0:0:
256,192,209052,1,12,0:0:0:0:
256,192,209220,1,4,0:0:0:0:
256,192,209389,1,12,0:0:0:0:
256,192,209726,1,12,0:0:0:0:
256,192,210063,1,8,0:0:0:0:
256,192,210231,1,4,0:0:0:0:
256,192,210400,1,0,0:0:0:0:
256,192,210484,1,0,0:0:0:0:
256,192,210568,1,8,0:0:0:0:
256,192,210652,1,8,0:0:0:0:
256,192,210737,1,0,0:0:0:0:
256,192,210905,1,8,0:0:0:0:
256,192,211158,1,0,0:0:0:0:
256,192,211242,1,0,0:0:0:0:
256,192,211411,1,8,0:0:0:0:
256,192,211495,1,8,0:0:0:0:
256,192,211580,1,0,0:0:0:0:
256,192,211748,1,8,0:0:0:0:
256,192,211832,1,8,0:0:0:0:
256,192,211917,1,0,0:0:0:0:
256,192,212001,1,0,0:0:0:0:
256,192,212085,1,8,0:0:0:0:
256,192,212422,1,0,0:0:0:0:
256,192,212507,1,0,0:0:0:0:
256,192,212591,1,8,0:0:0:0:
256,192,212760,1,8,0:0:0:0:
256,192,212928,1,0,0:0:0:0:
256,192,213096,1,0,0:0:0:0:
256,192,213181,1,0,0:0:0:0:
256,192,213265,1,8,0:0:0:0:
256,192,213433,1,8,0:0:0:0:
256,192,213602,1,0,0:0:0:0:
256,192,213770,1,8,0:0:0:0:
256,192,213855,1,8,0:0:0:0:
256,192,213939,1,0,0:0:0:0:
256,192,214108,1,8,0:0:0:0:
256,192,214445,1,0,0:0:0:0:
256,192,214529,1,0,0:0:0:0:
256,192,214613,1,8,0:0:0:0:
256,192,214782,1,8,0:0:0:0:
256,192,214950,1,0,0:0:0:0:
256,192,215119,1,8,0:0:0:0:
256,192,215203,1,0,0:0:0:0:
256,192,215287,1,0,0:0:0:0:
256,192,215456,1,8,0:0:0:0:
256,192,215625,1,0,0:0:0:0:
256,192,215709,1,0,0:0:0:0:
256,192,215793,1,8,0:0:0:0:
256,192,215962,1,8,0:0:0:0:
256,192,216046,1,8,0:0:0:0:
256,192,216130,1,0,0:0:0:0:
256,192,216299,1,8,0:0:0:0:
256,192,216383,1,0,0:0:0:0:
256,192,216467,1,8,0:0:0:0:
256,192,216552,1,8,0:0:0:0:
256,192,216636,1,0,0:0:0:0:
256,192,216804,1,8,0:0:0:0:
256,192,216973,1,0,0:0:0:0:
256,192,217141,1,0,0:0:0:0:
256,192,217226,1,8,0:0:0:0:
256,192,217310,1,0,0:0:0:0:
256,192,217394,1,0,0:0:0:0:
256,192,217478,1,8,0:0:0:0:
256,192,217647,1,0,0:0:0:0:
256,192,217731,1,8,0:0:0:0:
256,192,217816,1,8,0:0:0:0:
256,192,217900,1,8,0:0:0:0:
256,192,217984,1,0,0:0:0:0:
256,192,218068,1,0,0:0:0:0:
256,192,218153,1,8,0:0:0:0:
256,192,218321,1,4,0:0:0:0:
256,192,218490,1,8,0:0:0:0:
256,192,218574,1,8,0:0:0:0:
256,192,218658,1,8,0:0:0:0:
256,192,218827,1,8,0:0:0:0:
256,192,218995,1,4,0:0:0:0:
256,192,219164,1,8,0:0:0:0:
256,192,219248,1,0,0:0:0:0:
256,192,219332,1,8,0:0:0:0:
256,192,219417,1,8,0:0:0:0:
256,192,219501,1,0,0:0:0:0:
256,192,219669,1,4,0:0:0:0:
256,192,219838,1,8,0:0:0:0:
256,192,219922,1,8,0:0:0:0:
256,192,220007,1,8,0:0:0:0:
256,192,220175,1,4,0:0:0:0:
256,192,220344,1,8,0:0:0:0:
256,192,220512,1,4,0:0:0:0:
256,192,220681,1,0,0:0:0:0:
256,192,220765,1,0,0:0:0:0:
256,192,220849,1,0,0:0:0:0:
256,192,221018,1,12,0:0:0:0:
256,192,221271,1,0,0:0:0:0:
256,192,221355,1,8,0:0:0:0:
256,192,221523,1,0,0:0:0:0:
256,192,221608,1,0,0:0:0:0:
256,192,221692,1,8,0:0:0:0:
256,192,221861,1,8,0:0:0:0:
256,192,222029,1,0,0:0:0:0:
256,192,222198,1,8,0:0:0:0:
256,192,222535,1,8,0:0:0:0:
256,192,222619,1,8,0:0:0:0:
256,192,222703,1,8,0:0:0:0:
256,192,222872,1,0,0:0:0:0:
256,192,223040,1,8,0:0:0:0:
256,192,223209,1,8,0:0:0:0:
256,192,223293,1,8,0:0:0:0:
256,192,223377,1,0,0:0:0:0:
256,192,223546,1,8,0:0:0:0:
256,192,223714,1,8,0:0:0:0:
256,192,223967,1,0,0:0:0:0:
256,192,224052,1,8,0:0:0:0:
256,192,224220,1,0,0:0:0:0:
256,192,224389,1,8,0:0:0:0:
256,192,224557,1,0,0:0:0:0:
256,192,224641,1,0,0:0:0:0:
256,192,224726,1,0,0:0:0:0:
256,192,224894,1,8,0:0:0:0:
256,192,225063,1,0,0:0:0:0:
256,192,225231,1,8,0:0:0:0:
256,192,225315,1,8,0:0:0:0:
256,192,225399,1,0,0:0:0:0:
256,192,225568,1,0,0:0:0:0:
256,192,225736,1,8,0:0:0:0:
256,192,225905,1,8,0:0:0:0:
256,192,225990,1,0,0:0:0:0:
256,192,226074,1,8,0:0:0:0:
256,192,226243,1,0,0:0:0:0:
256,192,226411,1,8,0:0:0:0:
256,192,226664,1,0,0:0:0:0:
256,192,226748,1,8,0:0:0:0:
256,192,226917,1,0,0:0:0:0:
256,192,227085,1,8,0:0:0:0:
256,192,227254,1,8,0:0:0:0:
256,192,227338,1,8,0:0:0:0:
256,192,227422,1,0,0:0:0:0:
256,192,227591,1,8,0:0:0:0:
256,192,227759,1,0,0:0:0:0:
256,192,227928,1,8,0:0:0:0:
256,192,228012,1,0,0:0:0:0:
256,192,228096,1,8,0:0:0:0:
256,192,228181,1,8,0:0:0:0:
256,192,228265,1,0,0:0:0:0:
256,192,228434,1,8,0:0:0:0:
256,192,228686,1,0,0:0:0:0:
256,192,228771,1,8,0:0:0:0:
256,192,228939,1,0,0:0:0:0:
256,192,229108,1,8,0:0:0:0:
256,192,229276,1,8,0:0:0:0:
256,192,229361,1,8,0:0:0:0:
256,192,229445,1,0,0:0:0:0:
256,192,229613,1,8,0:0:0:0:
256,192,229782,1,0,0:0:0:0:
256,192,229950,1,0,0:0:0:0:
256,192,230035,1,0,0:0:0:0:
256,192,230119,1,8,0:0:0:0:
256,192,230203,1,8,0:0:0:0:
256,192,230287,1,0,0:0:0:0:
256,192,230456,1,8,0:0:0:0:
256,192,230625,1,0,0:0:0:0:
256,192,230709,1,0,0:0:0:0:
256,192,230793,1,8,0:0:0:0:
256,192,230877,1,0,0:0:0:0:
256,192,230962,1,0,0:0:0:0:
256,192,231046,1,0,0:0:0:0:
256,192,231130,1,8,0:0:0:0:
256,192,231214,1,8,0:0:0:0:
256,192,231299,1,0,0:0:0:0:
256,192,231467,1,8,0:0:0:0:
256,192,231636,1,8,0:0:0:0:
256,192,231720,1,8,0:0:0:0:
256,192,231804,1,0,0:0:0:0:
256,192,232057,1,0,0:0:0:0:
256,192,232141,1,8,0:0:0:0:
256,192,232310,1,8,0:0:0:0:
256,192,232478,1,0,0:0:0:0:
256,192,232647,1,8,0:0:0:0:
256,192,232731,1,8,0:0:0:0:
256,192,232816,1,0,0:0:0:0:
256,192,232984,1,8,0:0:0:0:
256,192,233153,1,0,0:0:0:0:
256,192,233405,1,0,0:0:0:0:
256,192,233490,1,8,0:0:0:0:
256,192,233658,1,0,0:0:0:0:
256,192,233827,1,8,0:0:0:0:
256,192,233995,1,0,0:0:0:0:
256,192,234080,1,0,0:0:0:0:
256,192,234164,1,8,0:0:0:0:
256,192,234248,1,0,0:0:0:0:
256,192,234417,1,0,0:0:0:0:
256,192,234501,1,8,0:0:0:0:
256,192,234669,1,8,0:0:0:0:
256,192,234754,1,8,0:0:0:0:
256,192,234838,1,0,0:0:0:0:
256,192,234922,1,8,0:0:0:0:
256,192,235091,1,8,0:0:0:0:
256,192,235175,1,0,0:0:0:0:
256,192,235344,1,8,0:0:0:0:
256,192,235428,1,8,0:0:0:0:
256,192,235512,1,0,0:0:0:0:
256,192,235596,1,0,0:0:0:0:
256,192,235765,1,0,0:0:0:0:
256,192,235849,1,8,0:0:0:0:
256,192,236018,1,8,0:0:0:0:
256,192,236102,1,8,0:0:0:0:
256,192,236186,1,8,0:0:0:0:
256,192,236271,1,0,0:0:0:0:
256,192,236439,1,8,0:0:0:0:
256,192,236523,1,0,0:0:0:0:
256,192,236692,1,0,0:0:0:0:
256,192,236776,1,0,0:0:0:0:
256,192,236860,1,8,0:0:0:0:
256,192,237029,1,8,0:0:0:0:
256,192,237198,1,0,0:0:0:0:
256,192,237450,1,0,0:0:0:0:
256,192,237535,1,8,0:0:0:0:
256,192,237703,1,8,0:0:0:0:
256,192,237872,1,0,0:0:0:0:
256,192,238040,1,0,0:0:0:0:
256,192,238125,1,0,0:0:0:0:
256,192,238209,1,8,0:0:0:0:
256,192,238377,1,8,0:0:0:0:
256,192,238546,1,0,0:0:0:0:
256,192,238714,1,0,0:0:0:0:
256,192,238799,1,0,0:0:0:0:
256,192,238883,1,8,0:0:0:0:
256,192,238967,1,0,0:0:0:0:
256,192,239136,1,0,0:0:0:0:
256,192,239220,1,8,0:0:0:0:
256,192,239389,1,0,0:0:0:0:
256,192,239473,1,0,0:0:0:0:
256,192,239557,1,8,0:0:0:0:
256,192,239641,1,8,0:0:0:0:
256,192,239810,1,0,0:0:0:0:
256,192,239894,1,8,0:0:0:0:
256,192,240063,1,8,0:0:0:0:
256,192,240147,1,8,0:0:0:0:
256,192,240231,1,0,0:0:0:0:
256,192,240400,1,8,0:0:0:0:
256,192,240568,1,0,0:0:0:0:
256,192,240737,1,0,0:0:0:0:
256,192,240905,1,8,0:0:0:0:
256,192,241074,1,8,0:0:0:0:
256,192,241158,1,8,0:0:0:0:
256,192,241242,1,0,0:0:0:0:
256,192,241411,1,12,0:0:0:0:
256,192,241580,1,0,0:0:0:0:
256,192,241664,1,0,0:0:0:0:
256,192,241748,1,8,0:0:0:0:
256,192,241832,1,0,0:0:0:0:
256,192,241917,1,8,0:0:0:0:
256,192,242001,1,8,0:0:0:0:
256,192,242085,1,0,0:0:0:0:
256,192,242169,1,0,0:0:0:0:
256,192,242254,1,8,0:0:0:0:
256,192,242422,1,0,0:0:0:0:
256,192,242478,1,0,0:0:0:0:
256,192,242535,1,0,0:0:0:0:
256,192,242591,1,8,0:0:0:0:
256,192,242844,1,0,0:0:0:0:
256,192,242928,1,8,0:0:0:0:
256,192,243096,1,8,0:0:0:0:
256,192,243265,1,0,0:0:0:0:
256,192,243434,1,8,0:0:0:0:
256,192,243518,1,8,0:0:0:0:
256,192,243602,1,8,0:0:0:0:
256,192,243771,1,8,0:0:0:0:
256,192,243939,1,8,0:0:0:0:
256,192,244192,1,8,0:0:0:0:
256,192,244276,1,8,0:0:0:0:
256,192,244445,1,8,0:0:0:0:
256,192,244613,1,0,0:0:0:0:
256,192,244782,1,0,0:0:0:0:
256,192,244866,1,8,0:0:0:0:
256,192,244950,1,8,0:0:0:0:
256,192,245119,1,8,0:0:0:0:
256,192,245287,1,8,0:0:0:0:
256,192,245540,1,8,0:0:0:0:
256,192,245625,1,8,0:0:0:0:
256,192,245793,1,0,0:0:0:0:
256,192,245962,1,8,0:0:0:0:
256,192,246130,1,0,0:0:0:0:
256,192,246214,1,8,0:0:0:0:
256,192,246299,1,8,0:0:0:0:
256,192,246383,1,0,0:0:0:0:
256,192,246467,1,8,0:0:0:0:
256,192,246636,1,8,0:0:0:0:
256,192,246804,1,8,0:0:0:0:
256,192,246889,1,8,0:0:0:0:
256,192,246973,1,0,0:0:0:0:
256,192,247057,1,8,0:0:0:0:
256,192,247141,1,0,0:0:0:0:
256,192,247226,1,0,0:0:0:0:
256,192,247310,1,8,0:0:0:0:
256,192,247478,1,0,0:0:0:0:
256,192,247563,1,0,0:0:0:0:
256,192,247647,1,8,0:0:0:0:
256,192,247731,1,8,0:0:0:0:
256,192,247816,1,0,0:0:0:0:
256,192,247900,1,0,0:0:0:0:
256,192,247984,1,8,0:0:0:0:
256,192,248237,1,8,0:0:0:0:
256,192,248321,1,0,0:0:0:0:
256,192,248490,1,8,0:0:0:0:
256,192,248658,1,0,0:0:0:0:
256,192,248827,1,8,0:0:0:0:
256,192,248911,1,8,0:0:0:0:
256,192,248995,1,0,0:0:0:0:
256,192,249164,1,8,0:0:0:0:
256,192,249332,1,0,0:0:0:0:
256,192,249501,1,0,0:0:0:0:
256,192,249585,1,0,0:0:0:0:
256,192,249669,1,8,0:0:0:0:
256,192,249838,1,0,0:0:0:0:
256,192,250007,1,8,0:0:0:0:
256,192,250259,1,0,0:0:0:0:
256,192,250344,1,8,0:0:0:0:
256,192,250512,1,8,0:0:0:0:
256,192,250681,1,0,0:0:0:0:
256,192,250849,1,8,0:0:0:0:
256,192,250934,1,0,0:0:0:0:
256,192,251018,1,8,0:0:0:0:
256,192,251102,1,8,0:0:0:0:
256,192,251186,1,0,0:0:0:0:
256,192,251271,1,0,0:0:0:0:
256,192,251355,1,8,0:0:0:0:
256,192,251523,1,8,0:0:0:0:
256,192,251692,1,8,0:0:0:0:
256,192,251860,1,0,0:0:0:0:
256,192,251945,1,0,0:0:0:0:
256,192,252029,1,8,0:0:0:0:
256,192,252198,1,8,0:0:0:0:
256,192,252282,1,0,0:0:0:0:
256,192,252366,1,8,0:0:0:0:
256,192,252450,1,8,0:0:0:0:
256,192,252535,1,0,0:0:0:0:
256,192,252619,1,0,0:0:0:0:
256,192,252703,1,8,0:0:0:0:
256,192,252787,1,8,0:0:0:0:
256,192,252872,1,0,0:0:0:0:
256,192,253040,1,8,0:0:0:0:
256,192,253209,1,8,0:0:0:0:
256,192,253293,1,8,0:0:0:0:
256,192,253377,1,0,0:0:0:0:
256,192,253630,1,0,0:0:0:0:
256,192,253714,1,8,0:0:0:0:
256,192,253883,1,8,0:0:0:0:
256,192,254051,1,0,0:0:0:0:
256,192,254220,1,8,0:0:0:0:
256,192,254304,1,8,0:0:0:0:
256,192,254389,1,0,0:0:0:0:
256,192,254557,1,8,0:0:0:0:
256,192,254726,1,0,0:0:0:0:
256,192,254979,1,8,0:0:0:0:
256,192,255063,1,0,0:0:0:0:
256,192,255231,1,0,0:0:0:0:
256,192,255400,1,8,0:0:0:0:
256,192,255568,1,8,0:0:0:0:
256,192,255653,1,8,0:0:0:0:
256,192,255737,1,0,0:0:0:0:
256,192,255905,1,0,0:0:0:0:
256,192,256074,1,8,0:0:0:0:
256,192,256327,1,8,0:0:0:0:
256,192,256411,1,0,0:0:0:0:
256,192,256580,1,8,0:0:0:0:
256,192,256748,1,0,0:0:0:0:
256,192,256917,1,0,0:0:0:0:
256,192,257001,1,8,0:0:0:0:
256,192,257085,1,8,0:0:0:0:
256,192,257169,1,0,0:0:0:0:
256,192,257254,1,8,0:0:0:0:
256,192,257422,1,0,0:0:0:0:
256,192,257591,1,8,0:0:0:0:
256,192,257675,1,0,0:0:0:0:
256,192,257759,1,8,0:0:0:0:
256,192,257844,1,8,0:0:0:0:
256,192,257928,1,0,0:0:0:0:
256,192,258096,1,8,0:0:0:0:
256,192,258265,1,8,0:0:0:0:
256,192,258349,1,0,0:0:0:0:
256,192,258434,1,8,0:0:0:0:
256,192,258518,1,8,0:0:0:0:
256,192,258602,1,0,0:0:0:0:
256,192,258686,1,0,0:0:0:0:
256,192,258771,1,8,0:0:0:0:
256,192,258939,1,8,0:0:0:0:
256,192,259023,1,8,0:0:0:0:
256,192,259108,1,0,0:0:0:0:
256,192,259192,1,0,0:0:0:0:
256,192,259276,1,8,0:0:0:0:
256,192,259445,1,0,0:0:0:0:
256,192,259613,1,0,0:0:0:0:
256,192,259698,1,0,0:0:0:0:
256,192,259782,1,8,0:0:0:0:
256,192,259950,1,8,0:0:0:0:
256,192,260034,1,0,0:0:0:0:
256,192,260118,1,8,0:0:0:0:
256,192,260203,1,8,0:0:0:0:
256,192,260286,1,0,0:0:0:0:
256,192,260371,1,8,0:0:0:0:
256,192,260455,1,8,0:0:0:0:
256,192,260539,1,0,0:0:0:0:
256,192,260624,1,8,0:0:0:0:
256,192,260708,1,0,0:0:0:0:
256,192,260792,1,8,0:0:0:0:
256,192,260876,1,8,0:0:0:0:
256,192,260961,1,0,0:0:0:0:
256,192,261045,1,0,0:0:0:0:
256,192,261129,1,8,0:0:0:0:
256,192,261382,1,0,0:0:0:0:
256,192,261466,1,8,0:0:0:0:
256,192,261636,1,8,0:0:0:0:
256,192,261720,1,8,0:0:0:0:
256,192,261804,1,0,0:0:0:0:
256,192,261889,1,0,0:0:0:0:
256,192,261973,1,8,0:0:0:0:
256,192,262057,1,0,0:0:0:0:
256,192,262141,1,8,0:0:0:0:
256,192,262226,1,8,0:0:0:0:
256,192,262310,1,0,0:0:0:0:
256,192,262394,1,0,0:0:0:0:
256,192,262478,1,8,0:0:0:0:
256,192,262646,1,0,0:0:0:0:
256,192,262730,1,0,0:0:0:0:
256,192,262815,1,8,0:0:0:0:
256,192,262983,1,8,0:0:0:0:
256,192,263067,1,8,0:0:0:0:
256,192,263152,1,0,0:0:0:0:
256,192,263236,1,0,0:0:0:0:
256,192,263320,1,0,0:0:0:0:
256,192,263404,1,0,0:0:0:0:
256,192,263489,1,8,0:0:0:0:
256,192,263573,1,8,0:0:0:0:
256,192,263657,1,0,0:0:0:0:
256,192,263742,1,0,0:0:0:0:
256,192,263826,1,0,0:0:0:0:
256,192,263994,1,0,0:0:0:0:
256,192,264163,1,12,0:0:0:0:
256,192,285737,6,0,L|217:174,9,34.999999165535
256,192,287759,1,8,0:0:0:0:
256,192,288434,2,0,L|192:192,8,34.999999165535
256,192,289782,1,8,0:0:0:0:
256,192,290456,1,8,0:0:0:0:
256,192,291130,2,0,L|216:213,7,34.999999165535
256,192,292478,1,8,0:0:0:0:
256,192,293153,1,0,0:0:0:0:
256,192,293827,2,0,L|228:227,6,34.999999165535
256,192,295175,1,0,0:0:0:0:
256,192,295849,1,8,0:0:0:0:
256,192,296523,2,0,L|256:256,5,34.999999165535
256,192,297198,1,8,0:0:0:0:
256,192,297703,1,0,0:0:0:0:
256,192,298209,1,0,0:0:0:0:
256,192,298546,1,8,0:0:0:0:
256,192,299220,2,0,L|284:238,4,34.999999165535
256,192,299894,1,8,0:0:0:0:
256,192,300400,1,0,0:0:0:0:
256,192,300568,2,0,L|295:221,3,34.999999165535
256,192,301074,1,0,0:0:0:0:
256,192,301242,1,8,0:0:0:0:
256,192,301495,1,0,0:0:0:0:
256,192,301580,1,8,0:0:0:0:
256,192,301748,1,8,0:0:0:0:
256,192,301832,1,8,0:0:0:0:
256,192,301917,1,0,0:0:0:0:
256,192,302085,1,8,0:0:0:0:
256,192,302169,1,0,0:0:0:0:
256,192,302254,1,8,0:0:0:0:
256,192,302422,1,8,0:0:0:0:
256,192,302591,1,0,0:0:0:0:
256,192,302675,1,0,0:0:0:0:
256,192,302759,1,8,0:0:0:0:
256,192,302844,1,8,0:0:0:0:
256,192,302928,1,0,0:0:0:0:
256,192,303096,1,8,0:0:0:0:
256,192,303181,1,0,0:0:0:0:
256,192,303265,1,8,0:0:0:0:
256,192,303349,1,8,0:0:0:0:
256,192,303434,1,0,0:0:0:0:
256,192,303518,1,0,0:0:0:0:
256,192,303602,1,0,0:0:0:0:
256,192,303771,1,8,0:0:0:0:
256,192,303855,1,0,0:0:0:0:
256,192,303939,1,8,0:0:0:0:
256,192,304023,1,8,0:0:0:0:
256,192,304108,1,0,0:0:0:0:
256,192,304192,1,8,0:0:0:0:
256,192,304276,1,0,0:0:0:0:
256,192,304360,1,0,0:0:0:0:
256,192,304445,1,8,0:0:0:0:
256,192,304613,1,8,0:0:0:0:
256,192,304698,1,8,0:0:0:0:
256,192,304782,1,0,0:0:0:0:
256,192,304866,1,8,0:0:0:0:
256,192,304950,1,0,0:0:0:0:
256,192,305035,1,0,0:0:0:0:
256,192,305119,1,8,0:0:0:0:
256,192,305203,1,0,0:0:0:0:
256,192,305287,1,8,0:0:0:0:
256,192,305372,1,8,0:0:0:0:
256,192,305456,1,0,0:0:0:0:
256,192,305540,1,8,0:0:0:0:
256,192,305625,1,0,0:0:0:0:
256,192,305709,1,0,0:0:0:0:
256,192,305793,1,8,0:0:0:0:
256,192,305962,1,12,0:0:0:0:
256,192,314726,5,8,0:0:0:0:
256,192,314894,1,0,0:0:0:0:
256,192,314978,1,0,0:0:0:0:
256,192,315063,1,8,0:0:0:0:
256,192,315400,1,12,0:0:0:0:
256,192,315568,1,0,0:0:0:0:
256,192,315653,1,0,0:0:0:0:
256,192,315737,1,8,0:0:0:0:
256,192,315905,1,8,0:0:0:0:
256,192,316074,1,8,0:0:0:0:
256,192,316158,1,8,0:0:0:0:
256,192,316242,1,0,0:0:0:0:
256,192,316411,1,8,0:0:0:0:
256,192,316580,1,8,0:0:0:0:
256,192,316664,1,8,0:0:0:0:
256,192,316748,1,8,0:0:0:0:
256,192,316917,1,0,0:0:0:0:
256,192,317085,1,8,0:0:0:0:
256,192,317254,1,8,0:0:0:0:
256,192,317591,1,0,0:0:0:0:
256,192,317675,1,0,0:0:0:0:
256,192,317759,1,8,0:0:0:0:
256,192,317843,1,0,0:0:0:0:
256,192,317928,1,8,0:0:0:0:
256,192,318012,1,8,0:0:0:0:
256,192,318096,1,0,0:0:0:0:
256,192,318265,1,0,0:0:0:0:
256,192,318349,1,0,0:0:0:0:
256,192,318433,1,8,0:0:0:0:
256,192,318602,1,8,0:0:0:0:
256,192,318771,1,0,0:0:0:0:
256,192,318939,1,8,0:0:0:0:
256,192,319023,1,8,0:0:0:0:
256,192,319108,1,0,0:0:0:0:
256,192,319276,1,8,0:0:0:0:
256,192,319445,1,0,0:0:0:0:
256,192,319614,1,8,0:0:0:0:
256,192,319698,1,8,0:0:0:0:
256,192,319782,1,8,0:0:0:0:
256,192,319950,1,4,0:0:0:0:
256,192,320287,1,12,0:0:0:0:
256,192,320625,1,8,0:0:0:0:
256,192,320793,1,4,0:0:0:0:
256,192,320962,1,0,0:0:0:0:
256,192,321046,1,0,0:0:0:0:
256,192,321130,1,8,0:0:0:0:
256,192,321214,1,8,0:0:0:0:
256,192,321299,1,0,0:0:0:0:
256,192,321467,1,8,0:0:0:0:
256,192,321636,1,0,0:0:0:0:
256,192,321720,1,0,0:0:0:0:
256,192,321805,1,8,0:0:0:0:
256,192,321889,1,0,0:0:0:0:
256,192,321973,1,8,0:0:0:0:
256,192,322141,1,0,0:0:0:0:
256,192,322310,1,8,0:0:0:0:
256,192,322394,1,8,0:0:0:0:
256,192,322478,1,8,0:0:0:0:
256,192,322647,1,8,0:0:0:0:
256,192,322984,1,0,0:0:0:0:
256,192,323069,1,0,0:0:0:0:
256,192,323153,1,8,0:0:0:0:
256,192,323237,1,8,0:0:0:0:
256,192,323321,1,0,0:0:0:0:
256,192,323405,1,8,0:0:0:0:
256,192,323490,1,0,0:0:0:0:
256,192,323658,1,0,0:0:0:0:
256,192,323743,1,0,0:0:0:0:
256,192,323827,1,8,0:0:0:0:
256,192,323995,1,8,0:0:0:0:
256,192,324164,1,0,0:0:0:0:
256,192,324332,1,8,0:0:0:0:
256,192,324417,1,8,0:0:0:0:
256,192,324501,1,0,0:0:0:0:
256,192,324669,1,12,0:0:0:0:
256,192,325006,1,12,0:0:0:0:
256,192,325175,1,4,0:0:0:0:
256,192,325344,1,12,0:0:0:0:
256,192,325681,1,12,0:0:0:0:
256,192,326018,1,8,0:0:0:0:
256,192,326186,1,4,0:0:0:0:
256,192,326355,1,0,0:0:0:0:
256,192,326439,1,0,0:0:0:0:
256,192,326523,1,8,0:0:0:0:
256,192,326607,1,8,0:0:0:0:
256,192,326692,1,0,0:0:0:0:
256,192,326860,1,8,0:0:0:0:
256,192,327029,1,8,0:0:0:0:
256,192,327113,1,0,0:0:0:0:
256,192,327198,1,8,0:0:0:0:
256,192,327282,1,8,0:0:0:0:
256,192,327366,1,0,0:0:0:0:
256,192,327535,1,0,0:0:0:0:
256,192,327703,1,8,0:0:0:0:
256,192,327787,1,8,0:0:0:0:
256,192,327871,1,8,0:0:0:0:
256,192,328040,1,8,0:0:0:0:
256,192,328377,1,0,0:0:0:0:
256,192,328462,1,0,0:0:0:0:
256,192,328546,1,8,0:0:0:0:
256,192,328715,1,8,0:0:0:0:
256,192,328883,1,0,0:0:0:0:
256,192,329051,1,0,0:0:0:0:
256,192,329136,1,0,0:0:0:0:
256,192,329220,1,8,0:0:0:0:
256,192,329388,1,8,0:0:0:0:
256,192,329557,1,0,0:0:0:0:
256,192,329725,1,8,0:0:0:0:
256,192,329810,1,8,0:0:0:0:
256,192,329894,1,0,0:0:0:0:
256,192,330063,1,8,0:0:0:0:
256,192,330400,1,8,0:0:0:0:
256,192,330484,1,8,0:0:0:0:
256,192,330568,1,0,0:0:0:0:
256,192,330737,1,12,0:0:0:0:
256,192,331074,1,12,0:0:0:0:
256,192,331411,1,0,0:0:0:0:
256,192,331580,1,12,0:0:0:0:
256,192,331748,1,0,0:0:0:0:
256,192,331832,1,0,0:0:0:0:
256,192,331917,1,8,0:0:0:0:
256,192,332085,1,0,0:0:0:0:
256,192,332254,1,8,0:0:0:0:
256,192,332422,1,0,0:0:0:0:
256,192,332506,1,0,0:0:0:0:
256,192,332591,1,8,0:0:0:0:
256,192,332759,1,8,0:0:0:0:
256,192,332928,1,0,0:0:0:0:
256,192,333096,1,8,0:0:0:0:
256,192,333181,1,8,0:0:0:0:
256,192,333265,1,0,0:0:0:0:
256,192,333433,1,8,0:0:0:0:
256,192,333518,1,0,0:0:0:0:
256,192,333602,1,8,0:0:0:0:
256,192,333771,1,0,0:0:0:0:
256,192,333855,1,0,0:0:0:0:
256,192,333939,1,8,0:0:0:0:
256,192,334024,1,0,0:0:0:0:
256,192,334108,1,0,0:0:0:0:
256,192,334192,1,8,0:0:0:0:
256,192,334276,1,8,0:0:0:0:
256,192,334445,1,8,0:0:0:0:
256,192,334529,1,0,0:0:0:0:
256,192,334613,1,8,0:0:0:0:
256,192,334697,1,8,0:0:0:0:
256,192,334782,1,0,0:0:0:0:
256,192,334950,1,0,0:0:0:0:
256,192,335119,1,8,0:0:0:0:
256,192,335203,1,8,0:0:0:0:
256,192,335287,1,0,0:0:0:0:
256,192,335372,1,0,0:0:0:0:
256,192,335456,1,8,0:0:0:0:
256,192,335624,1,12,0:0:0:0:
256,192,335793,1,0,0:0:0:0:
256,192,335877,1,0,0:0:0:0:
256,192,335962,1,0,0:0:0:0:
256,192,336130,1,12,0:0:0:0:
256,192,336299,1,0,0:0:0:0:
256,192,336383,1,0,0:0:0:0:
256,192,336467,1,0,0:0:0:0:
256,192,336636,1,12,0:0:0:0:
256,192,336804,1,0,0:0:0:0:
256,192,336973,1,12,0:0:0:0:
256,192,337141,1,0,0:0:0:0:
256,192,337225,1,0,0:0:0:0:
256,192,337309,1,8,0:0:0:0:
256,192,337393,1,8,0:0:0:0:
256,192,337478,1,0,0:0:0:0:
256,192,337646,1,8,0:0:0:0:
256,192,337816,1,0,0:0:0:0:
256,192,337900,1,0,0:0:0:0:
256,192,337985,1,8,0:0:0:0:
256,192,338068,1,0,0:0:0:0:
256,192,338153,1,8,0:0:0:0:
256,192,338322,1,0,0:0:0:0:
256,192,338490,1,8,0:0:0:0:
256,192,338574,1,8,0:0:0:0:
256,192,338658,1,8,0:0:0:0:
256,192,338827,1,8,0:0:0:0:
256,192,339163,1,0,0:0:0:0:
256,192,339248,1,0,0:0:0:0:
256,192,339332,1,8,0:0:0:0:
256,192,339501,1,8,0:0:0:0:
256,192,339669,1,0,0:0:0:0:
256,192,339837,1,0,0:0:0:0:
256,192,339922,1,0,0:0:0:0:
256,192,340006,1,8,0:0:0:0:
256,192,340174,1,8,0:0:0:0:
256,192,340343,1,0,0:0:0:0:
256,192,340511,1,8,0:0:0:0:
256,192,340596,1,8,0:0:0:0:
256,192,340680,1,0,0:0:0:0:
256,192,340849,1,12,0:0:0:0:
256,192,341186,1,12,0:0:0:0:
256,192,341355,1,4,0:0:0:0:
256,192,341523,1,12,0:0:0:0:
256,192,341860,1,12,0:0:0:0:
256,192,342198,1,8,0:0:0:0:
256,192,342366,1,4,0:0:0:0:
256,192,342535,1,0,0:0:0:0:
256,192,342619,1,0,0:0:0:0:
256,192,342703,1,8,0:0:0:0:
256,192,342787,1,8,0:0:0:0:
256,192,342872,1,0,0:0:0:0:
256,192,343040,1,8,0:0:0:0:
256,192,343209,1,8,0:0:0:0:
256,192,343293,1,0,0:0:0:0:
256,192,343377,1,8,0:0:0:0:
256,192,343462,1,8,0:0:0:0:
256,192,343546,1,8,0:0:0:0:
256,192,343714,1,0,0:0:0:0:
256,192,343883,1,0,0:0:0:0:
256,192,343967,1,8,0:0:0:0:
256,192,344051,1,0,0:0:0:0:
256,192,344220,1,8,0:0:0:0:
256,192,344557,1,0,0:0:0:0:
256,192,344642,1,0,0:0:0:0:
256,192,344726,1,8,0:0:0:0:
256,192,344895,1,8,0:0:0:0:
256,192,345063,1,0,0:0:0:0:
256,192,345231,1,0,0:0:0:0:
256,192,345316,1,0,0:0:0:0:
256,192,345400,1,8,0:0:0:0:
256,192,345568,1,8,0:0:0:0:
256,192,345737,1,0,0:0:0:0:
256,192,345905,1,8,0:0:0:0:
256,192,345990,1,8,0:0:0:0:
256,192,346074,1,0,0:0:0:0:
256,192,346242,1,12,0:0:0:0:
256,192,346580,1,12,0:0:0:0:
256,192,346748,1,4,0:0:0:0:
256,192,346917,1,12,0:0:0:0:
256,192,347254,1,12,0:0:0:0:
256,192,347591,1,8,0:0:0:0:
256,192,347759,1,4,0:0:0:0:
256,192,347928,1,0,0:0:0:0:
256,192,348012,1,0,0:0:0:0:
256,192,348096,1,8,0:0:0:0:
256,192,348180,1,8,0:0:0:0:
256,192,348265,1,0,0:0:0:0:
256,192,348433,1,8,0:0:0:0:
256,192,348602,1,8,0:0:0:0:
256,192,348687,1,0,0:0:0:0:
256,192,348771,1,8,0:0:0:0:
256,192,348855,1,8,0:0:0:0:
256,192,348939,1,0,0:0:0:0:
256,192,349108,1,0,0:0:0:0:
256,192,349276,1,8,0:0:0:0:
256,192,349360,1,8,0:0:0:0:
256,192,349445,1,0,0:0:0:0:
256,192,349613,1,8,0:0:0:0:
256,192,349950,1,0,0:0:0:0:
256,192,350035,1,0,0:0:0:0:
256,192,350119,1,8,0:0:0:0:
256,192,350288,1,8,0:0:0:0:
256,192,350456,1,0,0:0:0:0:
256,192,350624,1,0,0:0:0:0:
256,192,350709,1,0,0:0:0:0:
256,192,350793,1,8,0:0:0:0:
256,192,350961,1,8,0:0:0:0:
256,192,351130,1,0,0:0:0:0:
256,192,351298,1,8,0:0:0:0:
256,192,351383,1,8,0:0:0:0:
256,192,351467,1,0,0:0:0:0:
256,192,351636,1,8,0:0:0:0:
256,192,351973,1,0,0:0:0:0:
256,192,352057,1,0,0:0:0:0:
256,192,352141,1,8,0:0:0:0:
256,192,352310,1,8,0:0:0:0:
256,192,352478,1,0,0:0:0:0:
256,192,352647,1,8,0:0:0:0:
256,192,352731,1,0,0:0:0:0:
256,192,352815,1,0,0:0:0:0:
256,192,352984,1,8,0:0:0:0:
256,192,353153,1,0,0:0:0:0:
256,192,353237,1,0,0:0:0:0:
256,192,353321,1,8,0:0:0:0:
256,192,353490,1,8,0:0:0:0:
256,192,353574,1,8,0:0:0:0:
256,192,353658,1,0,0:0:0:0:
256,192,353827,1,8,0:0:0:0:
256,192,353911,1,0,0:0:0:0:
256,192,353995,1,8,0:0:0:0:
256,192,354080,1,8,0:0:0:0:
256,192,354164,1,0,0:0:0:0:
256,192,354332,1,0,0:0:0:0:
256,192,354501,1,0,0:0:0:0:
256,192,354585,1,0,0:0:0:0:
256,192,354669,1,8,0:0:0:0:
256,192,354754,1,8,0:0:0:0:
256,192,354838,1,0,0:0:0:0:
256,192,354922,1,8,0:0:0:0:
256,192,355006,1,0,0:0:0:0:
256,192,355175,1,8,0:0:0:0:
256,192,355259,1,8,0:0:0:0:
256,192,355344,1,0,0:0:0:0:
256,192,355428,1,8,0:0:0:0:
256,192,355512,1,0,0:0:0:0:
256,192,355596,1,0,0:0:0:0:
256,192,355681,1,8,0:0:0:0:
256,192,355849,1,4,0:0:0:0:
256,192,356018,1,8,0:0:0:0:
256,192,356102,1,8,0:0:0:0:
256,192,356186,1,8,0:0:0:0:
256,192,356355,1,8,0:0:0:0:
256,192,356523,1,4,0:0:0:0:
256,192,356692,1,8,0:0:0:0:
256,192,356776,1,0,0:0:0:0:
256,192,356860,1,8,0:0:0:0:
256,192,356945,1,8,0:0:0:0:
256,192,357029,1,0,0:0:0:0:
256,192,357197,1,4,0:0:0:0:
256,192,357366,1,8,0:0:0:0:
256,192,357450,1,8,0:0:0:0:
256,192,357535,1,8,0:0:0:0:
256,192,357703,1,4,0:0:0:0:
256,192,357872,1,8,0:0:0:0:
256,192,358040,1,4,0:0:0:0:
256,192,358209,1,0,0:0:0:0:
256,192,358293,1,0,0:0:0:0:
256,192,358377,1,0,0:0:0:0:
256,192,358546,1,12,0:0:0:0:
256,192,358714,1,0,0:0:0:0:
256,192,358883,1,8,0:0:0:0:
256,192,359051,1,0,0:0:0:0:
256,192,359136,1,0,0:0:0:0:
256,192,359220,1,8,0:0:0:0:
256,192,359389,1,8,0:0:0:0:
256,192,359557,1,0,0:0:0:0:
256,192,359726,1,8,0:0:0:0:
256,192,360063,1,8,0:0:0:0:
256,192,360147,1,8,0:0:0:0:
256,192,360231,1,8,0:0:0:0:
256,192,360400,1,0,0:0:0:0:
256,192,360568,1,8,0:0:0:0:
256,192,360737,1,8,0:0:0:0:
256,192,360821,1,8,0:0:0:0:
256,192,360905,1,0,0:0:0:0:
256,192,360990,1,0,0:0:0:0:
256,192,361074,1,8,0:0:0:0:
256,192,361158,1,0,0:0:0:0:
256,192,361242,1,8,0:0:0:0:
256,192,361411,1,8,0:0:0:0:
256,192,361495,1,8,0:0:0:0:
256,192,361580,1,0,0:0:0:0:
256,192,361748,1,8,0:0:0:0:
256,192,361917,1,0,0:0:0:0:
256,192,362085,1,0,0:0:0:0:
256,192,362169,1,0,0:0:0:0:
256,192,362254,1,8,0:0:0:0:
256,192,362422,1,0,0:0:0:0:
256,192,362759,1,8,0:0:0:0:
256,192,362843,1,8,0:0:0:0:
256,192,362927,1,0,0:0:0:0:
256,192,363096,1,0,0:0:0:0:
256,192,363264,1,8,0:0:0:0:
256,192,363433,1,8,0:0:0:0:
256,192,363518,1,0,0:0:0:0:
256,192,363602,1,8,0:0:0:0:
256,192,363686,1,8,0:0:0:0:
256,192,363771,1,0,0:0:0:0:
256,192,363855,1,0,0:0:0:0:
256,192,363939,1,8,0:0:0:0:
256,192,364108,1,0,0:0:0:0:
256,192,364192,1,0,0:0:0:0:
256,192,364276,1,8,0:0:0:0:
256,192,364445,1,0,0:0:0:0:
256,192,364613,1,8,0:0:0:0:
256,192,364782,1,8,0:0:0:0:
256,192,364866,1,8,0:0:0:0:
256,192,364950,1,0,0:0:0:0:
256,192,365119,1,8,0:0:0:0:
256,192,365456,1,8,0:0:0:0:
256,192,365793,1,0,0:0:0:0:
256,192,365962,1,8,0:0:0:0:
256,192,366130,1,0,0:0:0:0:
256,192,366214,1,0,0:0:0:0:
256,192,366299,1,8,0:0:0:0:
256,192,366467,1,0,0:0:0:0:
256,192,366636,1,8,0:0:0:0:
256,192,366804,1,8,0:0:0:0:
256,192,366889,1,8,0:0:0:0:
256,192,366973,1,0,0:0:0:0:
256,192,367141,1,8,0:0:0:0:
256,192,367310,1,0,0:0:0:0:
256,192,367478,1,0,0:0:0:0:
256,192,367647,1,8,0:0:0:0:
256,192,367815,1,0,0:0:0:0:
256,192,367984,1,8,0:0:0:0:
256,192,368153,1,8,0:0:0:0:
256,192,368237,1,8,0:0:0:0:
256,192,368322,1,0,0:0:0:0:
256,192,368406,1,0,0:0:0:0:
256,192,368490,1,8,0:0:0:0:
256,192,368574,1,0,0:0:0:0:
256,192,368658,1,8,0:0:0:0:
256,192,368742,1,8,0:0:0:0:
256,192,368827,1,0,0:0:0:0:
256,192,368995,1,8,0:0:0:0:
256,192,369164,1,8,0:0:0:0:
256,192,369248,1,8,0:0:0:0:
256,192,369332,1,0,0:0:0:0:
256,192,369585,1,0,0:0:0:0:
256,192,369669,1,8,0:0:0:0:
256,192,369838,1,0,0:0:0:0:
256,192,370006,1,8,0:0:0:0:
256,192,370175,1,8,0:0:0:0:
256,192,370259,1,8,0:0:0:0:
256,192,370344,1,0,0:0:0:0:
256,192,370512,1,8,0:0:0:0:
256,192,370681,1,0,0:0:0:0:
256,192,370849,1,8,0:0:0:0:
256,192,370933,1,8,0:0:0:0:
256,192,371018,1,0,0:0:0:0:
256,192,371186,1,0,0:0:0:0:
256,192,371355,1,8,0:0:0:0:
256,192,371523,1,0,0:0:0:0:
256,192,371608,1,0,0:0:0:0:
256,192,371692,1,8,0:0:0:0:
256,192,371860,1,8,0:0:0:0:
256,192,372029,1,0,0:0:0:0:
256,192,372281,1,0,0:0:0:0:
256,192,372366,1,8,0:0:0:0:
256,192,372535,1,0,0:0:0:0:
256,192,372619,1,0,0:0:0:0:
256,192,372703,1,8,0:0:0:0:
256,192,372787,1,0,0:0:0:0:
256,192,372956,1,0,0:0:0:0:
256,192,373040,1,8,0:0:0:0:
256,192,373209,1,0,0:0:0:0:
256,192,373377,1,0,0:0:0:0:
256,192,373546,1,8,0:0:0:0:
256,192,373630,1,8,0:0:0:0:
256,192,373714,1,0,0:0:0:0:
256,192,373883,1,8,0:0:0:0:
256,192,374051,1,0,0:0:0:0:
256,192,374220,1,8,0:0:0:0:
256,192,374304,1,8,0:0:0:0:
256,192,374389,1,0,0:0:0:0:
256,192,374473,1,0,0:0:0:0:
256,192,374641,1,0,0:0:0:0:
256,192,374726,1,8,0:0:0:0:
256,192,374978,1,0,0:0:0:0:
256,192,375063,1,8,0:0:0:0:
256,192,375231,1,8,0:0:0:0:
256,192,375400,1,0,0:0:0:0:
256,192,375568,1,0,0:0:0:0:
256,192,375653,1,0,0:0:0:0:
256,192,375737,1,8,0:0:0:0:
256,192,375905,1,0,0:0:0:0:
256,192,376074,1,0,0:0:0:0:
256,192,376242,1,0,0:0:0:0:
256,192,376327,1,0,0:0:0:0:
256,192,376411,1,8,0:0:0:0:
256,192,376495,1,8,0:0:0:0:
256,192,376580,1,0,0:0:0:0:
256,192,376748,1,8,0:0:0:0:
256,192,376917,1,0,0:0:0:0:
256,192,377001,1,0,0:0:0:0:
256,192,377085,1,8,0:0:0:0:
256,192,377169,1,0,0:0:0:0:
256,192,377254,1,8,0:0:0:0:
256,192,377422,1,8,0:0:0:0:
256,192,377506,1,8,0:0:0:0:
256,192,377591,1,0,0:0:0:0:
256,192,377675,1,8,0:0:0:0:
256,192,377759,1,0,0:0:0:0:
256,192,377844,1,0,0:0:0:0:
256,192,377928,1,8,0:0:0:0:
256,192,378012,1,0,0:0:0:0:
256,192,378096,1,8,0:0:0:0:
256,192,378181,1,8,0:0:0:0:
256,192,378265,1,0,0:0:0:0:
256,192,378349,1,0,0:0:0:0:
256,192,378433,1,8,0:0:0:0:
256,192,378602,1,0,0:0:0:0:
256,192,378686,1,0,0:0:0:0:
256,192,378771,1,8,0:0:0:0:
256,192,378855,1,0,0:0:0:0:
256,192,378939,1,8,0:0:0:0:
256,192,379023,1,8,0:0:0:0:
256,192,379108,1,0,0:0:0:0:
256,192,379192,1,0,0:0:0:0:
256,192,379276,1,8,0:0:0:0:
256,192,379360,1,0,0:0:0:0:
256,192,379445,1,8,0:0:0:0:
256,192,379529,1,8,0:0:0:0:
256,192,379613,1,0,0:0:0:0:
256,192,379782,1,8,0:0:0:0:
256,192,379950,1,8,0:0:0:0:
256,192,380035,1,8,0:0:0:0:
256,192,380119,1,0,0:0:0:0:
256,192,380456,1,8,0:0:0:0:
256,192,380625,1,0,0:0:0:0:
256,192,380709,1,0,0:0:0:0:
256,192,380793,1,8,0:0:0:0:
256,192,380962,1,8,0:0:0:0:
256,192,381130,1,0,0:0:0:0:
256,192,381299,1,8,0:0:0:0:
256,192,381467,1,0,0:0:0:0:
256,192,381636,1,8,0:0:0:0:
256,192,381973,1,0,0:0:0:0:
256,192,382057,1,0,0:0:0:0:
256,192,382141,1,8,0:0:0:0:
256,192,382310,1,8,0:0:0:0:
256,192,382478,1,0,0:0:0:0:
256,192,382647,1,8,0:0:0:0:
256,192,382816,1,0,0:0:0:0:
256,192,383153,1,8,0:0:0:0:
256,192,383321,1,0,0:0:0:0:
256,192,383490,1,8,0:0:0:0:
256,192,383658,1,8,0:0:0:0:
256,192,383742,1,8,0:0:0:0:
256,192,383827,1,0,0:0:0:0:
256,192,383995,1,8,0:0:0:0:
256,192,384164,1,0,0:0:0:0:
256,192,384332,1,8,0:0:0:0:
256,192,384669,1,0,0:0:0:0:
256,192,384838,1,8,0:0:0:0:
256,192,384922,1,8,0:0:0:0:
256,192,385007,1,0,0:0:0:0:
256,192,385175,1,8,0:0:0:0:
256,192,385344,1,0,0:0:0:0:
256,192,385428,1,0,0:0:0:0:
256,192,385512,1,0,0:0:0:0:
256,192,385849,1,8,0:0:0:0:
256,192,386018,1,0,0:0:0:0:
256,192,386186,1,8,0:0:0:0:
256,192,386355,1,8,0:0:0:0:
256,192,386439,1,8,0:0:0:0:
256,192,386523,1,0,0:0:0:0:
256,192,386692,1,8,0:0:0:0:
256,192,386860,1,0,0:0:0:0:
256,192,387029,1,8,0:0:0:0:
256,192,387366,1,0,0:0:0:0:
256,192,387535,1,8,0:0:0:0:
256,192,387703,1,8,0:0:0:0:
256,192,387787,1,0,0:0:0:0:
256,192,387872,1,8,0:0:0:0:
256,192,388040,1,0,0:0:0:0:
256,192,388209,1,8,0:0:0:0:
256,192,388546,1,8,0:0:0:0:
256,192,388714,1,0,0:0:0:0:
256,192,388799,1,0,0:0:0:0:
256,192,388883,1,8,0:0:0:0:
256,192,389051,1,8,0:0:0:0:
256,192,389136,1,0,0:0:0:0:
256,192,389220,1,0,0:0:0:0:
256,192,389389,1,8,0:0:0:0:
256,192,389557,1,0,0:0:0:0:
256,192,389726,1,8,0:0:0:0:
256,192,390063,1,8,0:0:0:0:
256,192,390147,1,8,0:0:0:0:
256,192,390231,1,0,0:0:0:0:
256,192,390400,1,0,0:0:0:0:
256,192,390568,1,8,0:0:0:0:
256,192,390653,1,8,0:0:0:0:
256,192,390737,1,0,0:0:0:0:
256,192,390905,1,0,0:0:0:0:
256,192,391242,1,8,0:0:0:0:
256,192,391748,1,0,0:0:0:0:
256,192,391917,1,8,0:0:0:0:
256,192,392254,1,0,0:0:0:0:
256,192,392591,1,8,0:0:0:0:
256,192,393096,1,0,0:0:0:0:
256,192,393265,1,8,0:0:0:0:
256,192,393434,1,0,0:0:0:0:
256,192,393602,1,0,0:0:0:0:
256,192,393939,1,8,0:0:0:0:
256,192,394445,1,0,0:0:0:0:
256,192,394613,1,8,0:0:0:0:
256,192,394950,1,0,0:0:0:0:
256,192,395287,1,8,0:0:0:0:
256,192,395625,1,0,0:0:0:0:
256,192,395793,1,0,0:0:0:0:
256,192,395962,1,8,0:0:0:0:
256,192,396299,1,8,0:0:0:0:
256,192,396383,1,8,0:0:0:0:
256,192,396467,1,8,0:0:0:0:
256,192,396551,1,8,0:0:0:0:
256,192,396636,1,0,0:0:0:0:
256,192,396720,1,0,0:0:0:0:
256,192,396804,1,0,0:0:0:0:
256,192,396889,1,0,0:0:0:0:
256,192,396973,1,8,0:0:0:0:
256,192,397057,1,8,0:0:0:0:
256,192,397141,1,0,0:0:0:0:
256,192,397226,1,0,0:0:0:0:
256,192,397310,1,8,0:0:0:0:
256,192,397394,1,8,0:0:0:0:
256,192,397478,1,0,0:0:0:0:
256,192,397647,1,8,0:0:0:0:
256,192,397731,1,8,0:0:0:0:
256,192,397816,1,0,0:0:0:0:
256,192,397900,1,8,0:0:0:0:
256,192,397984,1,0,0:0:0:0:
256,192,398068,1,0,0:0:0:0:
256,192,398153,1,8,0:0:0:0:
256,192,398237,1,0,0:0:0:0:
256,192,398321,1,8,0:0:0:0:
256,192,398405,1,8,0:0:0:0:
256,192,398490,1,0,0:0:0:0:
256,192,398574,1,0,0:0:0:0:
256,192,398658,1,8,0:0:0:0:
256,192,398742,1,8,0:0:0:0:
256,192,398827,1,0,0:0:0:0:
256,192,398995,1,8,0:0:0:0:
256,192,399080,1,0,0:0:0:0:
256,192,399164,1,8,0:0:0:0:
256,192,399248,1,8,0:0:0:0:
256,192,399332,1,0,0:0:0:0:
256,192,399417,1,0,0:0:0:0:
256,192,399501,1,8,0:0:0:0:
256,192,399585,1,0,0:0:0:0:
256,192,399669,1,8,0:0:0:0:
256,192,399754,1,8,0:0:0:0:
256,192,399838,1,0,0:0:0:0:
256,192,399922,1,0,0:0:0:0:
256,192,400007,1,8,0:0:0:0:
256,192,400091,1,0,0:0:0:0:
256,192,400175,1,0,0:0:0:0:
256,192,400259,1,8,0:0:0:0:
256,192,400344,1,0,0:0:0:0:
256,192,400512,1,12,0:0:0:0:
256,192,400681,1,0,0:0:0:0:
256,192,400765,1,0,0:0:0:0:
256,192,400849,1,8,0:0:0:0:
256,192,400934,1,0,0:0:0:0:
256,192,401018,1,8,0:0:0:0:
256,192,401102,1,8,0:0:0:0:
256,192,401186,1,0,0:0:0:0:
256,192,401271,1,0,0:0:0:0:
256,192,401355,1,8,0:0:0:0:
256,192,401439,1,0,0:0:0:0:
256,192,401523,1,8,0:0:0:0:
256,192,401608,1,8,0:0:0:0:
