osu file format v14

[General]
AudioFilename: audio.mp3
AudioLeadIn: 0
PreviewTime: 172198
Countdown: 0
SampleSet: Soft
StackLeniency: 0.7
Mode: 0
LetterboxInBreaks: 0
WidescreenStoryboard: 0

[Editor]
Bookmarks: 20972,21349,57198,100217,100595,136444,172670,173047,208896,242859,243236
DistanceSpacing: 0.9
BeatDivisor: 4
GridSize: 32
TimelineZoom: 1.6

[Metadata]
Title:Star Linker
TitleUnicode:Star Linker
Artist:Shimotsuki Haruka
ArtistUnicode:霜月はるか
Creator:Hishiro Chizuru
Version:Starry night, Lap Pillow and . . . A Romantic Kiss?
Source:星織ユメミライ
Tags:amb1d3x lasse japanese pop brasse hoshi ori yume mirai eroge japanese visual novel image song イメージソング musubine ribbon 結び音リボン premium box impurepug
BeatmapID:3620449
BeatmapSetID:1755867

[Difficulty]
HPDrainRate:5
CircleSize:4
OverallDifficulty:7
ApproachRate:8
SliderMultiplier:1.7
SliderTickRate:1

[Events]
//Background and Video events
0,0,"deezwhatsir.png",0,0
//Break Periods
2,217953,223995
//Storyboard Layer 0 (Background)
//Storyboard Layer 1 (Fail)
//Storyboard Layer 2 (Pass)
//Storyboard Layer 3 (Foreground)
//Storyboard Layer 4 (Overlay)
//Storyboard Sound Samples

[TimingPoints]
595,377.358490566038,6,2,1,60,1,0
2859,-125,6,2,1,60,0,0
20972,-142.857142857143,6,2,1,50,0,0
39085,-125,6,2,1,55,0,0
57198,-125,6,2,1,60,0,0
75311,-100,6,2,1,70,0,0
91161,-153.846153846154,6,2,1,70,0,0
91538,-153.846153846154,6,2,1,50,0,0
95311,-153.846153846154,6,2,2,50,0,0
95689,-153.846153846154,6,2,1,60,0,0
96066,-153.846153846154,6,2,1,50,0,0
97764,-153.846153846154,6,2,1,60,0,0
98519,-153.846153846154,6,2,2,60,0,0
98896,-153.846153846154,6,2,1,60,0,0
99085,-153.846153846154,6,2,1,70,0,0
99462,-153.846153846154,6,2,2,70,0,0
99651,-153.846153846154,6,2,1,65,0,0
99840,-153.846153846154,6,2,2,65,0,0
100028,-153.846153846154,6,2,1,65,0,0
100217,-105.263157894737,6,2,1,65,0,0
117198,-133.333333333333,6,2,1,65,0,0
118330,-114.942528735632,6,2,2,65,0,0
120406,-114.942528735632,6,2,1,65,0,0
120595,-114.942528735632,6,2,2,65,0,0
125689,-114.942528735632,6,2,1,65,0,0
125878,-114.942528735632,6,2,2,65,0,0
130217,-114.942528735632,6,2,1,65,0,0
130406,-114.942528735632,6,2,2,65,0,0
136444,-114.942528735632,6,2,2,70,0,0
144368,-250,6,2,2,70,0,0
145500,-114.942528735632,6,2,2,70,0,0
154557,-125,6,2,2,70,0,0
171538,-250,6,2,2,70,0,0
171915,-250,6,2,1,70,0,0
172670,-95.2380952380952,6,2,2,80,0,0
174651,-95.2380952380952,6,2,1,50,0,0
174745,-95.2380952380952,6,2,1,65,0,0
174934,-95.2380952380952,6,2,2,80,0,0
176915,-95.2380952380952,6,2,1,50,0,0
177010,-95.2380952380952,6,2,1,65,0,0
177198,-95.2380952380952,6,2,2,80,0,0
179179,-95.2380952380952,6,2,1,50,0,0
179274,-95.2380952380952,6,2,1,65,0,0
179462,-95.2380952380952,6,2,2,80,0,0
180500,-95.2380952380952,6,2,1,80,0,0
180595,-95.2380952380952,6,2,2,80,0,0
180783,-95.2380952380952,6,2,1,80,0,0
180972,-95.2380952380952,6,2,2,80,0,0
183708,-95.2380952380952,6,2,1,50,0,0
183802,-95.2380952380952,6,2,1,65,0,0
183991,-95.2380952380952,6,2,2,80,0,0
185595,-95.2380952380952,6,2,1,50,0,0
185689,-95.2380952380952,6,2,2,80,0,0
188519,-142.857142857143,6,2,2,80,0,0
188896,-142.857142857143,6,2,2,50,0,0
189651,-142.857142857143,6,2,1,50,0,0
190028,-142.857142857143,6,2,2,60,0,0
190406,-142.857142857143,6,2,2,50,0,0
190783,-133.333333333333,6,2,2,60,0,0
191161,-133.333333333333,6,2,1,60,0,0
191349,-133.333333333333,6,2,2,65,0,0
191538,-133.333333333333,6,2,1,50,0,0
191915,-133.333333333333,6,2,2,60,0,0
193425,-133.333333333333,6,2,2,50,0,0
193991,-133.333333333333,6,2,1,50,0,0
194557,-133.333333333333,6,2,2,50,0,0
195311,-133.333333333333,6,2,2,60,0,0
195500,-133.333333333333,6,2,1,60,0,0
195689,-133.333333333333,6,2,2,60,0,0
196066,-133.333333333333,6,2,1,60,0,0
196255,-133.333333333333,6,2,2,60,0,0
197198,-133.333333333333,6,2,2,65,0,0
197576,-101.010101010101,6,2,1,65,0,0
199462,-101.010101010101,6,2,2,65,0,0
199651,-101.010101010101,6,2,1,65,0,0
201821,-101.010101010101,6,2,1,40,0,0
201915,-101.010101010101,6,2,1,50,0,0
202104,-101.010101010101,6,2,1,65,0,0
203991,-101.010101010101,6,2,2,65,0,0
204179,-101.010101010101,6,2,1,65,0,0
208519,-101.010101010101,6,2,2,65,0,0
208707,-101.010101010101,6,2,1,65,0,0
208896,-200,6,2,1,65,0,0
209274,-101.010101010101,6,2,1,65,0,0
210878,-101.010101010101,6,2,1,40,0,0
210972,-101.010101010101,6,2,1,50,0,0
211161,-101.010101010101,6,2,1,65,0,0
213047,-101.010101010101,6,2,2,65,0,0
213235,-101.010101010101,6,2,1,65,0,0
215311,-101.010101010101,6,2,2,65,0,0
215689,-133.333333333333,6,2,2,65,0,0
216821,-133.333333333333,6,2,11,10,0,0
223991,-133.333333333333,6,2,11,30,0,0
224745,-100,6,2,2,60,0,0
225500,-100,6,2,2,70,0,0
225878,-100,6,2,2,60,0,0
226003,-100,6,2,1,60,0,0
226381,-100,6,2,2,70,0,0
227010,-90.9090909090909,6,2,2,70,0,0
228896,-250,6,2,2,70,0,0
229274,-90.9090909090909,6,2,2,70,0,0
232859,-90.9090909090909,6,2,1,70,0,0
233425,-90.9090909090909,6,2,2,70,0,0
233802,-125,6,2,2,70,0,0
234179,-125,6,2,2,50,0,0
234934,-125,6,2,1,50,0,0
236066,-125,6,2,2,50,0,0
237387,-125,6,2,1,50,0,0
237764,-125,6,2,2,50,0,0
238330,-125,6,2,2,60,0,0
239274,-125,6,2,2,70,0,0
239462,-125,6,2,2,65,0,0
240406,-125,6,2,1,60,0,0
240595,-125,6,2,2,60,0,0
241161,-125,6,2,2,65,0,0
241727,-125,6,2,2,75,0,0
241915,-125,6,2,1,60,0,0
242104,-125,6,2,2,65,0,0
242293,-125,6,2,1,60,0,0
242481,-125,6,2,2,70,0,0
242670,-125,6,2,1,65,0,0
242859,-100,6,2,2,80,0,0
246821,-100,6,2,1,80,0,0
247010,-100,6,2,2,80,0,0
248896,-100,6,2,1,80,0,0
249274,-100,6,2,2,80,0,0
250028,-100,6,2,1,80,0,0
250217,-100,6,2,2,80,0,0
251664,-100,6,2,1,80,0,0
251915,-94.3396226415094,6,2,2,80,0,0
253991,-94.3396226415094,6,2,1,80,0,0
254179,-94.3396226415094,6,2,2,80,0,0
254368,-94.3396226415094,6,2,1,80,0,0
254934,-94.3396226415094,6,2,2,80,0,0
257764,-94.3396226415094,6,2,1,80,0,0
257953,-94.3396226415094,6,2,2,80,0,0
258708,-133.333333333333,6,2,2,80,0,0
259085,-133.333333333333,6,2,2,50,0,0
259840,-133.333333333333,6,2,1,50,0,0
260123,-133.333333333333,6,2,1,60,0,0
260595,-133.333333333333,6,2,2,60,0,0
262356,-133.333333333333,6,2,1,60,0,0
262481,-133.333333333333,6,2,2,60,0,0
262607,-133.333333333333,6,2,1,60,0,0
262859,-133.333333333333,6,2,2,60,0,0
263613,-133.333333333333,6,2,2,50,0,0
264368,-133.333333333333,6,2,1,50,0,0
264745,-133.333333333333,6,2,2,50,0,0
265500,-133.333333333333,6,2,2,60,0,0
266066,-133.333333333333,6,2,2,70,0,0
266255,-133.333333333333,6,2,1,60,0,0
266444,-133.333333333333,6,2,2,60,0,0
266632,-114.942528735632,6,2,2,60,0,0
266821,-114.942528735632,6,2,1,60,0,0
267010,-114.942528735632,6,2,2,60,0,0
267198,-114.942528735632,6,2,1,65,0,0
267387,-114.942528735632,6,2,2,70,0,0
267576,-114.942528735632,6,2,1,65,0,0
267764,-104.166666666667,6,2,1,65,0,0
276821,-108.695652173913,6,2,1,65,0,0
277198,-108.695652173913,6,2,1,55,0,0
279085,-114.942528735632,6,2,1,55,0,0
281349,-123.456790123457,6,2,1,45,0,0
282953,-123.456790123457,6,2,1,30,0,0
283236,-123.456790123457,6,2,1,45,0,0
283613,-136.986301369863,6,2,1,45,0,0
284179,-136.986301369863,6,2,1,35,0,0
284745,-136.986301369863,6,2,1,30,0,0
285878,-125,6,2,1,30,0,0
294934,-142.857142857143,3,2,1,5,0,0

[Colours]
Combo1 : 255,176,255
Combo2 : 170,255,255
Combo3 : 255,202,176
Combo4 : 166,210,255

[HitObjects]
46,101,2859,6,0,P|96:49|168:55,1,136,4|8,1:1|0:0,0:0:0:0:
147,266,3425,2,0,P|140:198|123:132,1,136,8|8,0:1|0:1,0:0:0:0:
321,81,3991,6,0,P|270:86|239:124,1,102,8|0,0:0|0:0,0:0:0:0:
232,144,4368,2,0,P|234:180|250:221,1,68,8|0,0:0|0:0,0:0:0:0:
311,256,4745,2,0,L|354:261,2,34,8|0|0,3:3|3:0|3:0,0:0:0:0:
241,384,5123,5,8,1:2:0:0:
241,384,5500,1,8,0:0:0:0:
168,341,5689,2,0,P|173:309|176:261,1,68,8|0,0:1|0:0,0:0:0:0:
311,256,6066,5,8,0:1:0:0:
371,199,6255,2,0,P|365:167|363:119,1,68,8|0,0:0|0:0,0:0:0:0:
306,18,6632,6,0,L|198:36,1,102,8|0,0:0|0:0,0:0:0:0:
191,48,7010,2,0,L|182:83,2,34,8|0|0,3:0|3:0|3:0,0:0:0:0:
60,77,7387,6,0,P|106:137|116:221,1,136,8|8,1:2|0:0,0:0:0:0:
45,245,7953,2,0,P|68:268|101:278,2,68,8|8|0,0:1|0:0|0:0,0:0:0:0:
184,340,8519,6,0,P|184:289|216:250,1,102,8|0,0:0|0:0,0:0:0:0:
239,245,8896,2,0,L|309:259,1,68,8|0,0:0|0:0,0:0:0:0:
388,223,9274,2,0,L|394:256,2,34,8|0|0,3:0|3:0|3:0,0:0:0:0:
512,123,9651,5,8,1:2:0:0:
400,71,9934,1,0,3:0:0:0:
400,71,10028,1,8,0:0:0:0:
322,108,10217,2,0,P|305:149|305:193,1,68,8|2,1:1|0:0,0:0:0:0:
303,172,10595,1,8,0:1:0:0:
203,291,10783,6,0,P|195:237|182:191,1,102,8|0,0:0|0:0,0:0:0:0:
162,175,11161,2,0,P|128:177|94:184,1,68,8|0,0:0|0:0,0:0:0:0:
26,135,11538,2,0,L|36:87,2,34,8|0|0,3:0|3:0|3:0,0:0:0:0:
122,7,11915,6,0,P|135:70|196:92,1,136,14|8,1:2|0:0,0:0:0:0:
297,47,12481,2,0,L|285:114,1,68,8|8,0:1|0:0,0:0:0:0:
285,114,12859,1,0,0:0:0:0:
387,39,13047,2,0,P|436:38|475:70,1,102,8|0,0:0|0:0,0:0:0:0:
486,92,13425,2,0,L|476:169,1,68,8|0,0:0|0:0,0:0:0:0:
416,229,13802,2,0,L|374:238,2,34,8|0|0,3:0|3:0|3:0,0:0:0:0:
506,354,14179,5,10,1:2:0:0:
506,354,14557,1,8,0:0:0:0:
440,301,14745,2,0,L|364:318,1,68,8|0,0:1|0:0,0:0:0:0:
267,381,15123,1,8,0:1:0:0:
267,381,15217,1,2,0:0:0:0:
267,381,15311,2,0,L|196:365,1,68,8|0,0:0|0:0,0:0:0:0:
44,345,15689,6,0,P|19:301|28:251,1,102,8|0,0:0|0:0,0:0:0:0:
48,237,16066,2,0,L|91:244,2,34,8|0|0,3:3|3:0|3:0,0:0:0:0:
193,184,16444,6,0,P|193:112|153:57,1,136,12|8,1:2|0:0,0:0:0:0:
246,249,17010,2,0,P|276:234|296:208,1,68,8|0,0:1|0:0,0:0:0:0:
296,208,17387,1,8,0:1:0:0:
158,274,17576,6,0,P|136:328|150:371,1,102,8|0,0:0|0:0,0:0:0:0:
170,377,17953,2,0,L|237:364,1,68,8|0,0:0|0:0,0:0:0:0:
335,352,18330,2,0,L|324:388,2,34,8|0|0,3:3|3:0|3:0,0:0:0:0:
469,318,18708,6,0,P|455:257|441:176,1,136,10|8,1:2|0:0,0:0:0:0:
356,173,19274,2,0,P|362:139|383:113,2,68,8|8|8,0:1|0:0|0:1,0:0:0:0:
442,184,19840,1,2,1:2:0:0:
295,73,20972,6,0,P|353:81|407:58,1,118.999996368408,4|0,1:2|0:0,0:0:0:0:
363,118,21538,2,0,P|326:164|319:222,1,118.999996368408,8|0,0:1|0:0,0:0:0:0:
290,154,22104,2,0,P|268:98|221:63,1,118.999996368408,8|8,0:0|0:0,0:0:0:0:
201,48,22859,2,0,L|187:4,2,29.7499990921021,0|0|0,3:0|0:0|0:0,0:0:0:0:
131,162,23236,6,0,P|161:153|203:152,1,59.4999981842042,8|0,0:0|0:0,0:0:0:0:
126,247,23613,1,0,0:0:0:0:
52,207,23802,2,0,P|41:148|17:94,1,118.999996368408,8|0,0:1|0:0,0:0:0:0:
165,49,24368,2,0,P|141:103|130:161,1,118.999996368408,8|8,0:0|0:0,0:0:0:0:
137,185,25123,2,0,L|156:214,2,29.7499990921021,0|0|0,3:0|0:0|0:0,0:0:0:0:
193,289,25500,6,0,P|147:263|71:254,1,118.999996368408,8|0,0:0|0:0,0:0:0:0:
54,349,26066,2,0,P|100:375|176:384,1,118.999996368408,8|0,0:1|0:0,0:0:0:0:
289,358,26632,2,0,L|266:218,1,118.999996368408,8|8,0:0|0:0,0:0:0:0:
285,222,27387,1,0,3:0:0:0:
367,278,27576,1,8,0:1:0:0:
466,255,27764,6,0,P|456:287|450:327,2,59.4999981842042,8|0|0,0:0|0:0|0:0,0:0:0:0:
404,172,28330,2,0,P|461:170|513:133,1,118.999996368408,8|0,0:1|0:0,0:0:0:0:
370,78,28896,2,0,P|418:44|476:41,1,118.999996368408,8|8,0:0|0:0,0:0:0:0:
494,60,29651,2,0,P|507:79|517:86,2,29.7499990921021,0|0|0,3:0|0:0|0:0,0:0:0:0:
366,136,30028,6,0,P|314:107|255:109,1,118.999996368408,10|0,0:0|0:0,0:0:0:0:
177,191,30595,2,0,P|227:160|255:109,1,118.999996368408,8|0,0:1|0:0,0:0:0:0:
223,0,31161,2,0,P|223:58|254:108,1,118.999996368408,8|8,0:0|0:0,0:0:0:0:
274,123,31915,1,0,3:0:0:0:
364,112,32104,1,0,3:0:0:0:
435,176,32293,6,0,P|434:234|403:284,1,118.999996368408,8|2,0:1|0:0,0:0:0:0:
367,366,32859,1,8,0:0:0:0:
280,331,33047,2,0,L|293:272,1,59.4999981842042
199,225,33425,2,0,P|168:274|167:333,1,118.999996368408,10|8,0:0|0:0,0:0:0:0:
160,359,34179,2,0,P|168:374|179:388,2,29.7499990921021,0|0|0,3:0|3:0|3:0,0:0:0:0:
128,261,34556,6,0,P|82:235|9:237,1,118.999996368408,8|0,0:0|0:0,0:0:0:0:
151,143,35123,2,0,P|167:180|190:203,2,59.4999981842042,8|0|0,0:1|0:0|0:0,0:0:0:0:
38,75,35689,2,0,P|96:76|148:48,1,118.999996368408,8|8,0:0|0:0,0:0:0:0:
165,31,36444,2,0,P|154:14|153:3,2,29.7499990921021,0|0|0,3:0|0:0|0:0,0:0:0:0:
255,125,36821,6,0,P|261:65|286:10,1,118.999996368408,8|0,0:0|0:0,0:0:0:0:
371,6,37387,1,8,0:1:0:0:
405,108,37576,2,0,P|369:91|336:87,1,59.4999981842042
240,183,37953,2,0,P|290:161|362:177,1,118.999996368408,8|8,0:0|0:0,0:0:0:0:
448,218,38519,1,0,0:0:0:0:
449,325,38708,1,0,3:3:0:0:
447,353,39085,6,0,B|430:339|410:328|410:328|373:338|304:345,1,136,4|0,1:2|0:0,0:0:0:0:
209,384,39651,2,0,P|225:324|239:229,1,136,8|0,0:1|0:0,0:0:0:0:
127,191,40217,2,0,P|180:172|284:149,1,136,8|8,0:0|0:0,0:0:0:0:
287,144,40972,2,0,P|307:154|338:167,2,34,8|0|0,3:1|3:0|3:0,0:0:0:0:
198,86,41349,6,0,P|192:58|177:21,1,68,8|0,0:0|0:0,0:0:0:0:
90,3,41726,1,0,0:0:0:0:
31,97,41915,2,0,P|41:155|73:226,1,136,8|0,0:1|0:0,0:0:0:0:
0,318,42481,2,0,B|20:304|46:298|46:298|83:312|145:304,1,136,8|8,0:0|0:0,0:0:0:0:
147,290,43236,1,8,3:1:0:0:
219,372,43425,1,0,3:0:0:0:
327,310,43613,6,0,B|311:262|277:238|277:238|271:213|275:191,1,136,8|0,1:2|0:0,0:0:0:0:
368,105,44179,2,0,P|308:70|239:65,1,136,8|0,0:1|0:0,0:0:0:0:
387,120,44745,2,0,P|454:114|512:80,1,136,8|8,0:0|0:0,0:0:0:0:
512,60,45500,1,8,3:1:0:0:
512,60,45595,1,0,3:0:0:0:
512,60,45689,1,0,3:0:0:0:
463,161,45877,6,0,P|473:186|482:231,2,68,8|0|0,0:0|0:0|0:0,0:0:0:0:
326,116,46443,2,0,B|295:61|350:22|350:22|375:59,1,136,8|0,0:1|0:0,0:0:0:0:
383,178,47009,2,0,P|330:153|245:152,1,136,8|8,0:0|0:0,0:0:0:0:
160,162,47576,1,8,0:1:0:0:
137,53,47764,1,8,3:1:0:0:
137,36,48142,6,0,B|160:53|193:51|193:51|230:23|273:31,1,136,8|0,1:2|0:0,0:0:0:0:
261,131,48708,2,0,P|282:174|254:257,1,136,8|0,0:1|0:0,0:0:0:0:
160,295,49274,2,0,B|93:268|89:317|21:288,1,136,8|8,0:0|0:0,0:0:0:0:
11,274,50028,2,0,L|0:225,2,34,8|0|0,3:1|3:0|3:0,0:0:0:0:
119,365,50406,6,0,P|169:375|245:325,1,136,8|0,0:0|0:0,0:0:0:0:
321,376,50972,1,8,0:1:0:0:
383,310,51160,2,0,P|376:271|360:239,1,68
260,131,51538,2,0,P|310:121|386:171,1,136,8|8,0:0|0:0,0:0:0:0:
364,245,52104,1,8,0:1:0:0:
275,266,52292,2,0,P|259:262|222:258,2,34,8|0|0,3:1|0:0|0:0,0:0:0:0:
384,336,52670,6,0,P|434:346|510:296,1,136,8|0,0:0|0:0,0:0:0:0:
446,191,53236,2,0,L|523:210,2,68,8|0|0,0:1|0:0|0:0,0:0:0:0:
342,136,53802,2,0,B|376:104|374:48|374:48|340:18,1,136,8|8,0:0|0:0,0:0:0:0:
323,11,54557,2,0,L|300:50,2,34,8|0|0,3:1|0:0|0:0,0:0:0:0:
223,95,54934,6,0,P|194:74|76:59,1,136,8|0,0:0|0:0,0:0:0:0:
2,127,55500,2,0,P|-1:162|44:272,1,136,8|0,0:1|0:0,0:0:0:0:
141,302,56066,2,0,P|173:287|245:192,1,136,8|8,0:0|0:1,0:0:0:0:
245,97,56632,1,8,0:1:0:0:
345,38,56821,1,8,3:1:0:0:
365,24,57198,6,0,P|441:110|446:157,1,136,12|0,1:2|0:0,0:0:0:0:
512,189,57764,2,0,P|496:218|466:233,1,68,8|0,0:1|0:0,0:0:0:0:
448,228,58330,5,8,0:0:0:0:
366,202,58519,1,0,0:0:0:0:
311,265,58708,2,0,P|306:318|323:354,1,68,8|0,0:0|0:0,0:0:0:0:
240,210,59085,2,0,L|232:171,2,34,8|0|0,3:3|3:0|3:0,0:0:0:0:
309,133,59462,6,0,P|242:140|187:103,1,136,8|0,0:0|0:0,0:0:0:0:
114,67,60028,1,8,0:1:0:0:
114,67,60217,2,0,L|125:-1,1,68
27,95,60595,6,0,P|60:153|81:218,1,136,8|8,0:0|0:0,0:0:0:0:
24,283,61161,1,8,0:1:0:0:
74,348,61349,1,8,3:3:0:0:
88,361,61727,6,0,P|162:360|191:297,1,136,8|8,0:1|0:0,0:0:0:0:
190,312,62293,1,8,0:0:0:0:
154,237,62481,2,0,P|184:223|218:227,1,68,8|0,0:1|0:0,0:0:0:0:
293,354,62859,2,0,L|319:221,2,136,8|8|8,0:0|0:0|3:3,0:0:0:0:
303,368,63991,6,0,L|388:353,1,68,8|0,0:1|0:0,0:0:0:0:
455,378,64368,1,0,0:0:0:0:
431,289,64557,2,0,L|516:304,2,68,8|0|0,0:0|0:0|0:0,0:0:0:0:
363,229,65123,6,0,P|351:180|392:112,1,102,8|0,0:1|0:0,0:0:0:0:
368,133,65500,2,0,L|441:142,1,68,8|8,0:0|0:1,0:0:0:0:
485,74,65878,2,0,L|475:31,2,34,8|0|0,3:1|3:0|3:0,0:0:0:0:
373,27,66255,6,0,L|238:47,1,136,10|0,1:2|0:0,0:0:0:0:
153,62,66821,1,8,0:1:0:0:
68,80,67010,1,8,0:0:0:0:
58,93,67387,6,0,P|38:158|52:200,1,102,8|0,0:0|0:0,0:0:0:0:
46,189,67764,2,0,L|119:202,1,68,8|0,0:0|0:0,0:0:0:0:
203,225,68142,2,0,L|197:183,2,34,8|0|0,3:1|3:0|3:0,0:0:0:0:
114,321,68519,6,0,L|257:301,1,136,8|8,0:0|0:0,0:0:0:0:
328,338,69085,1,8,0:1:0:0:
408,366,69274,1,2,0:0:0:0:
430,358,69651,6,0,P|452:318|440:260,1,102,8|0,0:0|0:0,0:0:0:0:
442,264,70028,2,0,L|370:270,1,68,8|0,0:0|0:0,0:0:0:0:
314,206,70406,2,0,L|321:169,2,34,8|0|0,3:1|3:0|3:0,0:0:0:0:
416,160,70783,6,0,P|351:154|328:93,1,136,8|0,0:0|0:0,0:0:0:0:
217,182,71349,2,0,P|189:123|230:72,1,136,8|0,0:1|0:0,0:0:0:0:
80,55,71915,2,0,P|106:33|140:28,1,68,8|0,0:0|0:0,0:0:0:0:
63,134,72293,1,8,0:0:0:0:
51,150,72670,5,8,3:1:0:0:
97,219,72859,1,8,0:1:0:0:
49,286,73047,2,0,P|72:347|135:365,1,136,8|8,0:0|0:0,0:0:0:0:
203,317,73613,1,8,0:0:0:0:
279,351,73802,1,8,0:1:0:0:
279,351,73991,1,8,0:0:0:0:
348,306,74179,1,8,0:1:0:0:
423,354,74494,5,0,0:0:0:0:
423,354,74557,1,10,0:0:0:0:
43,268,75311,6,0,B|137:241|135:311|210:286,1,170,4|2,1:0|0:0,0:0:0:0:
284,242,75878,1,8,0:0:0:0:
210,291,76066,2,0,P|163:298|123:276,1,85,0|10,0:0|0:0,0:0:0:0:
48,40,76444,6,0,B|72:48|99:64|99:64|104:114|116:176,1,170,8|8,0:1|0:1,0:0:0:0:
184,107,77010,1,0,0:0:0:0:
259,147,77198,2,0,L|269:100,3,42.5,10|0|0|0,3:3|3:0|3:0|3:0,0:0:0:0:
329,35,77576,6,0,P|399:52|431:137,1,170,10|8,1:2|0:0,0:0:0:0:
364,190,78142,1,0,0:0:0:0:
376,212,78330,1,8,0:0:0:0:
399,221,78519,1,10,0:0:0:0:
510,339,78708,6,0,B|499:321|485:299|485:299|422:311|362:316,1,170,8|8,0:1|0:1,0:0:0:0:
294,374,79274,1,0,0:0:0:0:
210,333,79462,1,8,3:3:0:0:
193,328,79557,1,0,3:0:0:0:
176,323,79651,1,2,3:2:0:0:
160,318,79745,1,0,3:0:0:0:
143,313,79840,6,0,B|116:242|186:233|152:148,1,170,8|8,1:2|0:3,0:0:0:0:
104,76,80406,1,8,0:0:0:0:
157,146,80594,2,0,P|168:195|151:236,1,85,2|0,0:0|0:0,0:0:0:0:
0,223,80972,6,0,L|31:71,1,127.5,8|0,0:1|0:0,0:0:0:0:
32,103,81349,2,0,L|10:201,1,85,8|0,0:1|0:0,0:0:0:0:
57,290,81727,2,0,L|108:278,3,42.5,8|0|0|0,3:3|3:0|3:0|3:0,0:0:0:0:
169,319,82104,6,0,L|294:345,1,127.5,10|0,1:2|0:0,0:0:0:0:
287,339,82481,2,0,L|280:276,2,42.5,8|0|0,0:3|0:0|0:0,0:0:0:0:
414,218,82859,2,0,L|332:238,1,85,10|8,0:0|0:0,0:0:0:0:
164,196,83236,2,0,L|246:215,1,85,8|0,0:1|0:0,0:0:0:0:
164,196,83613,5,8,0:1:0:0:
304,160,83802,1,8,0:0:0:0:
414,218,83991,1,8,3:3:0:0:
512,192,84179,1,10,0:0:0:0:
437,2,84368,6,0,P|395:41|413:117,1,127.5,12|0,1:2|0:0,0:0:0:0:
411,110,84745,2,0,P|396:68|412:24,1,85,8|8,0:0|0:0,0:0:0:0:
253,2,85123,1,10,0:3:0:0:
297,83,85311,1,0,0:0:0:0:
244,169,85500,2,0,P|160:141|50:141,1,170,8|8,0:1|0:1,0:0:0:0:
244,169,86066,1,0,0:0:0:0:
317,253,86255,1,10,3:2:0:0:
340,242,86349,1,0,3:0:0:0:
354,226,86444,1,8,3:2:0:0:
361,206,86538,1,0,3:0:0:0:
356,185,86632,6,0,L|326:7,1,170,10|8,1:2|0:0,0:0:0:0:
474,115,87198,1,10,0:3:0:0:
456,189,87387,1,8,0:0:0:0:
440,264,87576,1,0,0:0:0:0:
326,355,87764,6,0,L|199:368,1,127.5,8|0,0:1|0:0,0:0:0:0:
214,365,88142,2,0,L|226:309,2,42.5,10|0|0,0:1|0:0|0:0,0:0:0:0:
116,301,88519,1,8,0:1:0:0:
185,239,88708,1,8,0:1:0:0:
135,150,88896,6,0,P|214:132|273:189,1,170,8|8,1:1|0:0,0:0:0:0:
498,159,89462,1,0,0:0:0:0:
412,157,89651,1,10,0:0:0:0:
373,232,89840,1,0,0:0:0:0:
256,305,90028,6,0,P|172:276|54:265,1,170,8|8,0:1|0:0,0:0:0:0:
197,186,90595,1,8,0:0:0:0:
197,186,90689,1,8,0:0:0:0:
197,186,90783,1,8,0:3:0:0:
121,109,90972,1,8,0:0:0:0:
296,20,91161,6,0,P|463:77|370:379,1,552.499974708558,12|0,1:2|0:0,0:0:0:0:
381,375,93425,6,0,P|395:351|400:324,1,55.2499974708558,2|0,0:0|0:0,0:0:0:0:
348,244,93802,2,0,P|280:220|166:325,2,220.999989883423,0|0|8,0:0|0:0|0:3,0:0:0:0:
348,244,95500,1,8,0:3:0:0:
468,201,95689,6,0,P|467:94|379:36,1,220.999989883423,4|0,1:2|0:0,0:0:0:0:
379,36,96632,1,0,0:0:0:0:
312,91,96821,2,0,L|180:67,2,110.499994941712,2|0|0,0:0|0:0|3:0,0:0:0:0:
357,162,97764,1,2,0:0:0:0:
302,273,97953,5,8,0:3:0:0:
302,273,98142,1,0,0:0:0:0:
238,202,98330,2,0,L|162:215,1,55.2499974708558,0|8,0:0|0:3,0:0:0:0:
41,365,98896,5,0,1:0:0:0:
100,300,99085,2,0,P|93:239|83:175,2,110.499994941712,8|8|4,0:0|0:3|0:3,0:0:0:0:
100,300,100028,1,2,0:0:0:0:
213,357,100217,6,0,B|276:361|308:304|308:304|362:322,1,161.499995687485,4|8,1:0|0:0,0:0:0:0:
502,283,100783,2,0,L|420:257,1,80.7499978437424,8|0,0:1|0:0,0:0:0:0:
374,182,101161,1,8,0:1:0:0:
452,63,101349,2,0,P|463:101|460:141,1,80.7499978437424,8|0,0:0|0:0,0:0:0:0:
298,128,101727,2,0,P|295:87|306:49,1,80.7499978437424,8|0,0:0|0:0,0:0:0:0:
374,182,102104,2,0,P|369:206|361:235,2,40.3749989218712,8|0|0,3:3|3:0|3:0,0:0:0:0:
222,203,102481,5,8,1:2:0:0:
222,203,102670,2,0,P|179:193|126:185,1,80.7499978437424,2|8,0:0|0:0,0:0:0:0:
272,51,103047,2,0,P|284:93|304:143,1,80.7499978437424,8|0,0:1|0:0,0:0:0:0:
116,84,103425,1,10,0:1:0:0:
116,84,103613,2,0,P|146:51|179:9,1,80.7499978437424,8|0,0:0|0:0,0:0:0:0:
204,118,103991,1,8,0:0:0:0:
204,118,104085,1,8,0:0:0:0:
204,118,104179,1,0,3:0:0:0:
54,158,104368,1,8,3:0:0:0:
142,187,104557,1,0,0:0:0:0:
41,305,104745,6,0,P|105:311|188:264,1,161.499995687485,8|8,1:2|0:0,0:0:0:0:
301,214,105311,2,0,P|289:250|286:304,2,80.7499978437424,8|0|8,0:1|0:0|0:1,0:0:0:0:
448,289,105878,2,0,P|444:329|432:367,1,80.7499978437424,8|0,0:0|0:0,0:0:0:0:
395,214,106255,1,8,3:2:0:0:
404,195,106349,1,0,3:0:0:0:
413,177,106443,1,0,3:0:0:0:
422,159,106538,1,0,3:0:0:0:
431,141,106632,2,0,P|428:105|406:57,1,80.7499978437424,8|0,3:3|0:0,0:0:0:0:
229,90,107010,6,0,P|232:54|254:6,1,80.7499978437424,8|0,1:2|0:0,0:0:0:0:
173,159,107387,1,8,0:0:0:0:
173,159,107576,2,0,P|140:174|87:179,1,80.7499978437424,10|0,0:1|0:0,0:0:0:0:
261,173,107953,1,8,0:1:0:0:
261,173,108142,2,0,P|290:193|321:236,1,80.7499978437424,10|0,0:0|0:0,0:0:0:0:
173,159,108519,5,8,0:0:0:0:
229,90,108708,1,0,0:0:0:0:
261,173,108896,1,8,3:0:0:0:
205,242,109085,1,0,3:0:0:0:
77,182,109274,6,0,B|43:197|20:215|20:215|34:265|47:322,1,161.499995687485,4|10,1:2|0:0,0:0:0:0:
135,369,109840,2,0,P|177:359|228:351,1,80.7499978437424,8|0,0:1|0:0,0:0:0:0:
306,382,110218,1,8,0:1:0:0:
397,268,110406,2,0,P|446:270|505:378,1,161.499995687485,8|8,0:0|0:0,0:0:0:0:
306,289,110972,1,0,0:0:0:0:
306,289,111161,2,0,L|321:201,1,80.7499978437424,8|0,3:0|0:0,0:0:0:0:
162,166,111538,5,10,1:2:0:0:
268,62,111727,2,0,L|254:141,1,80.7499978437424,0|8,0:0|0:0,0:0:0:0:
106,28,112104,2,0,L|185:42,1,80.7499978437424,10|0,0:1|0:0,0:0:0:0:
72,190,112482,1,8,3:1:0:0:
72,190,112576,1,2,0:0:0:0:
72,190,112670,2,0,L|86:111,1,80.7499978437424,8|0,0:0|0:0,0:0:0:0:
234,224,113047,2,0,L|155:210,1,80.7499978437424,2|0,0:0|0:0,0:0:0:0:
173,130,113425,1,8,3:3:0:0:
173,130,113519,1,0,3:0:0:0:
173,130,113613,1,0,3:0:0:0:
268,62,113802,6,0,P|331:49|431:81,1,161.499995687485,8|8,1:2|0:0,0:0:0:0:
399,186,114368,2,0,L|479:179,2,80.7499978437424,8|0|8,0:1|0:0|0:1,0:0:0:0:
326,286,114934,2,0,P|405:298|480:272,1,161.499995687485,8|8,0:3|0:0,0:0:0:0:
250,384,115500,1,8,0:1:0:0:
250,384,115689,2,0,P|241:320|232:288,1,80.7499978437424,0|8,0:0|0:0,0:0:0:0:
116,233,116066,5,8,1:1:0:0:
21,270,116255,1,8,0:0:0:0:
21,270,116349,1,8,0:0:0:0:
21,270,116444,1,8,0:1:0:0:
35,169,116632,5,8,0:1:0:0:
100,333,116821,1,8,0:3:0:0:
218,287,117010,1,8,0:0:0:0:
257,208,117198,6,0,B|216:138|307:116|260:19,1,191.250007295609,4|0,1:2|0:0,0:0:0:0:
176,2,117953,1,4,0:3:0:0:
152,88,118142,1,4,0:3:0:0:
292,137,118330,6,0,B|339:85|432:84|470:140|470:140|429:184|383:172,1,295.800002482452,4|2,3:1|0:0,0:0:0:0:
367,187,119462,2,0,P|291:167|221:161,2,147.900001241226,2|2|2,1:2|0:0|0:0,0:0:0:0:
444,253,120406,1,0,3:0:0:0:
444,253,120500,1,0,3:0:0:0:
444,253,120595,2,0,P|440:323|502:372,2,147.900001241226,2|2|2,3:2|0:0|0:0,0:0:0:0:
362,88,121727,6,0,P|396:83|445:57,1,73.9500006206131,10|0,0:0|0:0,0:0:0:0:
305,155,122104,2,0,P|336:169|391:174,1,73.9500006206131,2|0,0:0|0:0,0:0:0:0:
220,180,122481,2,0,P|238:209|282:243,1,73.9500006206131,2|0,0:3|0:0,0:0:0:0:
140,126,122859,6,0,P|27:90|-21:94,1,147.900001241226,2|2,3:2|0:0,0:0:0:0:
50,208,123425,1,0,0:0:0:0:
50,208,123613,2,0,P|31:241|22:300,1,73.9500006206131,2|0,0:0|0:0,0:0:0:0:
157,225,123991,2,0,P|224:195|297:189,2,147.900001241226,0|2|2,1:0|0:0|3:2,0:0:0:0:
306,377,125123,2,0,P|379:371|446:341,1,147.900001241226,2|2,3:2|0:0,0:0:0:0:
493,252,125689,1,0,3:0:0:0:
493,252,125783,1,0,3:0:0:0:
493,252,125878,2,0,P|498:218|510:174,1,73.9500006206131
437,102,126255,5,10,0:0:0:0:
256,192,126632,1,2,0:3:0:0:
75,102,127010,1,2,0:0:0:0:
271,212,127387,6,0,P|359:216|425:170,2,147.900001241226,2|2|2,3:2|0:0|0:0,0:0:0:0:
249,201,128519,2,0,P|234:149|220:129,1,73.9500006206131,2|0,1:2|0:0,0:0:0:0:
347,250,128896,2,0,P|309:288|299:311,1,73.9500006206131,2|0,0:0|0:0,0:0:0:0:
341,141,129274,2,0,P|393:154|417:151,1,73.9500006206131,2|0,3:2|0:0,0:0:0:0:
512,85,129651,5,2,3:2:0:0:
512,85,130028,1,2,0:0:0:0:
427,36,130217,1,0,3:0:0:0:
427,36,130311,1,0,3:0:0:0:
427,36,130406,2,0,P|391:24|355:24,1,73.9500006206131,2|0,3:2|0:0,0:0:0:0:
257,95,130783,2,0,L|230:266,2,147.900001241226,10|2|2,0:0|0:0|0:3,0:0:0:0:
53,25,131915,6,0,P|132:37|165:112,1,147.900001241226,2|2,3:2|0:0,0:0:0:0:
73,170,132481,1,0,0:0:0:0:
73,170,132670,2,0,L|-16:155,1,73.9500006206131,2|0,0:0|0:0,0:0:0:0:
108,274,133047,2,0,P|179:267|219:207,2,147.900001241226,2|2|2,1:2|0:0|3:2,0:0:0:0:
0,72,134179,6,0,P|74:61|165:50,1,147.900001241226,2|2,3:2|0:0,0:0:0:0:
232,5,134745,1,0,3:0:0:0:
279,133,134934,2,0,P|254:135|197:120,1,73.9500006206131,2|0,3:3|0:0,0:0:0:0:
399,9,135311,5,0,1:0:0:0:
461,116,135500,1,8,0:3:0:0:
496,23,135689,1,8,0:1:0:0:
363,101,135878,1,4,0:3:0:0:
510,201,136066,1,4,0:3:0:0:
461,116,136255,1,0,0:0:0:0:
424,315,136444,6,0,P|350:304|259:293,1,147.900001241226,4|0,3:1|0:0,0:0:0:0:
185,309,137010,1,0,0:0:0:0:
335,190,137198,2,0,P|302:204|267:193,1,73.9500006206131,2|0,0:3|0:0,0:0:0:0:
137,82,137576,2,0,P|181:198|183:246,2,147.900001241226,2|2|2,1:2|0:0|3:2,0:0:0:0:
0,292,138708,6,0,P|32:345|138:348,1,147.900001241226,2|2,3:2|0:0,0:0:0:0:
132,349,139462,2,0,L|119:265,1,73.9500006206131,2|0,0:0|3:0,0:0:0:0:
227,306,139840,1,10,0:0:0:0:
312,350,140028,1,0,0:0:0:0:
428,213,140217,2,0,P|410:266|418:384,1,147.900001241226,2|2,0:0|3:3,0:0:0:0:
502,172,140972,6,0,B|439:138|431:200|360:159,1,147.900001241226,2|2,3:2|0:0,0:0:0:0:
360,160,141538,1,0,0:0:0:0:
494,75,141727,2,0,P|456:68|430:40,1,73.9500006206131,2|0,0:0|0:0,0:0:0:0:
216,95,142104,2,0,P|325:70|366:81,2,147.900001241226,2|2|2,1:2|0:0|3:2,0:0:0:0:
205,119,143236,5,2,3:2:0:0:
273,166,143425,1,0,0:0:0:0:
272,247,143613,2,0,P|208:280|188:357,1,147.900001241226,2|2,0:0|0:0,0:0:0:0:
186,348,144179,1,0,3:0:0:0:
338,377,144368,6,0,P|367:366|406:363,1,68,10|10,0:0|0:0,0:0:0:0:
403,362,144934,1,8,0:0:0:0:
470,310,145123,1,2,3:3:0:0:
448,230,145311,1,0,0:0:0:0:
334,165,145500,6,0,P|293:90|438:98,1,295.800002482452,4|2,3:1|0:0,0:0:0:0:
455,106,146632,2,0,P|390:114|361:92,1,73.9500006206131,2|0,1:2|0:0,0:0:0:0:
317,194,147010,2,0,P|288:170|276:136,1,73.9500006206131,2|0,0:0|0:0,0:0:0:0:
192,83,147387,1,2,3:2:0:0:
192,83,147576,1,0,0:0:0:0:
54,132,147764,6,0,P|103:193|119:285,2,147.900001241226,2|2|2,3:2|0:0|3:2,0:0:0:0:
25,127,148896,2,0,P|68:90|110:88,1,73.9500006206131,10|0,0:0|0:0,0:0:0:0:
204,26,149274,2,0,L|175:171,1,147.900001241226,2|2,0:0|0:3,0:0:0:0:
175,171,149840,1,0,0:0:0:0:
292,101,150028,6,0,P|365:137|426:109,1,147.900001241226,2|2,3:2|0:0,0:0:0:0:
387,36,150595,1,0,0:0:0:0:
504,124,150783,1,2,0:0:0:0:
504,124,150972,1,0,0:0:0:0:
460,214,151161,2,0,L|501:357,2,147.900001241226,2|2|2,1:2|0:0|3:2,0:0:0:0:
369,382,152293,6,0,P|306:344|233:343,1,147.900001241226,2|2,3:2|0:0,0:0:0:0:
265,193,152859,2,0,P|201:228|164:291,1,147.900001241226,8|0,0:0|3:0,0:0:0:0:
51,181,153425,1,2,1:2:0:0:
59,196,153802,1,2,1:2:0:0:
119,136,153991,1,0,3:0:0:0:
69,71,154179,2,0,L|93:-2,1,73.9500006206131,8|0,0:3|0:0,0:0:0:0:
211,102,154557,6,0,P|268:67|335:59,1,136,4|2,3:2|0:0,0:0:0:0:
448,48,155123,2,0,L|432:120,1,68,0|2,1:0|0:0,0:0:0:0:
448,48,155500,1,0,0:0:0:0:
345,147,155689,2,0,L|382:277,2,136,2|8|0,3:2|0:3|3:0,0:0:0:0:
151,374,156821,6,0,P|168:308|189:227,1,136,2|2,0:3|0:0,0:0:0:0:
97,250,157387,2,0,P|89:284|79:315,1,68,0|2,1:0|0:0,0:0:0:0:
97,250,157764,1,8,0:3:0:0:
123,165,157953,2,0,P|132:132|140:99,1,68,4|0,0:3|0:0,0:0:0:0:
96,22,158330,1,10,0:0:0:0:
96,22,158519,1,8,0:0:0:0:
140,99,158708,1,2,0:0:0:0:
395,143,159085,6,0,P|362:79|333:21,1,136,2|2,3:2|0:0,0:0:0:0:
333,21,159651,1,0,1:0:0:0:
284,115,159840,2,0,P|256:130|216:149,1,68,2|0,0:0|3:0,0:0:0:0:
327,192,160217,2,0,P|308:274|295:327,2,136,4|0|2,0:3|3:2|0:0,0:0:0:0:
46,318,161349,6,0,P|109:332|186:355,1,136,2|2,3:3|0:0,0:0:0:0:
101,247,161915,2,0,P|134:259|180:267,1,68,0|2,1:0|0:0,0:0:0:0:
150,176,162293,1,8,0:3:0:0:
265,112,162481,6,0,P|277:145|287:179,1,68,2|0,0:0|0:0,0:0:0:0:
366,157,162859,2,0,P|356:124|344:92,1,68,8|0,0:3|0:0,0:0:0:0:
443,107,163236,1,10,0:0:0:0:
443,107,163425,1,8,0:0:0:0:
285,34,163613,6,0,P|217:26|149:18,1,136,4|2,3:2|0:0,0:0:0:0:
73,62,164179,2,0,L|88:132,1,68,0|0,1:0|0:0,0:0:0:0:
87,128,164557,1,8,0:3:0:0:
39,226,164745,2,0,P|103:207|187:188,2,136,2|8|2,0:0|0:3|0:0,0:0:0:0:
256,302,165878,6,0,P|351:336|409:361,1,136,2|2,3:3|0:0,0:0:0:0:
442,283,166444,2,0,P|462:309|474:341,1,68,0|0,1:0|0:0,0:0:0:0:
383,349,166821,1,8,0:3:0:0:
336,245,167010,2,0,P|353:169|376:87,2,136,2|4|8,0:0|0:3|0:0,0:0:0:0:
336,245,167953,1,8,0:0:0:0:
292,63,168142,6,0,P|231:71|157:83,1,136,2|0,3:2|0:0,0:0:0:0:
49,180,168708,2,0,P|116:169|183:160,1,136,0|4,1:0|0:3,0:0:0:0:
163,247,169274,1,2,0:0:0:0:
158,265,169651,1,2,0:0:0:0:
153,283,170028,1,0,0:0:0:0:
214,362,170406,6,0,P|309:342|377:338,1,136,2|2,3:2|0:0,0:0:0:0:
366,205,170972,1,0,1:0:0:0:
444,164,171161,1,2,0:0:0:0:
512,219,171349,1,0,3:0:0:0:
434,268,171538,2,0,P|441:303|450:345,1,68,0|2,1:0|0:2,0:0:0:0:
447,334,172670,6,0,B|414:319|380:315|380:315|333:343|268:331,1,178.499994552612,6|2,3:1|0:1,0:0:0:0:
193,301,173237,1,0,0:0:0:0:
274,343,173425,2,0,P|321:350|367:336,1,89.2499972763062,2|0,0:1|0:0,0:0:0:0:
452,227,173802,6,0,L|413:41,1,178.499994552612,2|2,1:1|0:1,0:0:0:0:
316,0,174369,1,0,0:0:0:0:
291,122,174557,2,0,P|310:108|333:94,3,44.6249986381531,2|0|0|0,3:1|3:0|3:0|3:0,0:0:0:0:
407,60,174934,6,0,L|429:170,1,89.2499972763062,2|0,3:1|0:0,0:0:0:0:
221,217,175311,2,0,L|202:129,1,89.2499972763062,2|0,0:1|0:0,0:0:0:0:
128,83,175689,1,2,0:1:0:0:
174,9,175878,1,0,0:0:0:0:
308,106,176066,6,0,B|298:197|352:189|347:281,1,178.499994552612,0|2,1:0|0:1,0:0:0:0:
275,383,176633,1,0,0:0:0:0:
154,356,176821,1,2,3:1:0:0:
137,351,176916,1,0,3:0:0:0:
120,346,177010,1,0,3:0:0:0:
104,341,177104,1,0,3:0:0:0:
87,336,177199,6,0,B|42:299|51:227|51:227|73:211|91:165,1,178.499994552612,2|2,3:1|0:1,0:0:0:0:
67,77,177765,1,0,0:0:0:0:
97,182,177953,2,0,P|82:211|29:248,1,89.2499972763062,2|0,0:1|0:0,0:0:0:0:
192,113,178331,6,0,P|225:95|353:95,1,133.874995914459,2|0,1:0|0:0,0:0:0:0:
328,79,178708,2,0,P|307:75|226:89,1,89.2499972763062,2|0,0:1|0:0,0:0:0:0:
419,186,179086,2,0,P|407:156|391:134,3,44.6249986381531,2|0|0|0,3:1|3:0|3:0|3:0,0:0:0:0:
424,64,179463,6,0,P|469:46|548:43,1,89.2499972763062,2|0,3:1|0:0,0:0:0:0:
319,221,179840,2,0,P|274:214|233:197,1,89.2499972763062,2|0,0:1|3:0,0:0:0:0:
116,137,180217,5,2,3:1:0:0:
23,162,180406,1,0,3:0:0:0:
23,162,180500,1,0,3:0:0:0:
23,162,180595,1,2,1:1:0:0:
47,68,180783,1,0,3:2:0:0:
148,151,180972,5,0,1:0:0:0:
79,270,181161,1,8,0:3:0:0:
202,363,181349,5,4,0:3:0:0:
176,246,181538,1,0,3:0:0:0:
290,168,181727,6,0,B|313:160|339:155|339:155|378:178|424:165,1,133.874995914459,4|0,3:2|0:0,0:0:0:0:
422,176,182104,2,0,P|387:182|331:162,1,89.2499972763062,2|0,0:1|0:0,0:0:0:0:
254,83,182482,1,2,3:1:0:0:
311,7,182670,1,0,0:0:0:0:
233,93,182859,2,0,P|149:65|42:64,1,178.499994552612,2|0,1:1|0:0,0:0:0:0:
0,133,183425,1,0,0:0:0:0:
50,224,183613,1,2,3:1:0:0:
72,221,183707,1,0,3:0:0:0:
94,218,183801,1,0,3:0:0:0:
116,215,183896,1,0,3:0:0:0:
138,213,183991,6,0,B|176:180|234:198|234:198|253:234|301:240,1,178.499994552612,2|2,3:1|0:1,0:0:0:0:
445,171,184557,1,0,3:0:0:0:
429,94,184746,1,2,3:2:0:0:
413,17,184934,1,0,0:0:0:0:
351,135,185123,6,0,P|293:107|219:108,1,133.874995914459,2|0,1:0|0:0,0:0:0:0:
212,114,185500,2,0,L|195:158,2,44.6249986381531,2|0|0,0:1|3:0|3:0,0:0:0:0:
149,8,185878,1,8,0:3:0:0:
0,175,186255,6,0,B|-18:274|55:250|38:347,2,178.499994552612,4|2|2,3:1|0:1|3:1,0:0:0:0:
76,96,187199,1,0,0:0:0:0:
194,221,187387,2,0,P|154:203|94:204,1,89.2499972763062,2|0,1:0|0:0,0:0:0:0:
285,170,187764,2,0,P|320:144|349:91,1,89.2499972763062,2|0,0:1|0:0,0:0:0:0:
283,274,188142,2,0,P|287:317|366:375,1,133.874995914459,2|0,3:1|0:0,0:0:0:0:
370,382,188519,6,0,B|413:335|493:355|493:355|432:326|381:242|447:164,1,356.999989105225,4|2,3:2|0:0,0:0:0:0:
394,9,190028,5,8,0:3:0:0:
326,198,190406,5,0,3:0:0:0:
108,31,190783,6,0,P|178:25|241:22,1,127.500004863739,0|8,1:0|0:0,0:0:0:0:
311,68,191349,1,2,0:3:0:0:
241,123,191538,2,0,P|177:128|113:131,1,127.500004863739,8|8,0:3|0:3,0:0:0:0:
0,267,192293,5,4,0:3:0:0:
29,251,192418,1,0,3:0:0:0:
60,262,192544,1,0,3:0:0:0:
31,278,192669,1,4,0:3:0:0:
180,188,193047,6,0,P|199:262|464:318,1,382.500014591218,4|2,3:2|0:0,0:0:0:0:
504,156,194557,5,0,1:0:0:0:
305,214,194934,5,0,3:0:0:0:
351,0,195311,5,8,0:0:0:0:
391,125,195689,5,8,0:3:0:0:
391,125,195878,1,0,0:0:0:0:
120,48,196255,5,4,0:3:0:0:
212,29,196444,1,0,1:0:0:0:
23,217,196821,5,0,1:0:0:0:
115,236,197010,1,0,0:0:0:0:
85,146,197198,1,8,0:3:0:0:
53,307,197387,1,0,0:0:0:0:
172,373,197576,6,0,P|266:360|362:352,2,168.299999486389,4|8|8,1:0|0:3|0:1,0:0:0:0:
83,261,198519,1,8,0:0:0:0:
83,261,198613,1,8,0:0:0:0:
83,261,198708,2,0,L|-16:276,1,84.1499997431946,10|0,1:2|0:0,0:0:0:0:
93,137,199085,1,8,0:0:0:0:
181,186,199274,2,0,B|332:170|252:114|421:94,1,252.449999229584,8|0,0:1|1:0,0:0:0:0:
429,95,200217,6,0,P|437:49|435:1,1,84.1499997431946,8|2,0:3|0:0,0:0:0:0:
344,140,200595,1,8,0:1:0:0:
344,140,200783,1,2,0:0:0:0:
488,177,200972,2,0,P|488:219|480:260,1,84.1499997431946,0|0,1:0|0:0,0:0:0:0:
451,348,201349,1,8,0:0:0:0:
364,314,201538,1,8,0:3:0:0:
285,362,201727,1,8,3:3:0:0:
264,368,201821,1,0,3:0:0:0:
244,367,201915,1,0,3:0:0:0:
224,360,202010,1,0,3:0:0:0:
208,347,202104,1,0,1:0:0:0:
83,217,202481,6,0,L|-23:229,1,84.1499997431946,8|0,0:3|0:0,0:0:0:0:
155,153,202859,2,0,L|197:55,1,84.1499997431946,8|0,0:1|0:0,0:0:0:0:
174,247,203236,2,0,L|237:332,1,84.1499997431946,0|8,1:0|0:0,0:0:0:0:
277,382,203613,5,8,0:0:0:0:
390,358,203802,1,8,0:1:0:0:
453,259,203991,5,2,0:3:0:0:
340,283,204179,1,2,0:0:0:0:
248,197,204368,6,0,P|246:160|260:105,1,84.1499997431946,0|2,1:0|0:0,0:0:0:0:
359,28,204745,2,0,L|492:6,1,126.224999614792,8|0,0:3|0:0,0:0:0:0:
493,17,205123,2,0,L|406:32,1,84.1499997431946,8|0,0:1|0:0,0:0:0:0:
374,177,205500,2,0,L|461:162,1,84.1499997431946,2|0,1:2|0:0,0:0:0:0:
296,96,205878,5,8,0:0:0:0:
203,135,206066,1,8,0:3:0:0:
124,71,206255,1,8,3:0:0:0:
217,32,206443,1,0,0:0:0:0:
310,112,206632,6,0,P|326:187|300:298,2,168.299999486389,2|8|8,1:2|0:3|0:1,0:0:0:0:
238,32,207576,1,2,0:0:0:0:
128,95,207764,2,0,L|44:69,1,84.1499997431946,0|0,1:0|3:0,0:0:0:0:
47,70,208047,1,0,3:0:0:0:
47,70,208142,1,8,3:2:0:0:
123,192,208330,2,0,B|227:164|188:222|287:201,1,168.299999486389,10|0,0:3|0:0,0:0:0:0:
395,167,208896,6,0,P|386:201|381:229,1,63.75,0|0,1:0|0:0,0:0:0:0:
396,245,209274,2,0,P|435:236|478:228,1,84.1499997431946,8|2,0:3|0:0,0:0:0:0:
333,381,209651,2,0,P|326:339|316:298,1,84.1499997431946,8|0,0:1|0:0,0:0:0:0:
226,277,210028,2,0,P|184:283|143:293,1,84.1499997431946,2|8,1:2|0:0,0:0:0:0:
143,293,210311,1,8,0:0:0:0:
143,293,210406,1,8,0:1:0:0:
300,207,210595,1,8,0:1:0:0:
215,99,210783,5,8,3:3:0:0:
212,120,210878,1,0,3:0:0:0:
208,140,210972,1,0,3:0:0:0:
204,160,211066,1,0,3:0:0:0:
201,181,211161,1,0,1:0:0:0:
99,208,211349,2,0,P|61:216|11:228,1,84.1499997431946,2|8,0:0|0:3,0:0:0:0:
132,129,211727,2,0,P|123:91|112:41,1,84.1499997431946,2|8,0:0|0:1,0:0:0:0:
132,129,212104,1,0,0:0:0:0:
301,57,212293,5,2,1:2:0:0:
393,116,212481,1,8,0:0:0:0:
393,116,212576,1,8,0:0:0:0:
393,116,212670,2,0,P|387:160|380:213,1,84.1499997431946,8|10,0:3|0:1,0:0:0:0:
482,167,213047,1,2,0:3:0:0:
482,167,213236,1,2,0:0:0:0:
390,302,213425,5,0,1:0:0:0:
491,338,213613,1,2,0:0:0:0:
314,378,213802,2,0,P|301:333|280:280,1,84.1499997431946,8|2,0:3|0:0,0:0:0:0:
210,248,214179,5,8,0:1:0:0:
122,290,214368,1,2,0:0:0:0:
31,229,214557,2,0,P|22:274|12:317,1,84.1499997431946,2|8,1:2|0:0,0:0:0:0:
13,311,214840,1,8,0:0:0:0:
13,311,214934,1,8,0:3:0:0:
201,340,215123,5,8,3:1:0:0:
287,298,215311,1,8,0:3:0:0:
316,202,215500,1,4,0:3:0:0:
213,47,215689,6,0,P|40:130|110:292,1,382.500014591218,4|2,3:2|0:0,0:0:0:0:
256,192,224745,6,0,P|296:179|346:172,1,85,4|0,3:1|0:0,0:0:0:0:
184,144,225123,1,0,1:0:0:0:
331,311,225311,6,0,P|188:269|131:266,1,170,4|0,3:2|1:0,0:0:0:0:
402,226,225878,2,0,P|410:267|418:294,2,56.6666666666667,4|8|8,3:1|0:0|0:1,0:0:0:0:
498,152,226255,5,8,0:3:0:0:
459,148,226381,1,8,0:0:0:0:
434,116,226506,1,8,0:3:0:0:
347,91,226632,5,4,0:3:0:0:
302,55,226758,1,4,0:3:0:0:
250,78,226884,1,0,3:0:0:0:
181,152,227010,6,0,P|116:162|69:73,1,140.25000428009,4|0,3:1|0:0,0:0:0:0:
53,40,227387,2,0,P|99:36|130:69,1,93.5000028533936,2|0,0:1|0:0,0:0:0:0:
21,275,227764,5,2,0:1:0:0:
106,236,227953,1,0,0:0:0:0:
226,331,228142,2,0,P|289:357|350:326,1,140.25000428009,2|0,1:1|0:0,0:0:0:0:
423,360,228519,2,0,P|430:314|410:272,1,93.5000028533936
287,54,228896,6,0,P|280:78|275:103,1,51,2|0,3:1|0:0,0:0:0:0:
203,99,229274,6,0,P|316:83|397:81,1,187.000005706787,2|2,3:1|0:1,0:0:0:0:
508,179,229840,1,0,3:0:0:0:
401,278,230028,2,0,P|409:216|415:181,1,93.5000028533936,2|0,3:1|0:0,0:0:0:0:
147,16,230406,6,0,P|181:103|201:194,1,187.000005706787,0|2,1:0|0:1,0:0:0:0:
201,194,230972,1,0,0:0:0:0:
156,359,231161,2,0,P|155:312|169:254,1,93.5000028533936,4|0,0:3|0:0,0:0:0:0:
38,70,231538,6,0,P|104:90|174:99,1,140.25000428009,4|0,3:2|0:0,0:0:0:0:
240,52,231915,1,2,0:1:0:0:
426,99,232104,1,0,0:0:0:0:
351,132,232293,2,0,L|334:31,1,93.5000028533936,2|0,3:1|0:0,0:0:0:0:
490,253,232670,6,0,P|423:232|353:223,1,140.25000428009,2|0,1:1|3:0,0:0:0:0:
288,271,233047,1,2,0:0:0:0:
102,224,233236,1,2,0:0:0:0:
177,191,233425,2,0,L|194:292,1,93.5000028533936,2|0,0:1|0:0,0:0:0:0:
382,359,233802,6,0,P|490:264|383:46,1,408,4|2,3:2|0:0,0:0:0:0:
321,102,235123,5,8,0:0:0:0:
321,102,235217,1,8,0:0:0:0:
321,102,235311,1,8,0:3:0:0:
244,58,235500,1,8,0:3:0:0:
176,100,235689,2,0,L|196:168,1,68,8|0,0:1|0:0,0:0:0:0:
102,26,236066,6,0,L|35:40,1,68,0|8,3:0|0:0,0:0:0:0:
35,40,236349,1,8,0:0:0:0:
35,40,236444,1,8,0:3:0:0:
83,226,236632,1,4,0:3:0:0:
108,308,237010,5,0,3:0:0:0:
299,240,237198,1,4,0:3:0:0:
386,290,237387,1,8,0:0:0:0:
386,290,237481,1,8,0:0:0:0:
386,290,237576,1,8,0:3:0:0:
299,340,237764,1,4,0:3:0:0:
299,240,237953,2,0,L|272:157,1,68,12|0,0:3|0:0,0:0:0:0:
166,11,238330,6,0,P|55:43|50:202,1,272,4|0,3:2|0:0,0:0:0:0:
36,182,239274,1,2,0:3:0:0:
143,214,239462,2,0,P|192:169|256:147,2,136,0|4|8,1:0|0:3|0:3,0:0:0:0:
76,348,240406,5,0,3:0:0:0:
76,348,240500,1,0,3:0:0:0:
76,348,240595,1,8,0:0:0:0:
6,285,240783,1,0,0:0:0:0:
166,323,240972,1,0,3:0:0:0:
247,268,241161,1,8,0:3:0:0:
254,365,241349,5,0,0:0:0:0:
159,226,241538,1,0,3:0:0:0:
242,94,241727,2,0,P|291:108|332:121,1,68,8|8,0:0|0:0,0:0:0:0:
307,113,242010,1,8,0:0:0:0:
307,113,242104,1,0,3:0:0:0:
300,25,242293,5,8,0:0:0:0:
167,129,242481,1,0,1:0:0:0:
247,268,242670,1,8,0:3:0:0:
155,346,242859,6,0,P|114:354|-8:276,1,170,4|2,3:1|0:2,0:0:0:0:
82,198,243425,1,0,0:0:0:0:
82,198,243613,2,0,L|-23:171,1,85,2|0,0:3|0:0,0:0:0:0:
223,122,243991,2,0,P|155:72|72:74,1,170,2|2,1:2|0:0,0:0:0:0:
181,200,244557,1,0,0:0:0:0:
258,249,244745,2,0,P|307:243|347:226,1,85,2|0,3:2|0:0,0:0:0:0:
466,171,245123,6,0,L|428:13,1,127.5,0|0,3:1|0:0,0:0:0:0:
426,44,245500,2,0,L|445:126,1,85,2|0,0:0|0:0,0:0:0:0:
283,95,245878,2,0,L|264:13,1,85,2|0,3:2|0:0,0:0:0:0:
170,166,246255,2,0,P|81:191|-5:156,1,170,2|4,1:2|0:3,0:0:0:0:
84,236,246821,1,0,3:0:0:0:
107,308,247010,1,8,0:0:0:0:
72,375,247198,1,0,1:0:0:0:
221,319,247387,6,0,P|301:342|381:317,1,170,4|2,3:1|0:0,0:0:0:0:
458,376,247953,1,0,0:0:0:0:
506,256,248142,2,0,P|490:215|483:167,1,85,2|0,3:3|0:0,0:0:0:0:
362,61,248519,2,0,P|363:144|337:240,2,170,2|0|2,1:2|3:0|3:2,0:0:0:0:
298,5,249462,1,0,0:0:0:0:
140,90,249651,6,0,P|174:75|235:74,1,85,2|0,3:2|0:0,0:0:0:0:
88,190,250028,2,0,P|58:168|26:115,1,85,2|2,0:0|0:1,0:0:0:0:
201,186,250406,2,0,P|196:222|167:276,1,85,0|0,3:0|0:0,0:0:0:0:
88,363,250783,5,0,1:0:0:0:
88,363,250972,1,0,0:0:0:0:
87,257,251161,1,0,1:3:0:0:
207,347,251349,1,8,0:3:0:0:
201,186,251538,1,4,0:3:0:0:
282,246,251727,1,2,1:2:0:0:
403,173,251915,6,0,P|402:104|365:27,1,135.150000206223,4|0,3:1|0:0,0:0:0:0:
383,36,252293,2,0,P|405:77|412:123,1,90.1000001374817,2|0,0:1|0:0,0:0:0:0:
210,80,252670,2,0,P|234:40|270:11,1,90.1000001374817,2|0,3:1|0:0,0:0:0:0:
314,183,253047,2,0,P|230:175|140:227,1,180.200000274963,2|2,1:1|3:2,0:0:0:0:
67,277,253613,1,8,0:3:0:0:
56,179,253802,1,4,0:3:0:0:
56,179,253991,1,2,0:0:0:0:
159,312,254179,6,0,P|247:319|325:276,1,180.200000274963,4|8,3:2|0:1,0:0:0:0:
467,136,254745,2,0,L|482:239,1,90.1000001374817,0|0,3:0|3:0,0:0:0:0:
332,257,255123,1,0,0:0:0:0:
429,384,255311,2,0,L|416:294,1,90.1000001374817,2|0,1:2|0:0,0:0:0:0:
259,183,255689,2,0,P|304:160|355:164,1,90.1000001374817,2|0,0:1|0:0,0:0:0:0:
246,336,256066,1,8,0:3:0:0:
106,280,256255,1,8,0:0:0:0:
5,306,256444,6,0,P|19:228|66:192,1,135.150000206223,6|0,3:1|0:0,0:0:0:0:
67,183,256821,2,0,P|37:193|3:247,1,90.1000001374817,2|0,0:1|0:0,0:0:0:0:
169,199,257198,1,2,3:1:0:0:
125,96,257387,1,0,0:0:0:0:
255,25,257576,6,0,P|229:72|240:136,1,90.1000001374817,2|2,1:2|0:0,0:0:0:0:
441,64,257953,2,0,P|413:17|352:-4,1,90.1000001374817,2|0,3:2|0:0,0:0:0:0:
316,152,258330,2,0,P|385:148|431:202,1,135.150000206223,4|0,0:3|0:0,0:0:0:0:
439,215,258708,6,0,P|286:178|52:169,1,382.500014591218,4|2,3:2|0:0,0:0:0:0:
7,233,260028,2,0,L|-6:286,2,31.8750012159348,8|8|8,0:0|0:0|0:0,0:0:0:0:
61,64,260595,1,4,0:3:0:0:
262,144,260972,6,0,P|355:135|396:97,1,127.500004863739,4|0,3:2|0:0,0:0:0:0:
392,234,261538,2,0,P|447:203|510:206,1,127.500004863739,8|0,0:0|3:0,0:0:0:0:
381,343,262104,2,0,P|350:320|298:313,1,63.7500024318696,8|0,0:0|0:0,0:0:0:0:
203,295,262481,5,8,0:0:0:0:
169,314,262607,1,8,0:0:0:0:
130,313,262733,1,8,0:0:0:0:
93,301,262859,2,0,P|75:264|81:190,1,95.6250036478044,4|0,0:3|0:0,0:0:0:0:
85,189,263236,6,0,B|322:131|237:268|470:217,1,382.500014591218,4|2,3:2|0:0,0:0:0:0:
477,233,264745,2,0,P|488:191|466:96,1,127.500004863739,2|0,1:3|0:0,0:0:0:0:
416,45,265311,1,0,0:0:0:0:
500,28,265500,5,0,1:0:0:0:
389,126,265689,1,8,1:2:0:0:
291,14,265878,1,0,0:0:0:0:
416,45,266066,5,8,0:0:0:0:
305,143,266255,1,8,0:3:0:0:
207,31,266444,1,0,3:0:0:0:
66,128,266632,6,0,P|105:112|156:115,1,73.9500006206131,0|8,1:1|0:0,0:0:0:0:
136,110,266915,1,8,0:0:0:0:
136,110,267010,1,2,1:1:0:0:
11,188,267198,1,8,1:2:0:0:
68,40,267387,1,8,3:2:0:0:
101,228,267576,1,2,0:0:0:0:
223,214,267764,6,0,P|221:288|229:382,1,163.200003984375,6|8,1:1|0:0,0:0:0:0:
390,339,268330,2,0,P|392:265|384:171,1,163.200003984375,8|8,0:1|0:1,0:0:0:0:
343,26,268896,2,0,P|373:16|433:11,1,81.6000019921876,8|0,0:0|0:0,0:0:0:0:
282,126,269274,2,0,P|241:122|202:110,1,81.6000019921876,8|0,0:0|0:0,0:0:0:0:
95,35,269651,1,8,3:0:0:0:
95,35,269745,1,0,3:0:0:0:
95,35,269840,1,0,3:0:0:0:
95,35,269934,1,0,3:0:0:0:
95,35,270028,6,0,B|60:45|39:72|39:72|65:115|64:165,1,163.200003984375,8|8,1:2|0:0,0:0:0:0:
0,282,270595,2,0,P|36:265|80:259,1,81.6000019921876,8|0,0:1|0:0,0:0:0:0:
145,324,270972,1,8,0:1:0:0:
244,192,271161,2,0,B|211:127|272:118|247:33,2,163.200003984375,8|8|8,0:0|0:0|3:0,0:0:0:0:
318,252,272104,1,0,0:0:0:0:
421,167,272293,6,0,B|471:151|471:151|529:189|498:254,1,163.200003984375,8|8,1:2|0:0,0:0:0:0:
391,328,272859,2,0,P|333:306|218:291,1,163.200003984375,8|8,0:1|0:1,0:0:0:0:
35,304,273425,2,0,P|39:348|49:404,1,81.6000019921876,8|0,0:0|0:0,0:0:0:0:
233,291,273802,2,0,P|229:335|219:391,1,81.6000019921876,8|0,0:0|0:0,0:0:0:0:
130,243,274180,1,8,3:0:0:0:
130,243,274274,1,0,3:0:0:0:
130,243,274369,1,0,3:0:0:0:
130,243,274463,1,0,3:0:0:0:
130,243,274557,6,0,B|94:241|78:212|78:212|100:163|91:113,1,163.200003984375,8|8,1:2|0:0,0:0:0:0:
22,12,275124,2,0,P|4:52|3:103,1,81.6000019921876,8|0,0:1|0:0,0:0:0:0:
138,20,275501,1,8,0:1:0:0:
234,73,275689,2,0,B|328:72|288:33|395:24,1,163.200003984375,8|8,0:0|0:0,0:0:0:0:
493,79,276255,1,0,0:0:0:0:
413,170,276444,2,0,P|392:161|363:151,3,40.8000009960938,8|0|0|0,3:0|3:0|3:0|3:0,0:0:0:0:
297,167,276821,6,0,B|268:138|225:142|225:142|198:173|155:171,1,156.399994749756,12|8,1:2|0:0,0:0:0:0:
51,112,277387,2,0,B|19:126|-18:141|-18:141|-4:168|12:244,1,156.399994749756,8|8,0:1|0:1,0:0:0:0:
76,297,277953,2,0,P|35:300|-8:319,1,78.199997374878,8|0,0:0|0:0,0:0:0:0:
222,384,278330,2,0,P|185:370|146:367,1,78.199997374878,8|0,0:0|0:0,0:0:0:0:
302,321,278708,1,8,3:3:0:0:
302,321,278802,1,0,3:0:0:0:
302,321,278897,1,0,3:0:0:0:
302,321,278991,1,0,3:0:0:0:
302,321,279085,6,0,B|318:307|324:282|324:282|288:241|301:183,1,147.900001241226,8|8,1:2|0:0,0:0:0:0:
370,90,279652,2,0,P|400:77|448:68,2,73.9500006206131,8|0|8,0:1|0:0|0:1,0:0:0:0:
250,49,280217,2,0,P|197:51|101:10,2,147.900001241226,8|8|8,0:0|0:0|3:0,0:0:0:0:
329,1,281161,1,0,0:0:0:0:
440,68,281349,6,0,P|457:124|441:216,1,137.700003361816,8|8,1:2|0:0,0:0:0:0:
294,145,281915,2,0,P|276:210|286:278,1,137.700003361816,8|8,0:1|0:1,0:0:0:0:
351,373,282482,2,0,P|383:362|417:357,1,68.8500016809083,8|0,0:0|0:0,0:0:0:0:
286,278,282859,2,0,L|239:270,2,34.4250008404541,8|8|8,0:0|0:0|0:0,0:0:0:0:
380,237,283236,2,0,P|403:212|417:180,1,68.8500016809083,8|0,3:0|0:0,0:0:0:0:
361,77,283613,6,0,P|326:48|233:37,1,124.100003408508,8|8,1:2|0:0,0:0:0:0:
162,83,284179,2,0,P|101:90|51:126,1,124.100003408508,8|8,0:1|0:1,0:0:0:0:
6,235,284745,2,0,P|34:223|65:217,1,62.0500017042542,8|0,0:0|0:0,0:0:0:0:
132,316,285123,2,0,P|103:327|72:333,1,62.0500017042542,8|0,0:0|0:0,0:0:0:0:
213,204,285500,5,8,3:0:0:0:
295,255,285689,1,2,0:0:0:0:
299,157,285878,1,4,1:2:0:0:
256,192,285972,12,0,294934,0:0:0:0:
