osu file format v14

[General]
AudioFilename: audio.mp3
AudioLeadIn: 0
PreviewTime: 172198
Countdown: 0
SampleSet: Soft
StackLeniency: 0.7
Mode: 0
LetterboxInBreaks: 0
WidescreenStoryboard: 1

[Editor]
Bookmarks: 20978,57204,75317,91166,100223,117959,118053,118148,118242,118336,154563,172676,188525,197582,217959,227016,233808,242865,258714,267770,285883,286072,286261,286449,286638,286827,287016,287204,287393,287582,287770,287959,288148,288336,288525,288714,288902,289091,289280,289468,289657,289846,290034
DistanceSpacing: 0.5
BeatDivisor: 4
GridSize: 32
TimelineZoom: 0.9

[Metadata]
Title:Star Linker
TitleUnicode:Star Linker
Artist:Shimotsuki Haruka
ArtistUnicode:霜月はるか
Creator:Hishiro Chizuru
Version:A Romantic Night With My true Love~
Source:星織ユメミライ
Tags:amb1d3x lasse japanese pop brasse hoshi ori yume mirai eroge japanese visual novel image song イメージソング musubine ribbon 結び音リボン premium box impurepug
BeatmapID:3593196
BeatmapSetID:1755867

[Difficulty]
HPDrainRate:6
CircleSize:4.3
OverallDifficulty:7
ApproachRate:8
SliderMultiplier:1.4
SliderTickRate:1

[Events]
//Background and Video events
0,0,"deezwhatsir.png",0,0
//Break Periods
2,218153,223241
//Storyboard Layer 0 (Background)
//Storyboard Layer 1 (Fail)
//Storyboard Layer 2 (Pass)
//Storyboard Layer 3 (Foreground)
//Storyboard Layer 4 (Overlay)
//Storyboard Sound Samples

[TimingPoints]
595,377.358490566038,6,2,1,60,1,0
2481,-200,6,2,1,60,0,0
2859,-100,6,2,1,60,0,0
20972,-125,6,2,1,50,0,0
39085,-125,6,2,1,55,0,0
57198,-111.111111111111,6,2,1,60,0,0
75311,-100,6,2,1,70,0,0
91161,-200,6,2,1,70,0,0
91538,-200,6,2,1,50,0,0
95311,-200,6,2,2,50,0,0
95689,-200,6,2,1,60,0,0
96066,-200,6,2,1,50,0,0
97764,-100,6,2,1,60,0,0
98519,-100,6,2,2,60,0,0
98896,-100,6,2,1,60,0,0
99085,-100,6,2,1,70,0,0
99462,-100,6,2,2,70,0,0
99651,-100,6,2,1,65,0,0
99840,-100,6,2,2,65,0,0
100028,-100,6,2,1,65,0,0
117198,-133.333333333333,6,2,1,65,0,0
118330,-133.333333333333,6,2,2,65,0,0
136444,-125,6,2,2,70,0,0
137198,-111.111111111111,6,2,2,70,0,0
171915,-111.111111111111,6,2,1,70,0,0
172670,-90.9090909090909,6,2,2,80,0,0
180783,-90.9090909090909,6,2,1,80,0,0
180972,-90.9090909090909,6,2,2,80,0,0
188519,-166.666666666667,6,2,2,80,0,0
188896,-166.666666666667,6,2,2,50,0,0
189651,-166.666666666667,6,2,1,50,0,0
190028,-166.666666666667,6,2,2,60,0,0
190406,-166.666666666667,6,2,2,50,0,0
190783,-125,6,2,2,60,0,0
191161,-125,6,2,1,60,0,0
191349,-125,6,2,2,65,0,0
191538,-125,6,2,1,50,0,0
191915,-125,6,2,2,60,0,0
193047,-166.666666666667,6,2,2,60,0,0
193425,-166.666666666667,6,2,2,50,0,0
193991,-125,6,2,1,50,0,0
194557,-125,6,2,2,50,0,0
195311,-125,6,2,2,60,0,0
195500,-125,6,2,1,60,0,0
195689,-125,6,2,2,60,0,0
196066,-125,6,2,1,60,0,0
196255,-125,6,2,2,60,0,0
197198,-125,6,2,2,65,0,0
197576,-111.111111111111,6,2,1,65,0,0
199462,-111.111111111111,6,2,2,65,0,0
199651,-111.111111111111,6,2,1,65,0,0
203991,-111.111111111111,6,2,2,65,0,0
204179,-111.111111111111,6,2,1,65,0,0
208519,-111.111111111111,6,2,2,65,0,0
208707,-111.111111111111,6,2,1,65,0,0
213047,-111.111111111111,6,2,2,65,0,0
213235,-111.111111111111,6,2,1,65,0,0
215311,-111.111111111111,6,2,2,65,0,0
215689,-124.984375204931,6,2,2,65,0,0
217953,-124.984375204931,6,2,11,10,0,0
223991,-124.984375204931,6,2,11,30,0,0
224745,-100,6,2,2,60,0,0
225500,-100,6,2,2,70,0,0
225878,-90.9090909090909,6,2,2,60,0,0
226003,-90.9090909090909,6,2,1,60,0,0
226381,-90.9090909090909,6,2,2,70,0,0
232859,-90.9090909090909,6,2,1,70,0,0
233425,-90.9090909090909,6,2,2,70,0,0
233802,-142.857142857143,6,2,2,70,0,0
234179,-142.857142857143,6,2,2,50,0,0
234934,-142.857142857143,6,2,1,50,0,0
235311,-142.857142857143,6,2,1,50,0,0
236066,-111.111111111111,6,2,2,50,0,0
237387,-111.111111111111,6,2,1,50,0,0
237953,-111.111111111111,6,2,2,50,0,0
238330,-166.666666666667,6,2,2,60,0,0
239274,-166.666666666667,6,2,2,70,0,0
239462,-111.111111111111,6,2,2,65,0,0
240406,-111.111111111111,6,2,1,60,0,0
240595,-111.111111111111,6,2,2,60,0,0
241161,-111.111111111111,6,2,2,65,0,0
241727,-111.111111111111,6,2,2,75,0,0
241915,-111.111111111111,6,2,1,60,0,0
242104,-111.111111111111,6,2,2,65,0,0
242293,-111.111111111111,6,2,1,60,0,0
242481,-111.111111111111,6,2,2,70,0,0
242670,-111.111111111111,6,2,1,65,0,0
242859,-83.3333333333333,6,2,2,80,0,0
243613,-90.9090909090909,6,2,2,80,0,0
246821,-90.9090909090909,6,2,1,80,0,0
247010,-90.9090909090909,6,2,2,80,0,0
248896,-90.9090909090909,6,2,1,80,0,0
249274,-90.9090909090909,6,2,2,80,0,0
250028,-90.9090909090909,6,2,1,80,0,0
250217,-90.9090909090909,6,2,2,80,0,0
251664,-90.9090909090909,6,2,1,80,0,0
251915,-90.9090909090909,6,2,2,80,0,0
254368,-90.9090909090909,6,2,1,80,0,0
254934,-90.9090909090909,6,2,2,80,0,0
257764,-90.9090909090909,6,2,1,80,0,0
257953,-90.9090909090909,6,2,2,80,0,0
258708,-500,6,2,2,80,0,0
259085,-500,6,2,2,50,0,0
259840,-125,6,2,1,50,0,0
260123,-125,6,2,1,60,0,0
260595,-125,6,2,2,60,0,0
262356,-125,6,2,1,60,0,0
262481,-125,6,2,2,60,0,0
262607,-125,6,2,1,60,0,0
262859,-125,6,2,2,60,0,0
263236,-166.666666666667,6,2,2,60,0,0
263613,-166.666666666667,6,2,2,50,0,0
264368,-125,6,2,1,50,0,0
264745,-125,6,2,2,50,0,0
265500,-125,6,2,2,60,0,0
266066,-125,6,2,2,70,0,0
266255,-125,6,2,1,60,0,0
266444,-125,6,2,2,60,0,0
267010,-100,6,2,2,60,0,0
267198,-100,6,2,1,65,0,0
267387,-100,6,2,2,70,0,0
267576,-100,6,2,1,65,0,0
277198,-100,6,2,1,55,0,0
281349,-100,6,2,1,45,0,0
283613,-111.111111111111,6,2,1,45,0,0
284179,-111.111111111111,6,2,1,35,0,0
284368,-125,6,2,1,35,0,0
284745,-142.857142857143,6,2,1,30,0,0
294934,-142.857142857143,6,2,1,5,0,0

[Colours]
Combo1 : 228,156,194
Combo2 : 102,186,249
Combo3 : 149,219,232
Combo4 : 193,172,213

[HitObjects]
410,178,2859,6,0,B|406:125|344:88|299:130|299:130,1,140,4|8,1:1|0:0,0:0:0:0:
257,193,3425,2,0,L|271:264,1,70,8|0,0:1|0:0,0:0:0:0:
339,190,3802,1,8,0:1:0:0:
247,336,3991,2,0,B|313:356|320:301|388:323,2,140,8|8|8,0:0|0:0|3:3,0:0:0:0:
247,336,4840,1,0,3:0:0:0:
247,336,4934,1,0,3:0:0:0:
33,251,5123,6,0,B|-5:288|6:359|67:366|67:366,1,140,8|8,1:2|0:0,0:0:0:0:
194,220,5689,2,0,B|232:182|220:111|159:104|159:104,1,140,8|8,0:1|0:1,0:0:0:0:
88,297,6255,2,0,P|123:296|173:298,1,70,8|0,0:0|0:0,0:0:0:0:
263,220,6632,2,0,P|224:219|178:221,1,70,8|0,0:0|0:0,0:0:0:0:
82,155,7010,1,8,3:0:0:0:
82,155,7104,1,0,3:0:0:0:
82,155,7198,1,0,3:0:0:0:
196,91,7387,6,0,B|214:41|174:-18|115:0|115:0,1,140,8|8,1:2|0:0,0:0:0:0:
128,69,7953,1,8,0:1:0:0:
145,140,8142,6,0,B|203:206|279:153|279:153,1,140,8|8,0:0|0:0,0:0:0:0:
351,130,8708,1,0,0:0:0:0:
351,130,8802,1,0,0:0:0:0:
351,130,8896,1,8,0:0:0:0:
482,84,9085,2,0,B|447:70|416:94|416:94,1,70,0|8,0:0|3:0,0:0:0:0:
415,94,9368,1,0,3:0:0:0:
415,94,9462,1,0,3:0:0:0:
272,156,9651,6,0,L|259:5,1,140,8|8,1:2|0:0,0:0:0:0:
195,47,10217,1,8,1:1:0:0:
195,47,10406,1,2,0:0:0:0:
123,22,10595,1,8,0:1:0:0:
123,22,10783,2,0,B|85:32|55:14|55:14,1,70,8|0,0:0|0:0,0:0:0:0:
0,97,11161,2,0,B|38:87|67:104|67:104,1,70,8|0,0:0|0:0,0:0:0:0:
69,186,11538,1,8,3:0:0:0:
69,203,11632,1,0,3:0:0:0:
69,221,11726,1,0,3:0:0:0:
69,238,11821,1,0,3:0:0:0:
69,256,11915,6,0,B|82:204|149:178|186:228|186:228,1,140,14|8,1:2|0:0,0:0:0:0:
256,363,12481,1,8,0:1:0:0:
256,363,12670,2,0,L|263:206,1,140,8|8,0:0|0:0,0:0:0:0:
337,150,13236,2,0,B|325:185|348:218|348:218,1,70,0|8,0:0|0:0,0:0:0:0:
272,290,13613,2,0,B|284:255|261:222|261:222,1,70,0|8,0:0|3:0,0:0:0:0:
262,223,13896,1,0,3:0:0:0:
262,223,13991,1,0,3:0:0:0:
398,271,14179,6,0,B|482:296|521:227|521:227,1,140,10|8,1:2|0:0,0:0:0:0:
434,182,14745,2,0,B|413:96|334:97|334:97,1,140,8|8,0:1|0:1,0:0:0:0:
344,193,15217,1,2,0:0:0:0:
339,196,15311,2,0,B|307:220|307:256|307:256,1,70,8|0,0:0|0:0,0:0:0:0:
398,271,15689,2,0,B|482:295|521:226|521:226,2,140,8|8|12,0:0|0:3|1:2,0:0:0:0:
228,75,16821,5,8,0:0:0:0:
306,34,17010,2,0,B|323:119|251:152|251:152,1,140,8|8,0:1|0:1,0:0:0:0:
156,72,17576,2,0,B|155:31|188:12|188:12,1,70,8|0,0:0|0:0,0:0:0:0:
164,176,17953,2,0,B|101:131|25:137|25:137,2,140,8|8|10,0:0|3:3|1:2,0:0:0:0:
332,54,19085,5,8,0:0:0:0:
368,114,19274,1,8,0:1:0:0:
437,98,19462,1,8,0:0:0:0:
442,26,19651,1,8,0:1:0:0:
377,0,19839,1,2,1:2:0:0:
468,338,20972,5,4,1:2:0:0:
471,341,21538,1,8,0:1:0:0:
407,303,21727,2,0,P|405:270|401:243,1,56
342,340,22104,2,0,B|292:378|235:347|235:347,2,112,8|8|0,0:0|0:0|3:0,0:0:0:0:
252,219,23236,5,8,0:0:0:0:
252,219,23613,1,0,0:0:0:0:
206,160,23802,2,0,P|200:101|203:47,1,112,8|0,0:1|0:0,0:0:0:0:
136,10,24368,2,0,B|121:36|130:66|130:66,1,56,8|0,0:0|0:0,0:0:0:0:
258,109,24745,2,0,B|313:56|275:0|275:0,2,112,8|0|8,0:0|3:0|0:0,0:0:0:0:
67,226,26066,5,8,0:1:0:0:
34,146,26254,2,0,B|62:164|98:153|98:153,1,56
176,230,26632,2,0,B|134:208|89:226|79:266|79:266,1,112,8|8,0:0|0:0,0:0:0:0:
145,292,27198,2,0,B|176:308|200:296|200:296,1,56,0|0,0:0|3:0,0:0:0:0:
226,176,27576,5,8,0:1:0:0:
226,176,27670,1,8,0:1:0:0:
226,176,27764,1,8,0:0:0:0:
184,108,27953,1,0,0:0:0:0:
114,87,28142,1,0,0:0:0:0:
48,122,28330,2,0,B|-4:167|14:232|14:232,1,112,8|0,0:1|0:0,0:0:0:0:
226,176,28896,2,0,B|274:129|256:64|256:64,2,112,8|8|0,0:0|0:0|3:0,0:0:0:0:
258,266,30028,6,0,P|316:264|371:266,1,112,10|0,0:0|0:0,0:0:0:0:
419,321,30595,2,0,P|435:321|462:319,2,28,8|0|0,0:1|0:0|0:0,0:0:0:0:
369,276,30972,1,0,0:0:0:0:
418,229,31161,2,0,B|440:205|436:173|436:173,1,56,8|0,0:0|0:0,0:0:0:0:
495,136,31538,2,0,B|486:58|411:64|411:64,1,112,8|0,0:0|3:0,0:0:0:0:
262,94,32104,1,0,3:0:0:0:
322,136,32293,2,0,P|354:134|383:135,1,56,8|0,0:1|0:0,0:0:0:0:
258,17,32670,6,0,B|180:26|186:101|186:101,2,112,2|0|10,0:0|0:0|0:0,0:0:0:0:
258,17,33802,1,8,0:0:0:0:
249,199,34179,2,0,L|253:172,2,28,0|0|0,3:0|3:0|3:0,0:0:0:0:
265,276,34557,6,0,B|214:291|208:248|156:265,1,112,8|0,0:0|0:0,0:0:0:0:
103,311,35123,1,8,0:1:0:0:
69,374,35311,2,0,B|35:376|22:344|22:344,1,56
0,268,35689,2,0,B|6:229|59:208|89:237|89:237,2,112,8|8|0,0:0|0:0|3:0,0:0:0:0:
249,203,36821,6,0,L|366:225,1,112,8|0,0:0|0:0,0:0:0:0:
426,205,37387,1,8,0:1:0:0:
471,152,37576,1,0,0:0:0:0:
469,82,37764,1,0,0:0:0:0:
418,33,37953,2,0,B|390:23|361:36|361:36,1,56,8|0,0:0|0:0,0:0:0:0:
305,156,38330,2,0,B|376:174|394:109|394:109,1,112,8|0,0:0|3:3,0:0:0:0:
393,109,38802,1,0,3:0:0:0:
393,109,38896,1,0,3:0:0:0:
182,228,39085,6,0,P|95:224|15:228,1,168,4|8,1:2|0:1,0:0:0:0:
76,182,39840,2,0,B|87:149|69:123|69:123,1,56
12,19,40217,2,0,B|1:52|19:78|19:78,1,56,8|0,0:0|0:0,0:0:0:0:
71,127,40595,1,8,0:0:0:0:
136,88,40972,2,0,L|175:92,2,28,8|0|0,3:1|3:0|3:0,0:0:0:0:
240,120,41349,6,0,L|356:102,1,112,8|0,0:0|0:0,0:0:0:0:
320,39,41915,1,8,0:1:0:0:
382,7,42104,2,0,L|441:17,1,56
500,182,42481,2,0,L|441:172,1,56,8|0,0:0|0:0,0:0:0:0:
314,211,42859,2,0,B|313:253|354:285|393:272|393:272,1,112,8|8,0:0|3:1,0:0:0:0:
382,203,43425,1,0,3:0:0:0:
176,186,43613,6,0,L|65:203,1,112,8|0,1:2|0:0,0:0:0:0:
18,261,44179,1,8,0:1:0:0:
69,316,44368,2,0,B|85:339|78:371|78:371|78:370,1,56
137,289,44745,2,0,B|121:266|128:234|128:234|128:235,1,56,8|0,0:0|0:0,0:0:0:0:
18,261,45123,2,0,L|-20:307,1,56,8|0,0:0|0:0,0:0:0:0:
202,252,45500,2,0,L|258:186,1,84,8|0,0:1|0:0,0:0:0:0:
256,187,45878,5,8,0:0:0:0:
315,230,46066,1,0,0:0:0:0:
384,218,46255,1,0,0:0:0:0:
384,218,46444,2,0,B|371:157|380:103|380:103,1,112,8|0,0:1|0:0,0:0:0:0:
307,37,47010,2,0,B|310:64|308:94|308:94,1,56,8|0,0:0|0:0,0:0:0:0:
461,162,47387,2,0,B|458:135|460:105|460:105,1,56,8|8,0:0|0:1,0:0:0:0:
307,37,47764,1,8,3:1:0:0:
459,257,48142,6,0,B|443:300|388:314|355:278|355:278,1,112,8|0,1:2|0:0,0:0:0:0:
301,247,48708,2,0,B|259:227|210:256|212:305|212:305,1,112,8|0,0:1|0:0,0:0:0:0:
459,257,49274,6,0,B|426:250|413:221|413:221,1,56,8|0,0:0|0:0,0:0:0:0:
283,195,49651,2,0,B|306:219|300:250|300:250,1,56,8|0,0:0|0:0,0:0:0:0:
222,300,50028,1,8,3:1:0:0:
222,300,50123,1,0,3:0:0:0:
222,300,50217,1,0,3:0:0:0:
127,354,50406,6,0,L|-8:336,1,112,8|0,0:0|0:0,0:0:0:0:
83,277,50972,1,8,0:1:0:0:
120,218,51161,1,0,0:0:0:0:
118,159,51349,1,0,0:0:0:0:
99,116,51538,2,0,B|87:89|58:75|58:75|59:75,1,56,8|0,0:0|0:0,0:0:0:0:
32,207,51915,2,0,B|44:234|73:248|73:248|72:248,1,56,8|8,0:0|0:1,0:0:0:0:
213,144,52293,2,0,B|183:147|161:170|161:170|161:169,1,56,8|0,3:1|0:0,0:0:0:0:
119,319,52670,6,0,B|176:349|228:318|228:318,1,112,8|0,0:0|0:0,0:0:0:0:
201,239,53236,1,8,0:1:0:0:
287,261,53425,1,0,0:0:0:0:
219,315,53613,1,0,0:0:0:0:
204,227,53802,2,0,P|205:169|201:114,2,112,8|8|8,0:0|0:0|3:1,0:0:0:0:
483,200,54934,6,0,B|426:230|374:199|374:199,1,112,8|0,0:0|0:0,0:0:0:0:
327,125,55500,2,0,P|325:111|326:89,2,28,8|0|0,0:1|0:0|0:0,0:0:0:0:
340,229,55878,1,0,0:0:0:0:
423,172,56066,2,0,B|431:141|417:115|417:115,1,56,8|0,0:0|0:0,0:0:0:0:
270,7,56444,1,8,0:1:0:0:
215,52,56632,1,8,0:1:0:0:
264,109,56821,1,8,3:1:0:0:
484,210,57198,6,0,B|351:238,1,125.999996154785,12|0,1:2|0:0,0:0:0:0:
311,290,57764,2,0,B|266:290|225:247|241:201|241:201,1,125.999996154785,8|0,0:1|0:0,0:0:0:0:
366,188,58330,2,0,B|349:216|314:218|314:218,1,62.9999980773926,8|0,0:0|0:0,0:0:0:0:
173,205,58708,2,0,B|129:205|90:246|105:291|105:291,1,125.999996154785,8|8,0:0|3:3,0:0:0:0:
105,291,59179,1,0,3:0:0:0:
105,291,59274,1,0,3:0:0:0:
44,360,59462,6,0,P|97:368|168:384,1,125.999996154785,8|0,0:0|0:0,0:0:0:0:
279,330,60029,1,8,0:1:0:0:
279,330,60217,2,0,P|251:326|212:315,1,62.9999980773926
119,250,60595,2,0,P|63:241|-6:222,1,125.999996154785,8|8,0:0|0:0,0:0:0:0:
160,186,61161,1,8,0:1:0:0:
232,194,61349,1,8,3:3:0:0:
208,276,61727,6,0,B|203:204|182:234|172:155,1,125.999996154785,8|8,0:1|0:0,0:0:0:0:
145,92,62293,1,8,0:0:0:0:
204,54,62481,2,0,B|211:23|191:-5|191:-5,1,62.9999980773926,8|0,0:1|0:0,0:0:0:0:
81,60,62859,2,0,B|38:77|23:134|65:165|65:165,1,125.999996154785,8|8,0:0|0:0,0:0:0:0:
130,205,63425,1,0,0:0:0:0:
130,205,63613,2,0,B|164:197|193:199|193:199,1,62.9999980773926,8|0,3:3|0:0,0:0:0:0:
306,105,63991,6,0,B|357:160|421:123|421:123,1,125.999996154785,8|0,0:1|0:0,0:0:0:0:
452,59,64557,1,8,0:0:0:0:
390,28,64745,1,0,0:0:0:0:
356,87,64934,2,0,B|360:118|356:150|356:150,1,62.9999980773926,0|8,0:0|0:1,0:0:0:0:
485,296,65500,2,0,B|480:264|485:232|485:232,1,62.9999980773926,8|8,0:0|0:1,0:0:0:0:
427,343,65878,1,8,3:1:0:0:
256,276,66255,6,0,B|211:276|170:318|186:364|186:364,1,125.999996154785,10|0,1:2|0:0,0:0:0:0:
292,340,66821,2,0,B|331:320|350:265|315:231|315:231,1,125.999996154785,8|0,0:1|0:0,0:0:0:0:
256,276,67387,2,0,P|226:270|193:267,1,62.9999980773926,8|0,0:0|0:0,0:0:0:0:
16,156,67764,2,0,P|45:161|78:164,1,62.9999980773926,8|0,0:0|0:0,0:0:0:0:
141,214,68142,1,8,3:1:0:0:
141,214,68236,1,0,3:0:0:0:
141,214,68330,1,0,3:0:0:0:
187,35,68519,6,0,B|151:94|192:160|192:160,1,125.999996154785,8|8,0:0|0:0,0:0:0:0:
85,252,69085,1,8,0:1:0:0:
79,290,69274,1,0,0:0:0:0:
108,340,69462,1,0,0:0:0:0:
174,351,69651,2,0,B|209:342|218:309|218:309,1,62.9999980773926,8|0,0:0|0:0,0:0:0:0:
79,290,70028,2,0,B|44:299|34:331|34:331,1,62.9999980773926,8|0,0:0|0:0,0:0:0:0:
238,235,70406,2,0,L|215:92,1,125.999996154785,8|8,3:1|0:0,0:0:0:0:
256,50,71161,5,0,0:0:0:0:
198,5,71350,2,0,B|172:23|137:17|137:17,1,62.9999980773926,8|0,0:1|0:0,0:0:0:0:
256,50,71727,1,0,0:0:0:0:
313,92,71915,2,0,B|376:56|435:80|435:80,1,125.999996154785,8|8,0:0|0:0,0:0:0:0:
471,17,72481,1,0,0:1:0:0:
512,76,72670,2,0,B|482:136,1,62.9999980773926,8|8,3:1|0:1,0:0:0:0:
271,274,73047,6,0,B|289:244|289:244|282:194|327:165,1,125.999996154785,8|8,0:0|0:0,0:0:0:0:
430,188,73613,1,8,0:0:0:0:
362,228,73802,2,0,L|415:269,1,62.9999980773926,8|8,0:1|0:0,0:0:0:0:
500,198,74179,2,0,B|510:149|467:102|418:118|418:118,1,125.999996154785,8|10,0:1|0:0,0:0:0:0:
175,239,74934,5,0,0:0:0:0:
175,239,75123,1,0,0:0:0:0:
175,313,75311,2,0,B|125:316|80:269|103:215|103:215,1,140,4|2,1:0|0:0,0:0:0:0:
53,155,75878,1,8,0:0:0:0:
161,74,76066,2,0,B|170:30|157:2|157:2,1,70,0|10,0:0|0:0,0:0:0:0:
8,92,76444,2,0,B|-35:117|-44:182|5:213|5:213,1,140,8|8,0:1|0:1,0:0:0:0:
86,225,77010,1,0,0:0:0:0:
130,160,77198,1,10,3:3:0:0:
53,155,77387,1,0,0:0:0:0:
152,298,77576,6,0,B|142:224|130:160|130:160,2,140,10|8|8,1:2|0:0|0:0,0:0:0:0:
211,188,78519,1,10,0:0:0:0:
268,233,78708,2,0,B|299:201|280:163|280:163,1,70,8|0,0:1|0:0,0:0:0:0:
67,240,79085,2,0,B|4:260|1:352|46:369|46:369,1,140,8|8,0:1|3:3,0:0:0:0:
128,187,79651,1,2,0:0:0:0:
101,311,79840,6,0,B|152:365,1,70,8|0,1:2|0:0,0:0:0:0:
368,378,80217,2,0,B|319:327,1,70,8|8,0:3|0:0,0:0:0:0:
512,156,80595,6,0,B|485:195|423:213|381:179|381:179,1,140,2|8,0:0|0:1,0:0:0:0:
323,133,81161,1,0,0:0:0:0:
371,69,81349,2,0,B|380:35|381:-6|381:-6,1,70,8|0,0:1|0:0,0:0:0:0:
242,134,81727,1,8,3:3:0:0:
242,134,81821,1,0,3:0:0:0:
242,134,81915,1,0,3:0:0:0:
186,187,82104,2,0,B|177:221|176:262|176:262,1,70,10|0,1:2|0:0,0:0:0:0:
247,378,82481,6,0,B|305:396|350:334|320:291|320:291,1,140,8|10,0:3|0:0,0:0:0:0:
258,242,83047,1,8,0:0:0:0:
123,315,83236,2,0,B|49:302,1,70,8|0,0:1|0:0,0:0:0:0:
258,242,83613,2,0,B|336:257,1,70,8|8,0:1|0:0,0:0:0:0:
183,144,83991,1,8,3:3:0:0:
59,119,84179,1,10,0:0:0:0:
163,223,84368,6,0,B|166:146|132:172|131:89,1,140,12|8,1:2|0:0,0:0:0:0:
206,29,84934,1,8,0:0:0:0:
206,29,85028,1,8,0:0:0:0:
206,29,85123,1,10,0:3:0:0:
293,123,85311,1,0,0:0:0:0:
459,91,85500,6,0,B|365:91|358:172|358:172,2,140,8|8|10,0:1|0:1|0:0,0:0:0:0:
417,300,86444,1,8,0:0:0:0:
463,243,86632,2,0,B|476:201|443:173|443:173,1,70,10|0,1:2|0:0,0:0:0:0:
390,232,87010,5,8,0:0:0:0:
325,256,87198,1,10,0:3:0:0:
260,280,87387,1,8,0:0:0:0:
195,304,87576,1,0,0:0:0:0:
127,277,87764,5,8,0:1:0:0:
127,277,88142,1,10,0:1:0:0:
219,346,88330,1,0,0:0:0:0:
244,234,88519,2,0,B|239:195|200:186|200:186,1,70,8|8,0:1|0:1,0:0:0:0:
41,309,88896,6,0,B|104:297|181:279|181:279,2,140,8|8|10,1:1|0:0|0:0,0:0:0:0:
40,226,89840,1,0,0:0:0:0:
126,179,90028,2,0,B|171:179|188:140|188:140,1,70,8|0,0:1|0:0,0:0:0:0:
120,106,90406,5,8,0:0:0:0:
241,200,90595,1,8,0:0:0:0:
259,122,90783,1,8,0:3:0:0:
176,241,90972,1,8,0:0:0:0:
185,158,91161,6,0,L|194:77,2,70,12|0|0,1:2|0:0|0:0,0:0:0:0:
39,243,92293,2,0,B|111:263|105:218|176:241,1,140
144,324,93425,2,0,P|209:383|285:258,1,280,2|0,0:0|0:0,0:0:0:0:
221,305,95311,5,8,0:3:0:0:
221,305,95500,1,8,0:3:0:0:
434,243,95689,2,0,B|440:138|460:32|460:32,1,210,4|0,1:2|0:0,0:0:0:0:
341,3,97198,2,0,B|347:45|383:56|383:56,1,70,0|0,0:0|3:0,0:0:0:0:
507,87,97764,6,0,B|486:92|468:91|468:91,1,35,2|0,0:0|0:0,0:0:0:0:
408,129,97953,2,0,B|372:144|339:117|339:117,1,70,8|0,0:3|0:0,0:0:0:0:
271,97,98330,1,0,0:0:0:0:
346,206,98519,6,0,B|429:233|483:180|483:180,1,140,8|0,0:3|1:0,0:0:0:0:
272,182,99085,2,0,L|236:264,1,70,8|0,0:0|0:0,0:0:0:0:
330,347,99462,2,0,B|345:306|326:277|326:277,1,70,8|0,0:3|0:0,0:0:0:0:
136,206,99840,5,4,0:3:0:0:
91,358,100028,1,2,0:0:0:0:
240,325,100217,2,0,B|205:303|161:319|161:319|114:279,1,140,4|8,1:0|0:0,0:0:0:0:
47,239,100783,2,0,B|68:206|56:170|56:170,1,70,8|0,0:1|0:0,0:0:0:0:
0,100,101160,1,8,0:1:0:0:
47,239,101349,2,0,B|75:384,2,140,8|8|8,0:0|0:0|3:3,0:0:0:0:
24,172,102198,1,0,3:0:0:0:
24,172,102292,1,0,3:0:0:0:
134,99,102481,5,8,1:2:0:0:
201,136,102670,1,0,0:0:0:0:
272,120,102859,1,8,0:0:0:0:
332,160,103047,2,0,P|374:167|407:171,1,70,8|0,0:1|0:0,0:0:0:0:
500,46,103425,5,8,0:1:0:0:
441,0,103613,2,0,B|385:-10|342:40|369:92|369:92,1,140,8|8,0:0|0:0,0:0:0:0:
466,132,104179,1,0,3:0:0:0:
466,132,104274,1,0,3:0:0:0:
466,132,104368,1,8,3:0:0:0:
422,286,104557,2,0,B|442:249|412:219|412:219,1,70,0|8,0:0|1:2,0:0:0:0:
311,194,104934,6,0,P|293:199|262:206,2,35,0|0|8,0:0|0:0|0:0,0:0:0:0:
211,307,105311,2,0,B|284:278|348:265|348:265,1,140,8|8,0:1|0:1,0:0:0:0:
317,176,105878,1,8,0:0:0:0:
331,158,106066,1,0,0:0:0:0:
353,149,106255,1,8,0:0:0:0:
433,260,106444,2,0,L|399:344,1,70,0|8,0:0|3:3,0:0:0:0:
374,149,106821,5,0,0:0:0:0:
476,345,107010,2,0,B|415:399|342:360|342:360,1,140,8|8,1:2|0:0,0:0:0:0:
191,274,107576,2,0,P|161:307|218:300,1,140,8|8,0:1|0:1,0:0:0:0:
290,306,108142,2,0,B|294:264|266:239|266:239,1,70,8|0,0:0|0:0,0:0:0:0:
60,221,108519,5,8,0:0:0:0:
142,259,108708,1,0,0:0:0:0:
176,180,108896,1,8,3:0:0:0:
92,142,109085,1,0,3:0:0:0:
39,298,109274,6,0,B|51:265|54:209|54:209,1,70,4|0,1:2|0:0,0:0:0:0:
228,100,109651,2,0,P|195:152|245:213,1,140,2|8,0:0|0:1,0:0:0:0:
308,133,110217,1,0,0:0:0:0:
382,16,110406,2,0,B|370:49|367:105|367:105,1,70,8|0,0:0|0:0,0:0:0:0:
359,199,110783,2,0,B|368:192|420:145|489:164,2,140,2|8|10,0:0|3:0|1:2,0:0:0:0:
410,262,111727,5,0,0:0:0:0:
410,262,111821,1,0,0:0:0:0:
410,262,111915,1,8,0:0:0:0:
343,307,112104,2,0,L|253:285,1,70,8|0,0:1|0:0,0:0:0:0:
403,363,112481,1,8,3:1:0:0:
403,363,112576,1,2,0:0:0:0:
403,363,112670,2,0,L|477:380,1,70,8|0,0:0|0:0,0:0:0:0:
317,273,113047,6,0,B|285:265|285:265|225:292|180:259,1,140,2|8,0:0|3:3,0:0:0:0:
39,244,113613,1,0,3:0:0:0:
235,194,113802,6,0,B|186:117|115:157|115:157,1,140,8|8,1:2|0:0,0:0:0:0:
61,335,114368,2,0,B|84:299|107:280|107:280,1,70,8|0,0:1|0:0,0:0:0:0:
44,175,114745,2,0,B|46:217|39:246|39:246,1,70,8|8,0:1|0:3,0:0:0:0:
196,281,115123,2,0,B|168:248|157:220|157:220,1,70
39,333,115500,2,0,B|80:343|105:359|105:359,1,70,8|0,0:1|0:0,0:0:0:0:
108,275,115878,5,8,0:0:0:0:
250,355,116066,2,0,B|314:292|260:219|260:219,1,140,8|8,1:1|0:1,0:0:0:0:
251,79,116632,1,8,0:1:0:0:
233,153,116821,1,8,0:3:0:0:
264,226,117010,1,8,0:0:0:0:
332,270,117198,6,0,B|424:303|483:233|483:233,1,157.500006008148,4|0,1:2|0:0,0:0:0:0:
480,158,117953,1,4,0:3:0:0:
480,158,118142,1,4,0:3:0:0:
191,343,118330,6,0,B|90:318|-18:297|-18:297,1,210.000008010865,4|2,3:1|0:0,0:0:0:0:
84,70,119462,2,0,B|143:85|185:54|185:54,2,105.000004005432,2|2|2,1:2|0:0|0:0,0:0:0:0:
0,124,120595,6,0,B|-8:88|12:68|12:68,1,52.5000020027161,2|0,3:2|0:0,0:0:0:0:
149,126,120972,2,0,B|162:190|107:220|107:220,1,105.000004005432,2|2,0:0|0:0,0:0:0:0:
149,126,121727,1,10,0:0:0:0:
218,146,121915,1,0,0:0:0:0:
284,114,122104,2,0,B|322:47|270:3|270:3,1,105.000004005432,2|2,0:0|0:3,0:0:0:0:
284,114,122670,6,0,L|297:188,1,52.5000020027161,0|2,0:0|3:2,0:0:0:0:
72,365,123236,1,2,0:0:0:0:
18,312,123425,2,0,L|6:246,1,52.5000020027161,0|2,0:0|0:0,0:0:0:0:
106,233,123802,1,0,0:0:0:0:
159,178,123991,6,0,B|133:229|171:280|171:280,1,105.000004005432,0|2,1:0|0:0,0:0:0:0:
305,308,124745,1,2,3:2:0:0:
245,261,125123,5,2,3:2:0:0:
296,377,125311,1,0,0:0:0:0:
371,273,125500,1,2,0:0:0:0:
245,261,125689,2,0,B|264:318|324:323|324:323,1,105.000004005432
384,219,126255,6,0,B|354:229|328:233|328:233,1,52.5000020027161,10|0,0:0|0:0,0:0:0:0:
148,362,126632,2,0,B|178:352|204:348|204:348,1,52.5000020027161,2|0,0:3|0:0,0:0:0:0:
461,253,127010,2,0,B|467:192|488:215|494:153,1,105.000004005432,2|2,0:0|3:2,0:0:0:0:
295,8,127764,1,2,0:0:0:0:
338,68,127953,6,0,B|363:91|397:76|397:76,1,52.5000020027161,0|2,0:0|0:0,0:0:0:0:
493,154,128330,1,0,0:0:0:0:
394,84,128519,2,0,B|332:77|302:130|302:130,1,105.000004005432,2|2,1:2|0:0,0:0:0:0:
144,217,129274,5,2,3:2:0:0:
144,217,129462,1,0,0:0:0:0:
182,155,129651,2,0,B|197:124|218:90|218:90,1,52.5000020027161,2|0,0:0|0:0,0:0:0:0:
175,278,130028,2,0,B|194:305|213:341|213:341,1,52.5000020027161,2|0,0:0|0:0,0:0:0:0:
71,217,130406,2,0,B|37:220|-4:218|-4:218,1,52.5000020027161,2|0,3:2|0:0,0:0:0:0:
144,217,130783,1,10,0:0:0:0:
5,319,131161,2,0,B|67:310|105:348|105:348,1,105.000004005432,2|2,0:0|0:3,0:3:0:0:
346,291,131915,6,0,B|366:235|422:224|422:224,1,105.000004005432,2|2,3:2|0:0,0:0:0:0:
433,310,132481,1,0,0:0:0:0:
433,310,132670,2,0,B|426:338|425:363|425:363,1,52.5000020027161,2|0,0:0|0:0,0:0:0:0:
262,320,133047,2,0,B|256:257|247:217|247:217,2,105.000004005432,2|2|2,1:2|0:0|3:2,0:0:0:0:
472,151,134179,6,0,B|497:91|455:54|455:54,1,105.000004005432,2|2,0:0|0:0,0:0:0:0:
338,19,134745,1,0,0:0:0:0:
286,67,134934,2,0,B|291:101|315:114|315:114,1,52.5000020027161,2|0,3:3|0:0,0:0:0:0:
396,115,135311,5,0,1:0:0:0:
223,163,135500,1,8,0:3:0:0:
344,183,135689,5,8,0:1:0:0:
286,67,135878,1,4,0:3:0:0:
214,176,136066,5,4,0:3:0:0:
288,285,136255,1,0,0:0:0:0:
410,280,136444,2,0,B|513:255|510:152|510:152,1,168,4|0,3:1|0:0,0:0:0:0:
336,169,137198,6,0,B|343:199|345:233|345:233,1,62.9999980773926,2|0,0:3|0:0,0:0:0:0:
296,347,137576,2,0,B|289:317|287:283|287:283,1,62.9999980773926,2|0,1:2|0:0,0:0:0:0:
183,170,137953,2,0,B|236:224|201:290|201:290,1,125.999996154785,2|2,0:0|0:0,0:0:0:0:
78,300,138519,2,0,B|78:256|121:247|121:247,1,62.9999980773926,0|2,0:0|3:2,0:0:0:0:
148,342,138896,1,0,0:0:0:0:
148,342,139085,2,0,B|127:382|71:397|34:369|34:369,1,125.999996154785,2|2,0:0|0:0,0:0:0:0:
237,146,139840,6,0,B|193:146|184:189|184:189,1,62.9999980773926,10|0,0:0|0:0,0:0:0:0:
182,250,140217,2,0,B|203:290|259:305|296:277|296:277,1,125.999996154785,2|2,0:0|0:3,0:0:0:0:
462,176,140972,6,0,B|408:114|447:48|447:48,1,125.999996154785,2|2,3:2|0:0,0:0:0:0:
375,29,141538,1,0,0:0:0:0:
308,11,141727,2,0,B|272:22|246:0|246:0,1,62.9999980773926,2|0,0:0|0:0,0:0:0:0:
443,59,142104,2,0,B|478:47|505:70|505:70,1,62.9999980773926,2|0,1:2|0:0,0:0:0:0:
303,191,142481,6,0,B|245:198|178:202|178:202,2,125.999996154785,2|2|2,0:0|0:2|3:2,0:0:0:0:
359,239,143425,1,0,0:0:0:0:
406,185,143613,1,2,0:0:0:0:
360,75,143802,2,0,B|356:105|349:136|349:136,1,62.9999980773926,0|2,0:0|0:0,0:0:0:0:
304,329,144179,1,0,3:0:0:0:
304,329,144368,1,10,0:0:0:0:
304,329,144745,5,10,0:0:0:0:
425,365,144934,1,8,0:0:0:0:
434,251,145123,5,2,3:3:0:0:
363,276,145311,1,0,0:0:0:0:
205,354,145500,6,0,B|164:376|108:349|115:296|115:296,1,125.999996154785,4|2,3:1|0:0,0:0:0:0:
263,307,146066,2,0,B|289:334|275:370|275:370,1,62.9999980773926,0|2,0:0|0:0,0:0:0:0:
36,296,146444,1,0,0:0:0:0:
173,208,146632,6,0,B|180:150|197:171|200:115,1,94.499997116089,2|0,1:2|0:0,0:0:0:0:
236,57,147010,2,0,B|234:96|266:111|266:111,1,62.9999980773926,2|0,0:0|0:0,0:0:0:0:
101,223,147387,1,2,3:2:0:0:
101,223,147576,1,0,0:0:0:0:
186,285,147764,2,0,B|217:286|252:291|252:291,1,62.9999980773926,2|0,3:2|0:0,0:0:0:0:
256,188,148142,2,0,B|223:187|192:182|192:182,1,62.9999980773926,2|0,0:0|0:0,0:0:0:0:
318,365,148519,2,0,B|396:369|409:295|409:295,2,125.999996154785,2|10|2,3:2|0:0|0:0,0:0:0:0:
65,268,149651,2,0,B|35:290|41:326|41:325|41:325,1,62.9999980773926,2|0,0:3|0:0,0:0:0:0:
116,318,150028,6,0,B|152:286|147:227|103:208|103:208,1,125.999996154785,2|2,3:2|0:0,0:0:0:0:
203,96,150595,1,0,0:0:0:0:
130,102,150783,2,0,B|130:142|163:159|163:159,1,62.9999980773926,2|0,0:0|0:0,0:0:0:0:
333,153,151161,2,0,B|395:138|459:131|459:131,2,125.999996154785,2|2|2,1:2|0:0|3:2,0:0:0:0:
125,35,152293,6,0,B|82:54|70:115|106:144|106:144,1,125.999996154785,2|2,3:2|0:0,0:0:0:0:
226,183,152859,1,8,0:0:0:0:
185,99,153047,1,2,0:0:0:0:
154,195,153236,1,0,3:0:0:0:
305,176,153425,2,0,B|305:139|269:124|269:124,1,62.9999980773926,2|0,1:2|3:0,0:0:0:0:
2,233,153802,5,2,1:2:0:0:
155,279,153991,1,0,3:0:0:0:
136,196,154179,2,0,B|130:224|118:258|118:258,1,62.9999980773926,8|0,0:3|0:0,0:0:0:0:
231,369,154557,6,0,B|218:318|239:262|305:253|305:253,1,125.999996154785,4|2,3:2|0:0,0:0:0:0:
384,292,155123,2,0,B|418:307|422:341|422:341,1,62.9999980773926,0|2,1:0|0:0,0:0:0:0:
331,367,155500,1,0,0:0:0:0:
384,292,155689,2,0,B|389:255|391:228|391:228|391:229,1,62.9999980773926,2|0,3:2|0:0,0:0:0:0:
493,121,156066,2,0,B|496:153|478:177|453:178|453:178|445:149|465:135,1,125.999996154785,8|0,0:3|3:0,0:0:0:0:
309,254,156821,6,0,B|285:256|267:242|266:224|266:224|288:218|298:233,1,94.499997116089,2|0,0:3|0:0,0:0:0:0:
242,215,157198,2,0,B|262:187|251:142|251:142,1,62.9999980773926,2|0,0:0|1:0,0:0:0:0:
362,35,157576,2,0,B|342:63|353:108|353:108,1,62.9999980773926,2|8,0:0|0:3,0:0:0:0:
460,192,157953,2,0,B|402:208|396:160|338:179,1,125.999996154785,4|10,0:3|0:0,0:0:0:0:
276,221,158519,1,8,0:0:0:0:
189,154,158708,2,0,B|196:184|197:220|197:220,1,62.9999980773926,2|0,0:0|0:0,0:0:0:0:
83,337,159085,6,0,B|31:345|-10:298|9:254|9:254,1,125.999996154785,2|2,3:2|0:0,0:0:0:0:
144,294,159651,2,0,B|167:321|151:368|151:368|157:355,1,62.9999980773926,0|2,1:0|0:0,0:0:0:0:
7,260,160028,1,0,3:0:0:0:
47,198,160217,2,0,B|59:132|61:72|61:72,2,125.999996154785,4|0|2,0:3|3:2|0:0,0:0:0:0:
47,198,161349,6,0,B|39:250|86:291|130:272|130:272,1,125.999996154785,2|2,3:3|0:0,0:0:0:0:
280,197,161915,1,0,1:0:0:0:
210,176,162104,2,0,B|184:203|194:237|194:237,1,62.9999980773926,2|8,0:0|0:3,0:0:0:0:
50,118,162481,2,0,B|46:82|39:54|39:54,1,62.9999980773926,2|0,0:0|0:0,0:0:0:0:
158,3,162859,1,8,0:3:0:0:
117,63,163047,1,0,0:0:0:0:
163,124,163236,1,10,0:0:0:0:
127,190,163425,1,8,0:0:0:0:
311,264,163613,6,0,B|357:212|429:230|429:230,1,125.999996154785,4|2,3:2|0:0,0:0:0:0:
474,288,164179,2,0,B|485:339|425:378|385:342|385:342,1,125.999996154785,0|8,1:0|0:3,0:0:0:0:
387,210,164745,2,0,B|389:241|401:271|401:271,1,62.9999980773926,2|0,0:0|0:0,0:0:0:0:
278,371,165123,2,0,P|278:337|283:374,1,125.999996154785,8|2,0:3|0:0,0:0:0:0:
278,371,165689,1,0,0:0:0:0:
68,343,165878,6,0,B|15:282|57:223|57:223,1,125.999996154785,2|2,3:3|0:0,0:0:0:0:
123,139,166444,2,0,B|100:216|163:252|163:252,1,125.999996154785,0|8,1:0|0:3,0:0:0:0:
327,249,167010,2,0,B|356:239|389:235|389:235,1,62.9999980773926,2|0,0:0|0:0,0:0:0:0:
267,159,167387,2,0,B|228:153|205:176|205:176,1,62.9999980773926,4|0,0:3|0:0,0:0:0:0:
222,324,167764,1,8,0:0:0:0:
327,249,167953,1,8,0:0:0:0:
249,251,168142,6,0,B|191:243|123:229|123:229,1,125.999996154785,2|0,3:2|0:0,0:0:0:0:
383,135,168708,2,0,B|400:163|389:196|389:196,1,62.9999980773926,0|2,1:0|0:0,0:0:0:0:
249,251,169085,1,4,0:3:0:0:
249,251,169274,2,0,B|227:205|268:158|314:170,1,125.999996154785,2|2,0:0|0:0,0:0:0:0:
497,79,170028,2,0,B|464:76|432:71|432:71,1,62.9999980773926
235,22,170406,6,0,B|189:71|117:51|117:51,1,125.999996154785,2|2,3:2|0:0,0:0:0:0:
49,14,170972,1,0,1:0:0:0:
208,120,171161,2,0,B|216:147|217:182|217:182|217:179,1,62.9999980773926,2|0,0:0|3:0,0:0:0:0:
396,92,171538,1,0,1:0:0:0:
396,92,171915,2,0,B|442:141|514:121|514:121,1,125.999996154785,2|0,0:2|0:0,0:0:0:0:
372,192,172481,1,0,0:0:0:0:
506,278,172670,6,0,B|461:274|428:303|428:303,1,77.0000023498536,6|0,3:1|0:0,0:0:0:0:
226,246,173047,2,0,B|216:206|200:168|200:168,1,77.0000023498536,2|0,0:1|0:0,0:0:0:0:
319,291,173425,2,0,B|329:331|345:369|345:369,1,77.0000023498536,2|0,0:1|0:0,0:0:0:0:
123,227,173802,2,0,B|97:278|26:290|-10:250|-10:250,1,154.000004699707,2|2,1:1|0:1,0:0:0:0:
99,74,174368,1,0,0:0:0:0:
236,131,174557,2,0,B|265:169|316:151|316:151,1,77.0000023498536,2|0,3:1|0:0,0:0:0:0:
153,68,174934,6,0,B|130:105|153:146|153:146,1,77.0000023498536,2|0,3:1|0:0,0:0:0:0:
354,79,175311,2,0,B|377:42|354:1|354:1,1,77.0000023498536,2|0,0:1|0:0,0:0:0:0:
78,54,175689,1,2,0:1:0:0:
254,149,175878,1,0,0:0:0:0:
444,63,176066,6,0,B|374:47|288:40|288:40,1,154.000004699707,0|2,1:0|0:1,0:0:0:0:
220,222,176632,1,0,0:0:0:0:
76,209,176821,2,0,B|109:199|152:192|152:192,1,77.0000023498536,2|0,3:1|0:0,0:0:0:0:
412,263,177198,6,0,P|454:311|412:378,1,154.000004699707,2|2,3:1|0:1,0:0:0:0:
289,267,177764,1,0,0:0:0:0:
412,185,177953,2,0,B|362:181|343:225|343:225,1,77.0000023498536,2|0,0:1|0:0,0:0:0:0:
282,340,178330,2,0,B|310:299|284:259|284:259,1,77.0000023498536,2|0,1:0|0:0,0:0:0:0:
215,147,178708,2,0,B|233:190|280:190|280:190,1,77.0000023498536,2|0,0:1|0:0,0:0:0:0:
471,312,179085,6,0,L|398:251,1,77.0000023498536,2|0,3:1|0:0,0:0:0:0:
145,331,179462,2,0,L|228:288,1,77.0000023498536,2|0,3:1|0:0,0:0:0:0:
295,31,179840,1,2,0:1:0:0:
331,90,180028,1,0,3:0:0:0:
295,31,180217,2,0,L|286:124,1,77.0000023498536,2|0,3:1|0:0,0:0:0:0:
128,250,180595,6,0,B|84:264|48:239|48:239,1,77.0000023498536,2|0,1:1|3:2,0:0:0:0:
0,198,180878,1,0,3:0:0:0:
0,198,180972,1,0,1:0:0:0:
130,105,181161,1,8,0:3:0:0:
209,259,181349,1,4,0:3:0:0:
184,346,181538,5,0,3:0:0:0:
290,190,181727,2,0,B|277:242|320:304|389:274|389:274,1,154.000004699707,4|2,3:2|0:1,0:0:0:0:
290,79,182293,2,0,B|242:87|238:134|238:134,1,77.0000023498536,0|2,0:0|3:1,0:0:0:0:
263,265,182670,1,0,0:0:0:0:
512,181,182859,2,0,B|434:201|355:206|355:206,1,154.000004699707,2|0,1:1|0:0,0:0:0:0:
155,136,183425,1,0,0:0:0:0:
150,131,183613,2,0,B|113:121|72:117|72:117,1,77.0000023498536,2|0,3:1|0:0,0:0:0:0:
260,26,183991,6,0,B|277:97|244:72|259:146,1,115.50000352478,2|0,3:1|0:0,0:0:0:0:
186,215,184368,2,0,B|141:220|129:260|129:260,1,77.0000023498536,2|0,0:1|3:0,0:0:0:0:
377,190,184745,2,0,B|379:144|341:126|341:126,1,77.0000023498536,2|0,3:2|0:0,0:0:0:0:
204,295,185123,2,0,B|247:336|321:323|339:263|339:263,1,154.000004699707,2|2,1:0|0:1,0:0:0:0:
512,383,185689,5,0,3:0:0:0:
485,213,185878,2,0,L|445:299,1,77.0000023498536,8|0,0:3|3:0,0:0:0:0:
226,301,186255,2,0,L|258:231,1,77.0000023498536,4|0,3:1|0:0,0:0:0:0:
78,74,186632,2,0,P|57:98|92:78,1,115.50000352478,2|0,0:1|0:0,0:0:0:0:
234,144,187010,2,0,B|223:99|185:87|185:87,1,77.0000023498536,2|0,3:1|0:0,0:0:0:0:
0,29,187387,2,0,P|-28:96|16:176,1,154.000004699707,2|2,1:0|0:1,0:0:0:0:
186,87,187953,5,0,0:0:0:0:
66,214,188142,1,2,3:1:0:0:
232,266,188330,1,0,0:0:0:0:
338,141,188519,6,0,B|341:93|349:51|349:51,2,83.9999974365235,4|0|0,3:2|0:0|0:0,0:0:0:0:
338,141,189651,1,2,0:0:0:0:
488,265,190028,5,8,0:3:0:0:
459,178,190406,1,0,3:0:0:0:
275,255,190783,6,0,B|236:313|274:359|274:359,1,112,0|8,1:0|0:0,0:0:0:0:
336,307,191349,2,0,B|365:302|389:292|389:292,1,56,2|8,0:3|0:3,0:0:0:0:
223,194,191915,1,8,0:3:0:0:
469,315,192293,2,0,B|490:306|503:296|503:296,3,37.3333333333333,4|0|0|4,0:3|3:0|3:0|0:3,0:0:0:0:
163,342,193047,6,0,B|92:362|74:305|-2:327,1,167.999994873047,4|0,3:2|0:0,0:0:0:0:
65,299,193991,1,0,0:0:0:0:
110,245,194179,2,0,B|122:212|109:182|109:182,1,56,2|0,0:0|0:0,0:0:0:0:
274,178,194557,2,0,B|232:165|195:193|195:235|195:235,1,112,0|0,1:0|3:0,0:0:0:0:
73,129,195123,5,0,0:0:0:0:
134,38,195311,2,0,B|137:66|142:98|142:98,1,56,8|8,0:0|0:0,0:0:0:0:
142,98,195595,1,8,0:3:0:0:
143,103,195689,1,8,0:3:0:0:
220,11,195878,5,0,0:0:0:0:
213,186,196066,2,0,B|216:158|221:125|221:125,1,56,2|4,0:0|0:3,0:0:0:0:
403,67,196444,6,0,B|344:55|297:96|297:96,1,112,0|0,1:0|1:0,0:0:0:0:
440,179,197010,1,0,0:0:0:0:
511,91,197198,1,8,0:3:0:0:
395,59,197387,1,0,0:0:0:0:
437,189,197576,6,0,B|462:210|498:210|498:210|528:195|541:169,2,125.999996154785,4|8|8,1:0|0:3|0:1,0:0:0:0:
434,197,198708,1,2,1:2:0:0:
359,183,199085,1,8,0:0:0:0:
324,253,199274,1,8,0:1:0:0:
379,308,199462,2,0,B|397:346|426:348|426:348,1,62.9999980773926,2|0,0:3|0:0,0:0:0:0:
448,272,199840,1,0,1:0:0:0:
235,163,200217,5,8,0:3:0:0:
324,253,200406,1,2,0:0:0:0:
305,129,200594,1,8,0:1:0:0:
247,240,200783,1,2,0:0:0:0:
359,183,200972,2,0,B|417:164|482:158|482:158,1,125.999996154785,0|8,1:0|0:0,0:0:0:0:
251,243,201538,1,8,0:3:0:0:
251,243,201727,1,8,3:3:0:0:
305,129,202104,5,0,1:0:0:0:
265,364,202481,1,8,0:3:0:0:
235,163,202859,5,8,0:1:0:0:
335,330,203236,1,0,1:0:0:0:
335,330,203425,1,8,0:0:0:0:
254,246,203613,5,8,0:0:0:0:
324,253,203802,1,8,0:1:0:0:
254,246,203991,5,2,0:3:0:0:
335,330,204179,1,2,0:0:0:0:
254,246,204368,5,0,1:0:0:0:
265,364,204557,1,2,0:0:0:0:
254,246,204745,6,0,B|252:212|243:184|243:184,1,62.9999980773926,8|0,0:3|0:0,0:0:0:0:
210,309,205123,2,0,B|153:358|82:318|82:318,1,125.999996154785,8|2,0:1|1:2,0:0:0:0:
359,183,205878,5,8,0:0:0:0:
305,129,206067,1,8,0:3:0:0:
235,163,206255,1,8,3:0:0:0:
247,240,206444,1,0,0:0:0:0:
430,149,206632,5,2,1:2:0:0:
418,73,206821,1,8,0:0:0:0:
341,59,207009,1,8,0:3:0:0:
305,129,207198,1,0,0:0:0:0:
359,183,207387,1,8,0:1:0:0:
430,149,207576,1,2,0:0:0:0:
418,73,207764,2,0,B|408:35|408:7|408:7,1,62.9999980773926,0|0,1:0|3:0,0:0:0:0:
309,132,208047,1,0,3:0:0:0:
309,132,208142,1,8,3:2:0:0:
216,39,208330,5,10,0:3:0:0:
180,109,208519,1,2,0:3:0:0:
235,163,208707,1,0,0:0:0:0:
305,129,208896,1,0,1:0:0:0:
110,146,209274,5,8,0:3:0:0:
198,235,209462,1,2,0:0:0:0:
180,109,209651,1,8,0:1:0:0:
122,223,209840,1,0,0:0:0:0:
235,163,210029,5,2,1:2:0:0:
122,223,210217,1,0,0:0:0:0:
180,109,210406,2,0,B|206:82|240:85|240:85,1,62.9999980773926,8|8,0:1|0:1,0:0:0:0:
202,239,210783,2,0,B|196:276|167:293|167:293,1,62.9999980773926,8|2,3:3|0:0,0:0:0:0:
180,109,211161,5,0,1:0:0:0:
202,239,211349,1,2,0:0:0:0:
110,146,211538,1,8,0:3:0:0:
235,163,211727,5,2,0:0:0:0:
122,223,211915,1,8,0:1:0:0:
53,91,212104,1,0,0:0:0:0:
110,146,212293,5,2,1:2:0:0:
167,33,212481,1,10,0:0:0:0:
53,91,212670,1,8,0:3:0:0:
180,109,212859,1,8,0:1:0:0:
89,22,213048,1,2,0:3:0:0:
110,146,213236,1,2,0:0:0:0:
167,33,213425,5,0,1:0:0:0:
180,109,213613,1,2,0:0:0:0:
254,122,213802,1,8,0:3:0:0:
291,53,213991,1,2,0:0:0:0:
239,1,214180,1,8,0:1:0:0:
167,33,214368,1,2,0:0:0:0:
254,122,214557,6,0,B|286:124|318:130|318:130,1,62.9999980773926,2|8,1:2|0:0,0:0:0:0:
140,224,214934,2,0,B|108:222|76:216|76:216,1,62.9999980773926,8|8,0:3|3:1,0:0:0:0:
54,212,215217,1,0,3:0:0:0:
54,212,215311,1,8,0:3:0:0:
145,312,215500,1,4,0:3:0:0:
268,246,215689,2,0,B|316:219|384:238|404:298|404:298|373:354|373:354|432:334|432:334|470:386|470:386|470:322|470:322|530:302|530:302|471:276|471:276|460:212|460:212|425:269|425:269,1,672.084010501313,4|2,3:2|0:0,0:0:0:0:
471,275,223991,6,0,B|392:284|304:309|304:309,1,168.021002625328,4|0,0:3|0:0,0:0:0:0:
241,258,224745,5,4,3:1:0:0:
168,305,224934,1,0,0:0:0:0:
106,246,225123,1,0,1:0:0:0:
349,147,225311,5,4,3:2:0:0:
425,187,225500,1,0,0:0:0:0:
482,123,225689,1,0,1:0:0:0:
450,51,225878,6,0,L|455:0,2,51.3333348999024,4|8|8,3:1|0:0|0:1,0:0:0:0:
345,141,226255,2,0,L|339:192,2,51.3333348999024,8|8|8,0:3|0:0|0:3,0:0:0:0:
254,12,226632,5,4,0:3:0:0:
183,31,226758,5,4,0:3:0:0:
158,79,226884,5,0,3:0:0:0:
158,118,227010,6,0,B|174:163|210:174|210:174,1,77.0000023498536,4|0,3:1|0:0,0:0:0:0:
305,361,227387,2,0,B|289:316|253:305|253:305,1,77.0000023498536
240,91,227764,5,2,0:1:0:0:
117,294,227953,1,0,0:0:0:0:
229,374,228142,2,0,B|243:294|262:222|262:222,1,154.000004699707,2|0,1:1|0:0,0:0:0:0:
478,75,228708,1,0,0:0:0:0:
477,67,228896,2,0,B|452:106|410:102|410:102,1,77.0000023498536,2|0,3:1|0:0,0:0:0:0:
206,178,229274,6,0,B|245:131|321:135|334:204|334:204,1,154.000004699707,2|2,3:1|0:1,0:0:0:0:
504,321,229840,1,0,3:0:0:0:
320,285,230028,1,2,3:1:0:0:
481,193,230217,1,0,0:0:0:0:
405,363,230406,2,0,B|421:321|398:289|398:289,1,77.0000023498536,0|0,1:0|0:0,0:0:0:0:
132,216,230783,6,0,B|52:223|60:296|60:296,1,115.50000352478,2|0,0:1|0:0,0:0:0:0:
262,365,231161,6,0,P|270:343|249:364,1,77.0000023498536,4|0,0:3|0:0,0:0:0:0:
277,111,231538,6,0,B|272:39|253:68|244:-1,1,115.50000352478,4|0,3:2|0:0,0:0:0:0:
231,172,231915,2,0,B|243:208|246:248|246:248,1,77.0000023498536,2|0,0:1|0:0,0:0:0:0:
257,349,232293,1,2,3:1:0:0:
155,224,232481,1,0,0:0:0:0:
301,93,232670,2,0,B|304:132|316:169|316:169,1,77.0000023498536,2|0,1:1|3:0,0:0:0:0:
343,254,232953,5,0,3:0:0:0:
343,254,233047,1,2,0:0:0:0:
169,130,233236,1,2,0:0:0:0:
229,219,233425,5,2,0:1:0:0:
283,165,233613,1,0,0:0:0:0:
245,290,233802,6,0,B|254:192|269:96|269:96,1,195.999994018555,4|0,3:2|0:0,0:0:0:0:
292,21,234745,2,0,L|286:-12,2,24.4999992523194,0|0|2,0:0|0:0|0:0,0:0:0:0:
282,97,235123,1,0,0:0:0:0:
329,151,235311,1,8,0:0:0:0:
400,163,235500,1,8,0:3:0:0:
457,123,235689,2,0,B|479:98|478:74|478:74,1,48.9999985046387,8|0,0:1|0:0,0:0:0:0:
377,73,236066,6,0,B|307:111|331:186|331:186,1,125.999996154785,0|8,3:0|0:3,0:0:0:0:
477,307,236632,2,0,B|479:227|402:210|402:210,1,125.999996154785,4|0,0:3|3:0,0:0:0:0:
249,316,237198,2,0,B|278:342|320:328|320:328,1,62.9999980773926,4|8,0:3|0:0,0:0:0:0:
321,328,237481,1,8,0:0:0:0:
333,325,237576,2,0,B|338:288|346:263|346:263,1,62.9999980773926,8|0,0:3|0:0,0:0:0:0:
92,352,237953,1,12,0:3:0:0:
172,365,238330,6,0,B|163:296|145:241|145:241,1,125.999996154785,4|0,3:2|0:0,0:0:0:0:
119,170,239085,1,0,0:0:0:0:
119,170,239274,1,2,0:3:0:0:
44,22,239462,6,0,B|-5:29|-30:85|1:124|1:124,1,125.999996154785,0|4,1:0|0:3,0:0:0:0:
66,90,240028,1,0,0:0:0:0:
118,35,240217,2,0,P|154:30|185:23,1,62.9999980773926,8|0,0:3|3:0,0:0:0:0:
188,22,240500,1,0,3:0:0:0:
195,19,240595,5,8,0:0:0:0:
118,140,240783,1,0,0:0:0:0:
249,210,240972,1,0,3:0:0:0:
312,84,241161,2,0,B|343:102|377:99|377:99,1,62.9999980773926,8|0,0:3|0:0,0:0:0:0:
253,218,241538,5,0,3:0:0:0:
195,161,241727,2,0,B|159:164|133:185|133:185,1,62.9999980773926,8|8,0:0|0:0,0:0:0:0:
47,292,242104,5,0,3:0:0:0:
248,356,242293,1,8,0:0:0:0:
195,161,242481,1,0,1:0:0:0:
168,271,242670,1,8,0:3:0:0:
457,319,242859,6,0,B|523:227|445:156|445:156,1,167.999994873047,4|2,3:1|0:2,0:0:0:0:
347,15,243425,1,0,0:0:0:0:
346,189,243613,1,2,0:3:0:0:
441,41,243802,1,0,0:0:0:0:
282,100,243991,1,2,1:2:0:0:
285,104,244368,5,2,0:0:0:0:
148,33,244557,1,0,0:0:0:0:
36,145,244745,2,0,B|44:178|57:219|57:219,1,77.0000023498536,2|0,3:2|0:0,0:0:0:0:
244,311,245123,2,0,B|230:277|222:236|222:236,1,77.0000023498536,0|0,3:1|0:0,0:0:0:0:
230,160,245500,5,2,0:0:0:0:
298,132,245689,1,0,0:0:0:0:
292,207,245878,1,2,3:2:0:0:
222,237,246066,1,0,0:0:0:0:
57,219,246255,2,0,B|32:256|44:296|44:296,1,77.0000023498536,2|0,1:2|0:0,0:0:0:0:
279,281,246632,2,0,B|303:243|291:203|291:203,1,77.0000023498536,4|0,0:3|3:0,0:0:0:0:
234,163,246915,5,0,3:0:0:0:
234,163,247010,1,8,0:0:0:0:
372,102,247198,1,0,1:0:0:0:
510,205,247387,2,0,B|431:191|352:175|352:175,1,154.000004699707,4|2,3:1|0:0,0:0:0:0:
174,115,247953,1,0,0:0:0:0:
27,158,248142,2,0,B|15:117|32:80|32:80,1,77.0000023498536,2|0,3:3|0:0,0:0:0:0:
178,39,248519,2,0,B|190:80|173:117|173:117,1,77.0000023498536,2|0,1:2|0:0,0:0:0:0:
13,256,248896,5,0,3:0:0:0:
13,256,248991,1,0,3:0:0:0:
13,256,249085,1,2,0:0:0:0:
80,223,249274,1,2,3:2:0:0:
137,274,249462,2,0,B|178:274|213:285|213:285,1,77.0000023498536,0|2,0:0|3:2,0:0:0:0:
480,179,249840,5,0,0:0:0:0:
405,158,250028,2,0,B|374:174|330:183|330:183,1,77.0000023498536,2|2,0:0|0:1,0:0:0:0:
245,359,250406,2,0,B|295:344|315:262|266:228|266:228,1,154.000004699707,0|0,3:0|1:0,0:0:0:0:
82,121,251035,5,4,0:3:0:0:
112,59,251161,6,0,L|103:-11,2,51.3333348999024,0|8|0,1:3|0:3|0:0,0:0:0:0:
77,127,251538,6,0,L|87:207,1,51.3333348999024,4|0,0:3|0:0,0:0:0:0:
89,247,251789,5,0,0:0:0:0:
159,241,251915,6,0,B|92:263|81:203|7:228,1,154.000004699707,4|2,3:1|0:1,0:0:0:0:
221,191,252481,1,0,0:0:0:0:
38,303,252670,2,0,B|52:340|57:377|57:377,1,77.0000023498536,2|0,3:1|0:0,0:0:0:0:
298,212,253047,2,0,B|346:176|328:88|265:81|265:81,1,154.000004699707,2|2,1:1|3:2,0:0:0:0:
258,337,253613,1,8,0:3:0:0:
338,360,253802,2,0,B|324:323|319:286|319:286,1,77.0000023498536,4|0,0:3|0:0,0:0:0:0:
454,63,254179,5,4,3:2:0:0:
403,124,254368,1,2,0:0:0:0:
485,141,254557,1,8,0:1:0:0:
372,47,254745,5,0,3:0:0:0:
372,47,254840,1,0,3:0:0:0:
372,47,254934,1,0,3:0:0:0:
348,194,255123,1,0,0:0:0:0:
485,141,255311,1,2,1:2:0:0:
295,95,255500,5,0,0:0:0:0:
496,143,255689,2,0,B|523:106|510:64|510:64,1,77.0000023498536,2|0,0:1|0:0,0:0:0:0:
462,298,256066,6,0,B|415:294|391:258|391:258,1,77.0000023498536,8|8,0:3|0:0,0:0:0:0:
123,240,256444,2,0,B|91:273|47:267|47:267,1,77.0000023498536,6|0,3:1|0:0,0:0:0:0:
253,368,256821,2,0,B|294:318|289:244|236:216|236:216,1,154.000004699707,2|2,0:1|3:1,0:0:0:0:
181,177,257387,5,0,0:0:0:0:
276,307,257576,1,2,1:2:0:0:
275,145,257764,1,2,0:0:0:0:
181,277,257953,1,2,3:2:0:0:
334,226,258142,1,0,0:0:0:0:
178,158,258330,1,4,0:3:0:0:
272,323,258519,5,0,0:0:0:0:
251,70,258708,2,0,L|258:10,1,56,4|0,3:2|0:0,0:0:0:0:
257,14,259840,1,2,0:0:0:0:
332,78,260028,1,8,0:0:0:0:
332,78,260123,1,8,0:0:0:0:
332,78,260217,2,0,B|392:105|441:77|441:77,1,112,8|4,0:0|0:3,0:0:0:0:
497,30,260783,5,0,0:0:0:0:
347,166,260972,2,0,B|291:177|235:191|235:191,1,112,4|0,3:2|0:0,0:0:0:0:
167,94,261538,2,0,B|129:145|167:203|167:203,1,112,8|0,0:0|3:0,0:0:0:0:
209,258,262104,1,8,0:0:0:0:
80,371,262356,1,8,0:0:0:0:
25,325,262481,2,0,B|28:306|24:283|24:283,2,37.3333333333333,8|8|8,0:0|0:0|0:0,0:0:0:0:
83,364,262859,2,0,L|155:376,1,56,4|0,0:3|0:0,0:0:0:0:
202,336,263236,6,0,B|260:251|199:178|199:178,1,167.999994873047,4|0,3:2|0:0,0:0:0:0:
15,31,264368,2,0,B|14:60|8:86|8:86,1,56,2|0,0:0|0:0,0:0:0:0:
17,161,264745,2,0,B|82:148|57:183|125:173,1,112,2|0,1:3|0:0,0:0:0:0:
161,100,265500,5,0,1:0:0:0:
330,157,265689,1,8,1:2:0:0:
376,92,266066,1,8,0:0:0:0:
478,59,266255,1,8,0:3:0:0:
411,25,266444,1,0,3:0:0:0:
437,131,266632,2,0,B|446:165|437:187|437:187,1,56,0|0,1:1|0:0,0:0:0:0:
371,256,267010,5,2,1:1:0:0:
496,346,267198,1,8,1:2:0:0:
509,218,267387,1,8,3:2:0:0:
396,343,267576,1,2,0:0:0:0:
389,348,267670,1,2,0:0:0:0:
383,353,267764,6,0,B|315:335|246:327|246:327|247:328,1,140,6|8,1:1|0:0,0:0:0:0:
125,286,268330,2,0,B|104:320|124:356|124:356,1,70,8|0,0:1|0:0,0:0:0:0:
199,268,268708,1,8,0:1:0:0:
213,198,268896,2,0,B|139:167|78:219|78:219,2,140,8|8|8,0:0|0:0|3:0,0:0:0:0:
213,198,269745,1,0,3:0:0:0:
213,198,269840,1,0,3:0:0:0:
157,115,270028,6,0,B|140:81|152:45|152:45,1,70,8|0,1:2|0:0,0:0:0:0:
28,25,270406,1,8,0:0:0:0:
77,74,270595,2,0,L|234:43,1,140,8|8,0:1|0:1,0:0:0:0:
386,79,271161,1,8,0:0:0:0:
422,149,271349,1,0,0:0:0:0:
334,131,271538,2,0,B|303:106|310:64|310:64,1,70,8|0,0:0|0:0,0:0:0:0:
474,214,271915,2,0,B|505:239|498:281|498:281,1,70,8|0,3:0|0:0,0:0:0:0:
421,270,272293,6,0,B|355:255|303:306|327:369|327:369,1,140,8|8,1:2|0:0,0:0:0:0:
259,374,272859,1,8,0:1:0:0:
401,193,273236,1,8,0:1:0:0:
467,167,273425,2,0,B|503:154|531:137|531:137,2,70,8|0|8,0:0|0:0|0:0,0:0:0:0:
339,152,273991,2,0,B|319:116|333:84|333:84,1,70,0|8,0:0|3:0,0:0:0:0:
342,69,274274,1,0,3:0:0:0:
342,69,274368,1,0,3:0:0:0:
225,0,274557,6,0,B|271:58|223:138|223:138,1,140,8|8,1:2|0:0,0:0:0:0:
343,201,275123,2,0,B|297:143|345:63|345:63,1,140,8|8,0:1|0:1,0:0:0:0:
152,125,275689,2,0,B|143:167|177:191|177:191,1,70,8|0,0:0|0:0,0:0:0:0:
228,303,276066,2,0,B|268:289|272:248|272:248,1,70,8|0,0:0|0:0,0:0:0:0:
279,136,276444,1,8,3:0:0:0:
279,136,276538,1,0,3:0:0:0:
279,136,276632,1,0,3:0:0:0:
345,149,276821,6,0,B|313:120|275:137|275:137,1,70,12|0,1:2|0:0,0:0:0:0:
98,210,277198,1,8,0:0:0:0:
34,250,277387,2,0,B|103:256|172:269|172:269,1,140,8|8,0:1|0:1,0:0:0:0:
300,363,277953,1,8,0:0:0:0:
363,329,278142,1,0,0:0:0:0:
365,256,278330,1,8,0:0:0:0:
302,290,278519,1,0,0:0:0:0:
431,364,278708,6,0,B|449:326|431:295|431:295,1,70,8|0,3:3|0:0,0:0:0:0:
247,190,279085,2,0,B|199:254|239:324|239:324,1,140,8|8,1:2|0:0,0:0:0:0:
363,329,279651,2,0,L|419:274,1,70,8|0,0:1|0:0,0:0:0:0:
468,232,280028,1,8,0:1:0:0:
468,232,280123,1,8,0:0:0:0:
468,232,280217,1,8,0:0:0:0:
426,163,280406,1,0,0:0:0:0:
483,111,280595,2,0,B|470:73|483:41|483:41,1,70,8|0,0:0|0:0,0:0:0:0:
377,216,280972,6,0,B|308:265|245:217|245:217,2,140,8|8|8,3:0|1:2|0:0,0:0:0:0:
426,163,281915,1,8,0:1:0:0:
257,77,282293,1,8,0:1:0:0:
192,42,282481,2,0,B|164:76|191:109|191:109,1,70,8|0,0:0|0:0,0:0:0:0:
245,151,282859,2,0,B|176:145|107:132|107:132,1,140,8|8,0:0|3:0,0:0:0:0:
33,146,283425,1,0,0:0:0:0:
12,217,283613,6,0,B|-5:250|11:278|11:278,1,62.9999980773926,8|0,1:2|0:0,0:0:0:0:
70,313,283991,1,8,0:0:0:0:
126,271,284179,1,8,0:1:0:0:
126,271,284368,2,0,B|148:290|180:285|180:285,1,56,0|8,0:0|0:1,0:0:0:0:
243,315,284745,6,0,B|291:304|339:298|339:298,1,97.9999970092774,8|8,0:0|0:0,0:0:0:0:
401,247,285311,1,0,0:0:0:0:
418,262,285500,1,8,3:0:0:0:
423,240,285689,1,2,0:0:0:0:
414,249,285878,5,4,1:2:0:0:
256,192,285972,12,0,294934,0:0:0:0:
