osu file format v14

[General]
AudioFilename: audio.mp3
AudioLeadIn: 0
PreviewTime: 56657
Countdown: 0
SampleSet: Soft
StackLeniency: 0.7
Mode: 2
LetterboxInBreaks: 0
WidescreenStoryboard: 1

[Editor]
Bookmarks: 11569,34318,56302,57012,82574
DistanceSpacing: 1
BeatDivisor: 12
GridSize: 16
TimelineZoom: 2.1

[Metadata]
Title:Snowdrop (Short Ver.)
TitleUnicode:Snowdrop (Short Ver.)
Artist:Shimotsuki Haruka
ArtistUnicode:霜月はるか
Creator:yuinn
Version:M0RU's Platter
Source:クロウカシス ~七憑キノ贄~
Tags:moru m0ru video game japanese caucasus ~nanatsuki no nie~ opening main theme innocent grey innogrey イノセントグレイ MANYO 六浦館 mutsura-tate 寺谷 知己 teratani tomomi 渡邉 "nabeken" 賢一 watanabe kenichi 上條 貴史 kamijou takafumi 矢吹 正則 yabuki masanori Nanatsuki Benio 七月 紅緒 eroge visual novel vn vgm snow drop female vocals vocalist
BeatmapID:4063054
BeatmapSetID:1954355

[Difficulty]
HPDrainRate:4
CircleSize:4
OverallDifficulty:7.5
ApproachRate:7.5
SliderMultiplier:3
SliderTickRate:1

[Events]
//Background and Video events
0,0,"bg.jpg",0,0
//Break Periods
//Storyboard Layer 0 (Background)
//Storyboard Layer 1 (Fail)
//Storyboard Layer 2 (Pass)
//Storyboard Layer 3 (Foreground)
//Storyboard Layer 4 (Overlay)
//Storyboard Sound Samples

[TimingPoints]
209,710.059171597633,4,2,3,30,1,0
741,-100,4,2,1,30,0,0
3049,-100,4,2,2,30,0,0
3581,-100,4,2,1,30,0,0
5889,-100,4,2,3,30,0,0
6422,-100,4,2,1,30,0,0
8729,-100,4,2,2,30,0,0
9262,-100,4,2,1,30,0,0
11569,-100,4,2,2,30,0,0
11924,-100,4,2,1,30,0,0
14410,-100,4,2,2,25,0,0
14765,-100,4,2,1,25,0,0
17250,-100,4,2,2,25,0,0
17605,-100,4,2,1,25,0,0
20090,-100,4,2,2,25,0,0
20445,-100,4,2,1,25,0,0
22930,-100,4,2,2,25,0,0
23285,-100,4,2,1,25,0,0
25771,-100,4,2,2,25,0,0
26126,-100,4,2,1,25,0,0
34291,-66.6666666666667,4,2,3,25,0,0
34824,-66.6666666666667,4,2,1,25,0,0
35001,-100,4,2,1,25,0,0
37132,-100,4,2,2,25,0,0
37664,-100,4,2,1,25,0,0
39972,-100,4,2,3,25,0,0
40682,-100,4,2,1,25,0,0
42812,-100,4,2,2,25,0,0
43522,-100,4,2,1,25,0,0
44232,-100,4,2,1,25,0,0
45652,-100,4,2,3,25,0,0
46185,-100,4,2,1,25,0,0
46362,-66.6666666666667,4,2,1,25,0,0
47072,-100,4,2,1,25,0,0
48493,-100,4,2,2,25,0,0
49025,-100,4,2,1,25,0,0
51333,-100,4,2,3,25,0,0
52220,-100,4,2,1,25,0,0
54173,-100,4,2,1,25,0,0
55238,-100,4,2,1,25,0,0
56303,-100,4,2,1,35,0,0
57013,-100,4,2,1,40,0,1
82575,-100,4,2,3,30,0,0
83108,-100,4,2,1,30,0,0
85416,-100,4,2,2,30,0,0
85948,-100,4,2,1,30,0,0
88256,-100,4,2,3,30,0,0
88789,-100,4,2,1,30,0,0
91096,-100,4,2,2,30,0,0
91274,-100,4,2,1,15,0,0

[Colours]
Combo1 : 255,85,89
Combo2 : 255,235,191
Combo3 : 148,148,148

[HitObjects]
128,320,209,5,2,0:0:0:0:
96,247,386,1,0,0:0:0:0:
127,178,564,1,0,0:0:0:0:
234,179,741,2,0,P|140:149|58:157,2,150,2|0|2,0:0|0:0|0:0,0:0:0:0:
402,179,1984,2,0,P|308:149|226:157,2,150,0|2|0,0:0|0:0|0:0,0:0:0:0:
129,321,3049,6,0,P|92:264|151:182,1,150,2|0,0:0|0:0,0:0:0:0:
235,194,3581,2,0,P|270:125|215:84,1,150,2|0,0:0|0:0,0:0:0:0:
73,84,4291,2,0,P|70:199|186:223,1,225,2|0,0:0|0:0,0:0:0:0:
294,232,5179,2,0,L|125:231,1,150,2|0,0:0|0:0,0:0:0:0:
405,316,5889,5,2,0:2:0:0:
437,243,6066,1,0,0:0:0:0:
406,174,6244,1,0,0:0:0:0:
299,175,6422,2,0,P|393:145|475:153,2,150,2|0|2,0:0|0:0|0:0,0:0:0:0:
131,175,7664,2,0,P|225:145|307:153,2,150,0|2|0,0:0|0:0|0:0,0:0:0:0:
404,317,8729,6,0,P|441:260|382:178,1,150,2|0,0:0|0:0,0:0:0:0:
298,190,9262,2,0,P|263:121|318:80,1,150,2|2,0:0|0:0,0:0:0:0:
419,83,9794,1,0,0:0:0:0:
269,83,10149,2,0,L|249:81,1,18.75,2|0,0:0|0:0,0:0:0:0:
256,192,10504,12,0,11214,0:0:0:0:
127,254,11569,5,2,0:2:0:0:
273,256,11924,1,2,0:0:0:0:
331,257,12102,2,0,P|368:193|284:129,1,150,0|2,0:0|0:0,0:0:0:0:
263,135,12635,1,0,0:0:0:0:
113,135,12990,6,0,P|155:232|334:256,2,300,2|2|2,0:0|0:0|0:2,0:0:0:0:
262,135,14765,1,2,0:0:0:0:
187,135,14942,2,0,L|283:273,1,150,0|2,0:0|0:0,0:0:0:0:
197,258,15475,1,0,0:0:0:0:
348,286,15830,6,0,L|328:130,1,150,2|0,0:0|0:0,0:0:0:0:
179,276,16540,2,0,L|159:120,1,150,2|0,0:0|0:0,0:0:0:0:
385,254,17250,5,2,0:2:0:0:
239,256,17605,1,2,0:0:0:0:
181,257,17782,2,0,P|144:193|228:129,1,150,0|2,0:0|0:0,0:0:0:0:
249,135,18315,1,0,0:0:0:0:
398,135,18670,6,0,P|379:57|187:39,2,300,2|2|2,0:0|0:0|0:2,0:0:0:0:
248,135,20445,1,2,0:0:0:0:
158,141,20623,2,0,L|261:270,1,150,2|2,0:0|0:0,0:0:0:0:
155,259,21155,1,0,0:0:0:0:
336,252,21510,6,0,L|316:96,1,150,2|0,0:0|0:0,0:0:0:0:
168,253,22220,2,0,L|320:256,1,150,0|2,0:0|0:0,0:0:0:0:
80,256,22930,5,2,0:2:0:0:
224,256,23285,1,2,0:0:0:0:
299,256,23463,2,0,L|299:102,1,150,0|2,0:0|0:0,0:0:0:0:
223,106,23995,1,0,0:0:0:0:
73,106,24351,6,0,P|131:72|268:224,2,300,2|2|2,0:0|0:0|0:2,0:0:0:0:
222,106,26126,1,2,0:0:0:0:
296,106,26303,2,0,L|134:106,1,150,0|2,0:0|0:0,0:0:0:0:
222,106,26836,1,0,0:0:0:0:
371,106,27191,6,0,L|365:286,1,175,2|0,0:0|0:0,0:0:0:0:
240,99,27901,2,0,L|214:272,1,150
337,260,28493,5,0,0:0:0:0:
355,219,28552,1,0,0:0:0:0:
337,260,28611,2,0,P|213:243|382:66,1,525,2|0,0:0|0:0,0:0:0:0:
398,190,29913,1,0,0:0:0:0:
396,243,29972,1,0,0:0:0:0:
371,277,30031,2,0,P|129:260|249:48,1,575,2|0,0:0|0:0,0:0:0:0:
269,48,31451,1,2,0:0:0:0:
244,48,31510,2,0,P|166:136|350:307,1,425
187,262,32871,5,2,0:0:0:0:
322,262,33226,1,0,0:0:0:0:
187,262,33581,2,0,P|97:217|84:163,1,150,2|2,0:0|0:0,0:0:0:0:
392,302,34291,6,0,P|444:214|124:208,2,675.000025749207,2|0|2,0:2|0:0|0:0,0:0:0:0:
122,304,37132,6,0,P|102:253|154:169,1,150,2|0,0:2|0:0,0:0:0:0:
241,173,37664,2,0,P|276:112|197:47,1,150,2|0,0:0|0:0,0:0:0:0:
138,52,38197,1,0,0:0:0:0:
287,52,38552,2,0,P|354:142|189:269,1,300,2|2,0:0|0:0,0:0:0:0:
392,276,39617,1,2,0:0:0:0:
167,276,39972,6,0,L|64:150,2,150,2|0|2,0:0|0:0|0:0,0:0:0:0:
301,276,41037,1,0,0:0:0:0:
167,276,41392,2,0,L|52:175,2,150,2|0|2,0:0|0:0|0:0,0:0:0:0:
331,276,42457,1,0,0:0:0:0:
106,275,42812,6,0,P|114:181|293:176,2,300,2|2|2,0:2|0:0|0:0,0:0:0:0:
240,276,44587,1,0,0:0:0:0:
90,276,44942,2,0,B|62:205|79:115|166:77|249:94,1,300,2|2,0:0|0:2,0:0:0:0:
393,302,46362,6,0,P|327:143|262:320,2,450.000017166138,0|2|2,0:0|0:0|0:0,0:0:0:0:
152,302,48493,6,0,P|121:243|169:167,1,150,2|0,0:2|0:0,0:0:0:0:
223,173,49025,1,2,0:0:0:0:
290,173,49203,2,0,P|321:114|273:38,1,150
150,44,49913,2,0,P|80:113|199:243,1,300,2|2,0:0|0:0,0:0:0:0:
49,244,50978,1,0,0:0:0:0:
293,291,51333,6,0,P|357:230|190:139,1,300,2|0,0:2|0:0,0:0:0:0:
189,113,52220,1,2,0:0:0:0:
241,105,52398,1,0,0:0:0:0:
405,109,52753,2,0,P|299:283|221:77,1,525
252,79,54055,1,0,0:0:0:0:
252,54,54114,1,0,0:0:0:0:
218,54,54173,2,0,P|177:233|395:306,1,450
364,294,56303,5,4,0:3:0:0:
105,164,56481,1,8,0:3:0:0:
105,164,56836,1,0,0:0:0:0:
351,299,57013,6,0,P|383:222|302:143,1,150,4|0,0:1|0:0,0:0:0:0:
280,166,57546,1,2,0:0:0:0:
355,166,57723,1,8,0:0:0:0:
429,166,57901,1,2,0:0:0:0:
355,166,58078,1,0,0:0:0:0:
189,106,58256,6,0,P|163:191|250:250,1,150,2|8,0:0|0:0,0:0:0:0:
273,232,58788,1,2,0:0:0:0:
347,232,58966,1,0,0:0:0:0:
198,232,59143,2,0,P|101:190|96:131,1,150,2|0,0:0|0:0,0:0:0:0:
168,141,59676,1,2,0:0:0:0:
421,125,59853,6,0,P|448:192|365:242,1,150,4|0,0:1|0:0,0:0:0:0:
327,249,60386,1,2,0:0:0:0:
160,250,60564,2,0,P|152:180|194:100,1,150,8|0,0:0|0:0,0:0:0:0:
381,249,61274,5,0,0:0:0:0:
423,175,61451,1,8,0:0:0:0:
359,109,61629,1,2,0:0:0:0:
209,109,61984,2,0,L|378:110,1,150,8|0,0:0|0:0,0:0:0:0:
398,105,62516,1,2,0:0:0:0:
146,302,62694,6,0,P|126:220|172:141,1,150,4|0,0:1|0:0,0:0:0:0:
225,162,63226,1,2,0:0:0:0:
150,162,63404,1,8,0:0:0:0:
74,162,63581,1,2,0:0:0:0:
150,162,63759,1,0,0:0:0:0:
300,162,63936,6,0,P|288:230|196:259,2,150,2|8|0,0:0|0:0|0:0,0:0:0:0:
150,162,64824,1,8,0:0:0:0:
80,158,65001,1,0,0:0:0:0:
41,98,65179,1,0,0:0:0:0:
454,169,65534,6,0,P|440:270|382:302,1,150,4|0,0:1|0:0,0:0:0:0:
331,295,66066,1,2,0:0:0:0:
180,286,66244,2,0,P|159:240|196:136,1,150,8|0,0:0|0:0,0:0:0:0:
337,146,66954,1,0,0:0:0:0:
377,206,67132,1,8,0:0:0:0:
346,271,67309,1,2,0:0:0:0:
196,271,67664,2,0,L|371:270,1,150,8|8,0:0|0:0,0:0:0:0:
377,232,68197,1,8,0:0:0:0:
122,292,68374,6,0,P|94:227|136:150,1,150,4|0,0:1|0:0,0:0:0:0:
199,158,68907,1,2,0:0:0:0:
123,158,69084,2,0,P|97:78|167:53,1,150,8|0,0:0|0:0,0:0:0:0:
307,49,69617,5,2,0:0:0:0:
353,97,69794,1,0,0:0:0:0:
301,140,69972,1,8,0:0:0:0:
220,142,70149,1,0,0:0:0:0:
301,140,70327,2,0,P|325:221|282:261,1,150,2|0,0:0|0:0,0:0:0:0:
205,257,70859,1,0,0:0:0:0:
130,257,71037,1,2,0:0:0:0:
373,264,71214,6,0,P|416:247|434:116,1,150,4|0,0:1|0:0,0:0:0:0:
302,160,71924,2,0,L|151:101,1,150,8|0,0:0|0:0,0:0:0:0:
320,257,72635,2,0,L|320:101,1,150
165,254,73345,2,0,P|135:199|144:98,1,150,8|8,0:0|0:0,0:0:0:0:
202,115,73877,1,2,0:0:0:0:
456,266,74055,6,0,P|474:181|424:133,1,150,4|0,0:1|0:0,0:0:0:0:
286,138,74765,1,8,0:0:0:0:
211,137,74942,1,2,0:0:0:0:
211,212,75120,1,0,0:0:0:0:
285,211,75297,1,2,0:0:0:0:
450,211,75475,6,0,P|446:138|400:79,1,150,0|2,0:0|0:0,0:0:0:0:
324,78,76007,1,0,0:0:0:0:
175,79,76185,2,0,L|5:81,1,150,8|0,0:0|0:0,0:0:0:0:
441,211,76895,6,0,P|463:130|408:75,1,150,4|0,0:1|0:0,0:0:0:0:
275,82,77605,1,8,0:0:0:0:
207,82,77782,1,2,0:0:0:0:
275,82,77960,1,0,0:0:0:0:
349,83,78137,1,2,0:0:0:0:
183,83,78315,6,0,P|160:169|244:226,1,150,0|2,0:0|0:0,0:0:0:0:
271,211,78848,1,0,0:0:0:0:
121,211,79025,1,8,0:0:0:0:
196,211,79380,1,8,0:0:0:0:
121,211,79558,1,8,0:0:0:0:
373,167,79735,6,0,P|405:246|348:302,1,150,4|0,0:1|0:0,0:0:0:0:
221,292,80445,1,8,0:0:0:0:
146,292,80623,1,2,0:0:0:0:
146,216,80800,1,0,0:0:0:0:
220,216,80978,1,2,0:0:0:0:
384,254,81155,5,0,0:0:0:0:
425,174,81333,1,8,0:0:0:0:
350,113,81510,1,2,0:0:0:0:
198,258,81865,1,8,0:0:0:0:
123,221,82043,1,8,0:0:0:0:
118,142,82220,1,10,0:0:0:0:
186,107,82398,1,2,0:0:0:0:
422,326,82575,5,2,0:2:0:0:
454,253,82753,1,0,0:0:0:0:
423,184,82930,1,0,0:0:0:0:
315,177,83108,2,0,P|221:147|139:155,2,150,2|0|2,0:0|0:0|0:0,0:0:0:0:
148,185,84351,2,0,P|242:155|324:163,2,150,0|2|0,0:0|0:0|0:0,0:0:0:0:
421,327,85416,6,0,P|458:270|399:188,1,150,2|0,0:0|0:0,0:0:0:0:
315,200,85948,2,0,P|280:131|335:90,1,150,2|2,0:0|0:0,0:0:0:0:
477,90,86658,2,0,P|480:205|364:229,1,225,2|0,0:0|0:0,0:0:0:0:
240,238,87546,2,0,L|409:237,1,150,2|0,0:0|0:0,0:0:0:0:
129,322,88256,5,2,0:2:0:0:
97,249,88433,1,0,0:0:0:0:
128,180,88611,1,0,0:0:0:0:
234,170,88788,2,0,P|328:140|410:148,2,150,2|2|2,0:0|0:0|0:0,0:0:0:0:
403,181,90031,2,0,P|309:151|227:159,2,150,0|2|0,0:0|0:0|0:0,0:0:0:0:
253,183,91096,2,0,L|221:182,1,18.75,2|0,0:0|0:0,0:0:0:0:
256,192,91274,12,0,93936,0:0:0:0:
