osu file format v14

[General]
AudioFilename: SnowConnect.mp3
AudioLeadIn: 0
PreviewTime: 47811
Countdown: 0
SampleSet: Normal
StackLeniency: 0.7
Mode: 1
LetterboxInBreaks: 0
WidescreenStoryboard: 0

[Editor]
DistanceSpacing: 0.9
BeatDivisor: 4
GridSize: 16
TimelineZoom: 1.4

[Metadata]
Title:Snow x Connect
TitleUnicode:Snow×Connect
Artist:Shimotsuki Haruka
ArtistUnicode:霜月はるか
Creator:yuzu__rinrin
Version:Muzukashii
Source:ピュア×コネクト
Tags:Pure Connect SMEE Opening Visual Novel Eroge chaica
BeatmapID:1112737
BeatmapSetID:414435

[Difficulty]
HPDrainRate:6
CircleSize:2
OverallDifficulty:4
ApproachRate:5
SliderMultiplier:1.4
SliderTickRate:1

[Events]
//Background and Video events
0,0,"BG3.jpg",0,100
//Break Periods
//Storyboard Layer 0 (Background)
//Storyboard Layer 1 (Fail)
//Storyboard Layer 2 (Pass)
//Storyboard Layer 3 (Foreground)
//Storyboard Sound Samples

[TimingPoints]
-908,495.867768595041,4,1,0,50,1,0
9009,-100,4,1,0,70,0,0
16943,-100,4,1,0,60,0,0
48678,-100,4,1,0,80,0,1
78430,-100,4,1,0,50,0,0
82397,-100,4,1,0,70,0,0
88348,555.555555555556,4,1,0,70,1,0
88348,-89.2857142857143,4,1,0,70,0,0
89459,571.428571428571,4,1,0,60,1,8
90030,722.89156626506,4,1,0,50,1,8
90030,-87.719298245614,4,1,0,50,0,8
90752,983.606557377049,4,1,0,40,1,8
90752,-71.9424460431655,4,1,0,40,0,8
91735,983.606557377049,4,1,0,40,1,0
91735,-81.3008130081301,4,1,0,40,0,0
94686,-81.3008130081301,4,1,0,30,0,0
96653,-81.3008130081301,4,1,0,20,0,0
98620,-81.3008130081301,4,1,0,10,0,0
99604,-81.3008130081301,4,1,0,5,0,0

[HitObjects]
304,144,827,5,8,1:1:0:0:
336,128,1075,1,8,1:1:0:0:
320,160,1447,1,8,1:1:0:0:
352,160,1819,1,0,1:1:0:0:
304,240,2811,1,0,1:1:0:0:
368,176,3058,1,8,1:1:0:0:
384,160,3430,1,8,1:1:0:0:
352,160,3802,1,0,1:1:0:0:
256,176,4794,1,8,1:1:0:0:
384,176,5042,1,8,1:1:0:0:
320,160,5414,1,0,1:1:0:0:
304,144,5786,1,8,1:1:0:0:
384,208,6282,1,0,1:1:0:0:
256,176,6777,1,0,1:1:0:0:
320,144,7025,1,8,1:1:0:0:
288,256,7397,1,8,1:1:0:0:
224,192,7769,1,8,1:1:0:0:
352,192,8513,1,8,1:1:0:0:
288,144,9009,1,4,1:1:0:0:
256,128,9381,1,4,1:1:0:0:
256,128,9753,1,4,1:1:0:0:
384,144,10496,1,8,1:1:0:0:
336,144,10992,1,4,1:1:0:0:
336,144,11364,1,4,1:1:0:0:
336,144,11736,1,4,1:1:0:0:
288,208,12232,1,0,1:1:0:0:
320,160,12480,1,8,1:1:0:0:
416,176,12728,1,0,1:1:0:0:
240,128,12976,1,4,1:1:0:0:
240,128,13348,1,4,1:1:0:0:
144,160,13720,1,4,1:1:0:0:
240,208,14215,1,8,1:1:0:0:
272,144,14463,1,8,1:1:0:0:
272,208,14711,1,8,1:1:0:0:
256,192,14959,12,0,16447,1:1:0:0:
336,176,16943,5,0,1:1:0:0:
336,176,17439,1,8,1:1:0:0:
304,176,17687,1,0,1:1:0:0:
352,288,17934,1,0,1:1:0:0:
320,160,18430,1,8,1:1:0:0:
336,176,18926,1,0,1:1:0:0:
368,192,19422,1,8,1:1:0:0:
352,256,19670,1,0,1:1:0:0:
352,160,20166,1,0,1:1:0:0:
208,176,20414,1,8,1:1:0:0:
208,160,20662,1,0,1:1:0:0:
208,160,20910,1,0,1:1:0:0:
368,192,21406,1,8,1:1:0:0:
384,192,21653,1,0,1:1:0:0:
288,160,22397,1,8,1:1:0:0:
320,256,22893,1,0,1:1:0:0:
304,160,23389,1,8,1:1:0:0:
304,224,23637,1,0,1:1:0:0:
272,208,24133,1,8,1:1:0:0:
448,224,24381,1,0,1:1:0:0:
304,192,24629,1,8,1:1:0:0:
192,176,24877,1,4,1:1:0:0:
304,240,25372,1,8,0:0:0:0:
320,176,25620,1,0,1:1:0:0:
128,176,26116,1,0,0:0:0:0:
352,176,26364,1,8,1:1:0:0:
160,160,26860,1,0,1:1:0:0:
320,224,27356,1,8,1:1:0:0:
256,112,27604,1,0,1:1:0:0:
320,192,28100,1,0,1:1:0:0:
112,192,28348,1,8,1:1:0:0:
384,208,28596,1,0,1:1:0:0:
128,176,28844,1,8,1:1:0:0:
336,160,29339,1,8,1:1:0:0:
368,176,29587,1,0,1:1:0:0:
368,160,30331,1,8,1:1:0:0:
368,176,30579,1,8,1:1:0:0:
352,144,30827,1,0,1:1:0:0:
240,208,31323,1,0,1:1:0:0:
272,240,31571,1,0,1:1:0:0:
336,176,31819,1,8,1:1:0:0:
336,176,32315,1,8,1:1:0:0:
336,192,32811,1,4,1:1:0:0:
336,160,33306,1,8,1:1:0:0:
240,176,33554,1,0,1:1:0:0:
272,224,34050,1,0,1:1:0:0:
240,192,34298,1,8,1:1:0:0:
144,128,34546,1,0,0:0:0:0:
208,144,34670,1,0,0:0:0:0:
208,144,34794,1,0,0:0:0:0:
288,176,35538,1,0,1:1:0:0:
176,64,35786,1,8,1:1:0:0:
320,192,36282,1,8,1:1:0:0:
352,176,36777,1,0,1:1:0:0:
304,224,37273,1,8,1:1:0:0:
400,192,37521,1,0,1:1:0:0:
384,192,38017,1,0,1:1:0:0:
432,160,38265,1,8,1:1:0:0:
192,160,38513,1,8,0:0:0:0:
192,160,38637,1,8,0:0:0:0:
192,160,38761,1,8,0:0:0:0:
272,208,39505,1,8,1:1:0:0:
96,128,39753,1,0,1:1:0:0:
336,160,40249,1,8,1:1:0:0:
144,160,40496,1,0,0:0:0:0:
272,160,40744,1,0,1:1:0:0:
288,192,40992,1,0,1:1:0:0:
288,176,41116,1,8,1:1:0:0:
320,176,41488,1,0,1:1:0:0:
352,160,41984,1,0,1:1:0:0:
272,192,42232,1,8,1:1:0:0:
336,176,42728,1,8,1:1:0:0:
288,160,42976,1,0,1:1:0:0:
368,160,43100,1,8,1:1:0:0:
304,192,43472,1,8,1:1:0:0:
320,192,43968,1,0,1:1:0:0:
320,160,44215,1,8,1:1:0:0:
256,160,44463,1,8,1:1:0:0:
288,224,44711,1,0,1:1:0:0:
288,176,45207,1,0,1:1:0:0:
384,192,45703,1,0,1:1:0:0:
368,192,45951,1,0,1:1:0:0:
304,160,46199,1,8,1:1:0:0:
304,160,46323,1,8,1:1:0:0:
304,160,46447,1,8,1:1:0:0:
320,192,46695,1,4,1:1:0:0:
160,176,47067,1,4,1:1:0:0:
304,112,47439,1,4,1:1:0:0:
416,192,48678,1,12,1:1:0:0:
400,176,49174,1,0,1:1:0:0:
288,176,49422,1,8,1:1:0:0:
208,160,49546,1,8,1:1:0:0:
320,288,49670,1,8,1:1:0:0:
416,144,50166,1,8,1:1:0:0:
224,176,50414,1,8,1:1:0:0:
256,128,50662,1,0,1:1:0:0:
368,160,51034,1,8,1:1:0:0:
304,288,51406,1,8,1:1:0:0:
80,128,51653,1,0,1:1:0:0:
272,160,51901,1,0,1:1:0:0:
352,128,52025,1,0,1:1:0:0:
256,128,52149,1,0,1:1:0:0:
304,176,52645,1,0,1:1:0:0:
320,128,53141,1,8,1:1:0:0:
272,144,53389,1,0,1:1:0:0:
208,144,53637,1,8,1:1:0:0:
160,144,53885,1,0,1:1:0:0:
256,208,54009,1,0,1:1:0:0:
80,176,54133,1,0,1:1:0:0:
320,176,54381,1,8,1:1:0:0:
272,176,54629,1,4,1:1:0:0:
272,176,55125,1,4,1:1:0:0:
352,176,55620,1,8,1:1:0:0:
288,144,55868,1,0,1:1:0:0:
352,176,56116,1,8,1:1:0:0:
80,128,56612,1,4,1:1:0:0:
256,256,57108,1,0,1:1:0:0:
256,256,57356,1,0,1:1:0:0:
352,192,57604,1,8,1:1:0:0:
288,240,57852,1,0,1:1:0:0:
288,240,57976,1,0,1:1:0:0:
336,224,58348,1,0,1:1:0:0:
256,240,58844,1,0,1:1:0:0:
448,112,59091,1,8,1:1:0:0:
176,32,59339,1,0,1:1:0:0:
256,192,59587,1,8,1:1:0:0:
384,272,59835,1,8,1:1:0:0:
192,48,59959,1,8,1:1:0:0:
352,144,60331,1,0,1:1:0:0:
480,96,60579,1,8,1:1:0:0:
336,160,61075,1,8,1:1:0:0:
272,48,61571,1,0,1:1:0:0:
304,144,62067,1,8,1:1:0:0:
416,176,62315,1,8,0:0:0:0:
320,144,62563,1,4,1:1:0:0:
320,144,62934,1,12,1:1:0:0:
320,144,63306,1,12,1:1:0:0:
0,144,63554,1,4,1:1:0:0:
224,80,63926,1,0,1:1:0:0:
208,144,64050,1,0,1:1:0:0:
128,112,64298,1,0,1:1:0:0:
400,112,64546,1,12,1:1:0:0:
400,176,65042,1,0,1:1:0:0:
288,176,65290,1,8,1:1:0:0:
208,160,65414,1,8,1:1:0:0:
384,288,65538,1,8,1:1:0:0:
416,144,66034,1,8,1:1:0:0:
368,160,66282,1,8,1:1:0:0:
256,128,66530,1,0,1:1:0:0:
224,176,66902,1,8,1:1:0:0:
80,128,67274,1,8,1:1:0:0:
304,288,67521,1,0,1:1:0:0:
272,160,67769,1,0,1:1:0:0:
352,128,67893,1,0,1:1:0:0:
432,240,68017,1,0,1:1:0:0:
304,176,68513,1,0,1:1:0:0:
320,128,69009,1,8,1:1:0:0:
272,144,69257,1,0,1:1:0:0:
208,144,69505,1,8,1:1:0:0:
160,144,69753,1,0,1:1:0:0:
320,224,69877,1,0,1:1:0:0:
192,144,70001,1,0,0:0:0:0:
320,176,70249,1,8,1:1:0:0:
272,176,70497,1,4,1:1:0:0:
272,176,70993,1,4,1:1:0:0:
352,176,71488,1,8,1:1:0:0:
288,144,71736,1,0,1:1:0:0:
352,176,71984,1,8,1:1:0:0:
80,128,72480,1,4,1:1:0:0:
256,256,72976,1,0,1:1:0:0:
256,256,73224,1,0,1:1:0:0:
352,192,73472,1,8,1:1:0:0:
224,176,73720,1,0,1:1:0:0:
48,144,73844,1,0,1:1:0:0:
336,224,74216,1,0,1:1:0:0:
256,240,74712,1,0,1:1:0:0:
256,240,74960,1,8,1:1:0:0:
256,192,75207,1,8,1:1:0:0:
176,32,75455,1,0,1:1:0:0:
464,80,75703,1,8,1:1:0:0:
192,48,75827,1,8,1:1:0:0:
416,144,76199,1,8,1:1:0:0:
192,128,76447,1,4,1:1:0:0:
368,176,76943,5,12,1:1:0:0:
432,176,77439,1,8,1:1:0:0:
416,192,77687,1,8,1:1:0:0:
368,176,77934,1,0,1:1:0:0:
368,176,78058,1,0,1:1:0:0:
368,176,78182,1,0,1:1:0:0:
368,176,78430,1,8,1:1:0:0:
304,224,79422,1,8,1:1:0:0:
400,224,80414,1,8,1:1:0:0:
272,192,80786,1,8,1:1:0:0:
320,208,81158,1,8,1:1:0:0:
352,240,81406,1,0,1:1:0:0:
320,208,81901,1,8,1:1:0:0:
288,144,82397,1,4,1:1:0:0:
352,128,82769,1,4,1:1:0:0:
320,112,83141,1,4,1:1:0:0:
384,144,83884,1,8,1:1:0:0:
272,192,84381,1,4,1:1:0:0:
176,80,84753,1,4,1:1:0:0:
192,112,85125,1,4,1:1:0:0:
272,192,85620,1,0,1:1:0:0:
320,160,85868,1,8,1:1:0:0:
416,192,86116,1,0,1:1:0:0:
336,144,86364,1,4,1:1:0:0:
304,112,86736,1,4,1:1:0:0:
224,160,87108,1,4,1:1:0:0:
64,128,87604,1,8,1:1:0:0:
352,208,87852,1,8,1:1:0:0:
320,128,88100,1,0,1:1:0:0:
368,176,88348,1,12,1:1:0:0:
320,192,89459,1,8,1:1:0:0:
304,160,90030,1,8,1:1:0:0:
288,160,90752,1,8,1:1:0:0:
256,192,91735,12,0,100588,1:1:0:0:
