osu file format v14

[General]
AudioFilename: SnowConnect.mp3
AudioLeadIn: 0
PreviewTime: 47811
Countdown: 0
SampleSet: Normal
StackLeniency: 0.7
Mode: 1
LetterboxInBreaks: 0
WidescreenStoryboard: 0

[Editor]
Bookmarks: 100588
DistanceSpacing: 0.9
BeatDivisor: 2
GridSize: 16
TimelineZoom: 1.2

[Metadata]
Title:Snow x Connect
TitleUnicode:Snow×Connect
Artist:Shimotsuki Haruka
ArtistUnicode:霜月はるか
Creator:yuzu__rinrin
Version:Kantan
Source:ピュア×コネクト
Tags:Pure Connect SMEE Opening Visual Novel Eroge chaica
BeatmapID:1112736
BeatmapSetID:414435

[Difficulty]
HPDrainRate:8
CircleSize:5
OverallDifficulty:3
ApproachRate:5
SliderMultiplier:1.4
SliderTickRate:1

[Events]
//Background and Video events
0,0,"BG.jpg",0,100
//Break Periods
//Storyboard Layer 0 (Background)
//Storyboard Layer 1 (Fail)
//Storyboard Layer 2 (Pass)
//Storyboard Layer 3 (Foreground)
//Storyboard Sound Samples

[TimingPoints]
-908,495.867768595041,4,1,0,50,1,0
9009,-100,4,1,0,70,0,0
16943,-100,4,1,0,60,0,0
48678,-100,4,1,0,80,0,1
78430,-100,4,1,0,50,0,0
82397,-100,4,1,0,70,0,0
88348,555.555555555556,4,1,0,70,1,0
88348,-89.2857142857143,4,1,0,70,0,0
89459,571.428571428571,4,1,0,60,1,8
90030,722.89156626506,4,1,0,50,1,8
90030,-87.719298245614,4,1,0,50,0,8
90752,983.606557377049,4,1,0,40,1,8
90752,-71.9424460431655,4,1,0,40,0,8
91735,983.606557377049,4,1,0,40,1,0
91735,-81.3008130081301,4,1,0,40,0,0
94686,-81.3008130081301,4,1,0,30,0,0
96653,-81.3008130081301,4,1,0,20,0,0
98620,-81.3008130081301,4,1,0,10,0,0
99604,-81.3008130081301,4,1,0,5,0,0

[HitObjects]
368,176,1075,5,8,1:1:0:0:
320,160,1819,1,8,1:1:0:0:
352,160,3058,1,0,1:1:0:0:
384,160,3802,1,0,1:1:0:0:
384,176,5042,1,0,1:1:0:0:
304,144,5786,1,8,1:1:0:0:
320,144,7025,1,8,1:1:0:0:
224,192,7769,1,8,1:1:0:0:
288,144,9009,1,4,1:1:0:0:
160,192,9753,1,4,1:1:0:0:
304,176,10496,1,8,1:1:0:0:
272,192,10992,1,12,1:1:0:0:
320,144,11736,1,12,1:1:0:0:
272,208,12480,1,8,1:1:0:0:
336,144,12976,1,4,1:1:0:0:
336,176,13720,1,12,0:0:0:0:
256,192,14959,12,0,16447,1:1:0:0:
336,176,16943,5,0,1:1:0:0:
320,160,17934,1,8,1:1:0:0:
336,176,18926,1,0,1:1:0:0:
240,160,19918,1,8,1:1:0:0:
208,160,20910,1,0,1:1:0:0:
288,160,22397,1,8,1:1:0:0:
320,256,22893,1,0,1:1:0:0:
304,160,23885,1,0,1:1:0:0:
256,160,24381,1,8,1:1:0:0:
192,176,24877,1,4,1:1:0:0:
352,176,26364,1,8,1:1:0:0:
160,160,26860,1,0,1:1:0:0:
80,160,27852,1,0,1:1:0:0:
112,192,28844,1,8,1:1:0:0:
352,160,30331,1,8,1:1:0:0:
352,144,30827,1,0,1:1:0:0:
400,208,31323,1,8,1:1:0:0:
432,144,32315,1,8,1:1:0:0:
336,192,32811,1,4,1:1:0:0:
272,240,33802,1,0,1:1:0:0:
256,176,34794,1,8,1:1:0:0:
352,176,36777,1,0,1:1:0:0:
32,128,37769,1,0,1:1:0:0:
272,160,38761,1,8,1:1:0:0:
272,160,40744,1,0,1:1:0:0:
320,176,41488,1,0,1:1:0:0:
336,176,42728,1,8,1:1:0:0:
304,192,43472,1,8,1:1:0:0:
384,144,44215,1,8,0:0:0:0:
416,208,44711,1,0,0:0:0:0:
384,192,45703,1,0,1:1:0:0:
304,160,46199,1,8,1:1:0:0:
320,192,46695,1,4,1:1:0:0:
304,112,47439,1,4,1:1:0:0:
416,192,48678,1,12,1:1:0:0:
384,176,49670,1,8,1:1:0:0:
368,160,50662,1,0,1:1:0:0:
144,176,51158,1,0,1:1:0:0:
304,288,51653,1,8,1:1:0:0:
448,192,52149,1,8,0:0:0:0:
304,176,52645,1,0,1:1:0:0:
208,144,53637,1,8,1:1:0:0:
272,176,54629,1,4,1:1:0:0:
432,160,55125,1,4,1:1:0:0:
304,144,55620,1,12,1:1:0:0:
320,176,56612,1,4,1:1:0:0:
352,192,57604,1,8,1:1:0:0:
112,112,58596,1,0,1:1:0:0:
240,224,59587,1,8,1:1:0:0:
256,240,60083,1,0,1:1:0:0:
336,160,60579,1,8,1:1:0:0:
352,272,61571,1,0,1:1:0:0:
320,144,62563,1,4,1:1:0:0:
400,128,64546,1,12,1:1:0:0:
176,176,65538,1,8,1:1:0:0:
304,160,66530,1,0,1:1:0:0:
272,160,67025,1,0,1:1:0:0:
336,176,67521,1,8,1:1:0:0:
288,208,68017,1,0,0:0:0:0:
256,160,68513,1,0,1:1:0:0:
416,160,69505,1,8,1:1:0:0:
336,192,70496,1,4,1:1:0:0:
304,272,70992,1,4,1:1:0:0:
336,192,71488,1,12,1:1:0:0:
336,128,72480,1,4,1:1:0:0:
384,176,73472,1,8,1:1:0:0:
256,224,73968,1,8,1:1:0:0:
224,80,74463,1,0,1:1:0:0:
272,112,75455,1,8,1:1:0:0:
368,176,76447,1,0,1:1:0:0:
368,144,76943,1,8,1:1:0:0:
432,128,77439,1,8,1:1:0:0:
368,176,78430,1,8,1:1:0:0:
304,224,79422,1,8,1:1:0:0:
400,224,80414,1,8,1:1:0:0:
288,144,82397,1,4,1:1:0:0:
176,176,83141,1,4,1:1:0:0:
304,176,83885,1,8,1:1:0:0:
272,192,84381,1,12,1:1:0:0:
288,128,85125,1,12,1:1:0:0:
272,208,85868,1,8,1:1:0:0:
336,144,86364,1,4,1:1:0:0:
224,160,87108,1,12,1:1:0:0:
368,176,88348,1,12,1:1:0:0:
256,192,91735,12,0,100588,1:1:0:0:
