osu file format v14

[General]
AudioFilename: audio.mp3
AudioLeadIn: 0
PreviewTime: 78424
Countdown: 0
SampleSet: Soft
StackLeniency: 0.7
Mode: 0
LetterboxInBreaks: 0
WidescreenStoryboard: 1

[Editor]
Bookmarks: 8377,15705,30361,45018,59674,66774,76163,79827,94484,109140,116468,131125,145781,160438,176926,180590,195247,209903,228224,242881,257537,260514,264865,279522,294216,307003
DistanceSpacing: 0.5
BeatDivisor: 4
GridSize: 32
TimelineZoom: 1.5

[Metadata]
Title:Sketchbook
TitleUnicode:スケッチブック
Artist:Shimotsuki Haruka
ArtistUnicode:霜月はるか
Creator:Lasse
Version:Hard
Source:時を紡ぐ約束
Tags:Tokisoku Toki o Tsumugu Yakusoku visual novel eroge opening full version Applique
BeatmapID:1620891
BeatmapSetID:770910

[Difficulty]
HPDrainRate:5
CircleSize:4
OverallDifficulty:6.4
ApproachRate:7.2
SliderMultiplier:1.3
SliderTickRate:1

[Events]
//Background and Video events
0,0,"a.jpg",0,0
//Break Periods
//Storyboard Layer 0 (Background)
//Storyboard Layer 1 (Fail)
//Storyboard Layer 2 (Pass)
//Storyboard Layer 3 (Foreground)
//Storyboard Sound Samples

[TimingPoints]
1049,458.015267175573,4,2,22,20,1,0
1049,-200,4,2,22,20,0,0
2881,-200,4,2,22,22,0,0
4713,-200,4,2,22,24,0,0
7919,-200,4,2,22,16,0,0
8377,-142.857142857143,4,2,1,35,0,0
13873,-142.857142857143,4,2,22,30,0,0
15132,-142.857142857143,4,2,22,35,0,0
15247,-142.857142857143,4,2,22,40,0,0
15476,-142.857142857143,4,2,22,45,0,0
15705,-100,4,2,1,55,0,0
16049,-100,4,2,99,5,0,0
16163,-100,4,2,1,55,0,0
22804,-100,4,2,14,55,0,0
23033,-100,4,2,1,55,0,0
23377,-100,4,2,99,5,0,0
23491,-100,4,2,1,55,0,0
30132,-100,4,2,14,55,0,0
30361,-117.647058823529,4,2,1,40,0,0
57842,-117.647058823529,4,2,1,42,0,0
58529,-117.647058823529,4,2,1,44,0,0
59216,-117.647058823529,4,2,14,46,0,0
59674,-100,4,2,1,48,0,0
66087,-100,4,2,14,48,0,0
66316,-100,4,2,1,48,0,0
66774,-125,4,2,1,44,0,0
70438,-125,4,2,14,44,0,0
70667,-111.111111111111,4,2,1,44,0,0
71125,-111.111111111111,4,2,1,45,0,0
71354,-111.111111111111,4,2,1,46,0,0
71583,-99.9999999999999,4,2,1,47,0,0
71812,-111.111111111111,4,2,1,48,0,0
72041,-90.9090909090908,4,2,1,49,0,0
72270,-111.111111111111,4,2,1,50,0,0
72499,-111.111111111111,4,2,1,40,0,0
74102,-200,4,2,22,30,0,0
75247,-133.333333333333,4,2,22,30,0,0
75476,-133.333333333333,4,2,1,40,0,0
75705,-133.333333333333,4,2,14,40,0,0
76163,-133.333333333333,4,2,1,50,0,0
77308,-133.333333333333,4,2,1,54,0,0
78453,-181.818181818181,4,2,1,54,0,0
79827,-83.3333333333333,4,2,1,60,0,1
86926,-83.3333333333333,4,2,14,60,0,1
87155,-83.3333333333333,4,2,1,60,0,1
94026,-83.3333333333333,4,2,14,60,0,1
94484,-83.3333333333333,4,2,1,60,0,1
98606,-83.3333333333333,4,2,14,60,0,1
98835,-83.3333333333333,4,2,1,60,0,1
101354,-83.3333333333333,4,2,14,60,0,1
101812,-83.3333333333333,4,2,1,60,0,1
108911,-83.3333333333333,4,2,14,60,0,1
109140,-200,4,2,1,60,0,0
109827,-200,4,2,22,30,0,0
112117,-200,4,2,22,35,0,0
112346,-200,4,2,22,40,0,0
112804,-111.111111111111,4,2,1,50,0,0
114178,-111.111111111111,4,2,14,50,0,0
116010,-200,4,2,22,40,0,0
116468,-100,4,2,1,55,0,0
116812,-100,4,2,99,5,0,0
116926,-100,4,2,1,55,0,0
123568,-100,4,2,14,55,0,0
123797,-100,4,2,1,55,0,0
124140,-100,4,2,99,5,0,0
124255,-100,4,2,1,55,0,0
130896,-100,4,2,14,55,0,0
131125,-108.695652173913,4,2,1,50,0,0
145094,-108.695652173913,4,2,14,45,0,0
145781,-128.205128205128,4,2,1,40,0,0
152652,-128.205128205128,4,2,14,40,0,0
152881,-128.205128205128,4,2,1,40,0,0
153110,-111.111111111111,4,2,1,45,0,0
159980,-111.111111111111,4,2,14,45,0,0
160209,-111.111111111111,4,2,1,45,0,0
160438,-100,4,2,1,48,0,0
166850,-100,4,2,14,48,0,0
167079,-100,4,2,1,48,0,0
167537,-125,4,2,1,44,0,0
171201,-125,4,2,14,44,0,0
171430,-111.111111111111,4,2,1,44,0,0
171888,-111.111111111111,4,2,1,45,0,0
172117,-111.111111111111,4,2,1,46,0,0
172346,-99.9999999999999,4,2,1,47,0,0
172575,-111.111111111111,4,2,1,48,0,0
172804,-90.9090909090908,4,2,1,49,0,0
173033,-111.111111111111,4,2,1,50,0,0
173262,-111.111111111111,4,2,1,40,0,0
174865,-200,4,2,22,30,0,0
176010,-133.333333333333,4,2,22,30,0,0
176239,-200,4,2,1,40,0,0
176468,-133.333333333333,4,2,14,40,0,0
176926,-133.333333333333,4,2,1,50,0,0
178071,-133.333333333333,4,2,1,54,0,0
178987,-133.333333333333,4,2,1,44,0,0
179560,-133.333333333333,4,2,1,46,0,0
179903,-133.333333333333,4,2,1,48,0,0
180132,-133.333333333333,4,2,14,50,0,0
180590,-83.3333333333333,4,2,1,60,0,1
187690,-83.3333333333333,4,2,14,60,0,1
187919,-83.3333333333333,4,2,1,60,0,1
194789,-83.3333333333333,4,2,14,60,0,1
195247,-83.3333333333333,4,2,1,60,0,1
199369,-83.3333333333333,4,2,14,60,0,1
199598,-83.3333333333333,4,2,1,60,0,1
202117,-83.3333333333333,4,2,14,60,0,1
202575,-83.3333333333333,4,2,1,60,0,1
209674,-83.3333333333333,4,2,14,60,0,1
209903,-76.9230769230769,4,2,1,56,0,0
213339,-76.9230769230769,4,2,14,56,0,0
213568,-76.9230769230769,4,2,1,56,0,0
215171,-76.9230769230769,4,2,14,56,0,0
215400,-76.9230769230769,4,2,1,56,0,0
216774,-76.9230769230769,4,2,14,56,0,0
217232,-76.9230769230769,4,2,1,56,0,0
217919,-76.9230769230769,4,2,14,56,0,0
218148,-76.9230769230769,4,2,1,56,0,0
218377,-76.9230769230769,4,2,1,56,0,0
220209,-76.9230769230769,4,2,14,56,0,0
220438,-76.9230769230769,4,2,1,56,0,0
224331,-76.9230769230769,4,2,14,56,0,0
224560,-76.9230769230769,4,2,1,58,0,0
225018,-76.9230769230769,4,2,1,59,0,0
225247,-76.9230769230769,4,2,1,60,0,0
225476,-76.9230769230769,4,2,1,61,0,0
225705,-76.9230769230769,4,2,1,62,0,0
225934,-76.9230769230769,4,2,1,63,0,0
226163,-76.9230769230769,4,2,1,64,0,0
226278,-76.9230769230769,4,2,1,65,0,0
226392,-90.9090909090909,4,2,1,50,0,0
226421,-90.9090909090909,4,2,14,24,0,0
226850,-90.9090909090909,4,2,22,24,0,0
228224,-83.3333333333333,4,2,1,60,0,1
235323,-83.3333333333333,4,2,14,60,0,1
235552,-83.3333333333333,4,2,1,60,0,1
242423,-83.3333333333333,4,2,14,60,0,1
242881,-83.3333333333333,4,2,1,60,0,1
247003,-83.3333333333333,4,2,14,60,0,1
247232,-83.3333333333333,4,2,1,60,0,1
249751,-83.3333333333333,4,2,14,60,0,1
250209,-83.3333333333333,4,2,1,60,0,1
257308,-83.3333333333333,4,2,14,60,0,1
257537,-200,4,2,1,60,0,0
258224,-200,4,2,22,30,0,0
260514,-200,4,2,22,35,0,0
260743,-200,4,2,22,40,0,0
261201,-111.111111111111,4,2,1,50,0,0
262575,-111.111111111111,4,2,14,50,0,0
264407,-200,4,2,22,40,0,0
264865,-100,4,2,1,55,0,0
265209,-100,4,2,99,5,0,0
265323,-100,4,2,1,55,0,0
271965,-100,4,2,14,55,0,0
272194,-100,4,2,1,55,0,0
272537,-100,4,2,99,5,0,0
272652,-100,4,2,1,55,0,0
279293,-100,4,2,14,55,0,0
279522,-117.647058823529,4,2,1,45,0,0
286850,-133.333333333333,4,2,1,40,0,0
293949,535.714285714286,4,2,1,30,1,0
294216,937.5,4,2,22,20,1,0
294684,960,4,2,22,20,1,0
295164,983.606557377049,4,2,22,20,1,0
295655,916.030534351145,4,2,22,20,1,0
296113,983.606557377049,4,2,22,20,1,0
296358,888.888888888889,4,2,22,20,1,0
296580,944.88188976378,4,2,22,20,1,0
296816,960,4,2,22,18,1,0
297296,1090.90909090909,4,2,22,16,1,0
297568,1132.07547169811,4,2,22,16,1,0
297851,1192.84294234592,4,2,22,16,1,0
298149,1016.94915254237,4,2,22,16,1,0
298403,1312.91028446389,4,2,22,16,1,0
298731,1250,4,2,22,16,1,0
299043,1395.3488372093,4,2,22,14,1,0
299391,1724.13793103448,4,2,22,14,1,0
299822,1666.66666666667,4,2,22,14,1,0
300238,1500,4,2,22,14,1,0
301738,1840.49079754601,4,2,22,14,1,0
301968,1023.89078498294,4,2,22,14,1,0
302031,1217.03853955375,4,2,22,14,1,0
303248,1935.48387096774,4,2,22,13,1,0
303731,2255.63909774436,4,2,22,12,1,0
304294,2479.33884297521,4,2,22,11,1,0
304913,2654.86725663717,4,2,22,10,1,0
305576,3234.50134770889,4,2,22,9,1,0
306384,-100,4,2,22,8,0,0

[Colours]
Combo1 : 170,245,170
Combo2 : 255,160,160
Combo3 : 255,200,140
Combo4 : 250,190,230

[HitObjects]
49,95,1049,6,0,B|132:73|114:131|205:110,1,162.5,6|0,0:1|0:0,0:0:0:0:
277,77,2423,2,0,L|289:117,1,32.5,2|0,0:1|0:0,0:0:0:0:
363,131,2881,2,0,P|316:145|297:217,1,130,2|0,0:1|0:0,0:0:0:0:
348,276,4026,2,0,L|385:273,2,32.5,2|2|2,0:1|0:0|0:0,0:0:0:0:
283,325,4713,6,0,P|237:308|182:317,2,97.5,2|2|2,0:1|0:0|0:0,0:0:0:0:
414,278,6545,2,0,L|428:141,1,130,2|2,0:1|0:1,0:0:0:0:
427,148,8377,6,0,P|429:93|437:42,4,90.9999972229005,14|8|8|8|8,0:1|0:1|0:1|0:1|0:1,0:0:0:0:
472,233,10438,5,2,0:1:0:0:
472,233,10667,1,10,0:1:0:0:
401,264,10896,2,0,P|384:264|345:255,1,45.4999986114502,2|8,0:1|0:1,0:0:0:0:
286,224,11354,1,2,0:1:0:0:
286,224,11583,1,10,0:1:0:0:
223,269,11812,1,10,0:3:0:0:
223,269,12041,6,0,L|214:370,3,90.9999972229005,10|8|8|8,0:1|0:1|0:1|0:1,0:0:0:0:
214,359,13873,6,0,B|213:334|223:315|223:315|209:297|207:272|207:272|238:212|205:124,1,227.499993057251,2|0,0:2|0:1,0:0:0:0:
189,131,15132,1,8,0:0:0:0:
166,131,15247,2,0,P|143:131|122:123,1,45.4999986114502,8|8,0:1|0:1,0:0:0:0:
73,41,15705,6,0,L|228:31,1,130,14|10,0:3|0:0,0:0:0:0:
203,33,16621,2,0,P|233:58|266:72,1,65,2|8,0:0|0:3,0:0:0:0:
345,84,17079,2,0,P|383:80|417:67,1,65,10|0,0:0|0:0,0:0:0:0:
506,4,17537,6,0,P|494:50|496:84,1,65,10|2,0:3|0:0,0:0:0:0:
504,157,17995,1,10,0:0:0:0:
433,215,18224,2,0,L|354:202,1,65,2|0,0:0|0:0,0:0:0:0:
285,127,18682,2,0,L|364:114,2,65,10|10|2,0:3|0:0|0:0,0:0:0:0:
220,215,19369,6,0,P|238:151|199:74,1,130,10|8,0:3|0:0,0:0:0:0:
149,30,20056,2,0,L|64:22,1,65,2|0,0:0|0:0,0:0:0:0:
217,93,20514,2,0,L|302:101,1,65,2|8,0:0|0:0,0:0:0:0:
145,150,20972,6,0,P|125:90|148:31,1,130,2|2,0:0|0:0,0:0:0:0:
241,13,21659,1,10,0:0:0:0:
281,99,21888,2,0,B|340:118|341:76|408:99,1,130,2|8,0:0|0:3,0:0:0:0:
483,170,22575,1,8,0:0:0:0:
481,186,22690,1,8,0:0:0:0:
480,202,22804,1,8,0:3:0:0:
478,218,22919,1,8,0:3:0:0:
476,234,23033,6,0,P|418:258|358:238,1,130,14|10,0:3|0:0,0:0:0:0:
357,237,23949,2,0,P|321:220|286:215,1,65,2|8,0:0|0:3,0:0:0:0:
206,224,24407,2,0,P|170:237|140:259,1,65,10|0,0:0|0:0,0:0:0:0:
62,199,24865,6,0,L|54:129,1,65,10|2,0:3|0:0,0:0:0:0:
80,47,25323,1,10,0:0:0:0:
163,82,25552,2,0,P|195:83|242:69,1,65,2|0,0:0|0:0,0:0:0:0:
307,34,26010,1,2,0:0:0:0:
374,95,26239,1,10,0:0:0:0:
464,33,26468,6,0,P|431:90|436:178,1,130,14|8,0:3|0:3,0:0:0:0:
481,226,27155,2,0,P|427:201|339:204,1,130,8|0,0:0|0:0,0:0:0:0:
276,249,27842,2,0,L|263:178,2,65,10|10|2,0:3|0:0|0:0,0:0:0:0:
225,342,28529,6,0,P|171:357|87:323,1,130,10|8,0:3|0:0,0:0:0:0:
63,253,29216,2,0,L|50:172,2,65,8|8|8,0:0|0:0|0:3,0:0:0:0:
153,258,29903,2,0,L|166:177,1,65,8|8,0:0|0:3,0:0:0:0:
218,112,30361,6,0,P|261:95|331:102,1,110.50000210762,14|8,0:1|0:1,0:0:0:0:
412,104,31049,2,0,P|400:128|390:156,1,55.2500010538101,2|8,0:0|0:1,0:0:0:0:
453,217,31507,2,0,P|465:192|474:166,2,55.2500010538101,2|10|10,0:0|0:1|0:3,0:0:0:0:
376,274,32194,6,0,P|322:259|267:262,1,110.50000210762,10|8,0:1|0:1,0:0:0:0:
193,309,32881,2,0,L|183:377,1,55.2500010538101,2|8,0:0|0:1,0:0:0:0:
105,323,33339,2,0,L|100:258,2,55.2500010538101,2|10|10,0:0|0:1|0:3,0:0:0:0:
12,360,34026,6,0,P|65:360|104:322,1,110.50000210762,10|8,0:1|0:1,0:0:0:0:
80,242,34713,1,2,0:0:0:0:
80,242,34942,2,0,P|52:195|66:143,1,110.50000210762,10|8,0:1|0:1,0:0:0:0:
129,83,35629,5,10,0:3:0:0:
142,84,35743,1,10,0:3:0:0:
155,86,35858,2,0,L|214:77,2,55.2500010538101,10|2|10,0:1|0:0|0:1,0:0:0:0:
105,159,36545,2,0,P|109:197|127:227,1,55.2500010538101,2|10,0:0|0:1,0:0:0:0:
204,214,37003,2,0,P|213:188|214:160,2,55.2500010538101,2|10|2,0:0|0:1|0:0,0:0:0:0:
141,290,37690,6,0,P|156:238|203:213,1,110.50000210762,10|8,0:1|0:1,0:0:0:0:
277,261,38377,2,0,L|288:336,1,55.2500010538101,2|8,0:0|0:1,0:0:0:0:
372,325,38835,2,0,L|383:266,2,55.2500010538101,2|10|10,0:0|0:1|0:3,0:0:0:0:
441,379,39522,6,0,P|489:361|493:291,1,110.50000210762,10|8,0:1|0:1,0:0:0:0:
461,228,40209,2,0,P|452:195|455:160,1,55.2500010538101,2|8,0:0|0:1,0:0:0:0:
484,91,40667,2,0,P|493:58|490:23,2,55.2500010538101,2|10|10,0:0|0:1|0:3,0:0:0:0:
378,108,41354,6,0,P|323:83|260:84,1,110.50000210762,10|8,0:1|0:1,0:0:0:0:
197,126,42041,1,2,0:0:0:0:
197,126,42270,2,0,L|217:243,1,110.50000210762,8|8,0:1|0:1,0:0:0:0:
281,295,42957,5,10,0:3:0:0:
294,292,43071,1,10,0:3:0:0:
307,289,43186,2,0,L|366:298,2,55.2500010538101,10|2|10,0:1|0:0|0:1,0:0:0:0:
215,234,43873,2,0,L|160:225,1,55.2500010538101,2|8,0:1|0:1,0:0:0:0:
69,264,44331,2,0,L|58:205,2,55.2500010538101,2|10|10,0:1|0:1|0:3,0:0:0:0:
133,346,45018,6,0,P|174:324|249:319,1,110.50000210762,14|8,0:1|0:1,0:0:0:0:
323,352,45705,1,2,0:0:0:0:
323,352,45934,2,0,P|377:361|430:350,1,110.50000210762,8|10,0:1|0:1,0:0:0:0:
469,272,46621,1,10,0:3:0:0:
469,272,46850,6,0,L|473:151,1,110.50000210762,10|8,0:1|0:1,0:0:0:0:
438,79,47537,1,2,0:0:0:0:
364,127,47766,2,0,P|335:126|310:120,1,55.2500010538101,10|2,0:1|0:0,0:0:0:0:
242,62,48224,2,0,P|215:55|187:54,1,55.2500010538101,10|10,0:1|0:3,0:0:0:0:
116,114,48682,6,0,L|129:223,1,110.50000210762,10|8,0:1|0:1,0:0:0:0:
178,303,49369,1,2,0:0:0:0:
178,303,49598,2,0,P|225:283|289:284,1,110.50000210762,8|10,0:1|0:1,0:0:0:0:
365,329,50285,1,10,0:3:0:0:
365,329,50514,6,0,L|376:200,1,110.50000210762,10|10,0:1|0:1,0:0:0:0:
430,150,51201,2,0,P|457:144|499:144,1,55.2500010538101,2|8,0:0|0:1,0:0:0:0:
484,142,51888,2,0,L|487:80,1,55.2500010538101,10|10,0:1|0:3,0:0:0:0:
405,38,52346,6,0,L|277:20,1,110.50000210762,10|10,0:1|0:1,0:0:0:0:
215,59,53033,2,0,P|223:82|228:113,1,55.2500010538101,2|8,0:0|0:1,0:0:0:0:
227,112,53720,2,0,P|219:135|214:166,1,55.2500010538101,10|10,0:1|0:3,0:0:0:0:
216,179,54064,1,10,0:3:0:0:
219,192,54178,6,0,P|229:233|225:306,1,110.50000210762,10|10,0:1|0:1,0:0:0:0:
153,351,54865,2,0,L|80:337,1,55.2500010538101,2|8,0:0|0:1,0:0:0:0:
99,341,55552,2,0,L|91:262,1,55.2500010538101,10|8,0:1|0:3,0:0:0:0:
39,204,56010,6,0,L|48:85,1,110.50000210762,10|8,0:1|0:1,0:0:0:0:
110,32,56697,2,0,P|128:26|176:33,1,55.2500010538101,2|8,0:0|0:1,0:0:0:0:
236,77,57155,2,0,P|254:83|302:76,1,55.2500010538101,2|10,0:0|0:1,0:0:0:0:
362,30,57613,1,10,0:3:0:0:
362,30,57842,6,0,P|340:77|367:152,1,110.50000210762,10|8,0:1|0:1,0:0:0:0:
436,194,58529,2,0,L|508:188,2,55.2500010538101,8|8|8,0:0|0:0|0:3,0:0:0:0:
368,251,59216,1,10,0:3:0:0:
366,264,59331,1,10,0:3:0:0:
364,278,59445,1,10,0:3:0:0:
362,292,59560,1,10,0:3:0:0:
360,305,59674,6,0,P|323:347|243:315,1,130,14|10,0:3|0:3,0:0:0:0:
239,238,60361,2,0,L|248:165,1,65,10|2,0:2|0:0,0:0:0:0:
194,91,60819,1,10,0:3:0:0:
127,162,61049,2,0,L|126:226,1,65,10|10,0:0|0:3,0:0:0:0:
98,320,61507,6,0,P|75:329|1:309,2,97.5,10|8|10,0:3|0:3|0:0,0:0:0:0:
98,320,62652,2,0,L|92:256,2,65,10|10|10,0:3|0:0|0:3,0:0:0:0:
194,358,63339,6,0,P|242:330|328:329,1,130,14|10,0:3|0:3,0:0:0:0:
402,368,64026,2,0,L|413:284,1,65,10|2,0:0|0:0,0:0:0:0:
501,281,64484,2,0,L|512:197,1,65,10|10,0:3|0:0,0:0:0:0:
427,174,64942,1,10,0:3:0:0:
427,174,65171,6,0,L|410:302,1,130,10|10,0:3|0:3,0:0:0:0:
321,344,65858,2,0,L|313:263,1,65,10|10,0:0|0:3,0:0:0:0:
258,201,66316,2,0,L|266:120,1,65,10|10,0:3|0:0,0:0:0:0:
270,119,66659,1,10,0:0:0:0:
279,108,66774,6,0,P|327:87|443:109,1,156,14|8,0:3|0:0,0:0:0:0:
495,147,67690,2,0,L|482:216,1,52,2|10,0:0|0:3,0:0:0:0:
450,273,68148,2,0,L|463:342,1,52,10|10,0:3|0:0,0:0:0:0:
363,364,68606,6,0,P|316:341|266:351,1,104,14|8,0:3|0:3,0:0:0:0:
187,327,69293,2,0,L|181:257,1,52,10|0,0:0|0:0,0:0:0:0:
189,264,69636,1,8,0:0:0:0:
194,252,69751,2,0,L|188:182,1,52,10|8,0:3|0:3,0:0:0:0:
118,156,70209,2,0,L|112:86,1,52,8|8,0:0|0:3,0:0:0:0:
201,34,70667,5,14,0:3:0:0:
201,34,71125,2,0,P|229:29|258:32,1,58.4999982147217,8|8,3:2|3:2,0:0:0:0:
354,75,71583,2,0,P|370:93|388:141,1,65,8|8,3:2|3:2,0:0:0:0:
385,235,72041,2,0,P|377:258|344:297,1,71.5000021820069,8|8,3:2|3:2,0:0:0:0:
251,334,72499,5,14,0:3:0:0:
95,258,74102,5,2,0:0:0:0:
95,258,74331,2,0,L|87:192,2,65,2|2|2,0:1|0:0|0:0,0:0:0:0:
142,339,75476,5,8,0:0:0:0:
158,334,75590,1,8,0:0:0:0:
175,333,75705,2,0,L|215:338,3,24.3750009298325,8|8|8|8,0:3|0:3|0:3|0:3,0:3:0:0:
244,336,76163,6,0,P|255:267|247:235,1,97.50000371933,14|8,0:3|0:3,0:0:0:0:
196,159,76850,1,12,0:3:0:0:
46,260,77308,5,8,0:3:0:0:
42,276,77423,1,8,0:3:0:0:
39,292,77537,2,0,L|40:334,3,24.3750009298325,8|8|8|8,0:0|0:0|0:0|0:0,0:0:0:0:
71,53,79827,6,0,P|116:36|195:101,1,155.999995239258,14|10,0:3|0:0,0:0:0:0:
127,182,80514,1,10,0:3:0:0:
117,199,80629,2,0,P|104:250|141:318,1,116.999996429443,8|8,0:0|0:3,0:0:0:0:
237,304,81201,1,8,0:0:0:0:
316,378,81430,1,10,0:3:0:0:
418,312,81659,6,0,L|425:141,1,155.999995239258,10|10,0:3|0:0,0:0:0:0:
497,71,82346,1,10,0:3:0:0:
490,89,82461,2,0,P|436:108|379:89,1,116.999996429443,8|8,0:0|0:3,0:0:0:0:
298,19,83033,1,8,0:0:0:0:
235,108,83262,1,10,0:3:0:0:
139,31,83491,6,0,P|94:25|45:34,1,77.999997619629,10|8,0:3|0:3,0:0:0:0:
7,123,83949,1,10,0:0:0:0:
75,207,84178,1,10,0:3:0:0:
92,197,84293,2,0,P|137:191|186:200,1,77.999997619629,8|8,0:0|0:0,0:0:0:0:
185,205,84636,2,0,L|198:316,1,77.999997619629,10|8,0:3|0:0,0:0:0:0:
286,343,85094,6,0,L|295:265,1,77.999997619629,10|8,0:3|0:3,0:0:0:0:
361,178,85552,1,10,0:3:0:0:
443,249,85781,1,8,0:0:0:0:
496,153,86010,1,10,0:3:0:0:
498,133,86125,2,0,P|453:98|383:108,1,116.999996429443,8|8,0:0|0:3,0:0:0:0:
338,186,86697,1,8,0:0:0:0:
335,206,86812,1,8,0:0:0:0:
333,225,86926,1,8,0:3:0:0:
330,245,87041,1,8,0:3:0:0:
327,264,87155,6,0,P|270:292|203:233,1,155.999995239258,14|8,0:3|0:0,0:0:0:0:
191,131,87842,1,10,0:3:0:0:
204,116,87957,2,0,P|238:96|288:98,1,77.999997619629,8|8,0:0|0:0,0:0:0:0:
294,99,88300,2,0,P|332:97|365:77,2,77.999997619629,10|10|10,0:3|0:0|0:3,0:0:0:0:
190,31,88987,6,0,P|154:17|116:23,2,77.999997619629,10|10|10,0:3|0:3|0:0,0:0:0:0:
272,110,89674,1,10,0:3:0:0:
261,126,89789,2,0,P|245:175|259:247,1,116.999996429443,10|8,0:0|0:3,0:0:0:0:
347,298,90361,1,8,0:0:0:0:
352,189,90590,1,10,0:3:0:0:
254,238,90819,6,0,P|206:240|162:218,1,77.999997619629,10|8,0:3|0:3,0:0:0:0:
222,109,91278,2,0,P|260:104|297:116,1,77.999997619629,10|8,0:0|0:3,0:0:0:0:
357,228,91736,6,0,P|345:264|349:303,1,77.999997619629,10|8,0:3|0:3,0:0:0:0:
456,340,92194,2,0,P|467:303|463:264,1,77.999997619629,10|8,0:2|0:3,0:0:0:0:
410,155,92652,6,0,L|226:134,1,155.999995239258,10|8,0:3|0:0,0:0:0:0:
158,188,93339,2,0,L|147:98,2,77.999997619629,8|8|8,0:0|0:0|0:3,0:0:0:0:
241,258,94026,1,8,0:3:0:0:
260,260,94140,1,8,0:3:0:0:
279,262,94255,1,8,0:3:0:0:
299,265,94369,1,8,0:3:0:0:
319,266,94484,6,0,P|350:197|322:116,1,155.999995239258,14|8,0:3|0:0,0:0:0:0:
232,69,95171,1,10,0:3:0:0:
215,80,95285,2,0,L|97:71,1,116.999996429443,8|8,0:0|0:3,0:0:0:0:
23,150,95858,1,8,0:0:0:0:
53,254,96087,1,10,0:3:0:0:
161,199,96316,6,0,L|320:188,1,155.999995239258,10|8,0:3|0:0,0:0:0:0:
420,154,97003,1,10,0:3:0:0:
436,163,97117,2,0,P|465:214|460:271,1,116.999996429443,8|8,0:0|0:3,0:0:0:0:
384,349,97690,1,8,0:0:0:0:
301,277,97919,1,10,0:3:0:0:
188,358,98148,6,0,P|149:363|109:348,1,77.999997619629,14|8,0:3|0:0,0:0:0:0:
99,337,98491,1,8,0:0:0:0:
89,319,98606,1,8,0:3:0:0:
31,223,98835,2,0,L|48:59,1,155.999995239258,10|10,0:3|0:3,0:0:0:0:
47,67,99751,6,0,P|81:79|133:69,1,77.999997619629,14|0,0:3|0:0,0:0:0:0:
214,16,100209,1,8,0:0:0:0:
269,109,100438,1,8,0:0:0:0:
362,53,100667,1,8,0:3:0:0:
380,45,100781,2,0,P|417:40|472:53,1,77.999997619629,14|8,0:0|0:3,0:0:0:0:
471,60,101125,2,0,L|485:147,1,77.999997619629,10|10,0:0|0:3,0:0:0:0:
501,244,101583,1,10,0:3:0:0:
381,195,101812,6,0,B|298:170|305:218|228:193,1,155.999995239258,14|8,0:3|0:0,0:0:0:0:
152,114,102499,1,10,0:3:0:0:
160,96,102613,2,0,P|195:79|241:79,1,77.999997619629,8|8,0:0|0:0,0:0:0:0:
249,89,102957,2,0,P|287:87|322:70,2,77.999997619629,10|10|10,0:3|0:0|0:3,0:0:0:0:
145,43,103644,6,0,P|111:25|72:22,2,77.999997619629,10|10|10,0:3|0:3|0:0,0:0:0:0:
166,150,104331,1,10,0:3:0:0:
156,166,104445,2,0,P|136:221|149:277,1,116.999996429443,8|8,0:0|0:3,0:0:0:0:
250,318,105018,1,8,0:0:0:0:
334,249,105247,1,10,0:3:0:0:
391,358,105476,6,0,P|417:373|473:379,1,77.999997619629,14|8,0:3|0:3,0:0:0:0:
511,265,105934,2,0,P|489:243|437:222,1,77.999997619629,10|8,0:0|0:3,0:0:0:0:
318,335,106392,6,0,P|344:350|400:356,1,77.999997619629,10|8,0:3|0:3,0:0:0:0:
446,224,106850,2,0,P|424:202|372:181,1,77.999997619629,10|8,0:0|0:3,0:0:0:0:
251,218,107308,6,0,P|325:233|381:182,1,155.999995239258,10|8,0:3|0:0,0:0:0:0:
350,78,107995,1,10,0:3:0:0:
334,67,108110,2,0,L|205:54,1,116.999996429443,8|8,0:0|0:3,0:0:0:0:
121,115,108682,1,8,0:0:0:0:
117,133,108797,1,8,0:0:0:0:
114,152,108911,1,8,0:3:0:0:
109,172,109026,1,8,0:3:0:0:
106,190,109140,5,14,0:3:0:0:
475,22,112117,5,2,0:1:0:0:
456,98,112346,1,8,0:0:0:0:
459,111,112461,1,8,0:0:0:0:
462,125,112575,1,8,0:1:0:0:
465,140,112690,1,8,0:1:0:0:
467,153,112804,6,0,L|447:294,1,116.999996429443,14|8,0:3|0:0,0:0:0:0:
368,345,113491,1,6,0:0:0:0:
315,286,113720,2,0,P|288:277|255:275,1,58.4999982147217,2|8,0:0|0:0,0:0:0:0:
178,345,114178,5,10,0:3:0:0:
166,219,114407,1,10,0:3:0:0:
145,235,116010,6,0,L|148:191,1,32.5,2|0,0:0|0:0,0:0:0:0:
190,107,116468,6,0,P|240:77|318:90,1,130,14|10,0:3|0:0,0:0:0:0:
309,85,117384,2,0,L|321:160,1,65,2|8,0:0|0:3,0:0:0:0:
362,229,117842,2,0,L|350:304,1,65,10|0,0:0|0:0,0:0:0:0:
259,353,118300,6,0,L|252:281,1,65,10|2,0:3|0:0,0:0:0:0:
195,217,118758,1,10,0:0:0:0:
143,291,118987,2,0,P|110:291|79:282,1,65,2|0,0:0|0:0,0:0:0:0:
64,192,119445,2,0,P|91:175|123:167,2,65,10|10|2,0:3|0:0|0:0,0:0:0:0:
33,290,120132,6,0,P|88:321|143:290,1,130,10|8,0:3|0:0,0:0:0:0:
197,217,120819,2,0,L|208:135,1,65,2|0,0:0|0:0,0:0:0:0:
296,140,121278,2,0,L|309:213,1,65,2|8,0:0|0:0,0:0:0:0:
368,285,121736,6,0,P|425:297|473:239,1,130,2|2,0:0|0:0,0:0:0:0:
442,163,122423,1,10,0:0:0:0:
353,182,122652,2,0,B|224:175,1,130,2|8,0:0|0:3,0:0:0:0:
154,115,123339,1,8,0:0:0:0:
156,99,123453,1,8,0:0:0:0:
157,83,123568,1,8,0:3:0:0:
159,67,123682,1,8,0:3:0:0:
161,51,123797,6,0,P|219:27|285:48,1,130,14|10,0:3|0:0,0:0:0:0:
281,45,124713,2,0,L|285:120,1,65,2|8,0:0|0:3,0:0:0:0:
251,194,125171,2,0,L|247:269,1,65,10|0,0:0|0:0,0:0:0:0:
339,344,125629,6,0,L|354:277,1,65,10|2,0:3|0:0,0:0:0:0:
429,231,126087,1,10,0:0:0:0:
471,150,126316,2,0,L|456:83,1,65,2|0,0:0|0:0,0:0:0:0:
384,30,126774,1,2,0:0:0:0:
323,97,127003,1,10,0:0:0:0:
218,42,127232,6,0,L|82:32,1,130,14|8,0:3|0:3,0:0:0:0:
25,97,127919,2,0,P|48:143|49:233,1,130,8|0,0:0|0:0,0:0:0:0:
18,305,128606,2,0,L|5:376,2,65,10|10|2,0:3|0:0|0:0,0:0:0:0:
83,214,129293,6,0,P|137:199|221:233,1,130,10|8,0:3|0:0,0:0:0:0:
251,299,129980,2,0,L|245:371,2,65,8|8|8,0:0|0:0|0:3,0:0:0:0:
309,229,130667,2,0,L|321:148,1,65,8|8,0:0|0:3,0:0:0:0:
372,77,131125,6,0,P|402:51|487:64,1,119.599995985108,14|8,0:3|0:0,0:0:0:0:
507,141,131812,2,0,L|501:204,1,59.7999979925538,2|0,0:0|0:0,0:0:0:0:
424,250,132270,2,0,L|407:182,2,59.7999979925538,10|10|2,0:3|0:0|0:0,0:0:0:0:
389,342,132957,6,0,P|332:362|263:332,1,119.599995985108,10|8,0:3|0:0,0:0:0:0:
225,271,133644,2,0,L|234:200,1,59.7999979925538,2|0,0:0|0:0,0:0:0:0:
194,130,134102,2,0,L|185:59,2,59.7999979925538,10|10|2,0:3|0:0|0:0,0:0:0:0:
102,183,134789,6,0,P|160:177|194:129,1,119.599995985108,10|8,0:3|0:0,0:0:0:0:
176,47,135476,1,2,0:0:0:0:
176,47,135705,2,0,P|122:23|69:46,1,119.599995985108,2|8,0:0|0:0,0:0:0:0:
29,128,136392,5,2,0:3:0:0:
28,142,136507,1,2,0:3:0:0:
28,157,136621,2,0,L|36:221,2,59.7999979925538,8|2|10,0:3|0:0|0:0,0:0:0:0:
84,76,137308,2,0,P|137:61|210:76,1,119.599995985108,2|8,0:0|0:3,0:0:0:0:
259,147,137995,2,0,L|256:212,1,59.7999979925538,8|10,0:0|0:0,0:0:0:0:
257,221,138339,1,8,0:0:0:0:
257,235,138453,6,0,P|311:260|388:238,1,119.599995985108,14|10,0:3|0:0,0:0:0:0:
436,191,139140,2,0,L|428:122,1,59.7999979925538,2|0,0:0|0:0,0:0:0:0:
369,64,139598,2,0,L|377:-5,2,59.7999979925538,10|10|2,0:3|0:0|0:0,0:0:0:0:
310,132,140285,6,0,P|249:142|193:105,1,119.599995985108,10|8,0:3|0:0,0:0:0:0:
137,51,140972,2,0,P|96:40|54:39,1,59.7999979925538,2|0,0:0|0:0,0:0:0:0:
11,98,141430,2,0,P|0:139|-1:181,2,59.7999979925538,10|10|2,0:3|0:0|0:0,0:0:0:0:
93,39,142117,6,0,L|220:35,1,119.599995985108,10|8,0:3|0:0,0:0:0:0:
306,35,142804,1,2,0:0:0:0:
306,35,143033,2,0,P|285:74|285:154,1,119.599995985108,2|8,0:0|0:0,0:0:0:0:
367,197,143720,5,2,0:0:0:0:
381,196,143835,1,2,0:0:0:0:
395,194,143949,2,0,L|456:203,2,59.7999979925538,10|2|8,0:3|0:0|0:0,0:0:0:0:
316,256,144636,2,0,L|308:321,1,59.7999979925538,8|8,0:0|0:0,0:0:0:0:
216,284,145094,2,0,L|208:224,2,59.7999979925538,10|10|10,0:3|0:3|0:3,0:0:0:0:
159,355,145781,6,0,P|100:362|36:292,2,152.100005105896,14|2|2,0:3|0:0|0:0,0:0:0:0:
159,355,147613,2,0,L|164:234,1,101.400003403931,2|0,0:0|0:0,0:0:0:0:
201,182,148300,1,2,0:0:0:0:
280,205,148529,2,0,P|308:205|339:195,1,50.7000017019654,2|2,0:0|0:0,0:0:0:0:
401,157,148987,2,0,P|425:150|450:151,1,50.7000017019654,2|2,0:0|0:0,0:0:0:0:
498,227,149445,6,0,L|491:346,1,101.400003403931,2|0,0:0|0:0,0:0:0:0:
425,374,150132,2,0,P|382:348|331:346,1,101.400003403931,2|0,0:0|0:0,0:0:0:0:
257,373,150819,1,2,0:0:0:0:
257,373,151049,2,0,L|196:359,1,50.7000017019654,2|2,0:0|0:0,0:0:0:0:
165,290,151507,2,0,L|226:276,2,50.7000017019654,2|2|2,0:0|0:0|0:0,0:0:0:0:
67,267,152423,5,8,0:0:0:0:
64,254,152537,1,8,0:0:0:0:
62,241,152652,2,0,L|48:210,3,25.3500008509827,8|8|8|8,0:3|0:3|0:3|0:3,0:0:0:0:
32,195,153110,6,0,L|41:73,1,116.999996429443,14|10,0:3|0:0,0:0:0:0:
116,34,153797,2,0,B|179:25|167:60|229:52,1,116.999996429443,2|8,0:0|0:3,0:0:0:0:
312,25,154484,1,10,0:0:0:0:
377,83,154713,1,2,0:0:0:0:
378,97,154827,1,2,0:0:0:0:
380,111,154942,6,0,L|397:231,1,116.999996429443,10|10,0:3|0:0,0:0:0:0:
440,302,155629,2,0,P|391:271|334:279,1,116.999996429443,2|8,0:0|0:3,0:0:0:0:
262,328,156316,1,10,0:0:0:0:
179,297,156545,1,10,0:0:0:0:
169,285,156659,1,8,0:0:0:0:
160,273,156774,6,0,L|170:152,1,116.999996429443,14|8,0:3|0:0,0:0:0:0:
146,71,157461,2,0,P|120:56|85:58,1,58.4999982147217,2|0,0:0|0:0,0:0:0:0:
30,119,157919,2,0,L|10:189,2,58.4999982147217,10|10|2,0:3|0:0|0:0,0:0:0:0:
96,45,158606,6,0,P|127:36|219:52,1,116.999996429443,10|8,0:3|0:0,0:0:0:0:
275,105,159293,1,8,0:3:0:0:
362,44,159522,1,4,0:0:0:0:
425,104,159751,1,10,0:3:0:0:
428,118,159865,1,14,0:2:0:0:
431,132,159980,2,0,L|427:172,3,29.2499991073609,8|8|8|8,0:3|0:3|0:0|0:0,0:0:0:0:
438,191,160438,6,0,P|394:233|321:201,1,130,14|10,0:3|0:3,0:0:0:0:
266,144,161125,2,0,L|264:70,1,65,10|2,0:2|0:0,0:0:0:0:
188,17,161583,1,10,0:3:0:0:
116,83,161812,2,0,L|111:147,1,65,10|10,0:0|0:3,0:0:0:0:
139,241,162270,6,0,P|185:253|233:245,2,97.5,10|8|10,0:3|0:3|0:0,0:0:0:0:
139,241,163415,2,0,L|136:171,2,65,10|10|10,0:3|0:0|0:3,0:0:0:0:
188,350,164102,6,0,P|248:359|315:331,1,130,14|10,0:3|0:3,0:0:0:0:
373,259,164789,2,0,L|354:191,1,65,10|2,0:0|0:0,0:0:0:0:
307,111,165247,2,0,L|322:28,1,65,10|10,0:3|0:0,0:0:0:0:
406,3,165705,1,10,0:3:0:0:
469,77,165934,6,0,L|477:206,1,130,10|10,0:3|0:3,0:0:0:0:
410,278,166621,2,0,P|385:272|328:270,1,65,10|10,0:0|0:3,0:0:0:0:
275,336,167079,2,0,P|242:333|210:326,1,65,10|10,0:3|0:0,0:0:0:0:
195,321,167423,1,10,0:0:0:0:
182,310,167537,6,0,L|168:146,1,156,14|8,0:3|0:0,0:0:0:0:
119,87,168453,2,0,L|54:83,2,52,2|10|10,0:0|0:3|0:3,0:0:0:0:
186,38,169140,1,10,0:0:0:0:
275,98,169369,6,0,L|391:90,1,104,14|8,0:3|0:3,0:0:0:0:
455,123,170056,2,0,P|463:149|460:195,1,52,10|0,0:0|0:0,0:0:0:0:
460,186,170400,1,8,0:0:0:0:
456,198,170514,2,0,P|448:224|451:270,1,52,10|8,0:3|0:3,0:0:0:0:
392,311,170972,2,0,L|320:299,1,52,8|8,0:0|0:3,0:0:0:0:
282,192,171430,5,14,0:3:0:0:
282,192,171888,2,0,P|273:163|257:139,1,58.4999982147217,8|8,3:2|3:2,0:0:0:0:
160,85,172346,2,0,P|126:84|95:92,1,65,8|8,3:2|3:2,0:0:0:0:
10,164,172804,2,0,P|0:192|-2:234,1,71.5000021820069,8|8,3:2|3:2,0:0:0:0:
27,340,173262,5,14,0:3:0:0:
97,116,174865,5,2,0:0:0:0:
97,116,175094,2,0,L|89:50,2,65,2|2|2,0:1|0:0|0:0,0:0:0:0:
169,171,176239,5,8,0:0:0:0:
184,164,176354,1,8,0:0:0:0:
200,163,176468,2,0,L|240:158,3,24.3750009298325,8|8|8|8,0:3|0:3|0:3|0:3,0:3:0:0:
267,172,176926,6,0,P|278:241|270:273,1,97.50000371933,14|8,0:3|0:3,0:0:0:0:
202,341,177613,1,12,0:3:0:0:
78,239,178071,5,8,0:3:0:0:
74,223,178186,1,8,0:3:0:0:
71,207,178300,2,0,L|72:165,3,24.3750009298325,8|8|8|8,0:0|0:0|0:0|0:0,0:0:0:0:
147,63,178987,5,8,0:3:0:0:
155,75,179102,1,8,0:3:0:0:
165,85,179216,2,0,P|210:95|243:89,1,73.1250027894975,14|12,0:0|0:0,0:0:0:0:
250,86,179674,2,0,P|296:72|358:86,1,97.50000371933,0|8,0:0|0:3,0:0:0:0:
480,262,180590,6,0,L|320:245,1,155.999995239258,14|10,0:3|0:0,0:0:0:0:
237,179,181278,1,10,0:3:0:0:
253,191,181392,2,0,P|270:241|241:315,1,116.999996429443,8|8,0:0|0:3,0:0:0:0:
159,357,181965,1,8,0:0:0:0:
58,313,182194,1,10,0:3:0:0:
115,206,182423,6,0,L|122:35,1,155.999995239258,10|10,0:3|0:0,0:0:0:0:
225,18,183110,1,10,0:3:0:0:
233,36,183224,2,0,L|244:165,1,116.999996429443,8|8,0:0|0:3,0:0:0:0:
322,226,183797,1,8,0:0:0:0:
417,172,184026,1,10,0:3:0:0:
498,243,184255,6,0,P|505:289|496:334,1,77.999997619629,10|8,0:3|0:3,0:0:0:0:
405,373,184713,1,10,0:0:0:0:
314,312,184942,1,10,0:3:0:0:
298,300,185056,2,0,P|254:291|203:301,1,77.999997619629,8|8,0:0|0:0,0:0:0:0:
206,307,185400,2,0,P|167:310|129:301,1,77.999997619629,10|8,0:3|0:0,0:0:0:0:
61,196,185858,6,0,L|70:118,1,77.999997619629,10|8,0:3|0:3,0:0:0:0:
148,42,186316,1,10,0:3:0:0:
229,114,186545,1,8,0:0:0:0:
321,55,186774,1,10,0:3:0:0:
335,42,186888,2,0,P|394:30|455:55,1,116.999996429443,8|8,0:0|0:3,0:0:0:0:
476,162,187461,1,8,0:0:0:0:
473,182,187575,1,8,0:0:0:0:
471,201,187690,1,8,0:3:0:0:
468,221,187804,1,8,0:3:0:0:
465,240,187919,6,0,B|377:261|397:210|312:228,1,155.999995239258,14|8,0:3|0:0,0:0:0:0:
236,304,188606,1,10,0:3:0:0:
225,320,188720,2,0,L|125:307,1,77.999997619629,8|8,0:0|0:0,0:0:0:0:
131,300,189064,2,0,P|124:258|141:205,1,77.999997619629,10|10,0:3|0:0,0:0:0:0:
217,140,189522,6,0,L|318:131,1,77.999997619629,10|8,0:3|0:3,0:0:0:0:
385,192,189980,1,10,0:3:0:0:
470,124,190209,1,10,0:0:0:0:
432,23,190438,1,10,0:3:0:0:
414,32,190552,2,0,L|282:14,1,116.999996429443,10|8,0:0|0:3,0:0:0:0:
224,97,191125,1,8,0:0:0:0:
133,35,191354,1,10,0:3:0:0:
54,136,191583,6,0,P|45:178|55:227,1,77.999997619629,10|8,0:3|0:3,0:0:0:0:
177,263,192041,2,0,P|185:225|181:186,1,77.999997619629,10|8,0:0|0:3,0:0:0:0:
49,212,192499,6,0,P|40:254|50:303,1,77.999997619629,10|8,0:3|0:3,0:0:0:0:
172,339,192957,2,0,P|181:301|177:263,1,77.999997619629,10|8,0:2|0:3,0:0:0:0:
134,129,193415,6,0,P|127:204|176:262,1,155.999995239258,10|8,0:3|0:0,0:0:0:0:
268,204,194102,2,0,L|274:110,2,77.999997619629,8|8|8,0:0|0:0|0:3,0:0:0:0:
342,283,194789,1,8,0:3:0:0:
361,285,194903,1,8,0:3:0:0:
380,287,195018,1,8,0:3:0:0:
400,290,195132,1,8,0:3:0:0:
419,291,195247,6,0,P|467:232|460:157,1,155.999995239258,14|8,0:3|0:0,0:0:0:0:
361,112,195934,1,10,0:3:0:0:
344,123,196049,2,0,L|226:109,1,116.999996429443,8|8,0:0|0:3,0:0:0:0:
141,177,196621,1,8,0:0:0:0:
72,92,196850,1,10,0:3:0:0:
0,195,197079,6,0,L|13:353,1,155.999995239258,10|8,0:3|0:0,0:0:0:0:
119,375,197766,1,10,0:3:0:0:
132,361,197881,2,0,P|182:331|241:336,1,116.999996429443,8|8,0:0|0:3,0:0:0:0:
343,366,198453,1,8,0:0:0:0:
441,317,198682,1,10,0:3:0:0:
394,204,198911,6,0,P|357:189|315:193,1,77.999997619629,14|8,0:3|0:0,0:0:0:0:
303,202,199255,1,8,0:0:0:0:
291,218,199369,1,8,0:3:0:0:
244,318,199598,2,0,L|235:149,1,155.999995239258,10|10,0:3|0:3,0:0:0:0:
235,162,200514,6,0,P|201:150|149:160,1,77.999997619629,14|0,0:3|0:0,0:0:0:0:
89,238,200972,1,8,0:0:0:0:
5,167,201201,1,8,0:0:0:0:
76,83,201430,1,8,0:3:0:0:
93,73,201545,2,0,P|126:58|179:60,1,77.999997619629,14|8,0:0|0:3,0:0:0:0:
185,63,201888,2,0,P|222:72|260:66,1,77.999997619629,10|10,0:0|0:3,0:0:0:0:
359,18,202346,1,10,0:3:0:0:
445,107,202575,6,0,B|445:277,1,155.999995239258,14|8,0:3|0:0,0:0:0:0:
388,356,203262,1,10,0:3:0:0:
371,345,203377,2,0,P|334:332|295:334,1,77.999997619629,8|8,0:0|0:0,0:0:0:0:
276,339,203720,2,0,P|237:340|200:328,2,77.999997619629,10|10|10,0:3|0:0|0:3,0:0:0:0:
340,250,204407,6,0,P|376:238|415:239,2,77.999997619629,10|10|10,0:3|0:3|0:0,0:0:0:0:
236,214,205094,1,10,0:3:0:0:
218,204,205209,2,0,P|198:149|213:93,1,116.999996429443,8|8,0:0|0:3,0:0:0:0:
301,30,205781,1,8,0:0:0:0:
405,60,206010,1,10,0:3:0:0:
344,173,206239,6,0,P|334:211|339:249,1,77.999997619629,14|8,0:3|0:3,0:0:0:0:
471,286,206697,2,0,P|480:248|475:209,1,77.999997619629,10|8,0:0|0:3,0:0:0:0:
339,249,207155,6,0,P|329:286|334:325,1,77.999997619629,10|8,0:3|0:3,0:0:0:0:
466,362,207613,2,0,P|475:324|470:285,1,77.999997619629,10|8,0:0|0:3,0:0:0:0:
386,180,208071,6,0,L|218:157,1,155.999995239258,10|8,0:3|0:0,0:0:0:0:
145,90,208758,1,10,0:3:0:0:
153,101,208873,2,0,P|156:140|143:177,1,77.999997619629,8|8,0:0|0:0,0:0:0:0:
134,190,209216,2,0,L|46:183,2,77.999997619629,10|10|10,0:3|0:0|0:3,0:0:0:0:
261,222,209903,6,0,B|318:218|318:218|354:240|354:240|425:238,2,168.999992263794,14|8|0,0:3|0:0|0:0,0:0:0:0:
194,299,211049,1,10,0:3:0:0:
101,260,211278,1,10,0:0:0:0:
109,159,211507,1,10,0:3:0:0:
116,139,211621,1,10,0:3:0:0:
123,119,211736,6,0,B|163:98|163:98|206:118|206:118|289:112,1,168.999992263794,10|8,0:3|0:0,0:0:0:0:
369,45,212423,1,10,0:3:0:0:
352,57,212537,2,0,B|325:82|325:82|341:179,1,126.749994197846,8|10,0:0|0:3,0:0:0:0:
425,241,213110,1,10,0:0:0:0:
435,259,213224,1,10,0:0:0:0:
439,279,213339,1,10,0:3:0:0:
437,299,213453,1,10,0:3:0:0:
431,319,213568,6,0,B|403:320|403:320|375:311|375:311|347:314,2,84.4999961318971,10|10|8,0:3|0:3|0:0,0:0:0:0:
486,224,214255,1,10,0:3:0:0:
469,210,214369,2,0,B|453:177|453:177|462:130|462:130|438:85,1,126.749994197846,10|10,0:0|0:3,0:0:0:0:
358,20,214942,1,10,0:0:0:0:
338,28,215056,1,10,0:0:0:0:
316,26,215171,1,10,0:3:0:0:
297,35,215285,1,10,0:3:0:0:
276,29,215400,6,0,B|237:28|237:28|220:17|220:17|162:21,1,84.4999961318971,10|10,0:3|0:3,0:0:0:0:
176,28,215743,2,0,B|152:61|152:61|163:137,1,84.4999961318971,10|0,0:3|0:3,0:0:0:0:
168,122,216087,2,0,B|201:126|201:126|217:135|217:135|266:138,1,84.4999961318971,10|14,0:3|0:3,0:0:0:0:
359,154,216545,1,8,0:0:0:0:
379,151,216659,1,8,0:0:0:0:
400,150,216774,2,0,B|441:146|441:146|489:181,1,84.4999961318971,8|8,0:3|0:3,0:0:0:0:
512,292,217232,5,14,0:3:0:0:
413,341,217461,1,10,0:3:0:0:
392,338,217575,1,8,0:3:0:0:
370,335,217690,2,0,B|333:332|333:332|317:323|317:323|261:317,2,84.4999961318971,12|10|10,0:0|0:3|0:2,0:0:0:0:
448,257,218377,2,0,B|457:227|457:227|455:211|455:211|465:165,1,84.4999961318971,10|8,0:3|0:0,0:0:0:0:
415,65,218835,6,0,B|356:49|356:49|304:62|304:62|237:46,1,168.999992263794,2|2,0:0|0:0,0:0:0:0:
152,0,219522,1,10,0:0:0:0:
84,86,219751,2,0,B|69:127|69:127|84:163,1,84.4999961318971,8|8,0:3|0:0,0:0:0:0:
172,231,220209,2,0,B|187:267|187:267|172:308,1,84.4999961318971,8|8,0:3|0:2,0:0:0:0:
55,275,220667,6,0,B|84:269|108:277|108:277|127:262|147:262|147:262|179:271|213:257|213:257|259:277|300:261,1,253.499988395691,14|8,0:3|0:0,0:0:0:0:
384,190,221583,2,0,L|394:104,1,84.4999961318971,8|8,0:3|0:0,0:0:0:0:
325,20,222041,1,10,0:3:0:0:
245,95,222270,1,10,0:0:0:0:
149,36,222499,6,0,B|113:18|65:28|65:28|105:59|102:97|102:97|77:137|92:176,1,253.499988395691,10|8,0:3|0:0,0:0:0:0:
193,220,223415,1,10,0:3:0:0:
214,218,223529,1,10,0:3:0:0:
235,217,223644,1,10,0:0:0:0:
256,215,223758,1,10,0:0:0:0:
277,214,223873,2,0,B|304:244|304:244|302:315,1,84.4999961318971,10|8,0:3|0:0,0:0:0:0:
216,356,224331,1,10,0:3:0:0:
195,353,224445,1,10,0:3:0:0:
173,352,224560,6,0,B|123:341|123:341|72:361|72:361|-4:347,1,168.999992263794,12|8,0:3|3:2,0:0:0:0:
8,239,225247,2,0,L|26:152,1,84.4999961318971,8|8,3:2|3:2,0:0:0:0:
114,91,225705,2,0,B|144:85|144:85|161:91|161:91|201:89,1,84.4999961318971,10|12,3:2|3:2,0:0:0:0:
289,29,226163,1,10,3:2:0:0:
309,34,226278,1,10,3:2:0:0:
326,38,226392,6,2,B|338:86|338:86|322:128|322:128|334:174,1,143.000004364014,2|2,0:0|0:0,0:1:0:0:
510,308,228224,6,0,L|350:291,1,155.999995239258,14|10,0:3|0:0,0:0:0:0:
292,202,228911,1,10,0:3:0:0:
306,188,229026,2,0,P|320:125|306:68,1,116.999996429443,8|8,0:0|0:3,0:0:0:0:
214,19,229598,1,8,0:0:0:0:
112,59,229827,1,10,0:3:0:0:
165,172,230056,6,0,L|158:327,1,155.999995239258,10|10,0:3|0:0,0:0:0:0:
56,367,230743,1,10,0:3:0:0:
42,352,230858,2,0,L|31:223,1,116.999996429443,8|8,0:0|0:3,0:0:0:0:
62,130,231430,1,8,0:0:0:0:
165,172,231659,1,10,0:3:0:0:
243,76,231888,6,0,P|279:69|328:73,1,77.999997619629,10|8,0:3|0:3,0:0:0:0:
402,143,232346,1,10,0:0:0:0:
343,235,232575,1,10,0:3:0:0:
325,225,232690,2,0,P|287:216|248:219,1,77.999997619629,8|8,0:0|0:0,0:0:0:0:
235,234,233033,2,0,L|231:337,1,77.999997619629,10|8,0:3|0:0,0:0:0:0:
121,365,233491,6,0,L|116:284,1,77.999997619629,10|8,0:3|0:3,0:0:0:0:
43,206,233949,1,10,0:3:0:0:
98,112,234178,1,8,0:0:0:0:
204,135,234407,1,10,0:3:0:0:
219,146,234522,2,0,B|275:163|279:130|334:145,1,116.999996429443,8|8,0:0|0:3,0:0:0:0:
398,238,235094,1,8,0:0:0:0:
395,258,235209,1,8,0:0:0:0:
393,278,235323,1,8,0:3:0:0:
390,297,235438,1,8,0:3:0:0:
387,316,235552,6,0,B|299:337|319:286|234:304,1,155.999995239258,14|8,0:3|0:0,0:0:0:0:
144,363,236239,1,10,0:3:0:0:
131,347,236354,2,0,P|122:308|136:259,1,77.999997619629,8|8,0:0|0:0,0:0:0:0:
139,254,236697,2,0,P|148:215|134:166,1,77.999997619629,10|10,0:3|0:0,0:0:0:0:
23,142,237155,6,0,P|14:103|28:54,1,77.999997619629,10|8,0:3|0:3,0:0:0:0:
115,9,237613,1,10,0:3:0:0:
196,81,237842,1,10,0:0:0:0:
292,29,238071,1,10,0:3:0:0:
306,43,238186,2,0,L|432:40,1,116.999996429443,10|8,0:0|0:3,0:0:0:0:
509,107,238758,1,8,0:0:0:0:
467,208,238987,1,10,0:3:0:0:
359,144,239216,6,0,P|317:135|268:145,1,77.999997619629,10|8,0:3|0:3,0:0:0:0:
239,283,239674,2,0,P|277:291|316:287,1,77.999997619629,10|8,0:0|0:3,0:0:0:0:
282,139,240132,6,0,P|240:130|191:140,1,77.999997619629,10|8,0:3|0:3,0:0:0:0:
163,278,240590,2,0,P|201:287|239:283,1,77.999997619629,10|8,0:2|0:3,0:0:0:0:
206,134,241049,6,0,P|167:202|163:279,1,155.999995239258,10|8,0:3|0:0,0:0:0:0:
243,351,241736,2,0,L|330:348,2,77.999997619629,8|8|8,0:0|0:0|0:3,0:0:0:0:
162,278,242423,1,8,0:3:0:0:
159,259,242537,1,8,0:3:0:0:
156,240,242652,1,8,0:3:0:0:
151,220,242766,1,8,0:3:0:0:
149,201,242881,6,0,P|201:144|280:155,1,155.999995239258,14|8,0:3|0:0,0:0:0:0:
347,232,243568,1,10,0:3:0:0:
360,245,243682,2,0,P|417:260|478:231,1,116.999996429443,8|8,0:0|0:3,0:0:0:0:
502,134,244255,1,8,0:0:0:0:
439,44,244484,1,10,0:3:0:0:
333,118,244713,6,0,L|172:103,1,155.999995239258,10|8,0:3|0:0,0:0:0:0:
88,40,245400,1,10,0:3:0:0:
105,48,245514,2,0,P|130:100|114:170,1,116.999996429443,8|8,0:0|0:3,0:0:0:0:
50,240,246087,1,8,0:0:0:0:
102,335,246316,1,10,0:3:0:0:
200,253,246545,6,0,P|237:238|279:242,1,77.999997619629,14|8,0:3|0:0,0:0:0:0:
291,251,246888,1,8,0:0:0:0:
303,267,247003,1,8,0:3:0:0:
350,367,247232,2,0,L|359:198,1,155.999995239258,10|10,0:3|0:3,0:0:0:0:
357,210,248148,6,0,P|396:214|433:200,1,77.999997619629,14|0,0:3|0:0,0:0:0:0:
464,96,248606,1,8,0:0:0:0:
384,20,248835,1,8,0:0:0:0:
284,64,249064,1,8,0:3:0:0:
267,52,249178,2,0,P|229:44|188:51,1,77.999997619629,14|8,0:0|0:3,0:0:0:0:
178,65,249522,2,0,L|167:150,1,77.999997619629,10|10,0:0|0:3,0:0:0:0:
105,231,249980,1,10,0:3:0:0:
193,317,250209,6,0,B|279:294|260:345|345:328,1,155.999995239258,14|8,0:3|0:0,0:0:0:0:
422,252,250896,1,10,0:3:0:0:
433,236,251010,2,0,L|428:151,1,77.999997619629,8|8,0:0|0:0,0:0:0:0:
420,140,251354,2,0,P|383:128|344:129,1,77.999997619629,10|10,0:3|0:0,0:0:0:0:
251,206,251812,6,0,P|212:207|175:195,1,77.999997619629,10|8,0:3|0:3,0:2:0:0:
100,114,252270,1,10,0:3:0:0:
0,160,252499,1,10,0:0:0:0:
13,269,252728,1,10,0:3:0:0:
29,258,252842,2,0,B|89:249|77:294|140:291,1,116.999996429443,8|8,0:0|0:3,0:0:0:0:
207,206,253415,1,8,0:0:0:0:
294,271,253644,1,10,0:3:0:0:
400,189,253873,6,0,P|410:151|405:113,1,77.999997619629,14|8,0:3|0:3,0:0:0:0:
273,76,254331,2,0,P|264:114|269:153,1,77.999997619629,10|8,0:0|0:3,0:0:0:0:
405,113,254789,6,0,P|415:76|410:37,1,77.999997619629,10|8,0:3|0:3,0:0:0:0:
278,0,255247,2,0,P|269:38|274:77,1,77.999997619629,10|8,0:0|0:3,0:0:0:0:
346,174,255705,6,0,P|360:242|321:346,1,155.999995239258,10|8,0:3|0:0,0:0:0:0:
227,325,256392,1,10,0:3:0:0:
210,313,256507,2,0,B|148:294|156:324|95:302,1,116.999996429443,8|8,0:0|0:3,0:0:0:0:
19,223,257079,1,8,0:0:0:0:
17,203,257194,1,8,0:0:0:0:
16,184,257308,1,8,0:3:0:0:
15,164,257423,1,8,0:3:0:0:
14,145,257537,5,14,0:3:0:0:
421,20,260514,5,2,0:1:0:0:
377,85,260743,1,8,0:0:0:0:
376,98,260858,1,8,0:0:0:0:
374,112,260972,1,8,0:1:0:0:
372,127,261087,1,8,0:1:0:0:
370,140,261201,6,0,P|321:161|243:126,1,116.999996429443,14|8,0:3|0:0,0:0:0:0:
196,49,261888,1,6,0:0:0:0:
144,105,262117,2,0,L|138:168,1,58.4999982147217,2|8,0:0|0:0,0:0:0:0:
59,268,262575,5,10,0:3:0:0:
28,159,262804,1,10,0:3:0:0:
28,159,264407,6,0,L|31:115,1,32.5,2|0,0:0|0:0,0:0:0:0:
93,44,264865,6,0,B|165:34|150:66|223:55,1,130,14|10,0:3|0:0,0:0:0:0:
221,55,265781,2,0,P|254:45|287:47,1,65,2|8,0:0|0:3,0:0:0:0:
370,74,266239,2,0,P|395:97|409:127,1,65,10|0,0:0|0:0,0:0:0:0:
337,203,266697,6,0,L|259:193,1,65,10|2,0:3|0:0,0:0:0:0:
191,153,267155,1,10,0:0:0:0:
133,223,267384,2,0,L|130:294,1,65,2|0,0:0|0:0,0:0:0:0:
41,307,267842,2,0,L|32:242,2,65,10|10|2,0:3|0:0|0:0,0:0:0:0:
130,362,268529,6,0,P|182:324|246:324,1,130,10|8,0:3|0:0,0:0:0:0:
330,357,269216,2,0,P|361:362|394:354,1,65,2|0,0:0|0:0,0:0:0:0:
453,286,269674,2,0,L|456:207,1,65,2|8,0:0|0:0,0:0:0:0:
393,139,270132,6,0,B|325:115|331:160|265:135,1,130,2|2,0:0|0:0,0:0:0:0:
191,84,270819,1,10,0:0:0:0:
185,174,271049,2,0,B|174:317,1,130,2|8,0:0|0:3,0:0:0:0:
87,329,271736,1,8,0:0:0:0:
85,313,271850,1,8,0:0:0:0:
84,297,271965,1,8,0:3:0:0:
82,281,272079,1,8,0:3:0:0:
81,265,272194,6,0,L|92:128,1,130,14|10,0:3|0:0,0:0:0:0:
91,135,273110,2,0,P|123:135|155:129,1,65,2|8,0:0|0:3,0:0:0:0:
225,71,273568,2,0,P|256:64|289:65,1,65,10|0,0:0|0:0,0:0:0:0:
360,147,274026,6,0,L|352:217,1,65,10|2,0:3|0:0,0:0:0:0:
408,283,274484,1,10,0:0:0:0:
481,230,274713,2,0,L|488:165,1,65,2|0,0:0|0:0,0:0:0:0:
434,91,275171,1,2,0:0:0:0:
360,147,275400,1,10,0:0:0:0:
283,65,275629,6,0,P|213:40|140:61,1,130,14|8,0:3|0:3,0:0:0:0:
115,129,276316,2,0,L|127:276,1,130,8|0,0:0|0:0,0:0:0:0:
212,284,277003,2,0,L|224:215,2,65,10|10|2,0:3|0:0|0:0,0:0:0:0:
280,360,277690,6,0,P|339:364|402:304,1,130,10|8,0:3|0:0,0:0:0:0:
429,239,278377,2,0,L|437:155,2,65,8|8|8,0:0|0:0|0:3,0:0:0:0:
339,253,279064,2,0,L|324:165,1,65,8|8,0:0|0:3,0:0:0:0:
269,103,279522,6,0,P|213:87|140:106,1,110.50000210762,14|10,0:1|0:1,0:0:0:0:
162,95,280438,2,0,L|157:163,1,55.2500010538101,10|0,0:1|0:0,0:0:0:0:
187,227,280896,2,0,L|182:295,1,55.2500010538101,10|8,0:1|0:3,0:0:0:0:
96,311,281354,6,0,L|86:244,1,55.2500010538101,10|2,0:1|0:0,0:0:0:0:
39,189,281812,1,10,0:1:0:0:
79,115,282041,2,0,L|88:59,1,55.2500010538101,2|10,0:0|0:1,0:0:0:0:
165,93,282499,2,0,L|173:147,2,55.2500010538101,2|10|2,0:0|0:1|0:0,0:0:0:0:
247,31,283186,6,0,P|299:19|365:47,1,110.50000210762,10|8,0:1|0:1,0:0:0:0:
409,96,283873,2,0,L|395:226,1,110.50000210762,2|2,0:0|0:0,0:0:0:0:
397,205,284789,6,0,P|336:181|267:190,1,110.50000210762,10|2,0:3|0:0,0:0:0:0:
226,233,285476,1,10,0:1:0:0:
226,233,285705,2,0,P|175:254|120:255,1,110.50000210762,2|2,0:0|0:0,0:0:0:0:
16,116,286621,1,2,0:0:0:0:
16,115,286850,6,0,P|60:96|108:95,1,97.50000371933,10|8,0:1|0:1,0:0:0:0:
108,95,287766,2,0,P|152:114|200:115,1,97.50000371933,10|10,0:1|0:1,0:0:0:0:
200,114,288682,6,0,L|205:56,1,48.750001859665,10|2,0:1|0:0,0:0:0:0:
265,16,289140,1,10,0:1:0:0:
339,39,289369,2,0,L|410:33,1,48.750001859665,2|8,0:0|0:1,0:0:0:0:
456,70,289827,2,0,L|527:76,2,48.750001859665,2|8|10,0:0|0:1|0:3,0:0:0:0:
388,108,290514,6,0,P|374:155|382:216,2,97.50000371933,10|8|8,0:1|0:1|0:1,0:0:0:0:
456,70,291659,2,0,L|464:6,2,48.750001859665,2|10|10,0:0|0:1|0:3,0:0:0:0:
506,129,292346,6,0,P|509:177|495:223,1,97.50000371933,10|8,0:1|0:1,0:0:0:0:
429,264,293033,2,0,L|279:243,1,146.250005578995,2|2,0:0|0:0,0:0:0:0:
284,243,294216,6,0,P|288:203|280:166,1,65,6|2,0:1|0:0,0:0:0:0:
218,128,295164,2,0,L|144:119,1,65,2|2,0:0|0:0,0:0:0:0:
89,166,296113,6,0,L|97:214,1,32.5,2|2,0:0|0:0,0:0:0:0:
127,242,296580,2,0,L|119:290,1,32.5,2|2,0:0|0:0,0:0:0:0:
180,349,297296,6,0,L|237:340,1,32.5,2|2,0:0|0:0,0:0:0:0:
266,352,297851,2,0,L|306:353,1,32.5,2|2,0:1|0:0,0:0:0:0:
339,326,298403,2,0,L|347:263,1,32.5,2|2,0:0|0:0,0:0:0:0:
396,233,299043,6,0,L|391:193,1,32.5,2|2,0:1|0:0,0:0:0:0:
360,130,299822,2,0,L|370:77,1,32.5,2|2,0:0|0:1,0:0:0:0:
422,26,302031,5,6,0:1:0:0:
476,91,303248,6,0,L|486:150,1,32.5,2|2,0:0|0:0,0:0:0:0:
444,196,304294,6,0,L|438:228,1,32.5,2|2,0:0|0:0,0:0:0:0:
398,297,305576,6,0,L|408:356,1,32.5,2|6,0:0|0:2,0:0:0:0:
