osu file format v14

[General]
AudioFilename: audio.mp3
AudioLeadIn: 0
PreviewTime: 212306
Countdown: 0
SampleSet: Soft
StackLeniency: 0.7
Mode: 0
LetterboxInBreaks: 0
WidescreenStoryboard: 1

[Editor]
Bookmarks: 13973,27306,40640,53973,60640,67306,92306,95640,116473,129806,143139,149806,156473,184806,198139,204806,212306,238972,263972
DistanceSpacing: 1.6
BeatDivisor: 4
GridSize: 4
TimelineZoom: 3.399999

[Metadata]
Title:SilentFlame
TitleUnicode:SilentFlame
Artist:Shimotsuki Haruka
ArtistUnicode:霜月はるか
Creator:Gust
Version:Insane
Source:魔王と踊れ! ~Legend of the Lord of Lords~
Tags:maou to odore Legend of the Lord of Lords galgame Firika Pata-Mon Imouto koko
BeatmapID:1408544
BeatmapSetID:662675

[Difficulty]
HPDrainRate:7
CircleSize:3.8
OverallDifficulty:7
ApproachRate:8.8
SliderMultiplier:0.999999904632568
SliderTickRate:1

[Events]
//Background and Video events
0,0,"A.jpg",0,0
//Break Periods
//Storyboard Layer 0 (Background)
//Storyboard Layer 1 (Fail)
//Storyboard Layer 2 (Pass)
//Storyboard Layer 3 (Foreground)
//Storyboard Sound Samples

[TimingPoints]
640,277.777777777778,6,2,1,60,1,0
640,-133.333333333333,4,2,1,60,0,0
13973,-100,4,2,1,60,0,0
27306,-100,4,2,1,60,0,0
53973,-166.666666666667,4,2,1,60,0,0
63973,-133.333333333333,4,2,1,60,0,0
64390,-125,4,2,1,60,0,0
64806,-100,4,2,1,60,0,0
65362,-83.3333333333333,4,2,1,60,0,0
67306,-71.4285714285714,4,2,1,70,0,1
92306,-166.666666666667,4,2,1,70,0,0
95640,277.777777777778,9,2,1,60,1,0
95640,-166.666666666667,3,2,1,60,0,0
116473,277.777777777778,6,2,1,60,1,0
116473,-100,4,2,1,60,0,0
143417,-166.666666666667,4,2,1,60,0,0
153139,-133.333333333333,4,2,1,60,0,0
153556,-125,4,2,1,60,0,0
153973,-100,4,2,1,60,0,0
154529,-83.3333333333333,4,2,1,60,0,0
156473,-83.3333333333333,4,2,1,70,0,0
158139,-100,4,2,1,70,0,0
184806,277.777777777778,6,2,1,60,1,0
184806,-250,4,2,1,60,0,0
184875,-250,4,2,1,10,0,0
185569,-250,4,2,1,60,0,0
186542,-250,4,2,1,10,0,0
188069,-250,4,2,1,60,0,0
191542,-250,4,2,1,10,0,0
192236,-250,4,2,1,60,0,0
193208,-250,4,2,1,10,0,0
194458,-250,4,2,1,60,0,0
198139,-166.666666666667,4,2,1,60,0,0
198208,-166.666666666667,4,2,1,10,0,0
198625,-166.666666666667,4,2,1,60,0,0
199042,-166.666666666667,4,2,1,10,0,0
199458,-166.666666666667,4,2,1,60,0,0
199875,-166.666666666667,4,2,1,60,0,0
200292,-166.666666666667,4,2,1,60,0,0
204806,-125,4,2,1,60,0,0
207861,-100,4,2,1,60,0,0
209806,-83.3333333333333,4,2,1,60,0,0
212306,277.777777777778,6,2,1,70,1,1
212306,-71.4285714285714,4,2,1,70,0,1
238833,-71.4285714285714,4,2,1,70,0,0
238972,-55.5555555555556,4,2,1,70,0,1
263972,277.777777777778,9,2,1,60,1,1
263972,-166.666666666667,3,2,1,60,0,0

[Colours]
Combo1 : 255,128,64
Combo2 : 255,0,0
Combo3 : 255,128,128

[HitObjects]
152,32,640,6,0,L|12:28,2,112.499998927116,10|0|2,1:0|1:0|0:0,0:0:0:0:
256,28,1751,1,0,0:0:0:0:
360,24,2028,1,0,0:0:0:0:
360,188,2306,6,0,L|500:192,2,112.499998927116,10|0|2,1:0|1:0|0:0,0:0:0:0:
256,192,3417,1,0,0:0:0:0:
152,196,3695,1,0,0:0:0:0:
152,352,3973,6,0,L|12:356,2,112.499998927116,10|0|2,1:0|1:0|0:0,0:0:0:0:
256,348,5084,1,0,0:0:0:0:
360,344,5362,1,0,0:0:0:0:
312,72,5640,6,0,P|368:76|440:48,2,112.499998927116,10|0|10,1:0|1:0|1:0,0:0:0:0:
212,108,6751,1,2,0:0:0:0:
212,108,7028,2,0,P|212:132|208:152,1,37.4999978542327,0|0,0:0|0:0,0:0:0:0:
80,244,7306,6,0,P|68:308|80:344,1,74.9999992847443,10|0,1:0|0:0,0:0:0:0:
148,360,7723,2,0,P|196:336|248:340,1,74.9999992847443,0|0,1:0|3:0,0:0:0:0:
296,296,8140,2,0,P|316:344|348:364,2,74.9999992847443,2|0|0,0:0|0:0|0:0,0:0:0:0:
444,56,8973,6,0,P|416:128|424:156,1,74.9999992847443,10|0,1:0|0:0,0:0:0:0:
344,180,9390,2,0,P|328:128|304:100,1,74.9999992847443,0|0,1:0|3:0,0:0:0:0:
268,36,9806,2,0,L|192:40,2,74.9999992847443,2|0|0,0:0|0:0|0:0,0:0:0:0:
40,280,10640,6,0,L|140:272,1,74.9999992847443,10|0,1:0|0:0,0:0:0:0:
180,336,11056,2,0,P|232:324|320:328,1,112.499998927116,0|2,1:0|0:0,0:0:0:0:
376,352,11751,1,0,0:0:0:0:
460,324,12028,1,0,0:0:0:0:
468,304,12306,5,8,1:0:0:0:
496,220,12584,1,2,0:0:0:0:
496,220,12723,1,0,1:0:0:0:
444,148,12862,1,0,0:0:0:0:
444,148,13001,1,0,3:0:0:0:
484,68,13140,2,0,P|436:44|420:44,1,37.4999996423721,2|0,0:0|1:0,0:0:0:0:
324,160,13417,2,0,P|372:184|388:184,1,37.4999996423721,2|0,0:0|3:0,0:0:0:0:
130,6,13695,2,0,P|121:21|116:40,1,37.4999996423721,10|0,1:0|3:0,0:0:0:0:
8,256,13973,6,0,P|112:252|148:260,1,99.9999952316285,10|0,1:0|0:0,0:0:0:0:
180,220,14390,1,10,1:2:0:0:
256,236,14528,1,8,0:0:0:0:
296,304,14667,1,2,2:0:0:0:
368,340,14806,2,0,P|384:280|372:232,2,99.9999952316285,2|0|0,0:0|0:0|0:0,0:0:0:0:
440,380,15501,1,8,3:2:0:0:
456,216,15640,5,2,0:0:0:0:
456,216,15778,1,0,3:0:0:0:
200,192,16056,1,0,3:0:0:0:
200,192,16195,2,0,P|180:160|136:136,1,49.9999976158143,8|0,0:0|3:0,0:0:0:0:
80,192,16473,5,2,0:0:0:0:
256,52,16751,1,0,0:0:0:0:
432,192,17028,2,0,P|444:216|436:284,1,49.9999976158143,0|8,0:0|3:0,0:0:0:0:
492,136,17306,1,10,1:0:0:0:
504,112,17445,6,0,P|504:84|492:44,1,49.9999976158143,8|0,3:2|0:0,0:0:0:0:
428,96,17723,1,10,1:2:0:0:
348,108,17862,1,8,0:0:0:0:
272,80,18001,1,2,2:0:0:0:
240,8,18140,5,2,0:0:0:0:
420,192,18417,1,0,0:0:0:0:
144,244,18695,2,0,P|152:276|132:328,1,49.9999976158143,0|0,0:0|3:2,0:0:0:0:
76,192,18973,1,10,1:0:0:0:
76,192,19112,5,8,3:2:0:0:
256,24,19390,1,8,1:2:0:0:
256,24,19528,2,0,L|306:14,3,33.3333301544189,8|0|0|0,0:0|0:0|2:0|0:0,0:0:0:0:
196,76,19945,5,8,3:2:0:0:
116,76,20084,1,2,0:0:0:0:
68,12,20223,1,8,3:2:0:0:
364,52,20501,1,8,3:2:0:0:
364,52,20640,2,0,L|433:40,1,49.9999976158143,10|0,1:0|3:0,0:0:0:0:
332,128,20917,5,0,0:0:0:0:
344,208,21056,1,10,1:2:0:0:
408,260,21195,1,8,0:0:0:0:
488,268,21334,1,2,2:0:0:0:
392,340,21473,2,0,P|324:344|284:328,2,99.9999952316285,2|0|0,0:0|0:0|0:0,0:0:0:0:
408,260,22167,1,8,3:2:0:0:
331,127,22306,6,0,P|284:128|232:152,1,99.9999952316285,10|0,1:0|0:0,0:0:0:0:
202,164,22677,1,0,0:0:0:0:
166,171,22769,1,0,0:0:0:0:
129,173,22862,2,0,P|97:169|53:153,1,49.9999976158143,8|0,0:2|3:0,0:0:0:0:
256,16,23140,6,0,L|360:12,2,99.9999952316285,2|0|0,0:0|0:0|0:0,0:0:0:0:
180,40,23834,1,8,3:2:0:0:
100,24,23973,5,10,1:0:0:0:
24,48,24112,1,8,3:2:0:0:
256,152,24390,1,8,1:2:0:0:
332,128,24528,1,8,0:0:0:0:
480,328,24806,6,0,L|376:332,2,99.9999952316285,2|0|0,0:0|0:0|0:0,0:0:0:0:
504,252,25501,1,0,0:0:0:0:
456,188,25640,5,8,1:0:0:0:
480,112,25778,1,8,3:2:0:0:
260,164,26056,1,8,1:2:0:0:
236,240,26195,2,0,L|248:316,1,49.9999976158143,8|0,0:2|3:0,0:0:0:0:
104,384,26473,6,0,L|96:334,1,49.9999976158143,2|8,0:0|1:2,0:0:0:0:
52,268,26751,1,2,0:0:0:0:
84,196,26890,1,10,0:2:0:0:
164,188,27028,2,0,P|160:160|140:112,1,49.9999976158143,10|8,1:0|3:0,0:0:0:0:
255,39,27306,6,0,P|324:68|396:53,1,149.999992847443,6|0,1:3|1:0,0:0:0:0:
476,24,27862,2,0,P|476:80|440:127,1,99.9999904632568,0|4,0:0|0:3,0:0:0:0:
494,270,28417,1,0,0:0:0:0:
339,228,28695,2,0,P|344:263|334:299,1,49.9999952316284,0|0,0:0|3:0,0:0:0:0:
185,143,28973,6,0,P|180:108|190:72,1,49.9999952316284,10|0,1:0|3:0,0:0:0:0:
180,12,29251,2,0,P|120:16|72:48,1,99.9999952316285,0|0,0:0|0:0,0:0:0:0:
8,40,29667,2,0,P|20:104|36:128,1,49.9999976158143,0|6,3:0|0:3,0:0:0:0:
96,120,30084,6,0,L|92:192,1,49.9999976158143,0|0,0:0|3:0,0:0:0:0:
44,232,30362,1,0,0:0:0:0:
96,292,30501,1,8,3:0:0:0:
192,152,30640,2,0,L|184:84,1,49.9999976158143,10|0,1:0|3:0,0:0:0:0:
264,88,30917,2,0,L|268:28,1,49.9999976158143,0|0,0:0|1:0,0:0:0:0:
344,60,31195,2,0,P|396:32|460:32,1,99.9999952316285,0|6,0:0|0:3,0:0:0:0:
206,277,31751,6,0,P|222:253|230:193,1,49.9999976158143,0|0,0:0|3:0,0:0:0:0:
310,245,32028,2,0,P|312:216|289:160,1,49.9999976158143,0|0,0:0|3:0,0:0:0:0:
267,38,32306,2,0,P|215:10|151:10,1,99.9999952316285,10|0,1:0|0:0,0:0:0:0:
96,28,32723,1,0,1:0:0:0:
0,116,32862,2,0,P|55:105|119:116,1,99.9999952316285,0|14,0:0|1:3,0:0:0:0:
204,280,33417,1,2,0:0:0:0:
316,112,33695,1,0,0:0:0:0:
32,240,33973,6,0,P|96:232|160:244,1,99.9999952316285,10|0,1:0|0:0,0:0:0:0:
204,280,34390,2,0,P|268:288|332:276,1,99.9999952316285,0|0,1:0|3:0,0:0:0:0:
360,344,34806,2,0,P|408:308|412:300,1,49.9999976158143,6|0,0:3|3:0,0:0:0:0:
468,272,35084,1,0,0:0:0:0:
472,88,35362,2,0,P|480:56|480:16,1,49.9999952316284,0|0,0:0|3:0,0:0:0:0:
404,20,35640,6,0,P|332:28|288:8,1,99.9999904632568,10|0,1:0|0:0,0:0:0:0:
228,20,36056,2,0,P|216:80|220:104,1,49.9999976158143,0|0,1:0|0:0,0:0:0:0:
336,140,36473,1,6,0:3:0:0:
336,140,36751,2,0,P|400:136|424:144,1,49.9999976158143,0|0,0:0|3:0,0:0:0:0:
480,196,37028,2,0,P|416:200|392:192,1,49.9999976158143,0|0,0:0|3:0,0:0:0:0:
256,96,37306,6,0,P|248:64|256:24,1,49.9999976158143,10|0,1:0|3:0,0:0:0:0:
180,8,37584,2,0,L|116:12,1,49.9999976158143,0|0,0:0|1:0,0:0:0:0:
32,84,37862,2,0,L|81:80,1,49.9999976158143,0|0,0:0|3:0,0:0:0:0:
132,244,38140,2,0,P|140:212|132:172,1,49.9999976158143,6|0,0:3|3:0,0:0:0:0:
0,276,38417,2,0,L|49:272,1,49.9999976158143,0|0,0:0|3:0,0:0:0:0:
184,352,38695,2,0,L|134:355,1,49.9999976158143,0|0,0:0|3:0,0:0:0:0:
328,243,38973,6,0,P|312:267|277:289,1,49.9999952316284,8|0,1:0|3:0,0:0:0:0:
248,214,39251,2,0,P|272:134|291:103,1,99.9999904632568,2|0,0:0|0:0,0:0:0:0:
399,77,39667,1,8,3:3:0:0:
399,77,39737,1,8,0:3:0:0:
399,77,39806,1,6,0:3:0:0:
279,120,39945,2,0,P|223:76|203:72,1,49.9999976158143,4|2,1:3|0:0,0:0:0:0:
134,31,40223,1,0,3:0:0:0:
28,192,40362,2,0,P|84:196|104:204,1,49.9999976158143,10|0,1:0|3:0,0:0:0:0:
76,276,40640,6,0,P|136:280|187:267,1,99.9999904632568,2|0,1:3|0:0,0:0:0:0:
232,340,41056,2,0,P|316:324|364:332,1,99.9999952316285,0|0,1:0|3:0,0:0:0:0:
413,358,41473,2,0,P|421:282|465:210,1,149.999992847443,4|0,0:3|3:0,0:0:0:0:
377,176,42028,2,0,P|317:192|289:212,1,49.9999976158143,0|0,0:0|3:0,0:0:0:0:
512,48,42306,6,0,P|456:48|440:52,1,49.9999976158143,10|0,1:0|3:0,0:0:0:0:
384,72,42584,2,0,P|328:72|308:68,1,49.9999976158143,0|0,0:0|1:0,0:0:0:0:
256,48,42862,1,0,0:0:0:0:
448,131,43140,1,6,0:3:0:0:
256,48,43417,6,0,P|200:48|184:52,1,49.9999976158143,0|0,0:0|3:0,0:0:0:0:
128,60,43695,1,0,0:0:0:0:
272,128,43834,1,8,3:0:0:0:
236,228,43973,2,0,P|220:208|212:184,1,49.9999976158143,10|0,1:0|3:0,0:0:0:0:
127,60,44251,2,0,P|111:79|104:102,1,49.9999976158143,0|0,0:0|1:0,0:0:0:0:
8,192,44528,2,0,P|69:197|112:223,1,99.9999904632568,0|6,0:0|0:3,0:0:0:0:
224,328,45084,6,0,P|213:305|210:280,1,49.9999952316284,0|0,0:0|3:0,0:0:0:0:
258,207,45362,2,0,P|261:182|272:160,1,49.9999952316284,0|0,0:0|3:0,0:0:0:0:
480,304,45640,2,0,P|428:316|380:308,1,99.9999904632568,10|0,1:0|0:0,0:0:0:0:
340,236,46056,1,0,1:0:0:0:
258,207,46195,1,0,0:0:0:0:
258,207,46473,5,14,1:3:0:0:
258,0,46751,1,2,0:0:0:0:
72,140,47028,2,0,P|48:80|56:64,1,49.9999976158143,0|0,0:0|0:0,0:0:0:0:
76,24,47306,2,0,P|128:16|176:24,1,99.9999952316285,10|0,1:0|0:0,0:0:0:0:
234,86,47723,2,0,P|294:78|350:82,1,99.9999952316285,0|0,1:0|3:0,0:0:0:0:
480,8,48140,2,0,P|424:64|404:132,1,149.999992847443,6|0,0:3|2:0,0:0:0:0:
388,208,48695,2,0,P|352:192|328:168,1,49.9999976158143,0|0,0:0|3:0,0:0:0:0:
468,276,48973,6,0,P|416:292|344:276,1,99.9999952316285,10|0,1:0|0:0,0:0:0:0:
296,256,49390,1,0,1:0:0:0:
248,192,49528,1,0,0:0:0:0:
148,296,49806,1,6,0:3:0:0:
148,296,50084,6,0,P|88:300|76:304,1,49.9999976158143,0|0,0:0|2:0,0:0:0:0:
4,228,50362,2,0,P|64:228|80:232,1,49.9999976158143,0|0,0:0|3:0,0:0:0:0:
120,168,50640,2,0,P|116:136|88:100,1,49.9999976158143,10|0,1:0|3:0,0:0:0:0:
0,88,50917,2,0,P|4:120|32:156,1,49.9999976158143,0|0,0:0|1:0,0:0:0:0:
136,36,51195,2,0,P|188:24|204:24,1,49.9999976158143,0|0,0:0|3:0,0:0:0:0:
256,88,51473,2,0,P|332:88|408:48,1,149.999992847443,6|0,0:3|3:0,0:0:0:0:
468,16,52028,2,0,P|476:72|468:92,1,49.9999976158143,0|0,0:0|3:0,0:0:0:0:
432,160,52306,6,0,L|428:212,1,49.9999976158143,8|0,1:0|3:0,0:0:0:0:
336,336,52584,2,0,L|332:286,1,49.9999976158143,2|0,0:0|1:0,0:0:0:0:
256,144,52862,2,0,L|248:112,2,24.9999988079071,0|0|0,0:0|0:0|1:3,0:0:0:0:
208,280,53140,6,0,L|216:216,1,49.9999976158143,6|0,0:3|1:3,0:0:0:0:
163,95,53417,2,0,L|170:56,3,33.3333301544189,2|0|0|10,0:0|1:0|0:0|0:0,0:0:0:0:
240,20,53834,1,8,3:0:0:0:
320,20,53973,1,2,1:3:0:0:
392,252,54251,5,0,0:0:0:0:
392,251,54390,2,0,P|362:252|333:242,1,59.9999924468996,0|0,1:0|3:0,0:0:0:0:
408,176,54806,2,0,P|456:168|488:172,2,59.9999953079226,4|0|0,0:3|0:0|0:0,0:0:0:0:
256,52,55640,6,0,L|208:48,1,29.9999976539613,10|0,1:0|3:0,0:0:0:0:
152,24,55917,1,0,0:0:0:0:
152,24,56056,1,0,2:0:0:0:
104,92,56195,1,0,0:0:0:0:
104,92,56334,1,0,2:0:0:0:
104,92,56473,2,0,P|64:92|20:80,2,59.9999953079226,6|0|0,0:3|0:0|0:0,0:0:0:0:
104,92,57306,6,0,P|104:148|108:176,1,59.9999953079226,10|0,1:0|0:0,0:0:0:0:
136,240,57723,1,0,1:0:0:0:
136,240,57862,2,0,P|84:252|56:272,2,59.9999953079226,0|6|0,0:0|0:3|0:0,0:0:0:0:
256,88,58695,1,0,0:0:0:0:
380,240,58973,6,0,L|384:204,1,29.9999976539613,10|0,1:0|3:0,0:0:0:0:
456,176,59251,2,0,L|458:205,2,29.9999976539613,0|2|0,0:0|1:0|0:0,0:0:0:0:
392,128,59667,1,2,1:0:0:0:
420,56,59806,5,14,1:3:0:0:
420,56,59945,2,0,P|368:48|336:56,1,59.9999953079226,0|2,1:0|2:0,0:0:0:0:
288,20,60362,2,0,P|256:36|248:44,1,29.9999976539613,0|8,1:0|0:3,0:0:0:0:
224,100,60640,1,10,1:0:0:0:
428,192,60917,5,0,0:0:0:0:
444,224,61056,1,0,1:0:0:0:
452,260,61195,1,0,0:0:0:0:
448,296,61334,1,0,0:0:0:0:
436,328,61473,5,6,0:3:0:0:
256,192,61751,1,0,0:0:0:0:
76,328,62028,1,0,0:0:0:0:
256,192,62306,5,10,1:0:0:0:
84,192,62584,1,0,0:0:0:0:
68,160,62723,1,0,1:0:0:0:
60,124,62862,1,0,0:0:0:0:
64,88,63001,1,0,2:0:0:0:
76,56,63140,5,6,0:3:0:0:
256,192,63417,1,0,0:0:0:0:
436,56,63695,2,0,L|440:108,1,29.9999976539613,0|0,0:0|3:0,0:0:0:0:
512,24,63973,5,10,1:3:0:0:
256,40,64251,2,0,P|252:64|256:92,1,37.4999996423721,2|0,1:0|3:0,0:0:0:0:
176,24,64528,5,0,0:0:0:0:
176,24,64667,1,0,2:0:0:0:
336,136,64806,2,0,P|332:80|320:60,1,49.9999976158143,2|0,1:3|3:0,0:0:0:0:
184,136,65084,2,0,P|188:192|200:212,1,49.9999976158143,2|0,1:0|3:0,0:0:0:0:
104,120,65362,5,0,0:0:0:0:
28,144,65501,1,8,2:3:0:0:
280,272,65640,2,0,P|272:200|264:188,1,59.9999953079226,8|8,1:0|3:3,0:0:0:0:
100,264,65917,2,0,P|108:336|116:348,1,59.9999953079226,2|0,0:0|1:0,0:0:0:0:
360,328,66195,6,0,L|424:320,1,59.9999953079226,0|0,1:0|1:3,0:0:0:0:
480,104,66473,2,0,L|420:111,1,59.9999953079226,6|0,0:3|1:3,0:0:0:0:
256,252,66751,5,8,0:2:0:0:
284,44,66890,1,8,0:0:0:0:
261,36,66959,1,8,0:0:0:0:
237,33,67028,1,6,1:3:0:0:
212,33,67098,1,4,3:3:0:0:
188,37,67167,1,4,0:3:0:0:
165,46,67237,1,4,3:3:0:0:
144,64,67306,6,0,P|148:167|62:228,1,209.999983577729,6|0,1:2|1:2,0:0:0:0:
0,296,67862,2,0,P|40:324|84:320,1,69.9999945259097,10|0,0:0|2:0,0:0:0:0:
260,132,68140,2,0,P|332:96|412:100,1,139.999989051819,6|0,0:1|0:0,0:0:0:0:
424,24,68556,1,0,3:0:0:0:
424,24,68695,2,0,P|476:40|500:60,1,69.9999945259097,0|8,0:0|3:2,0:0:0:0:
432,164,68973,5,8,1:0:0:0:
348,184,69112,1,8,3:2:0:0:
256,44,69251,2,0,P|204:40|164:48,1,69.9999945259097,2|8,0:0|1:2,0:0:0:0:
44,136,69528,2,0,P|78:140|113:137,1,69.9999945259097,10|0,0:0|3:0,0:0:0:0:
252,224,69806,2,0,P|236:168|208:140,1,69.9999945259097,6|0,0:1|3:0,0:0:0:0:
296,68,70084,2,0,P|340:124|416:156,1,139.999989051819,2|2,0:0|0:0,0:0:0:0:
484,164,70501,1,8,3:0:0:0:
296,68,70640,5,10,1:0:0:0:
212,72,70778,1,8,3:2:0:0:
106,308,71056,1,8,1:2:0:0:
190,304,71195,2,0,P|186:244|162:212,1,69.9999945259097,10|0,0:0|2:0,0:0:0:0:
16,104,71473,2,0,P|12:156|32:204,1,69.9999945259097,6|0,0:1|3:0,0:0:0:0:
120,48,71751,2,0,P|98:95|100:147,1,69.9999945259097,2|0,0:0|2:0,0:0:0:0:
236,28,72028,2,0,P|199:65|183:114,1,69.9999945259097,2|0,0:0|0:2,0:0:0:0:
320,16,72306,5,10,1:0:0:0:
404,20,72445,1,8,3:2:0:0:
204,204,72723,1,8,1:2:0:0:
120,208,72862,2,0,P|132:296|124:320,1,69.9999945259097,10|0,0:0|3:0,0:0:0:0:
272,72,73140,5,6,0:1:0:0:
356,76,73278,1,8,3:2:0:0:
228,144,73417,2,0,P|180:144|132:124,1,69.9999945259097,2|8,0:0|3:2,0:0:0:0:
170,54,73695,1,2,0:0:0:0:
98,9,73834,1,8,3:2:0:0:
28,56,73973,6,0,P|36:136|100:180,1,139.999989051819,10|0,1:0|0:0,0:0:0:0:
159,138,74390,1,10,1:2:0:0:
152,296,74528,2,0,P|136:265|132:230,1,69.9999945259097,10|0,0:0|2:0,0:0:0:0:
240,372,74806,2,0,P|244:288|268:228,1,139.999989051819,6|0,0:1|0:0,0:0:0:0:
336,280,75223,2,0,P|364:236|420:212,1,69.9999945259097,0|0,0:0|0:0,0:0:0:0:
456,192,75501,1,0,0:0:0:0:
488,28,75640,5,10,1:0:0:0:
404,44,75778,1,8,3:2:0:0:
328,8,75917,2,0,P|280:20|248:44,1,69.9999945259097,2|8,0:0|1:2,0:0:0:0:
248,112,76195,2,0,P|168:92|148:76,1,69.9999945259097,10|0,0:2|3:0,0:0:0:0:
44,24,76473,2,0,L|168:20,1,69.9999945259097,6|0,0:1|3:0,0:0:0:0:
0,112,76751,2,0,P|64:128|140:200,1,139.999989051819,2|2,0:0|0:0,0:0:0:0:
176,236,77167,1,8,3:2:0:0:
296,32,77306,5,10,1:0:0:0:
344,100,77445,2,0,P|436:68|500:76,1,139.999989051819,8|10,3:2|1:2,0:0:0:0:
456,152,77862,2,0,P|440:228|448:264,1,69.9999945259097,8|0,0:0|0:0,0:0:0:0:
364,348,78140,2,0,P|336:244|284:196,1,139.999989051819,6|0,0:1|0:0,0:0:0:0:
224,192,78556,2,0,P|156:224|144:224,2,69.9999945259097,0|0|0,2:0|0:0|0:0,0:0:0:0:
368,144,78973,5,8,1:0:0:0:
456,152,79112,1,8,3:2:0:0:
200,24,79390,1,8,1:2:0:0:
116,36,79528,2,0,P|128:112|124:132,1,69.9999945259097,8|0,0:2|3:0,0:0:0:0:
280,56,79806,5,6,0:1:0:0:
176,176,79945,1,0,1:0:0:0:
304,240,80084,2,0,P|288:192|292:148,1,69.9999945259097,2|0,0:0|0:0,0:0:0:0:
372,84,80362,1,10,1:2:0:0:
397,94,80431,1,8,3:2:0:0:
419,110,80501,1,8,0:2:0:0:
434,133,80570,1,8,3:2:0:0:
444,159,80640,6,0,P|400:244|400:368,1,209.999983577729,6|0,1:2|1:2,0:0:0:0:
307,376,81195,2,0,P|238:356|201:361,1,69.9999945259097,10|0,0:0|2:0,0:0:0:0:
35,305,81473,2,0,P|111:298|138:300,1,69.9999945259097,6|0,0:1|3:0,0:0:0:0:
202,268,81751,2,0,P|185:186|189:168,1,69.9999945259097,0|0,0:0|3:0,0:0:0:0:
126,139,82028,2,0,P|71:202|56:234,1,69.9999945259097,0|8,0:0|3:2,0:0:0:0:
123,56,82306,5,10,1:0:0:0:
123,56,82445,2,0,P|217:41|290:51,1,139.999989051819,8|8,3:2|1:2,0:0:0:0:
338,79,82862,2,0,L|433:66,1,69.9999945259097,10|0,0:0|3:0,0:0:0:0:
500,168,83140,2,0,L|404:170,1,69.9999945259097,6|0,0:1|3:0,0:0:0:0:
288,240,83417,2,0,L|372:240,1,69.9999945259097,2|0,0:0|3:0,0:0:0:0:
452,272,83695,1,2,0:0:0:0:
344,336,83834,1,8,3:0:0:0:
344,136,83973,5,10,1:0:0:0:
389,56,84112,2,0,P|295:41|222:51,1,139.999989051819,8|8,3:2|1:2,0:0:0:0:
172,16,84528,2,0,P|104:48|88:68,1,69.9999945259097,10|0,0:0|2:0,0:0:0:0:
8,120,84806,6,0,L|92:124,1,69.9999945259097,6|0,0:1|3:0,0:0:0:0:
252,176,85084,2,0,L|168:180,1,69.9999945259097,2|0,0:0|2:0,0:0:0:0:
32,248,85362,2,0,L|116:252,1,69.9999945259097,2|0,0:0|3:2,0:0:0:0:
256,312,85640,5,10,1:0:0:0:
256,312,85778,2,0,L|172:316,1,69.9999945259097,8|0,3:2|0:0,0:0:0:0:
360,188,86056,1,8,1:2:0:0:
360,188,86195,2,0,L|451:185,1,69.9999945259097,10|0,0:0|3:0,0:0:0:0:
256,108,86473,5,6,0:1:0:0:
360,188,86612,1,8,3:3:0:0:
284,20,86751,2,0,L|384:20,1,69.9999945259097,2|8,0:0|3:2,0:0:0:0:
180,48,87028,1,2,0:0:0:0:
153,58,87098,1,0,0:0:0:0:
125,58,87167,1,8,0:2:0:0:
97,51,87237,1,0,0:0:0:0:
72,38,87306,6,0,P|67:147|34:208,1,139.999989051819,10|0,1:0|0:0,0:0:0:0:
0,294,87723,1,8,1:2:0:0:
0,294,87862,2,0,P|77:262|102:265,1,69.9999945259097,10|0,0:0|2:0,0:0:0:0:
286,159,88140,2,0,P|211:153|132:165,1,139.999989051819,6|0,0:1|0:0,0:0:0:0:
147,250,88556,2,0,P|161:332|157:347,2,69.9999945259097,0|0|0,0:0|0:0|0:0,0:0:0:0:
182,66,88973,5,10,1:0:0:0:
182,66,89112,2,0,P|142:65|57:81,1,69.9999945259097,8|2,3:2|0:0,0:0:0:0:
292,4,89390,1,8,1:2:0:0:
292,4,89528,2,0,P|379:8|394:11,1,69.9999945259097,10|0,0:2|3:0,0:0:0:0:
457,124,89806,2,0,P|437:80|442:24,1,69.9999945259097,6|0,0:1|3:0,0:0:0:0:
318,188,90084,2,0,L|323:257,1,69.9999945259097,2|0,0:0|3:0,0:0:0:0:
181,45,90362,2,0,L|187:146,1,69.9999945259097,2|8,0:0|3:2,0:0:0:0:
3,288,90640,6,0,P|100:286|238:325,1,209.999983577729,10|8,1:0|1:2,0:0:0:0:
266,374,91195,2,0,P|347:340|375:342,1,69.9999945259097,10|0,0:0|0:0,0:0:0:0:
493,198,91473,2,0,L|403:203,1,69.9999945259097,6|0,0:1|3:0,0:0:0:0:
250,137,91751,2,0,L|379:134,1,69.9999945259097,2|0,0:0|2:0,0:0:0:0:
144,200,92028,2,0,L|74:199,1,69.9999945259097,2|0,0:0|0:0,0:0:0:0:
157,23,92306,1,10,1:0:0:0:
256,192,92445,12,10,93140,1:0:0:0:
100,192,93695,5,10,1:2:0:0:
101,200,93765,1,8,3:2:0:0:
102,208,93834,1,8,0:2:0:0:
103,216,93903,1,8,3:2:0:0:
104,224,93973,5,4,0:3:0:0:
212,52,94251,1,8,0:3:0:0:
208,72,94390,1,0,1:0:0:0:
204,92,94528,1,8,0:3:0:0:
392,16,94806,5,8,0:3:0:0:
348,248,95084,1,8,0:0:0:0:
392,16,95362,5,8,2:0:0:0:
372,132,95501,1,8,3:0:0:0:
392,16,95640,6,0,L|496:24,2,89.9999929618838,10|2|6,1:0|1:0|0:3,0:0:0:0:
330,89,96751,1,2,0:0:0:0:
256,28,97028,1,2,1:0:0:0:
76,192,97306,5,10,1:0:0:0:
256,104,97584,1,8,0:3:0:0:
436,192,97862,2,0,L|432:248,1,29.9999976539613,2|0,0:0|3:0,0:0:0:0:
380,344,98140,6,0,L|376:256,1,59.9999953079226,2|0,0:0|0:0,0:0:0:0:
300,240,98556,1,0,1:0:0:0:
300,240,98695,1,0,0:0:0:0:
487,93,98973,2,0,L|427:96,2,59.9999953079226,6|0|0,1:3|0:0|0:0,0:0:0:0:
436,192,99806,5,2,3:0:0:0:
256,104,100084,1,2,0:0:0:0:
76,192,100362,2,0,L|80:248,1,29.9999976539613,8|0,0:3|3:0,0:0:0:0:
120,368,100640,6,0,L|16:360,2,89.9999929618838,10|2|6,1:0|1:2|0:3,0:0:0:0:
182,295,101751,1,2,0:0:0:0:
256,356,102028,1,2,0:0:0:0:
436,192,102306,5,10,1:0:0:0:
256,280,102584,1,8,0:3:0:0:
76,192,102862,2,0,L|80:136,1,29.9999976539613,2|0,0:0|3:0,0:0:0:0:
16,112,103140,5,2,0:0:0:0:
32,36,103278,1,0,3:0:0:0:
40,24,103556,1,0,1:0:0:0:
116,48,103695,1,0,1:0:0:0:
124,32,103973,6,0,L|208:28,2,59.9999953079226,6|0|0,1:3|0:0|1:0,0:0:0:0:
360,80,104806,1,2,3:0:0:0:
156,124,105084,1,2,0:0:0:0:
368,200,105362,2,0,P|336:204|312:212,1,29.9999976539613,8|0,0:3|3:0,0:0:0:0:
192,232,105640,6,0,P|228:232|272:240,1,59.9999953079226,10|0,1:0|0:0,0:0:0:0:
156,308,106056,2,0,P|112:308|72:316,1,59.9999953079226,2|0,1:0|3:0,0:0:0:0:
24,192,106473,2,0,P|40:191|68:192,1,29.9999976539613,6|0,0:3|3:0,0:0:0:0:
145,123,106751,2,0,P|130:123|116:124,1,29.9999976539613,2|0,0:0|3:0,0:0:0:0:
36,48,107028,2,0,P|50:47|65:47,1,29.9999976539613,2|0,0:0|3:0,0:0:0:0:
256,24,107306,5,10,1:0:0:0:
168,240,107584,1,8,0:3:0:0:
36,48,107862,1,2,0:0:0:0:
36,48,108140,6,0,P|50:47|65:47,1,29.9999976539613,2|0,0:0|3:0,0:0:0:0:
144,32,108417,1,0,0:0:0:0:
208,80,108556,1,0,1:0:0:0:
228,68,108834,5,8,3:0:0:0:
292,24,108973,2,0,L|364:24,1,59.9999953079226,6|0,1:3|0:0,0:0:0:0:
372,32,109528,5,0,0:0:0:0:
408,104,109667,2,0,L|464:96,1,29.9999976539613,8|2,2:3|3:0,0:0:0:0:
496,152,109945,1,8,2:3:0:0:
424,184,110084,1,2,0:0:0:0:
384,252,110223,1,2,0:0:0:0:
384,332,110362,2,0,L|336:332,1,29.9999976539613,8|2,0:3|0:2,0:0:0:0:
260,148,110640,6,0,P|290:152|320:152,1,59.9999953079226,10|0,1:0|0:0,0:0:0:0:
415,79,111056,2,0,P|385:75|356:76,1,59.9999953079226,2|0,1:2|3:0,0:0:0:0:
196,192,111473,2,0,P|197:178|197:163,1,29.9999976539613,6|0,0:3|3:0,0:0:0:0:
132,52,111751,2,0,P|132:67|131:81,1,29.9999976539613,2|0,0:0|3:0,0:0:0:0:
52,180,112028,2,0,P|53:164|52:136,1,29.9999976539613,2|0,0:0|3:0,0:0:0:0:
8,24,112306,5,10,1:0:0:0:
123,235,112584,1,8,0:3:0:0:
256,28,112862,1,2,0:0:0:0:
123,235,113140,6,0,P|187:227|267:235,1,119.999990615845,2|0,0:0|0:0,0:0:0:0:
484,128,113973,2,0,P|408:128|364:136,1,119.999990615845,6|2,1:3|0:0,0:0:0:0:
216,72,114806,1,2,3:0:0:0:
216,72,115362,5,0,1:3:0:0:
156,132,115501,1,8,0:3:0:0:
156,132,115570,1,8,0:3:0:0:
156,132,115640,1,4,0:3:0:0:
72,132,115778,1,6,0:3:0:0:
16,68,115917,1,0,0:3:0:0:
160,8,116056,5,6,1:3:0:0:
216,72,116195,1,0,0:0:0:0:
300,88,116334,1,6,1:3:0:0:
376,52,116473,6,0,P|420:108|444:196,1,149.999992847443,2|0,1:3|3:0,0:0:0:0:
488,248,117028,2,0,P|464:260|432:300,1,49.9999976158143,0|0,0:0|3:0,0:0:0:0:
512,112,117306,2,0,P|424:116|328:144,1,149.999992847443,2|0,0:3|3:0,0:0:0:0:
312,192,117861,2,0,P|256:180|236:168,1,49.9999976158143,0|0,1:0|3:0,0:0:0:0:
212,32,118139,6,0,P|180:28|136:32,1,49.9999976158143,10|0,1:0|3:0,0:0:0:0:
85,124,118417,2,0,P|141:112|217:112,1,99.9999952316285,0|0,0:0|0:0,0:0:0:0:
261,132,118834,1,0,3:0:0:0:
341,124,118973,1,2,0:3:0:0:
341,124,119250,6,0,P|341:96|330:67,1,49.9999952316284,0|0,0:0|3:0,0:0:0:0:
422,135,119528,2,0,P|422:159|415:183,1,49.9999952316284,0|0,0:0|3:0,0:0:0:0:
299,340,119806,2,0,P|292:315|291:290,1,49.9999976158143,10|0,1:0|3:0,0:0:0:0:
213,267,120084,2,0,P|219:242|220:217,1,49.9999976158143,0|0,0:0|1:0,0:0:0:0:
149,180,120361,2,0,P|142:155|131:133,1,49.9999976158143,0|0,0:0|2:0,0:0:0:0:
8,196,120639,6,0,P|14:220|25:242,1,49.9999976158143,2|0,0:3|3:0,0:0:0:0:
8,320,120917,2,0,P|41:324|72:318,1,49.9999952316284,0|0,0:0|2:0,0:0:0:0:
125,365,121195,2,0,P|149:357|193:333,1,49.9999976158143,0|0,0:0|3:0,0:0:0:0:
247,198,121473,2,0,P|199:182|111:190,1,99.9999952316285,10|0,1:0|0:0,0:0:0:0:
83,135,121889,1,0,1:0:0:0:
83,135,122028,2,0,P|79:67|87:51,1,49.9999976158143,0|0,0:0|3:0,0:0:0:0:
256,32,122306,6,0,L|332:28,1,49.9999976158143,2|0,1:3|3:0,0:0:0:0:
440,84,122584,2,0,L|390:86,1,49.9999976158143,2|0,0:0|3:0,0:0:0:0:
322,172,122861,2,0,L|272:172,1,49.9999976158143,0|0,0:0|0:0,0:0:0:0:
64,128,123139,6,0,P|160:108|228:108,1,149.999992847443,10|0,1:0|3:0,0:0:0:0:
287,69,123695,2,0,P|275:47|255:31,1,49.9999976158143,0|0,0:0|3:0,0:0:0:0:
156,216,123973,2,0,P|256:208|324:212,1,149.999992847443,6|0,0:3|3:0,0:0:0:0:
384,224,124528,1,0,0:0:0:0:
512,56,124667,5,0,1:0:0:0:
512,56,124806,1,10,1:0:0:0:
432,64,124945,1,8,3:2:0:0:
384,224,125223,1,8,1:2:0:0:
464,220,125361,2,0,P|456:160|444:136,1,49.9999976158143,0|0,0:0|3:0,0:0:0:0:
360,24,125639,2,0,L|284:28,1,49.9999976158143,6|0,0:3|3:0,0:0:0:0:
476,80,125917,6,0,P|416:88|388:96,1,49.9999976158143,0|0,0:0|3:0,0:0:0:0:
324,164,126195,2,0,P|384:156|412:148,1,49.9999976158143,0|0,0:0|3:0,0:0:0:0:
310,26,126473,2,0,P|250:34|222:42,1,49.9999976158143,10|0,1:0|3:0,0:0:0:0:
72,120,126750,2,0,P|116:112|216:120,1,99.9999952316285,0|0,0:0|0:0,0:0:0:0:
252,116,127167,1,0,0:0:0:0:
423,162,127306,6,0,L|371:158,1,49.9999976158143,6|0,0:3|3:0,0:0:0:0:
272,248,127584,2,0,P|324:236|336:236,1,49.9999976158143,0|0,0:0|3:0,0:0:0:0:
448,284,127861,2,0,P|400:292|380:300,1,49.9999952316284,0|0,0:0|1:0,0:0:0:0:
272,248,128139,1,8,1:0:0:0:
268,168,128278,1,8,3:2:0:0:
272,148,128556,5,0,1:0:0:0:
352,128,128695,1,0,0:0:0:0:
188,104,128834,1,8,3:3:0:0:
188,104,128903,1,8,0:3:0:0:
188,104,128973,2,0,P|152:144|144:160,1,49.9999976158143,6|4,0:3|1:3,0:0:0:0:
144,272,129250,1,2,0:0:0:0:
144,272,129389,1,0,3:0:0:0:
258,345,129528,6,0,P|262:311|258:284,1,49.9999976158143,10|0,1:0|3:0,0:0:0:0:
301,103,129806,2,0,P|313:190|310:237,1,99.9999952316285,2|0,1:3|0:0,0:0:0:0:
377,268,130223,1,0,1:0:0:0:
377,268,130361,2,0,P|393:205|392:200,1,49.9999976158143,0|0,0:0|3:0,0:0:0:0:
216,41,130639,6,0,P|204:122|210:207,1,149.999992847443,4|0,0:3|0:0,0:0:0:0:
162,256,131195,2,0,P|133:232|115:201,1,49.9999976158143,0|0,0:0|0:0,0:0:0:0:
311,39,131473,2,0,P|330:55|344:75,1,49.9999976158143,10|0,1:0|3:0,0:0:0:0:
424,120,131750,2,0,P|428:71|416:23,1,99.9999952316285,0|0,0:0|0:0,0:0:0:0:
497,13,132167,1,0,0:0:0:0:
344,75,132306,5,6,0:3:0:0:
344,75,132584,2,0,P|282:85|251:75,1,49.9999976158143,0|0,0:0|3:0,0:0:0:0:
154,32,132861,1,0,0:0:0:0:
235,32,133000,1,8,3:0:0:0:
115,150,133139,2,0,P|101:93|104:73,1,49.9999976158143,10|0,1:0|3:0,0:0:0:0:
176,244,133417,2,0,P|185:221|190:196,1,49.9999976158143,0|0,0:0|1:0,0:0:0:0:
128,376,133695,2,0,P|92:312|44:280,1,99.9999952316285,0|6,0:0|0:3,0:0:0:0:
72,295,134250,6,0,P|64:232|72:212,1,49.9999976158143,0|0,0:0|3:0,0:0:0:0:
179,148,134528,2,0,P|187:211|179:231,1,49.9999976158143,0|0,0:0|3:0,0:0:0:0:
32,80,134806,2,0,P|80:68|168:88,1,99.9999952316285,10|0,1:0|0:0,0:0:0:0:
200,32,135223,1,0,1:0:0:0:
200,32,135361,2,0,P|264:72|272:80,1,49.9999976158143,0|0,0:0|3:0,0:0:0:0:
440,4,135639,5,14,1:3:0:0:
388,192,135917,1,2,0:0:0:0:
243,55,136195,2,0,P|232:112|240:144,1,49.9999976158143,2|0,0:0|0:0,0:0:0:0:
144,24,136473,6,0,P|136:104|180:200,1,149.999992847443,10|0,1:0|1:0,0:0:0:0:
140,248,137028,2,0,P|88:232|68:216,1,49.9999976158143,0|0,0:0|3:0,0:0:0:0:
231,103,137306,2,0,P|316:104|408:140,1,149.999992847443,6|0,0:3|0:0,0:0:0:0:
456,112,137861,2,0,P|452:80|432:48,1,49.9999976158143,0|0,0:0|3:0,0:0:0:0:
340,244,138139,6,0,P|344:212|364:180,1,49.9999976158143,10|0,1:0|3:0,0:0:0:0:
432,200,138417,2,0,P|448:264|444:328,1,99.9999952316285,0|0,0:0|0:0,0:0:0:0:
372,328,138834,1,0,0:0:0:0:
432,200,138973,5,6,0:3:0:0:
216,344,139250,2,0,P|196:292|192:272,1,49.9999976158143,0|0,0:0|2:0,0:0:0:0:
132,212,139528,2,0,P|124:244|124:292,1,49.9999976158143,0|0,0:0|0:0,0:0:0:0:
256,240,139806,2,0,P|308:236|336:244,1,49.9999976158143,10|0,1:0|3:0,0:0:0:0:
424,180,140084,2,0,P|364:180|344:188,1,49.9999976158143,0|0,0:0|1:0,0:0:0:0:
340,316,140361,2,0,P|400:316|420:308,1,49.9999976158143,0|0,0:0|3:0,0:0:0:0:
512,104,140639,6,0,P|452:104|432:112,1,49.9999976158143,6|0,0:3|3:0,0:0:0:0:
384,248,140917,2,0,P|444:248|464:240,1,49.9999976158143,0|0,0:0|3:0,0:0:0:0:
400,40,141195,2,0,P|340:49|322:60,1,49.9999976158143,0|0,0:0|3:0,0:0:0:0:
212,284,141473,6,0,P|256:292|336:284,1,99.9999952316285,8|2,1:0|0:0,0:0:0:0:
384,248,141889,1,0,1:0:0:0:
384,248,142028,2,0,P|376:188|380:168,1,49.9999976158143,0|0,0:0|1:3,0:0:0:0:
260,40,142306,6,0,P|184:40|132:48,1,99.9999952316285,6|2,0:3|0:0,0:0:0:0:
84,64,142723,2,0,L|40:40,2,49.9999976158143,0|10|8,0:0|1:0|3:0,0:0:0:0:
144,120,143139,1,2,1:3:0:0:
328,28,143417,5,0,0:0:0:0:
408,28,143556,2,0,P|396:80|400:104,1,59.9999953079226,0|0,1:0|3:0,0:0:0:0:
424,160,143973,2,0,P|480:152|508:160,2,59.9999953079226,4|0|0,0:3|0:0|0:0,0:0:0:0:
256,52,144806,6,0,L|188:56,1,59.9999953079226,10|0,1:0|0:0,0:0:0:0:
196,55,145223,1,0,2:0:0:0:
116,40,145361,1,0,0:0:0:0:
116,40,145500,1,0,2:0:0:0:
48,80,145639,2,0,P|32:108|24:156,2,59.9999953079226,6|0|0,0:3|0:0|0:0,0:0:0:0:
120,116,146473,6,0,P|128:136|128:168,1,29.9999976539613,10|0,1:0|3:0,0:0:0:0:
68,264,146750,2,0,P|68:224|76:192,1,59.9999953079226,0|0,0:0|0:0,0:0:0:0:
152,224,147167,1,0,2:0:0:0:
212,160,147306,2,0,P|264:160|296:168,2,59.9999953079226,6|0|0,0:3|0:0|0:0,0:0:0:0:
384,36,148139,5,10,1:0:0:0:
384,36,148417,2,0,L|388:92,1,29.9999976539613,0|2,0:0|1:0,0:0:0:0:
456,104,148695,2,0,L|452:144,1,29.9999976539613,0|2,0:0|1:0,0:0:0:0:
396,188,148973,5,14,1:3:0:0:
396,188,149111,2,0,P|372:220|368:256,1,59.9999953079226,0|2,1:0|2:0,0:0:0:0:
296,268,149528,2,0,P|300:296|312:320,1,29.9999976539613,0|8,1:0|0:2,0:0:0:0:
360,352,149806,1,10,1:0:0:0:
84,192,150084,5,0,0:0:0:0:
68,224,150223,1,0,1:0:0:0:
60,260,150361,1,0,0:0:0:0:
64,296,150500,1,0,0:0:0:0:
76,328,150639,5,6,0:3:0:0:
256,192,150917,1,0,0:0:0:0:
436,328,151195,1,0,0:0:0:0:
256,192,151473,5,10,1:0:0:0:
428,192,151750,1,0,0:0:0:0:
444,160,151889,1,0,1:0:0:0:
452,124,152028,1,0,0:0:0:0:
448,88,152167,1,0,2:0:0:0:
436,56,152306,5,6,0:3:0:0:
256,192,152584,1,0,0:0:0:0:
76,56,152861,2,0,L|72:108,1,29.9999976539613,0|0,0:0|3:0,0:0:0:0:
176,176,153139,6,0,L|172:108,1,37.4999996423721,10|0,1:3|3:0,0:0:0:0:
270,74,153417,2,0,L|272:36,1,37.4999996423721,2|0,1:0|3:0,0:0:0:0:
252,280,153695,2,0,L|256:232,1,39.9999987284343,0|0,0:0|2:0,0:0:0:0:
392,136,153973,6,0,L|394:86,1,49.9999976158143,2|0,1:3|3:0,0:0:0:0:
374,358,154250,2,0,L|378:298,1,49.9999976158143,2|0,1:0|3:0,0:0:0:0:
252,280,154528,5,0,0:0:0:0:
256,202,154667,2,0,L|260:138,1,59.9999953079226,8|8,2:3|1:0,0:0:0:0:
72,52,154945,1,8,3:3:0:0:
76,130,155084,2,0,L|80:194,1,59.9999953079226,2|0,0:0|1:0,0:0:0:0:
432,189,155361,2,0,L|436:130,1,59.9999953079226,0|8,1:0|1:3,0:0:0:0:
440,52,155639,1,6,0:3:0:0:
440,52,155778,6,0,P|468:48|484:44,8,29.9999976539613,0|0|8|8|0|0|0|0|0,1:3|0:0|0:2|3:2|0:0|0:0|0:0|0:0|0:0,0:0:0:0:
256,32,156473,5,6,1:2:0:0:
256,32,156750,2,0,L|168:40,1,59.9999953079226,0|0,0:0|1:2,0:0:0:0:
104,124,157028,2,0,L|163:118,1,59.9999953079226,8|0,0:0|2:0,0:0:0:0:
44,48,157306,5,6,0:1:0:0:
44,48,157584,2,0,L|103:42,1,59.9999953079226,0|0,0:0|0:0,0:0:0:0:
223,194,157861,2,0,L|163:199,1,59.9999953079226,0|8,0:0|3:2,0:0:0:0:
256,44,158139,5,10,1:0:0:0:
299,110,158278,1,8,3:2:0:0:
376,130,158417,1,0,0:0:0:0:
453,110,158556,1,8,1:2:0:0:
490,39,158695,2,0,P|472:22|451:9,1,49.9999952316284,8|0,0:0|3:0,0:0:0:0:
480,192,158973,6,0,L|416:196,1,49.9999976158143,6|0,0:1|3:0,0:0:0:0:
256,44,159250,2,0,L|305:40,1,49.9999976158143,0|0,0:0|3:0,0:0:0:0:
385,52,159528,1,0,0:0:0:0:
352,200,159667,5,8,3:0:0:0:
292,252,159806,2,0,P|268:200|268:192,1,49.9999976158143,10|8,1:0|3:2,0:0:0:0:
224,116,160084,2,0,P|200:168|200:176,1,49.9999976158143,0|8,0:0|1:2,0:0:0:0:
164,320,160361,2,0,P|140:268|140:260,1,49.9999976158143,8|0,0:0|2:0,0:0:0:0:
80,76,160639,6,0,L|152:72,1,49.9999976158143,6|0,0:1|3:0,0:0:0:0:
300,52,160917,2,0,P|320:80|328:108,1,49.9999976158143,0|0,0:0|2:0,0:0:0:0:
226,201,161195,2,0,P|206:173|198:145,1,49.9999976158143,0|0,0:0|3:2,0:0:0:0:
412,12,161473,5,10,1:0:0:0:
412,12,161611,2,0,L|408:80,1,49.9999976158143,8|0,3:2|0:0,0:0:0:0:
496,188,161889,1,8,1:2:0:0:
496,188,162028,2,0,L|492:120,1,49.9999976158143,8|0,0:0|3:0,0:0:0:0:
496,56,162306,5,6,0:1:0:0:
408,208,162445,1,8,3:2:0:0:
316,56,162584,1,2,0:0:0:0:
340,144,162723,1,8,3:2:0:0:
252,120,162861,2,0,P|256:164|248:192,1,49.9999976158143,2|8,0:0|3:2,0:0:0:0:
92,80,163139,6,0,P|128:68|208:68,1,99.9999952316285,10|0,1:0|0:0,0:0:0:0:
256,12,163556,2,0,P|292:20|320:36,2,49.9999976158143,8|8|0,1:2|0:0|2:0,0:0:0:0:
172,144,163973,5,6,0:1:0:0:
252,136,164250,1,0,0:0:0:0:
324,168,164528,1,0,0:0:0:0:
324,168,164667,2,0,P|336:220|332:232,1,49.9999976158143,8|10,0:2|1:0,0:0:0:0:
440,300,164945,5,8,3:2:0:0:
372,340,165084,1,0,0:0:0:0:
348,344,165153,1,0,0:0:0:0:
322,341,165223,1,10,1:2:0:0:
297,336,165292,1,0,0:0:0:0:
273,327,165361,2,0,P|256:327|236:335,3,24.9999976158142,8|2|0|2,2:2|2:0|2:0|2:0,0:0:0:0:
224,336,165639,6,0,L|181:343,3,24.9999988079071,6|2|0|2,2:1|2:0|2:0|2:0,0:0:0:0:
174,336,165917,2,0,P|150:335|135:333,3,24.9999976158142,2|2|0|0,2:2|2:2|2:0|2:0,0:0:0:0:
124,331,166195,2,0,P|91:333|84:336,2,24.9999988079071,0|0|0,2:3|2:3|2:3,0:0:0:0:
6,266,166473,6,0,L|0:216,1,49.9999976158143,10|8,1:0|3:2,0:0:0:0:
65,100,166750,2,0,L|71:149,1,49.9999976158143,0|8,0:0|1:2,0:0:0:0:
127,274,167028,2,0,L|131:220,1,49.9999976158143,8|0,0:0|0:0,0:0:0:0:
210,109,167306,6,0,L|207:44,1,49.9999976158143,6|0,0:1|3:0,0:0:0:0:
293,194,167584,2,0,L|297:140,1,49.9999976158143,0|0,0:0|2:0,0:0:0:0:
375,306,167861,2,0,L|378:254,1,49.9999976158143,0|8,0:0|0:3,0:0:0:0:
462,60,168139,5,8,1:0:0:0:
462,60,168278,2,0,L|469:132,1,49.9999976158143,8|0,3:2|1:3,0:0:0:0:
377,256,168556,1,8,1:2:0:0:
377,256,168695,2,0,L|379:190,1,49.9999976158143,8|8,0:2|1:0,0:0:0:0:
307,61,168973,5,6,0:1:0:0:
275,218,169111,1,0,1:0:0:0:
210,39,169250,1,2,0:0:0:0:
190,172,169389,1,0,0:0:0:0:
99,40,169528,1,10,1:2:0:0:
109,128,169667,1,8,0:2:0:0:
11,205,169806,6,0,P|48:205|79:217,1,49.9999976158143,10|2,1:0|3:2,0:0:0:0:
129,249,170084,1,0,0:0:0:0:
168,320,170223,1,2,1:2:0:0:
280,256,170361,1,8,0:0:0:0:
344,303,170500,1,2,2:0:0:0:
424,306,170639,6,0,P|424:276|436:240,1,49.9999976158143,6|0,0:1|3:0,0:0:0:0:
504,172,170917,2,0,P|472:176|432:168,1,49.9999976158143,0|0,0:0|3:0,0:0:0:0:
376,92,171195,2,0,P|408:88|448:96,1,49.9999976158143,0|8,0:0|3:2,0:0:0:0:
320,24,171473,5,8,1:0:0:0:
251,63,171611,1,10,3:2:0:0:
220,136,171750,1,2,0:0:0:0:
148,15,171889,1,8,1:2:0:0:
91,71,172028,2,0,P|63:83|27:79,1,49.9999976158143,10|2,0:0|3:0,0:0:0:0:
12,160,172306,6,0,P|80:168|124:192,2,99.9999952316285,6|2|0,0:1|0:0|0:0,0:0:0:0:
152,264,173000,1,8,3:0:0:0:
152,264,173139,2,0,P|80:296|56:324,1,99.9999952316285,10|0,1:0|0:0,0:0:0:0:
256,356,173556,1,8,1:2:0:0:
256,356,173695,2,0,P|272:296|288:280,1,49.9999976158143,8|0,0:0|2:0,0:0:0:0:
328,248,173973,6,0,L|396:248,1,49.9999976158143,6|2,0:1|3:0,0:0:0:0:
484,176,174250,2,0,L|434:176,1,49.9999976158143,2|0,0:0|2:0,0:0:0:0:
448,24,174528,1,2,0:0:0:0:
400,100,174667,1,2,3:2:0:0:
260,16,174806,5,10,1:0:0:0:
284,176,174945,1,8,3:2:0:0:
144,24,175084,2,0,P|164:100|164:116,1,49.9999976158143,0|8,0:0|1:2,0:0:0:0:
52,136,175361,2,0,P|32:60|32:44,1,49.9999976158143,10|0,0:0|3:0,0:0:0:0:
196,152,175639,5,6,0:1:0:0:
40,228,175778,1,12,3:3:0:0:
176,248,175917,2,0,P|196:324|196:340,1,49.9999976158143,2|8,0:0|3:2,0:0:0:0:
38,368,176195,2,0,P|18:292|18:276,1,49.9999976158143,10|8,2:2|0:2,0:0:0:0:
256,360,176473,5,10,1:0:0:0:
256,360,176611,2,0,L|332:364,1,49.9999976158143,0|0,3:0|0:0,0:0:0:0:
389,343,176889,1,8,1:2:0:0:
396,200,177028,2,0,L|324:204,1,49.9999976158143,8|0,0:0|2:0,0:0:0:0:
188,144,177306,2,0,P|264:136|324:136,2,99.9999952316285,6|0|0,0:1|0:0|0:0,0:0:0:0:
104,164,178000,1,8,3:2:0:0:
232,56,178139,5,10,1:0:0:0:
232,56,178417,2,0,P|296:52|316:52,1,49.9999976158143,2|8,0:0|1:2,0:0:0:0:
412,96,178695,2,0,P|348:96|328:100,1,49.9999976158143,10|0,0:2|3:0,0:0:0:0:
500,176,178973,2,0,P|440:180|376:196,1,99.9999952316285,6|2,0:1|0:0,0:0:0:0:
323,164,179389,2,0,P|307:182|296:205,1,49.9999976158143,2|2,3:0|0:0,0:0:0:0:
348,264,179667,1,8,3:2:0:0:
216,224,179806,1,10,1:0:0:0:
156,276,179945,1,8,3:2:0:0:
136,268,180223,5,8,1:2:0:0:
60,292,180361,2,0,P|44:236|52:212,1,49.9999976158143,10|0,0:0|0:0,0:0:0:0:
96,184,180639,1,6,0:1:0:0:
36,128,180778,1,2,3:0:0:0:
43,48,180917,1,2,0:0:0:0:
116,15,181056,1,2,2:0:0:0:
191,42,181195,2,0,P|257:47|274:43,1,49.9999976158143,2|2,0:0|0:0,0:0:0:0:
389,26,181473,6,0,P|333:63|311:116,2,99.9999952316285,10|2|0,1:0|0:0|0:2,0:0:0:0:
389,26,182306,5,6,0:1:0:0:
129,93,182584,1,2,0:0:0:0:
371,193,182861,2,0,L|379:132,1,49.9999952316284
360,276,183139,5,4,0:3:0:0:
250,152,183417,1,8,0:3:0:0:
201,304,183695,1,8,0:3:0:0:
75,76,183973,5,8,0:3:0:0:
335,77,184250,1,8,3:0:0:0:
201,304,184528,1,8,2:3:0:0:
123,325,184667,1,8,3:0:0:0:
142,244,184806,6,0,P|140:151|121:114,1,119.999994277954,0|0,0:0|0:0,0:0:0:0:
51,44,186472,2,0,P|167:30|300:61,1,239.999988555908,0|0,0:0|0:0,0:0:0:0:
374,93,188972,1,0,0:0:0:0:
418,178,189806,1,0,0:0:0:0:
409,273,190639,1,0,0:0:0:0:
418,178,191194,1,0,0:0:0:0:
374,93,191472,6,0,P|302:109|246:90,1,119.999994277954,0|0,0:0|0:0,0:0:0:0:
138,28,193139,2,0,P|85:131|76:218,1,199.999990463257,0|0,0:0|0:0,0:0:0:0:
128,300,194806,1,0,0:0:0:0:
128,300,195361,1,0,0:0:0:0:
209,248,195639,1,0,0:0:0:0:
304,241,195917,1,0,0:0:0:0:
395,269,196194,1,0,0:0:0:0:
453,345,196472,5,0,0:0:0:0:
128,300,197306,1,0,0:0:0:0:
334,49,198139,6,0,P|273:69|203:51,1,119.999990615845,10|0,1:0|0:0,0:0:0:0:
136,10,198972,2,0,P|113:67|122:144,1,119.999990615845,0|0,0:3|1:0,0:0:0:0:
84,216,199806,2,0,P|150:241|188:296,1,119.999990615845,0|0,1:0|0:0,0:0:0:0:
256,216,200639,1,0,0:3:0:0:
256,196,201472,5,10,1:0:0:0:
256,176,201889,1,0,1:0:0:0:
256,160,202306,1,2,0:3:0:0:
404,80,203139,5,10,1:0:0:0:
404,96,203556,1,0,1:0:0:0:
404,112,203972,1,10,1:0:0:0:
108,112,204528,5,0,0:0:0:0:
108,96,204806,2,0,L|108:12,2,79.9999961853028,10|0|0,1:0|0:0|0:0,0:0:0:0:
108,192,205639,1,4,0:3:0:0:
108,192,205917,2,0,L|108:240,1,39.9999961853027,0|0,0:0|3:0,0:0:0:0:
80,304,206194,1,0,0:0:0:0:
196,144,206333,1,0,1:0:0:0:
268,108,206472,1,10,1:0:0:0:
348,124,206611,1,8,3:0:0:0:
348,124,206889,6,0,L|400:128,2,39.9999980926514,8|8|0,1:3|0:3|3:0,0:0:0:0:
284,28,207306,2,0,P|348:24|432:36,1,119.999994277954,6|0,0:3|3:0,0:0:0:0:
420,212,207861,2,0,P|384:216|340:208,1,49.9999976158143,0|0,0:0|3:0,0:0:0:0:
120,100,208139,6,0,P|180:88|260:88,1,99.9999952316285,10|0,1:0|0:0,0:0:0:0:
304,140,208556,1,8,1:2:0:0:
304,140,208694,2,0,P|364:136|376:136,1,49.9999976158143,8|0,0:3|3:0,0:0:0:0:
352,296,208972,6,0,P|284:300|202:297,1,149.999992847443,8|0,0:3|3:0,0:0:0:0:
124,316,209528,1,0,0:0:0:0:
208,124,209667,1,0,1:0:0:0:
140,76,209806,6,0,P|124:148|124:216,1,119.999990615845,8|0,1:0|0:0,0:0:0:0:
52,240,210222,2,0,P|40:172|40:160,1,59.9999953079226,0|0,1:0|0:0,0:0:0:0:
216,40,210500,1,8,3:3:0:0:
216,40,210569,1,8,0:3:0:0:
216,40,210639,5,4,0:3:0:0:
280,172,210778,1,4,1:3:0:0:
344,4,210917,1,0,0:0:0:0:
360,120,211056,2,0,P|404:168|408:184,1,59.9999953079226,4|8,3:0|1:0,0:0:0:0:
476,92,211333,1,4,3:0:0:0:
464,240,211472,5,0,0:0:0:0:
412,308,211611,1,2,0:0:0:0:
328,328,211750,1,0,0:0:0:0:
248,292,211889,2,0,L|232:272,8,14.9999988269806,2|0|0|0|2|0|0|0|0,0:0|0:0|0:0|0:0|0:0|0:0|0:0|0:0|0:0,0:0:0:0:
140,348,212306,6,0,P|112:232|36:156,1,209.999983577729,6|0,1:2|1:2,0:0:0:0:
8,76,212861,2,0,P|92:76|136:100,1,69.9999945259097,10|0,0:0|2:0,0:0:0:0:
260,16,213139,2,0,P|296:32|352:36,1,69.9999945259097,6|0,0:1|3:0,0:0:0:0:
328,136,213417,2,0,P|368:120|408:84,1,69.9999945259097,0|0,0:0|3:0,0:0:0:0:
508,24,213694,2,0,P|464:24|404:40,1,69.9999945259097,0|8,0:0|3:2,0:0:0:0:
252,232,213972,6,0,P|308:228|424:240,1,139.999989051819,8|2,1:0|0:0,0:0:0:0:
472,264,214389,1,8,1:2:0:0:
476,136,214528,2,0,P|396:136|376:140,1,69.9999945259097,10|0,0:0|3:0,0:0:0:0:
344,56,214806,2,0,P|304:60|252:72,1,69.9999945259097,6|0,0:1|3:0,0:0:0:0:
96,144,215083,2,0,P|196:140|248:148,1,139.999989051819,2|2,0:0|0:0,0:0:0:0:
316,172,215500,1,8,3:0:0:0:
164,40,215639,5,10,1:0:0:0:
164,40,215778,2,0,P|248:40|280:48,1,69.9999945259097,8|0,3:2|0:0,0:0:0:0:
332,0,216056,1,8,1:2:0:0:
332,0,216194,2,0,P|368:12|416:48,1,69.9999945259097,10|0,0:0|2:0,0:0:0:0:
492,192,216472,6,0,P|456:204|408:240,1,69.9999945259097,6|0,0:1|3:0,0:0:0:0:
412,316,216750,2,0,P|372:316|316:296,1,69.9999945259097,2|0,0:0|2:0,0:0:0:0:
256,260,217028,2,0,P|188:276|176:288,1,69.9999945259097,2|0,0:0|3:2,0:0:0:0:
100,312,217306,5,10,1:0:0:0:
100,312,217444,2,0,L|84:216,1,69.9999945259097,8|0,3:2|0:0,0:0:0:0:
176,104,217722,1,8,1:2:0:0:
176,104,217861,2,0,L|164:176,1,69.9999945259097,10|0,0:0|3:0,0:0:0:0:
44,8,218139,1,6,0:1:0:0:
44,8,218278,2,0,P|64:96|64:160,1,139.999989051819,8|8,3:2|3:2,0:0:0:0:
20,227,218694,2,0,P|53:240|88:242,1,69.9999945259097,2|8,0:0|3:2,0:0:0:0:
260,40,218972,6,0,P|412:48|496:72,1,209.999983577729,10|10,1:0|1:2,0:0:0:0:
420,148,219528,2,0,P|376:144|328:152,1,69.9999945259097,10|0,0:0|2:0,0:0:0:0:
172,8,219806,2,0,P|88:16|16:32,1,139.999989051819,6|0,0:1|0:0,0:0:0:0:
12,108,220222,1,0,0:0:0:0:
120,336,220361,2,0,P|104:236|96:220,1,69.9999945259097,0|0,0:0|0:0,0:0:0:0:
144,188,220639,1,10,1:0:0:0:
288,340,220778,5,8,3:2:0:0:
368,372,220917,1,2,0:0:0:0:
448,352,221056,1,8,1:2:0:0:
500,284,221194,2,0,P|476:208|456:184,1,69.9999945259097,10|0,0:2|3:0,0:0:0:0:
416,60,221472,2,0,P|404:136|416:168,1,69.9999945259097,6|0,0:1|3:0,0:0:0:0:
368,240,221750,2,0,P|276:232|180:252,1,139.999989051819,2|2,0:0|0:0,0:0:0:0:
148,260,222167,1,8,3:2:0:0:
28,52,222306,5,10,1:0:0:0:
100,8,222444,2,0,P|188:48|232:104,1,139.999989051819,8|10,3:2|1:2,0:0:0:0:
312,136,222861,2,0,P|320:96|368:48,1,69.9999945259097,8|0,0:0|0:0,0:0:0:0:
272,308,223139,2,0,P|236:212|176:156,1,139.999989051819,6|0,0:1|0:0,0:0:0:0:
144,140,223556,1,0,2:0:0:0:
60,132,223694,1,0,0:0:0:0:
376,40,223972,5,8,1:0:0:0:
448,84,224111,2,0,P|468:112|488:176,1,69.9999945259097,8|0,3:2|1:3,0:0:0:0:
480,228,224389,1,8,1:2:0:0:
292,28,224528,2,0,P|192:36|112:56,1,139.999989051819,8|6,0:2|0:1,0:0:0:0:
376,120,224944,1,0,1:0:0:0:
396,200,225083,1,2,0:0:0:0:
376,280,225222,1,0,0:0:0:0:
308,328,225361,1,10,1:2:0:0:
282,339,225431,1,8,3:2:0:0:
254,345,225500,1,8,0:2:0:0:
226,342,225569,1,8,3:2:0:0:
199,332,225639,6,0,P|123:311|25:326,1,139.999989051819,6|0,1:2|0:0,0:0:0:0:
18,244,226056,2,0,P|54:174|43:92,1,139.999989051819,0|0,1:2|2:0,0:0:0:0:
256,28,226472,2,0,P|328:20|412:36,1,139.999989051819,6|0,0:1|0:0,0:0:0:0:
472,60,226889,1,0,0:0:0:0:
416,184,227028,2,0,P|408:144|412:92,1,69.9999945259097,0|8,0:0|3:2,0:0:0:0:
492,216,227306,5,10,1:0:0:0:
444,284,227444,1,8,3:2:0:0:
364,312,227583,2,0,P|288:312|272:308,1,69.9999945259097,2|8,0:0|1:2,0:0:0:0:
144,244,227861,2,0,P|176:240|244:248,1,69.9999945259097,10|0,0:0|3:0,0:0:0:0:
320,196,228139,2,0,P|276:132|260:120,1,69.9999945259097,6|0,0:1|3:0,0:0:0:0:
184,44,228417,2,0,P|252:40|328:60,1,139.999989051819,2|2,0:0|0:0,0:0:0:0:
400,88,228833,1,8,3:0:0:0:
292,276,228972,5,10,1:0:0:0:
292,276,229111,2,0,P|208:280|188:284,1,69.9999945259097,8|0,3:2|0:0,0:0:0:0:
76,196,229389,1,8,1:2:0:0:
76,196,229528,2,0,P|164:200|180:204,1,69.9999945259097,10|0,0:0|2:0,0:0:0:0:
392,148,229806,2,0,P|356:148|280:156,1,69.9999945259097,6|0,0:1|3:0,0:0:0:0:
168,84,230083,2,0,P|204:84|280:92,1,69.9999945259097,2|0,0:0|2:0,0:0:0:0:
512,40,230361,2,0,P|476:40|400:48,1,69.9999945259097,2|0,0:0|3:2,0:0:0:0:
168,84,230639,5,10,1:0:0:0:
168,84,230778,2,0,P|160:160|168:184,1,69.9999945259097,8|0,3:2|0:0,0:0:0:0:
304,72,231056,1,8,1:2:0:0:
304,72,231194,2,0,P|304:37|294:3,1,69.9999945259097,10|0,0:0|3:0,0:0:0:0:
31,37,231472,1,6,0:1:0:0:
62,173,231611,1,8,3:3:0:0:
168,84,231750,1,2,0:0:0:0:
168,84,231889,1,8,3:2:0:0:
62,173,232028,2,0,P|82:245|74:269,1,69.9999911880496,2|8,0:0|3:2,0:0:0:0:
63,366,232306,6,0,P|215:338|315:358,1,209.999983577729,10|8,1:0|1:2,0:0:0:0:
350,362,232861,2,0,P|402:306|434:298,1,69.9999945259097,10|0,0:0|2:0,0:0:0:0:
512,96,233139,2,0,P|424:104|356:72,1,139.999989051819,6|0,0:1|0:0,0:0:0:0:
332,16,233556,2,0,P|256:44|240:64,1,69.9999945259097,0|0,0:0|0:0,0:0:0:0:
216,104,233833,1,0,0:0:0:0:
16,32,233972,5,10,1:0:0:0:
72,92,234111,1,8,3:2:0:0:
88,176,234250,2,0,P|76:244|56:276,1,69.9999945259097,2|8,0:0|1:2,0:0:0:0:
16,360,234528,2,0,P|100:344|124:352,1,69.9999945259097,10|0,0:2|3:0,0:0:0:0:
224,312,234806,2,0,P|188:300|162:282,1,69.9999945259097,6|0,0:1|3:0,0:0:0:0:
256,84,235083,2,0,P|272:176|312:260,1,139.999989051819,2|2,0:0|0:0,0:0:0:0:
340,292,235500,1,8,3:2:0:0:
432,56,235639,5,10,1:0:0:0:
432,56,235778,2,0,P|348:56|324:64,1,69.9999945259097,8|0,3:2|0:0,0:0:0:0:
280,32,236056,2,0,P|200:40|108:60,1,139.999989051819,8|0,1:2|0:0,0:0:0:0:
364,136,236472,2,0,P|256:132|184:140,1,139.999989051819,6|2,0:1|0:0,0:0:0:0:
140,152,236889,1,0,2:0:0:0:
328,228,237028,2,0,P|293:226|258:229,1,69.9999945259097,2|0,0:0|0:0,0:0:0:0:
279,31,237306,6,0,P|384:21|489:25,2,209.999983577729,10|8|6,1:0|1:2|0:1,0:0:0:0:
279,31,238417,5,8,0:2:0:0:
253,131,238556,1,8,0:0:0:0:
229,147,238625,1,8,0:0:0:0:
202,155,238694,1,6,1:3:0:0:
174,160,238764,1,4,3:3:0:0:
146,159,238833,1,4,0:3:0:0:
118,155,238903,1,4,3:3:0:0:
94,145,238972,6,0,P|59:228|74:345,1,179.999985923768,6|0,1:2|0:0,0:0:0:0:
147,377,239389,1,0,1:2:0:0:
147,377,239528,2,0,P|224:308|254:302,1,89.9999929618838,10|0,0:0|2:0,0:0:0:0:
472,149,239806,6,0,P|349:128|279:132,1,179.999985923768,6|0,0:1|0:0,0:0:0:0:
167,200,240222,2,0,P|190:104|204:87,1,89.9999929618838,0|0,0:0|0:0,0:0:0:0:
257,20,240500,1,8,3:2:0:0:
149,13,240639,5,8,1:0:0:0:
51,57,240778,1,8,3:2:0:0:
9,156,240917,2,0,P|32:255|42:270,1,89.9999929618838,2|8,0:0|1:2,0:0:0:0:
103,384,241194,2,0,P|126:285|136:270,1,89.9999929618838,10|0,0:0|3:0,0:0:0:0:
184,113,241472,2,0,P|289:158|312:183,1,89.9999929618838,6|0,0:1|3:0,0:0:0:0:
350,212,241750,2,0,P|373:173|386:130,1,89.9999929618838,2|0,0:0|3:0,0:0:0:0:
374,23,242028,1,2,0:0:0:0:
472,67,242167,1,8,3:0:0:0:
411,310,242306,6,0,P|288:299|124:338,1,269.999978885652,10|8,1:0|1:2,0:0:0:0:
49,380,242861,2,0,P|38:324|56:265,1,89.9999929618838,10|0,0:0|2:0,0:0:0:0:
103,102,243139,6,0,L|116:192,1,89.9999929618838,6|0,0:1|3:0,0:0:0:0:
248,216,243417,2,0,L|252:336,1,89.9999929618838,2|0,0:0|2:0,0:0:0:0:
384,148,243694,2,0,L|376:240,1,89.9999929618838,2|0,0:0|3:2,0:0:0:0:
464,80,243972,5,10,1:0:0:0:
364,48,244111,2,0,P|244:52|164:80,1,179.999985923768,8|8,3:2|1:2,0:0:0:0:
104,136,244528,2,0,P|72:44|80:16,1,89.9999929618838,10|0,0:0|3:0,0:0:0:0:
160,268,244806,1,6,0:1:0:0:
160,268,244944,2,0,L|32:280,1,89.9999929618838,8|2,3:2|0:0,0:0:0:0:
300,344,245222,1,8,3:2:0:0:
300,344,245361,2,0,L|200:344,1,89.9999929618838,2|8,0:0|3:2,0:0:0:0:
416,380,245639,6,0,P|424:244|476:116,1,269.999978885652,6|10,1:2|1:2,0:0:0:0:
492,16,246194,2,0,P|400:32|380:44,1,89.9999929618838,10|0,0:0|2:0,0:0:0:0:
140,104,246472,2,0,P|252:92|356:108,1,179.999985923768,6|0,0:1|0:0,0:0:0:0:
384,188,246889,1,0,0:0:0:0:
316,272,247028,2,0,P|216:280|184:276,1,89.9999929618838,0|0,0:0|0:0,0:0:0:0:
68,24,247306,6,0,P|168:16|200:20,1,89.9999929618838,10|8,1:0|3:2,0:0:0:0:
236,92,247583,2,0,P|320:40|348:36,1,89.9999929618838,2|8,0:0|1:2,0:0:0:0:
416,24,247861,1,10,0:2:0:0:
380,192,248000,1,0,3:0:0:0:
380,192,248069,1,8,0:2:0:0:
380,192,248139,2,0,P|324:180|264:196,1,89.9999929618838,6|0,0:1|3:0,0:0:0:0:
488,280,248417,2,0,P|380:288|300:336,1,179.999985923768,2|2,0:0|0:0,0:0:0:0:
216,280,248833,1,8,3:2:0:0:
216,280,248903,1,8,0:2:0:0:
216,280,248972,5,10,1:0:0:0:
96,192,249111,2,0,P|136:184|236:192,1,89.9999929618838,8|0,3:2|0:0,0:0:0:0:
8,112,249389,2,0,P|88:80|208:64,1,179.999985923768,10|0,1:2|0:0,0:0:0:0:
368,20,249806,2,0,P|308:8|264:12,1,89.9999929618838,6|0,0:1|3:0,0:0:0:0:
272,120,250083,1,0,0:0:0:0:
452,88,250222,1,8,2:2:0:0:
452,88,250292,1,8,0:2:0:0:
452,88,250361,1,0,0:0:0:0:
424,192,250500,1,8,0:2:0:0:
279,9,250639,5,8,1:0:0:0:
279,9,250778,2,0,P|232:20|172:56,1,89.9999929618838,8|0,3:2|1:3,0:0:0:0:
0,88,251056,2,0,P|76:104|116:136,1,89.9999929618838,8|8,1:2|0:2,0:0:0:0:
256,152,251333,1,0,3:0:0:0:
256,152,251403,1,4,0:3:0:0:
256,152,251472,1,6,0:3:0:0:
96,212,251611,1,4,1:3:0:0:
252,264,251750,1,2,0:0:0:0:
140,312,251889,1,4,0:3:0:0:
280,368,252028,6,0,P|384:336|400:340,1,89.9999929618838,10|8,1:2|0:2,0:0:0:0:
464,364,252306,2,0,P|456:264|500:180,1,179.999985923768,6|0,1:2|0:0,0:0:0:0:
452,92,252722,1,0,1:2:0:0:
336,76,252861,2,0,P|268:4|264:-8,1,89.9999929618838,10|0,0:0|2:0,0:0:0:0:
56,112,253139,2,0,P|172:120|256:148,1,179.999985923768,6|0,0:1|0:0,0:0:0:0:
336,76,253556,2,0,P|364:40|424:4,2,89.9999929618838,0|0|8,0:0|0:0|0:2,0:0:0:0:
272,304,253972,5,10,1:0:0:0:
380,316,254111,1,8,3:2:0:0:
468,256,254250,2,0,P|480:212|476:124,1,89.9999929618838,2|8,0:0|1:2,0:0:0:0:
440,32,254528,2,0,L|340:32,1,89.9999929618838,10|0,0:0|3:0,0:0:0:0:
212,136,254806,2,0,L|308:128,1,89.9999929618838,6|0,0:1|3:0,0:0:0:0:
56,60,255083,2,0,P|72:163|84:179,1,89.9999929618838,2|0,0:0|3:0,0:0:0:0:
148,216,255361,1,2,0:0:0:0:
176,40,255500,1,8,3:0:0:0:
176,40,255569,1,0,0:0:0:0:
176,40,255639,6,0,P|270:34|361:82,1,179.999977340699,10|0,1:0|0:0,0:0:0:0:
303,316,256056,1,8,1:2:0:0:
213,322,256194,2,0,P|170:309|132:286,1,89.9999886703494,10|0,0:0|2:0,0:0:0:0:
176,40,256472,6,0,L|180:156,1,89.9999929618838,6|0,0:1|0:0,0:0:0:0:
312,144,256750,2,0,L|316:240,1,89.9999929618838,2|0,0:0|0:0,0:0:0:0:
443,54,257028,2,0,L|440:144,1,89.9999929618838,2|0,0:0|0:2,0:0:0:0:
344,48,257306,5,10,1:0:0:0:
315,233,257444,1,8,3:2:0:0:
179,129,257583,2,0,P|187:209|195:233,1,89.9999929618838,0|8,0:0|1:2,0:0:0:0:
88,352,257861,2,0,P|80:292|84:256,1,89.9999929618838,10|8,0:0|0:3,0:0:0:0:
16,112,258139,1,6,0:1:0:0:
16,112,258278,2,0,P|100:72|120:68,1,89.9999929618838,4|6,3:3|0:2,0:0:0:0:
264,92,258556,1,8,3:2:0:0:
104,176,258694,1,2,0:0:0:0:
260,288,258833,1,8,0:3:0:0:
260,288,258903,1,8,0:3:0:0:
260,288,258972,5,6,1:2:0:0:
367,259,259111,2,0,P|376:200|367:149,1,89.9999929618838,8|0,3:0|0:0,0:0:0:0:
480,184,259389,1,8,1:2:0:0:
272,152,259528,2,0,P|268:107|277:63,1,89.9999929618838,10|0,0:0|2:0,0:0:0:0:
473,5,259806,2,0,P|485:101|473:217,1,179.999985923768,6|0,0:1|0:0,0:0:0:0:
400,260,260222,2,0,P|344:260|280:280,1,89.9999929618838,0|0,0:0|0:0,0:0:0:0:
228,336,260500,1,0,3:0:0:0:
228,336,260569,1,8,0:2:0:0:
228,336,260639,5,6,1:2:0:0:
148,264,260778,1,8,3:2:0:0:
48,308,260917,2,0,P|40:232|60:180,1,89.9999929618838,2|8,0:0|1:2,0:0:0:0:
0,84,261194,2,0,P|48:76|96:76,1,89.9999929618838,10|0,0:2|3:0,0:0:0:0:
300,176,261472,2,0,P|188:184|108:168,1,179.999985923768,6|2,0:1|0:0,0:0:0:0:
168,0,261889,2,0,P|224:4|272:16,1,89.9999929618838,0|2,3:0|0:0,0:0:0:0:
356,60,262167,1,8,3:2:0:0:
356,292,262306,5,6,1:2:0:0:
260,340,262444,2,0,P|136:344|36:316,1,179.999985923768,8|8,3:2|1:2,0:0:0:0:
124,232,262861,2,0,P|128:128|116:108,1,89.9999929618838,10|0,0:0|0:0,0:0:0:0:
405,116,263139,6,0,L|392:28,1,89.9999929618838,6|0,0:2|3:0,0:0:0:0:
272,248,263417,2,0,L|272:158,1,89.9999929618838,2|0,0:0|2:0,0:0:0:0:
132,24,263694,1,2,0:0:0:0:
132,24,263764,1,0,0:0:0:0:
132,24,263833,1,0,0:0:0:0:
28,248,263972,1,6,1:2:0:0:
256,192,264110,12,0,266472,3:0:0:0:
