osu file format v14

[General]
AudioFilename: audio.mp3
AudioLeadIn: 0
PreviewTime: 212306
Countdown: 0
SampleSet: Soft
StackLeniency: 0.6
Mode: 0
LetterboxInBreaks: 0
WidescreenStoryboard: 1

[Editor]
Bookmarks: 13973,27306,53278,53973,67306,95640,116473,143139,156473,184806,212306,238972,263972
DistanceSpacing: 1.3
BeatDivisor: 4
GridSize: 16
TimelineZoom: 1.1

[Metadata]
Title:SilentFlame
TitleUnicode:SilentFlame
Artist:Shimotsuki Haruka
ArtistUnicode:霜月はるか
Creator:Gust
Version:Firika's Normal
Source:魔王と踊れ! ~Legend of the Lord of Lords~
Tags:maou to odore Legend of the Lord of Lords galgame Firika Pata-Mon Imouto koko
BeatmapID:1548869
BeatmapSetID:662675

[Difficulty]
HPDrainRate:4
CircleSize:3
OverallDifficulty:4
ApproachRate:6
SliderMultiplier:0.79999990463257
SliderTickRate:1

[Events]
//Background and Video events
0,0,"A.jpg",0,0
//Break Periods
2,95840,104590
2,185006,197089
//Storyboard Layer 0 (Background)
//Storyboard Layer 1 (Fail)
//Storyboard Layer 2 (Pass)
//Storyboard Layer 3 (Foreground)
//Storyboard Sound Samples

[TimingPoints]
640,277.777777777778,6,2,1,60,1,0
640,-117.647058823529,6,2,1,60,0,0
13973,-100,6,2,1,60,0,0
67306,-100,6,2,1,70,0,1
92306,-100,6,2,1,70,0,0
95640,277.777777777778,9,2,1,60,1,0
116473,277.777777777778,6,2,1,60,1,0
156473,-100,6,2,1,70,0,0
184806,277.777777777778,6,2,1,60,1,0
198139,-117.647058823529,6,2,1,60,0,0
212306,277.777777777778,6,2,1,70,1,1
238694,-100,6,2,1,70,0,0
238972,-100,6,2,1,70,0,1
263972,277.777777777778,9,2,1,60,1,0

[Colours]
Combo1 : 255,128,64
Combo2 : 255,0,0
Combo3 : 255,128,128

[HitObjects]
498,111,640,6,0,P|444:142|406:144,1,101.999989786148,10|0,1:0|0:0,0:0:0:0:
299,64,1473,2,0,P|264:52|220:58,2,67.9999931907654
253,139,2306,2,0,P|248:185|254:240,1,101.999989786148
350,331,3140,2,0,L|419:338,2,67.9999931907654
266,361,3973,6,0,L|163:367,1,101.999989786148
42,314,4806,2,0,P|20:274|21:239,2,67.9999931907654
108,254,5640,2,0,P|154:238|230:247,1,101.999989786148
320,307,6473,2,0,L|326:381,2,67.9999931907654
250,251,7306,6,0,L|253:130,1,101.999989786148
181,36,8140,2,0,L|100:34,2,67.9999931907654
262,1,8973,2,0,P|319:-1|378:31,1,101.999989786148
443,119,9806,2,0,L|521:114,2,67.9999931907654
388,189,10640,6,0,L|398:306,1,101.999989786148
267,320,11473,2,0,P|228:316|197:297,2,67.9999931907654
260,231,12306,1,0,0:0:0:0:
202,163,12584,2,0,L|130:170,1,67.9999931907654
75,103,13140,2,0,P|43:90|5:89,2,67.9999931907654
21,192,13973,5,10,1:0:0:0:
13,296,14251,2,0,L|9:396,2,79.999990463257,0|8|2,0:0|0:0|0:0,0:0:0:0:
112,328,15084,2,0,P|151:322|188:306,1,79.999990463257,0|0,0:0|0:0,0:0:0:0:
247,221,15640,2,0,L|241:139,2,79.999990463257,0|0|8,0:0|0:0|0:0,0:0:0:0:
332,279,16473,2,0,L|326:361,2,79.999990463257,2|0|0,0:0|0:0|0:0,0:0:0:0:
389,192,17306,5,10,1:0:0:0:
446,105,17584,2,0,P|448:68|434:22,2,79.999990463257,0|8|2,0:0|0:0|0:0,0:0:0:0:
345,79,18417,2,0,L|249:83,1,79.999990463257,0|0,0:0|0:0,0:0:0:0:
161,86,18973,1,10,1:0:0:0:
12,231,19528,1,8,0:0:0:0:
90,299,19806,2,0,P|94:345|89:382,2,79.999990463257,2|2|0,0:0|0:0|0:0,0:0:0:0:
158,221,20640,5,10,1:0:0:0:
236,289,20917,2,0,P|275:295|315:294,1,79.999990463257,0|8,0:0|0:0,0:0:0:0:
407,244,21473,2,0,L|486:239,2,79.999990463257,2|0|0,0:0|0:0|0:0,0:0:0:0:
356,153,22306,2,0,L|277:148,2,79.999990463257,10|0|8,1:0|0:0|0:2,0:0:0:0:
407,62,23140,2,0,L|486:57,2,79.999990463257,2|0|0,0:0|0:0|0:0,0:0:0:0:
316,11,23973,6,0,B|251:-1|230:42|160:29,1,159.999980926514,10|8,1:0|0:0,0:0:0:0:
59,63,24806,2,0,P|28:87|9:122,2,79.999990463257,2|0|0,0:0|0:0|0:0,0:0:0:0:
108,155,25640,2,0,L|189:159,2,79.999990463257,8|0|8,1:0|0:0|0:2,0:0:0:0:
30,224,26473,1,2,0:0:0:0:
101,299,26751,2,0,P|144:303|199:293,1,79.999990463257,2|10,0:0|1:0,0:0:0:0:
264,236,27306,6,0,L|268:73,1,159.999980926514,2|0,1:3|0:0,0:0:0:0:
354,16,28140,2,0,P|432:19|487:74,1,159.999980926514,4|0,0:3|0:0,0:0:0:0:
391,114,28973,1,10,1:0:0:0:
454,196,29251,2,0,P|457:274|418:344,1,159.999980926514,8|6,1:0|0:3,0:0:0:0:
326,296,30084,2,0,L|246:291,1,79.999990463257,2|0,1:0|0:0,0:0:0:0:
156,344,30640,5,10,1:0:0:0:
78,274,30917,1,0,0:0:0:0:
121,179,31195,2,0,L|205:184,1,79.999990463257,0|6,0:0|0:3,0:0:0:0:
283,119,31751,2,0,L|367:124,1,79.999990463257
458,83,32306,2,0,P|460:46|446:1,2,79.999990463257,10|0|0,1:0|0:0|0:0,0:0:0:0:
499,179,33140,2,0,L|495:259,2,79.999990463257,14|2|0,1:3|0:0|0:0,0:0:0:0:
403,220,33973,6,0,P|346:228|234:190,1,159.999980926514,10|0,1:0|0:0,0:0:0:0:
191,114,34806,2,0,P|102:113|44:172,1,159.999980926514,6|0,0:3|0:0,0:0:0:0:
30,259,35640,2,0,L|35:379,2,119.999985694885,10|0|6,1:0|1:0|0:3,0:0:0:0:
132,280,36751,2,0,P|171:275|208:257,1,79.999990463257,0|0,0:0|0:0,0:0:0:0:
233,156,37306,6,0,L|225:72,2,79.999990463257,10|0|0,1:0|0:0|0:0,0:0:0:0:
334,183,38140,2,0,L|326:267,2,79.999990463257,6|0|0,0:3|0:0|0:0,0:0:0:0:
434,155,38973,2,0,P|464:100|413:11,1,159.999980926514,8|0,1:0|0:0,0:0:0:0:
325,47,39806,2,0,L|246:43,1,79.999990463257,6|2,0:3|0:0,0:0:0:0:
140,38,40362,1,10,1:0:0:0:
61,106,40640,6,0,P|45:185|72:263,1,159.999980926514,2|0,1:3|0:0,0:0:0:0:
154,318,41473,2,0,L|322:307,1,159.999980926514,4|0,0:3|0:0,0:0:0:0:
418,303,42306,2,0,L|412:387,2,79.999990463257,8|0|0,1:0|0:0|0:0,0:0:0:0:
388,203,43140,1,6,0:3:0:0:
289,173,43417,2,0,L|209:178,1,79.999990463257,2|10,0:0|1:0,0:0:0:0:
151,91,43973,6,0,P|147:37|161:-2,2,79.999990463257,10|0|0,1:0|0:0|0:0,0:0:0:0:
85,173,44806,1,6,0:3:0:0:
167,239,45084,2,0,L|162:320,1,79.999990463257,0|0,0:0|0:0,0:0:0:0:
258,358,45640,2,0,L|267:198,1,159.999980926514,10|0,1:0|0:0,0:0:0:0:
349,133,46473,2,0,P|389:129|434:140,1,79.999990463257,14|2,1:3|0:0,0:0:0:0:
508,203,47028,1,0,0:0:0:0:
442,283,47306,6,0,P|387:301|290:279,1,159.999980926514,10|0,1:0|0:0,0:0:0:0:
220,198,48140,2,0,P|188:175|150:164,2,79.999990463257,6|0|0,0:3|0:0|0:0,0:0:0:0:
142,268,48973,2,0,P|66:275|8:211,1,159.999980926514,10|0,1:0|0:0,0:0:0:0:
53,124,49806,1,6,0:3:0:0:
150,164,50084,2,0,P|196:165|245:155,1,79.999990463257,0|0,0:0|0:0,0:0:0:0:
317,103,50640,6,0,L|396:108,2,79.999990463257,10|0|0,1:0|0:0|0:0,0:0:0:0:
260,17,51473,2,0,L|420:27,1,159.999980926514,6|0,0:3|0:0,0:0:0:0:
496,96,52306,2,0,P|503:185|471:257,1,159.999980926514,8|0,1:0|0:0,0:0:0:0:
388,304,53140,1,6,0:3:0:0:
309,237,53417,2,0,L|311:185,2,39.9999952316285,2|0|10,0:0|3:0|1:0,0:0:0:0:
239,315,53973,5,2,1:3:0:0:
160,248,54251,2,0,L|164:150,1,79.999990463257,0|0,0:0|0:0,0:0:0:0:
242,101,54806,2,0,P|294:107|321:102,2,79.999990463257,4|0|0,0:3|0:0|0:0,0:0:0:0:
175,23,55640,1,10,1:0:0:0:
84,73,55917,2,0,P|72:111|71:150,1,79.999990463257,0|0,0:0|0:0,0:0:0:0:
130,236,56473,2,0,L|133:317,2,79.999990463257,6|0|0,0:3|0:0|0:0,0:0:0:0:
215,177,57306,5,10,1:0:0:0:
297,239,57584,2,0,P|336:238|376:228,1,79.999990463257,0|0,0:0|0:0,0:0:0:0:
439,145,58140,2,0,L|436:53,2,79.999990463257,6|0|0,0:3|0:0|0:0,0:0:0:0:
504,226,58973,2,0,P|502:291|425:354,1,159.999980926514,10|0,1:0|0:0,0:0:0:0:
333,329,59806,1,14,1:3:0:0:
265,250,60084,2,0,L|268:170,1,79.999990463257,0|0,0:0|1:0,0:0:0:0:
173,124,60640,6,0,L|167:284,1,159.999980926514,10|0,1:0|0:0,0:0:0:0:
99,362,61473,2,0,P|52:377|12:371,2,79.999990463257,6|0|0,0:3|0:0|0:0,0:0:0:0:
46,272,62306,1,10,1:0:0:0:
46,272,62584,2,0,L|41:182,1,79.999990463257,0|0,0:0|0:0,0:0:0:0:
82,95,63140,2,0,P|83:49|94:7,2,79.999990463257,6|0|0,0:3|0:0|0:0,0:0:0:0:
158,165,63973,5,10,1:3:0:0:
158,165,64251,1,2,1:0:0:0:
351,88,64806,1,2,1:3:0:0:
351,88,65084,1,2,1:0:0:0:
428,281,65640,2,0,P|428:320|420:361,2,79.999990463257,8|2|0,1:0|0:0|1:0,0:0:0:0:
350,211,66473,1,6,0:3:0:0:
280,289,66751,2,0,L|277:329,2,39.9999952316285,8|8|6,0:2|0:0|1:3,0:0:0:0:
201,218,67306,6,0,P|123:220|68:286,1,159.999980926514,6|10,1:2|0:0,0:0:0:0:
18,367,68140,2,0,L|12:207,1,159.999980926514,6|0,0:1|0:0,0:0:0:0:
9,103,68973,1,8,1:0:0:0:
109,130,69251,2,0,P|172:120|201:101,1,79.999990463257,2|10,0:0|0:0,0:0:0:0:
246,27,69806,2,0,P|284:17|323:21,2,79.999990463257,6|2|2,0:1|0:0|0:0,0:0:0:0:
293,121,70640,6,0,P|278:210|278:284,1,159.999980926514,10|10,1:0|0:0,0:0:0:0:
349,355,71473,2,0,P|387:365|426:361,2,79.999990463257,6|2|2,0:1|0:0|0:0,0:0:0:0:
396,262,72307,2,0,P|381:173|381:99,1,159.999980926514,10|10,1:0|0:0,0:0:0:0:
432,13,73140,1,6,0:1:0:0:
260,129,73695,1,0,0:0:0:0:
176,67,73973,6,0,P|98:72|45:129,1,159.999980926514,10|10,1:0|0:0,0:0:0:0:
144,167,74806,2,0,P|129:258|152:333,1,159.999980926514,6|0,0:1|0:0,0:0:0:0:
236,375,75640,1,10,1:0:0:0:
327,325,75917,2,0,P|338:270|332:237,1,79.999990463257,2|10,0:0|0:2,0:0:0:0:
260,172,76473,2,0,P|247:135|247:95,2,79.999990463257,6|2|2,0:1|0:0|0:0,0:0:0:0:
349,118,77306,6,0,P|426:117|481:173,1,159.999980926514,10|8,1:0|0:0,0:0:0:0:
481,278,78140,2,0,P|426:333|348:332,1,159.999980926514,6|0,0:1|0:0,0:0:0:0:
272,261,78973,2,0,L|266:182,2,79.999990463257,8|0|8,1:0|1:3|0:2,0:0:0:0:
248,362,79806,2,0,P|195:374|162:369,1,79.999990463257,6|2,0:1|0:0,0:0:0:0:
83,313,80362,1,10,1:2:0:0:
83,313,80640,6,0,L|72:146,1,159.999980926514,6|0,1:2|0:0,0:0:0:0:
117,59,81473,2,0,P|189:93|267:80,1,159.999980926514,6|0,0:1|0:0,0:0:0:0:
341,8,82306,1,10,1:0:0:0:
443,28,82584,2,0,P|459:66|465:104,1,79.999990463257,2|10,0:0|0:0,0:0:0:0:
405,189,83140,2,0,L|317:185,2,79.999990463257,6|2|2,0:1|0:0|0:0,0:0:0:0:
489,249,83973,6,0,P|492:318|419:378,1,159.999980926514,10|10,1:0|0:0,0:0:0:0:
327,352,84806,2,0,P|290:357|237:344,2,79.999990463257,6|2|2,0:1|0:0|0:0,0:0:0:0:
358,252,85640,2,0,P|285:225|202:257,1,159.999980926514,10|10,1:0|0:0,0:0:0:0:
151,336,86473,2,0,P|97:340|62:330,1,79.999990463257,6|2,0:1|0:0,0:0:0:0:
6,254,87028,1,2,0:0:0:0:
6,254,87306,6,0,P|3:177|61:125,1,159.999980926514,10|10,1:0|0:0,0:0:0:0:
152,176,88140,2,0,P|237:185|316:170,1,159.999980926514,6|0,0:1|0:0,0:0:0:0:
382,97,88973,1,10,1:0:0:0:
321,12,89251,2,0,P|281:7|240:17,1,79.999990463257,2|10,0:0|0:2,0:0:0:0:
172,93,89806,2,0,L|175:177,2,79.999990463257,6|2|2,0:1|0:0|0:0,0:0:0:0:
74,54,90640,6,0,L|80:222,1,159.999980926514,10|0,1:0|0:0,0:0:0:0:
83,317,91473,2,0,L|3:312,2,79.999990463257,6|2|2,0:1|0:0|0:0,0:0:0:0:
172,369,92306,2,0,P|288:321|394:351,1,239.999971389771,10|6,1:0|0:1,0:0:0:0:
502,173,93695,1,10,1:2:0:0:
451,81,93973,6,0,P|450:23|460:-26,2,79.999990463257,4|8|8,0:3|0:3|0:3,0:0:0:0:
365,140,94806,2,0,P|366:198|356:247,2,79.999990463257,8|8|8,0:3|0:0|2:0,0:0:0:0:
314,48,95640,1,10,1:0:0:0:
139,43,105640,6,0,P|76:49|34:89,2,119.999985694885,10|2|6,1:0|1:0|0:3,0:0:0:0:
224,102,106751,2,0,L|303:98,1,79.999990463257,2|2,0:0|0:0,0:0:0:0:
391,154,107306,2,0,L|388:246,2,79.999990463257,10|8|2,1:0|0:3|0:0,0:0:0:0:
490,123,108140,6,0,L|484:307,1,159.999980926514,2|0,0:0|0:0,0:0:0:0:
408,353,108973,2,0,P|331:360|261:320,1,159.999980926514,6|0,1:3|0:0,0:0:0:0:
200,235,109806,2,0,L|161:235,2,39.9999952316285,2|8|2,3:0|2:3|0:0,0:0:0:0:
275,162,110362,1,8,0:3:0:0:
371,123,110640,6,0,P|437:138|494:129,2,119.999985694885,10|2|6,1:0|1:2|0:3,0:0:0:0:
318,33,111751,2,0,L|218:28,1,79.999990463257,2|2,0:0|0:0,0:0:0:0:
147,80,112306,2,0,L|47:75,2,79.999990463257,10|8|2,1:0|0:3|0:0,0:0:0:0:
222,152,113140,6,0,P|225:249|170:308,1,159.999980926514,2|0,0:0|0:0,0:0:0:0:
94,339,113973,2,0,L|76:173,1,159.999980926514,6|2,1:3|0:0,0:0:0:0:
67,76,114806,2,0,P|156:35|241:69,1,159.999980926514,2|0,3:0|1:3,0:0:0:0:
282,126,115640,2,0,L|282:206,2,79.999990463257,4|0|0,0:3|0:3|0:0,0:0:0:0:
341,39,116473,6,0,P|418:28|482:73,1,159.999980926514,2|0,1:3|0:0,0:0:0:0:
395,129,117306,2,0,L|401:301,1,159.999980926514,6|0,0:3|0:0,0:0:0:0:
300,262,118139,2,0,L|297:182,2,79.999990463257,2|0|0,1:3|0:0|0:0,0:0:0:0:
228,338,118973,1,2,0:3:0:0:
127,317,119250,2,0,P|81:334|45:336,1,79.999990463257,0|0,0:0|0:0,0:0:0:0:
69,233,119806,6,0,P|81:195|79:141,1,79.999990463257,10|0,1:0|0:0,0:0:0:0:
58,53,120361,1,0,0:0:0:0:
160,29,120639,1,2,0:3:0:0:
232,105,120917,2,0,P|237:160|233:190,1,79.999990463257,0|0,0:0|0:0,0:0:0:0:
327,231,121473,2,0,P|336:152|327:62,1,159.999980926514,10|0,1:0|0:0,0:0:0:0:
412,10,122306,2,0,P|462:6|496:11,2,79.999990463257,2|2|0,1:3|0:0|0:0,0:0:0:0:
458,103,123139,6,0,P|465:187|453:270,1,159.999980926514,10|0,1:0|0:0,0:0:0:0:
392,345,123973,2,0,L|298:346,1,79.999990463257,6|0,0:3|0:0,0:0:0:0:
239,270,124528,1,0,0:0:0:0:
150,324,124806,2,0,P|24:307|21:305,2,119.999985694885,10|8|6,1:0|1:2|0:3,0:0:0:0:
239,270,125917,2,0,L|250:152,1,79.999990463257,0|0,0:0|0:0,0:0:0:0:
178,111,126473,5,10,1:0:0:0:
99,178,126750,2,0,P|65:180|15:156,1,79.999990463257,0|0,0:0|0:0,0:0:0:0:
23,58,127306,2,0,P|59:41|98:42,1,79.999990463257,6|0,0:3|0:0,0:0:0:0:
178,111,127861,1,0,0:0:0:0:
258,180,128139,2,0,L|253:259,1,79.999990463257,8|0,1:0|0:0,0:0:0:0:
318,341,128695,1,0,0:0:0:0:
400,276,128973,2,0,L|402:236,2,39.9999952316285,6|4|2,0:3|1:3|0:0,0:0:0:0:
496,314,129528,1,10,1:0:0:0:
496,314,129806,6,0,L|506:147,1,159.999980926514,2|0,1:3|0:0,0:0:0:0:
440,73,130639,2,0,P|395:109|295:117,1,159.999980926514,4|0,0:3|0:0,0:0:0:0:
211,54,131473,1,10,1:0:0:0:
113,95,131750,2,0,L|110:176,1,79.999990463257,0|0,0:0|0:0,0:0:0:0:
104,279,132306,1,6,0:3:0:0:
178,352,132584,2,0,P|221:362|265:360,1,79.999990463257,0|0,0:0|0:0,0:0:0:0:
355,329,133139,5,10,1:0:0:0:
433,260,133417,2,0,L|432:179,1,79.999990463257,0|0,0:0|0:0,0:0:0:0:
358,106,133973,1,6,0:3:0:0:
280,175,134250,2,0,L|281:256,1,79.999990463257,0|0,0:0|0:0,0:0:0:0:
187,301,134806,2,0,L|185:141,1,159.999980926514,10|0,1:0|0:0,0:0:0:0:
118,60,135639,1,14,1:3:0:0:
40,129,135917,2,0,L|41:210,1,79.999990463257,2|2,0:0|0:0,0:0:0:0:
89,301,136473,6,0,P|150:323|262:298,1,159.999980926514,10|0,1:0|0:0,0:0:0:0:
303,224,137306,2,0,L|308:60,1,159.999980926514,6|0,0:3|0:0,0:0:0:0:
396,119,138139,2,0,P|458:119|504:85,2,119.999985694885,10|0|6,1:0|0:0|0:3,0:0:0:0:
308,64,139250,2,0,P|261:53|227:52,1,79.999990463257,0|0,0:0|0:0,0:0:0:0:
128,77,139806,5,10,1:0:0:0:
49,144,140084,2,0,L|45:225,1,79.999990463257,0|0,0:0|0:0,0:0:0:0:
141,262,140639,2,0,L|144:182,1,79.999990463257,6|0,0:3|0:0,0:0:0:0:
224,115,141194,1,0,0:0:0:0:
292,195,141473,2,0,L|286:314,2,119.999985694885,8|0|6,1:0|1:0|0:3,0:0:0:0:
372,128,142584,2,0,P|383:80|377:49,1,79.999990463257,2|10,0:0|1:0,0:0:0:0:
278,82,143139,5,2,1:3:0:0:
191,140,143417,2,0,P|150:144|109:135,1,79.999990463257,0|0,0:0|0:0,0:0:0:0:
110,32,143973,2,0,P|149:24|188:28,1,79.999990463257,4|0,0:3|0:0,0:0:0:0:
278,82,144528,1,0,0:0:0:0:
323,175,144806,1,10,1:0:0:0:
416,130,145084,2,0,L|455:134,2,39.9999952316285,0|0|0,0:0|2:0|0:0,0:0:0:0:
371,37,145639,2,0,L|277:42,1,79.999990463257,6|0,0:3|0:0,0:0:0:0:
187,49,146195,1,0,0:0:0:0:
137,140,146473,5,10,1:0:0:0:
172,237,146750,2,0,P|222:260|269:258,1,79.999990463257,0|0,0:0|0:0,0:0:0:0:
335,206,147306,2,0,L|339:119,2,79.999990463257,6|0|0,0:3|0:0|0:0,0:0:0:0:
434,236,148139,2,0,L|440:105,2,119.999985694885,10|2|14,1:0|1:0|1:3,0:0:0:0:
388,329,149250,2,0,P|339:344|300:340,1,79.999990463257,0|0,0:0|1:0,0:0:0:0:
225,281,149806,5,10,1:0:0:0:
134,332,150084,2,0,L|131:373,2,39.9999952316285,0|0|0,0:0|1:0|0:0,0:0:0:0:
72,248,150639,2,0,L|68:169,1,79.999990463257,6|0,0:3|0:0,0:0:0:0:
62,63,151195,1,0,0:0:0:0:
160,24,151473,1,10,1:0:0:0:
227,105,151750,2,0,L|272:108,2,39.9999952316285,0|0|0,0:0|1:0|0:0,0:0:0:0:
170,193,152306,2,0,L|174:272,2,79.999990463257,6|0|0,0:3|0:0|0:0,0:0:0:0:
120,101,153139,5,10,1:3:0:0:
120,101,153417,1,2,1:0:0:0:
315,29,153973,1,2,1:3:0:0:
315,29,154250,1,2,1:0:0:0:
474,161,154806,2,0,P|485:220|485:248,2,79.999990463257,8|2|0,1:0|0:0|1:0,0:0:0:0:
382,110,155639,1,6,0:3:0:0:
331,202,155917,2,0,L|334:242,2,39.9999952316285,8|8|6,0:2|0:0|1:3,0:0:0:0:
239,151,156473,6,0,P|172:173|75:168,1,159.999980926514,6|8,1:2|0:0,0:0:0:0:
18,88,157306,2,0,P|85:66|182:71,1,159.999980926514,6|0,0:1|0:0,0:0:0:0:
239,151,158139,2,0,L|246:310,1,159.999980926514,10|8,1:0|0:0,0:0:0:0:
331,371,158973,2,0,P|397:371|423:358,1,79.999990463257,6|0,0:1|0:0,0:0:0:0:
466,279,159528,1,0,0:0:0:0:
436,179,159806,6,0,L|441:99,2,79.999990463257,10|0|8,1:0|0:0|0:0,0:0:0:0:
343,226,160639,2,0,L|348:306,2,79.999990463257,6|0|0,0:1|0:0|0:0,0:0:0:0:
283,140,161473,2,0,P|217:124|136:163,1,159.999980926514,10|8,1:0|0:0,0:0:0:0:
93,256,162306,2,0,L|91:337,2,79.999990463257,6|2|2,0:1|0:0|0:0,0:0:0:0:
34,172,163139,6,0,L|40:11,1,159.999980926514,10|8,1:0|0:0,0:0:0:0:
123,76,163973,2,0,P|162:82|202:80,1,79.999990463257,6|0,0:1|0:0,0:0:0:0:
293,30,164528,1,0,0:0:0:0:
394,54,164806,2,0,P|420:128|411:207,1,159.999980926514,10|8,1:0|2:2,0:0:0:0:
330,273,165639,2,0,L|251:267,1,79.999990463257,6|2,2:1|2:2,0:0:0:0:
170,332,166195,1,0,2:3:0:0:
89,267,166473,6,0,L|10:273,2,79.999990463257,10|0|8,1:0|0:0|0:0,0:0:0:0:
146,180,167306,2,0,L|225:186,2,79.999990463257,6|0|0,0:1|0:0|0:0,0:0:0:0:
89,92,168139,2,0,L|10:98,2,79.999990463257,8|0|8,1:0|1:3|0:2,0:0:0:0:
146,5,168973,2,0,L|225:11,1,79.999990463257,6|2,0:1|0:0,0:0:0:0:
329,19,169528,1,10,1:2:0:0:
410,84,169806,6,0,P|426:161|393:232,1,159.999980926514,10|8,1:0|0:0,0:0:0:0:
298,274,170639,1,6,0:1:0:0:
220,205,170917,2,0,L|136:203,1,79.999990463257,0|0,0:0|0:0,0:0:0:0:
46,157,171473,2,0,P|39:234|90:294,1,159.999980926514,8|10,1:0|0:0,0:0:0:0:
194,285,172306,1,6,0:1:0:0:
298,274,172584,2,0,L|377:284,1,79.999990463257,2|0,0:0|0:0,0:0:0:0:
459,348,173139,6,0,P|482:273|444:205,1,159.999980926514,10|8,1:0|0:0,0:0:0:0:
346,170,173973,2,0,L|265:177,2,79.999990463257,6|2|2,0:1|0:0|0:0,0:0:0:0:
426,102,174806,2,0,L|466:105,2,39.9999952316285,10|8|0,1:0|3:2|0:0,0:0:0:0:
339,43,175361,2,0,L|339:4,2,39.9999952316285,10|0|6,0:0|3:0|0:1,0:0:0:0:
252,102,175917,2,0,L|171:109,1,79.999990463257,2|10,0:0|2:2,0:0:0:0:
81,56,176473,6,0,P|71:133|116:197,1,159.999980926514,10|8,1:0|0:0,0:0:0:0:
217,225,177306,2,0,L|296:218,2,79.999990463257,6|0|0,0:1|0:0|0:0,0:0:0:0:
191,326,178139,2,0,L|350:312,1,159.999980926514,0|10,0:0|0:2,0:0:0:0:
439,366,178973,2,0,P|454:290|410:226,1,159.999980926514,6|2,0:1|0:0,0:0:0:0:
305,217,179806,6,0,L|314:47,1,159.999980926514,10|10,1:0|0:0,0:0:0:0:
215,91,180639,2,0,L|210:170,2,79.999990463257,6|2|2,0:1|0:0|0:0,0:0:0:0:
121,45,181473,2,0,L|112:215,1,159.999980926514,10|0,1:0|0:2,0:0:0:0:
38,277,182306,1,6,0:1:0:0:
110,351,182584,2,0,L|189:355,1,79.999990463257,2|10,0:0|1:2,0:0:0:0:
256,275,183139,6,0,L|256:184,2,79.999990463257,4|8|8,0:3|0:3|0:3,0:0:0:0:
322,355,183973,1,8,0:3:0:0:
401,288,184250,2,0,L|401:242,2,39.9999952316285,8|0|8,3:0|2:0|2:3,0:0:0:0:
493,337,184806,1,0,0:0:0:0:
450,71,198139,6,0,P|319:117|184:98,1,271.999972763062
123,41,199528,1,0,0:0:0:0:
51,92,199806,2,0,P|22:161|60:294,1,203.999979572296
301,368,201472,6,0,L|425:363,2,101.999989786148
126,167,203139,2,0,L|2:162,2,101.999989786148
362,47,204806,6,0,P|430:105|414:228,1,203.999979572296
205,359,206472,2,0,P|154:361|110:336,1,101.999989786148
187,228,207306,2,0,P|252:232|318:272,1,135.999986381531
399,247,208139,6,0,L|413:104,1,135.999986381531
423,24,208972,2,0,L|262:30,1,135.999986381531
223,91,209806,2,0,P|130:103|132:13,1,203.999979572296
350,164,211472,1,0,0:0:0:0:
84,328,212306,6,0,P|56:254|89:184,1,159.999980926514,6|10,1:2|0:0,0:0:0:0:
162,259,213139,2,0,L|333:252,1,159.999980926514,6|0,0:1|0:0,0:0:0:0:
405,315,213972,1,8,1:0:0:0:
497,267,214250,2,0,P|502:227|499:187,1,79.999990463257,2|10,0:0|0:0,0:0:0:0:
438,103,214806,2,0,L|444:16,2,79.999990463257,6|2|2,0:1|0:0|0:0,0:0:0:0:
362,174,215639,6,0,P|301:177|230:112,1,159.999980926514,10|10,1:0|0:0,0:0:0:0:
271,18,216472,2,0,L|357:12,2,79.999990463257,6|2|2,0:1|0:0|0:0,0:0:0:0:
168,32,217306,2,0,P|129:100|146:176,1,159.999980926514,10|10,1:0|0:0,0:0:0:0:
231,238,218139,2,0,L|270:233,2,39.9999952316285,6|8|0,0:1|3:2|0:0,0:0:0:0:
179,328,218694,1,2,0:0:0:0:
87,278,218972,6,0,L|80:119,1,159.999980926514,10|0,1:0|0:0,0:0:0:0:
151,41,219806,2,0,P|225:30|310:83,1,159.999980926514,6|0,0:1|0:0,0:0:0:0:
336,165,220639,1,10,1:0:0:0:
410,237,220917,2,0,P|449:243|487:234,1,79.999990463257,2|10,0:0|0:2,0:0:0:0:
446,138,221472,2,0,P|471:108|483:70,2,79.999990463257,6|2|2,0:1|0:0|0:0,0:0:0:0:
378,59,222306,6,0,L|218:51,1,159.999980926514,10|8,1:0|0:0,0:0:0:0:
114,44,223139,2,0,L|122:204,1,159.999980926514,6|0,0:1|0:0,0:0:0:0:
130,307,223972,2,0,L|90:309,2,39.9999952316285,8|8|0,1:0|3:2|1:3,0:0:0:0:
216,248,224528,1,8,0:2:0:0:
309,292,224806,2,0,L|304:374,2,79.999990463257,6|2|10,0:1|0:0|1:2,0:0:0:0:
387,222,225639,6,0,P|396:144|356:76,1,159.999980926514,6|0,1:2|0:0,0:0:0:0:
255,52,226472,2,0,L|94:64,1,159.999980926514,6|0,0:1|0:0,0:0:0:0:
10,125,227306,1,10,1:0:0:0:
105,168,227583,2,0,P|120:209|123:270,1,79.999990463257,2|10,0:0|0:0,0:0:0:0:
83,341,228139,2,0,L|0:345,2,79.999990463257,6|2|2,0:1|0:0|0:0,0:0:0:0:
187,337,228972,6,0,L|346:329,1,159.999980926514,10|10,1:0|0:0,0:0:0:0:
430,266,229806,2,0,P|438:203|433:165,1,79.999990463257,6|2,0:1|0:0,0:0:0:0:
393,92,230361,1,2,0:0:0:0:
308,29,230639,2,0,P|230:33|176:92,1,159.999980926514,10|10,1:0|0:0,0:0:0:0:
192,193,231472,2,0,L|192:240,2,39.9999952316285,6|8|2,0:1|3:3|0:0,0:0:0:0:
274,128,232028,1,2,0:0:0:0:
347,202,232306,6,0,P|427:213|495:180,1,159.999980926514,10|0,1:0|0:0,0:0:0:0:
495,76,233139,2,0,P|424:41|346:53,1,159.999980926514,6|0,0:1|0:0,0:0:0:0:
274,128,233972,1,10,1:0:0:0:
202,203,234250,2,0,L|123:196,1,79.999990463257,2|10,0:0|0:2,0:0:0:0:
26,152,234806,2,0,P|18:114|24:74,2,79.999990463257,6|2|2,0:1|0:0|0:0,0:0:0:0:
122,111,235639,6,0,L|285:104,1,159.999980926514,10|0,1:0|0:0,0:0:0:0:
366,43,236472,2,0,L|447:46,2,79.999990463257,6|2|2,0:1|0:0|0:0,0:0:0:0:
376,147,237306,2,0,P|322:202|245:202,1,159.999980926514,10|0,1:0|0:0,0:0:0:0:
154,151,238139,2,0,L|150:71,1,79.999990463257,6|8,0:1|0:2,0:0:0:0:
59,19,238694,1,6,1:3:0:0:
59,19,238972,6,0,L|66:178,1,159.999980926514,6|10,1:2|0:0,0:0:0:0:
72,283,239806,2,0,L|75:362,2,79.999990463257,6|0|0,0:1|0:0|0:0,0:0:0:0:
159,224,240639,1,8,1:0:0:0:
218,311,240917,2,0,P|285:320|324:317,1,79.999990463257,2|10,0:0|0:0,0:0:0:0:
381,259,241472,2,0,P|448:250|487:253,2,79.999990463257,6|2|2,0:1|0:0|0:0,0:0:0:0:
287,216,242306,6,0,P|239:232|130:237,1,159.999980926514,10|10,1:0|0:0,0:0:0:0:
35,193,243139,2,0,L|30:111,1,79.999990463257,6|2,0:1|0:0,0:0:0:0:
81,22,243694,1,2,0:0:0:0:
172,72,243972,2,0,L|346:61,1,159.999980926514,10|10,1:0|0:0,0:0:0:0:
427,105,244806,2,0,L|470:102,2,39.9999952316285,6|8|2,0:1|3:2|0:0,0:0:0:0:
342,166,245361,1,2,0:0:0:0:
342,166,245639,6,0,L|182:176,1,159.999980926514,6|0,1:2|0:0,0:0:0:0:
95,235,246472,2,0,P|79:310|129:368,1,159.999980926514,6|0,0:1|0:0,0:0:0:0:
229,336,247306,5,10,1:0:0:0:
329,304,247583,2,0,L|414:312,1,79.999990463257,2|10,0:0|0:2,0:0:0:0:
481,236,248139,2,0,L|473:156,2,79.999990463257,6|2|2,0:1|0:0|0:0,0:0:0:0:
380,211,248972,2,0,L|365:51,1,159.999980926514,10|0,1:0|0:0,0:0:0:0:
269,10,249806,1,6,0:1:0:0:
177,58,250083,2,0,L|134:58,2,39.9999952316285,0|8|0,0:0|2:2|0:0,0:0:0:0:
256,126,250639,6,0,L|356:126,2,79.999990463257,8|0|8,1:0|1:3|0:2,0:0:0:0:
177,194,251472,2,0,L|134:194,2,39.9999952316285,6|4|2,0:3|1:3|0:0,0:0:0:0:
269,242,252028,1,10,1:2:0:0:
269,242,252306,6,0,P|374:209|399:164,1,159.999980926514,6|10,1:2|0:0,0:0:0:0:
374,69,253139,2,0,L|214:58,1,159.999980926514,6|0,0:1|0:0,0:0:0:0:
135,126,253972,1,10,1:0:0:0:
36,92,254250,2,0,P|31:131|40:170,2,79.999990463257,2|10|6,0:0|0:0|0:1,0:0:0:0:
135,126,255083,1,2,0:0:0:0:
214,58,255361,1,2,0:0:0:0:
312,92,255639,6,0,P|339:165|323:243,1,159.999980926514,10|10,1:0|0:0,0:0:0:0:
230,289,256472,2,0,L|148:291,2,79.999990463257,6|2|2,0:1|0:0|0:0,0:0:0:0:
316,347,257306,2,0,P|391:324|427:255,1,159.999980926514,10|10,1:0|0:0,0:0:0:0:
388,159,258139,2,0,L|344:159,2,39.9999952316285,6|4|6,0:1|3:3|0:2,0:0:0:0:
462,86,258694,1,2,0:0:0:0:
462,86,258972,6,0,P|427:35|316:25,1,159.999980926514,6|10,1:2|0:0,0:0:0:0:
250,79,259806,2,0,L|88:71,1,159.999980926514,6|0,0:1|0:0,0:0:0:0:
5,132,260639,1,6,1:2:0:0:
90,192,260917,2,0,L|169:188,2,79.999990463257,2|10|6,0:0|0:2|0:1,0:0:0:0:
30,277,261750,1,2,0:0:0:0:
115,337,262028,1,2,0:0:0:0:
200,277,262306,6,0,P|285:265|380:286,1,159.999980926514,6|10,1:2|0:0,0:0:0:0:
449,326,263139,2,0,L|456:236,1,79.999990463257,6|2,0:2|0:0,0:0:0:0:
465,143,263694,1,2,0:0:0:0:
421,48,263972,1,6,1:2:0:0:
256,192,264110,12,0,266472,3:0:0:0:
