osu file format v14

[General]
AudioFilename: audio.mp3
AudioLeadIn: 0
PreviewTime: 212306
Countdown: 0
SampleSet: Soft
StackLeniency: 0.7
Mode: 0
LetterboxInBreaks: 0
WidescreenStoryboard: 1

[Editor]
Bookmarks: 13973,27306,40640,53973,60640,67306,92306,95640,116473,129806,143139,149806,156473,184806,198139,204806,212306,238972,263972
DistanceSpacing: 1
BeatDivisor: 4
GridSize: 4
TimelineZoom: 2.4

[Metadata]
Title:SilentFlame
TitleUnicode:SilentFlame
Artist:Shimotsuki Haruka
ArtistUnicode:霜月はるか
Creator:Gust
Version:Gensou
Source:魔王と踊れ! ~Legend of the Lord of Lords~
Tags:maou to odore Legend of the Lord of Lords galgame Firika Pata-Mon Imouto koko
BeatmapID:1402711
BeatmapSetID:662675

[Difficulty]
HPDrainRate:8
CircleSize:4.5
OverallDifficulty:8
ApproachRate:9.3
SliderMultiplier:1.19999990463257
SliderTickRate:1

[Events]
//Background and Video events
0,0,"A.jpg",0,0
//Break Periods
//Storyboard Layer 0 (Background)
//Storyboard Layer 1 (Fail)
//Storyboard Layer 2 (Pass)
//Storyboard Layer 3 (Foreground)
//Storyboard Sound Samples

[TimingPoints]
640,277.777777777778,6,2,1,60,1,0
640,-133.333333333333,4,2,1,60,0,0
13973,-100,4,2,1,60,0,0
27306,-100,4,2,1,60,0,0
53973,-166.666666666667,4,2,1,60,0,0
63973,-133.333333333333,4,2,1,60,0,0
64390,-125,4,2,1,60,0,0
64806,-100,4,2,1,60,0,0
65362,-83.3333333333333,4,2,1,60,0,0
67306,-71.4285714285714,4,2,1,70,0,1
92306,-166.666666666667,4,2,1,70,0,0
95640,277.777777777778,9,2,1,60,1,0
95640,-166.666666666667,3,2,1,60,0,0
116473,277.777777777778,6,2,1,60,1,0
116473,-100,4,2,1,60,0,0
143417,-166.666666666667,4,2,1,60,0,0
153139,-133.333333333333,4,2,1,60,0,0
153556,-125,4,2,1,60,0,0
153973,-100,4,2,1,60,0,0
154528,-83.3333333333333,4,2,1,60,0,0
156473,-83.3333333333333,4,2,1,70,0,0
158139,-100,4,2,1,70,0,0
184806,277.777777777778,6,2,1,60,1,0
184806,-250,4,2,1,60,0,0
184875,-250,4,2,1,10,0,0
185569,-250,4,2,1,60,0,0
186542,-250,4,2,1,10,0,0
188069,-250,4,2,1,60,0,0
191542,-250,4,2,1,10,0,0
192236,-250,4,2,1,60,0,0
193208,-250,4,2,1,10,0,0
194458,-250,4,2,1,60,0,0
198139,-166.666666666667,4,2,1,60,0,0
198208,-166.666666666667,4,2,1,10,0,0
198625,-166.666666666667,4,2,1,60,0,0
199042,-166.666666666667,4,2,1,10,0,0
199458,-166.666666666667,4,2,1,60,0,0
204806,-125,4,2,1,60,0,0
207861,-100,4,2,1,60,0,0
209806,-83.3333333333333,4,2,1,60,0,0
212306,277.777777777778,6,2,1,70,1,1
212306,-71.4285714285714,4,2,1,70,0,1
238833,-71.4285714285714,4,2,1,70,0,0
238972,-55.5555555555556,4,2,1,70,0,1
263972,277.777777777778,9,2,1,60,1,1
263972,-166.666666666667,3,2,1,60,0,0

[Colours]
Combo1 : 255,128,64
Combo2 : 255,0,0
Combo3 : 255,128,128

[HitObjects]
40,192,640,6,0,P|28:120|48:80,1,89.9999998569489,10|0,1:0|0:0,0:0:0:0:
100,60,1056,2,0,P|143:69|186:58,1,89.9999998569489,0|0,1:0|3:0,0:0:0:0:
256,16,1473,1,2,0:0:0:0:
256,16,1751,1,0,0:0:0:0:
256,16,2028,2,0,P|264:72|256:92,1,44.9999999284745,0|0,0:0|3:0,0:0:0:0:
120,168,2306,6,0,P|156:144|232:140,1,89.9999998569489,10|0,1:0|0:0,0:0:0:0:
268,180,2723,2,0,P|308:193|383:178,1,89.9999998569489,0|0,1:0|3:0,0:0:0:0:
432,168,3140,2,0,P|480:200|496:268,2,89.9999998569489,2|0|0,0:0|0:0|0:0,0:0:0:0:
256,340,3973,6,0,P|184:344|108:328,2,134.999999785423,10|0|2,1:0|1:0|0:0,0:0:0:0:
328,308,5084,1,0,0:0:0:0:
388,256,5362,1,0,0:0:0:0:
416,40,5640,6,0,P|376:28|292:44,1,89.9999998569489,10|0,1:0|0:0,0:0:0:0:
256,68,6056,2,0,P|211:70|168:58,1,89.9999998569489,0|0,1:0|3:0,0:0:0:0:
96,16,6473,2,0,P|40:48|20:100,2,89.9999998569489,10|2|0,1:0|0:0|0:0,0:0:0:0:
104,96,7167,1,0,0:0:0:0:
8,280,7306,6,0,L|124:280,1,89.9999998569489,10|0,1:0|0:0,0:0:0:0:
152,340,7723,2,0,L|260:344,1,89.9999998569489,0|0,1:0|3:0,0:0:0:0:
312,304,8140,2,0,L|432:304,2,89.9999998569489,2|0|0,0:0|0:0|0:0,0:0:0:0:
504,104,8973,6,0,L|388:104,1,89.9999998569489,10|0,1:0|0:0,0:0:0:0:
360,44,9390,2,0,L|252:40,1,89.9999998569489,0|0,1:0|3:0,0:0:0:0:
200,80,9806,2,0,L|80:80,2,89.9999998569489,2|0|0,0:0|0:0|0:0,0:0:0:0:
432,300,10640,6,0,P|432:244|424:200,1,89.9999998569489,10|0,1:0|0:0,0:0:0:0:
344,216,11056,2,0,P|320:144|280:80,1,134.999999785423,0|2,1:0|0:0,0:0:0:0:
228,40,11751,1,0,0:0:0:0:
160,16,12028,1,0,0:0:0:0:
124,12,12306,5,8,1:0:0:0:
124,12,12584,1,2,0:0:0:0:
124,12,12723,1,0,1:0:0:0:
56,56,12862,2,0,P|60:104|72:124,1,44.9999999284745,0|0,0:0|3:0,0:0:0:0:
188,164,13140,2,0,P|184:116|172:96,1,44.9999999284745,2|0,0:0|1:0,0:0:0:0:
96,256,13417,2,0,L|100:224,2,22.4999999642372,2|0|0,0:0|0:0|3:0,0:0:0:0:
296,192,13695,2,0,L|308:228,2,22.4999999642372,10|0|0,1:0|0:0|3:0,0:0:0:0:
488,52,13973,6,0,P|432:64|368:32,1,119.999995231629,10|0,1:0|0:0,0:0:0:0:
308,84,14390,1,10,1:2:0:0:
248,36,14528,1,8,0:0:0:0:
172,32,14667,1,2,2:0:0:0:
293,141,14806,2,0,P|296:111|307:84,1,59.9999976158143,2|0,0:0|3:0,0:0:0:0:
406,134,15084,2,0,P|403:164|392:192,1,59.9999976158143,0|0,0:0|3:0,0:0:0:0:
319,209,15362,1,0,0:0:0:0:
428,256,15501,5,8,3:2:0:0:
243,309,15640,2,0,P|246:279|257:252,1,59.9999976158143,2|0,0:0|3:0,0:0:0:0:
356,302,15917,2,0,P|353:332|342:360,1,59.9999976158143,0|0,0:0|3:0,0:0:0:0:
145,356,16195,2,0,P|127:317|132:277,1,59.9999976158143,8|0,0:0|3:0,0:0:0:0:
42,325,16473,5,2,0:0:0:0:
256,192,16751,1,0,0:0:0:0:
470,325,17028,2,0,L|478:253,1,59.9999976158142,0|8,0:0|3:0,0:0:0:0:
432,192,17306,1,10,1:0:0:0:
459,118,17445,5,8,3:2:0:0:
459,118,17584,1,0,0:0:0:0:
434,44,17723,1,10,1:2:0:0:
359,19,17862,1,8,0:0:0:0:
287,49,18001,1,2,2:0:0:0:
432,192,18140,5,2,0:0:0:0:
256,24,18417,1,0,0:0:0:0:
80,192,18695,2,0,L|96:272,1,59.9999976158143,0|0,0:0|3:2,0:0:0:0:
20,144,18973,1,10,1:0:0:0:
20,144,19112,5,8,3:2:0:0:
200,68,19390,1,8,1:2:0:0:
256,24,19528,1,8,0:0:0:0:
288,40,19621,1,0,0:0:0:0:
328,40,19714,1,0,0:0:0:0:
368,22,19806,1,2,0:0:0:0:
429,64,19945,5,8,3:2:0:0:
374,119,20084,1,2,0:0:0:0:
504,56,20223,1,8,3:2:0:0:
504,56,20501,1,8,3:2:0:0:
429,64,20640,1,10,1:0:0:0:
374,119,20778,1,0,3:0:0:0:
259,25,20917,5,0,0:0:0:0:
214,89,21056,1,10,1:2:0:0:
142,119,21195,1,8,0:0:0:0:
64,106,21334,1,2,2:0:0:0:
4,54,21473,6,0,P|24:31|78:14,1,59.9999976158143,2|0,0:0|3:0,0:0:0:0:
142,119,21751,2,0,P|135:152|97:196,1,59.9999976158143,0|0,0:0|0:0,0:0:0:0:
66,229,22028,1,0,0:0:0:0:
66,229,22167,1,8,3:2:0:0:
176,351,22306,5,10,1:0:0:0:
176,351,22445,1,8,3:2:0:0:
232,297,22584,1,0,0:0:0:0:
268,312,22677,1,0,0:0:0:0:
308,312,22769,1,0,0:0:0:0:
347,293,22862,2,0,P|383:279|431:281,1,59.9999976158143,8|0,0:2|3:0,0:0:0:0:
256,160,23140,6,0,P|229:173|199:178,1,59.9999976158143,2|0,0:0|3:0,0:0:0:0:
104,256,23417,2,0,P|97:226|99:196,1,59.9999976158143,0|0,0:0|3:0,0:0:0:0:
52,136,23695,1,0,0:0:0:0:
52,136,23834,1,8,3:2:0:0:
100,76,23973,5,10,1:0:0:0:
100,76,24112,1,8,3:2:0:0:
312,192,24390,1,8,1:2:0:0:
312,192,24528,1,8,0:0:0:0:
388,200,24667,1,0,0:0:0:0:
475,139,24806,2,0,L|356:128,2,119.999995231629,2|0|0,0:0|0:0|0:0,0:0:0:0:
475,139,25501,1,0,0:0:0:0:
408,52,25640,5,8,1:0:0:0:
484,60,25778,1,8,3:2:0:0:
256,136,26056,1,8,1:2:0:0:
180,128,26195,2,0,P|180:96|208:48,1,59.9999976158143,8|0,0:2|3:0,0:0:0:0:
138,260,26473,1,2,0:0:0:0:
138,260,26612,1,8,1:2:0:0:
29,323,26751,5,2,0:0:0:0:
60,252,26890,1,10,0:2:0:0:
87,376,27028,2,0,P|160:360|176:368,1,59.9999976158143,10|8,1:0|3:0,0:0:0:0:
216,296,27306,6,0,P|294:303|366:267,1,119.999995231629,6|0,1:3|0:0,0:0:0:0:
420,336,27723,2,0,P|432:264|516:192,1,179.999992847443,0|4,1:0|0:3,0:0:0:0:
484,112,28417,1,0,0:0:0:0:
200,36,28695,2,0,L|208:108,1,59.9999976158143,0|0,0:0|3:0,0:0:0:0:
56,160,28973,6,0,P|82:107|134:59,1,119.999995231629,10|0,1:0|0:0,0:0:0:0:
200,36,29390,2,0,P|241:32|278:38,1,59.9999976158143,0|0,1:0|0:0,0:0:0:0:
333,58,29667,1,0,3:0:0:0:
408,37,29806,1,6,0:3:0:0:
310,247,30084,6,0,P|295:221|292:192,1,59.9999976158143,0|0,0:0|3:0,0:0:0:0:
348,136,30362,1,0,0:0:0:0:
436,268,30501,1,8,3:0:0:0:
436,268,30640,6,0,P|400:272|352:304,1,59.9999976158143,10|0,1:0|3:0,0:0:0:0:
343,370,30917,2,0,P|307:366|259:334,1,59.9999976158143,0|0,0:0|1:0,0:0:0:0:
227,278,31195,2,0,P|172:276|102:314,1,119.999995231629,0|6,0:0|0:3,0:0:0:0:
285,356,31751,1,0,0:0:0:0:
88,124,32028,2,0,P|147:140|165:161,1,59.9999976158143,0|0,0:0|3:0,0:0:0:0:
36,184,32306,6,0,P|12:112|48:56,1,119.999995231629,10|0,1:0|0:0,0:0:0:0:
94,12,32723,1,0,1:0:0:0:
172,55,32862,2,0,L|299:48,1,119.999990463257,0|14,0:0|1:3,0:0:0:0:
282,228,33417,1,2,0:0:0:0:
463,70,33695,1,0,0:0:0:0:
488,344,33973,6,0,P|400:352|340:328,1,119.999995231629,10|0,1:0|0:0,0:0:0:0:
288,293,34390,2,0,P|228:309|156:373,1,119.999995231629,0|0,1:0|3:0,0:0:0:0:
90,374,34806,2,0,P|65:325|73:285,1,59.9999976158143,6|0,0:3|3:0,0:0:0:0:
134,254,35084,1,0,0:0:0:0:
328,287,35362,2,0,P|318:214|326:198,1,59.9999976158143,0|0,0:0|3:0,0:0:0:0:
398,366,35640,6,0,P|406:294|462:234,1,119.999995231629,10|0,1:0|0:0,0:0:0:0:
502,222,36056,1,0,1:0:0:0:
498,298,36195,1,0,0:0:0:0:
256,192,36473,1,6,0:3:0:0:
74,383,36751,2,0,P|70:319|82:299,1,59.9999976158143,0|0,0:0|3:0,0:0:0:0:
214,343,37028,2,0,L|126:351,1,59.9999976158143,0|0,0:0|3:0,0:0:0:0:
6,271,37306,6,0,P|66:243|158:251,1,119.999995231629,10|0,1:0|0:0,0:0:0:0:
210,254,37723,1,0,1:0:0:0:
210,254,37862,2,0,L|222:186,1,59.9999976158143,0|0,0:0|3:0,0:0:0:0:
12,64,38140,6,0,P|8:96|32:144,1,59.9999976158143,6|0,0:3|3:0,0:0:0:0:
124,48,38417,2,0,P|107:20|58:-2,1,59.9999976158143,0|0,0:0|3:0,0:0:0:0:
52,192,38695,2,0,L|136:180,1,59.9999976158143,0|0,0:0|3:0,0:0:0:0:
256,48,38973,6,0,P|272:64|328:80,1,59.9999976158143,8|0,1:0|3:0,0:0:0:0:
494,24,39251,2,0,P|422:24|374:64,1,119.999995231629,2|0,0:0|0:0,0:0:0:0:
368,132,39667,1,8,3:3:0:0:
368,132,39737,1,8,0:3:0:0:
368,132,39806,1,6,0:3:0:0:
277,191,39945,2,0,P|232:140|215:136,1,59.9999976158143,4|2,1:3|0:0,0:0:0:0:
147,121,40223,1,0,3:0:0:0:
0,297,40362,2,0,P|65:282|93:289,1,59.9999976158143,10|0,1:0|3:0,0:0:0:0:
125,350,40640,6,0,P|185:357|243:348,1,119.999995231629,2|0,1:3|0:0,0:0:0:0:
348,287,41056,2,0,P|407:282|467:290,1,119.999995231629,0|0,1:0|3:0,0:0:0:0:
256,252,41473,2,0,P|158:238|110:247,2,119.999995231629,4|0|0,0:3|0:0|0:0,0:0:0:0:
348,288,42167,1,0,3:0:0:0:
512,140,42306,6,0,P|461:122|371:128,1,119.999995231629,10|0,1:0|0:0,0:0:0:0:
305,156,42723,1,0,1:0:0:0:
305,156,42862,1,0,0:0:0:0:
460,40,43140,1,6,0:3:0:0:
460,40,43417,2,0,P|418:33|361:35,1,59.9999976158143,0|0,0:0|3:0,0:0:0:0:
312,48,43695,1,0,0:0:0:0:
80,144,43834,1,8,3:0:0:0:
80,144,43973,6,0,P|80:100|96:68,1,59.9999976158143,10|0,1:0|3:0,0:0:0:0:
184,8,44251,2,0,P|200:72|196:92,1,59.9999976158143,0|0,0:0|1:0,0:0:0:0:
184,192,44528,2,0,L|256:176,1,59.9999976158143,0|0,0:0|2:0,0:0:0:0:
340,188,44806,1,6,0:3:0:0:
340,188,45084,2,0,P|340:144|356:112,1,59.9999976158143,0|0,0:0|3:0,0:0:0:0:
436,52,45362,2,0,P|452:116|448:136,1,59.9999976158143,0|0,0:0|3:0,0:0:0:0:
512,328,45640,6,0,P|452:308|368:328,1,119.999995231629,10|0,1:0|0:0,0:0:0:0:
328,348,46056,1,0,1:0:0:0:
256,324,46195,1,0,0:0:0:0:
456,192,46473,5,14,1:3:0:0:
256,56,46751,1,2,0:0:0:0:
56,192,47028,2,0,P|44:132|60:108,1,59.9999976158143,0|0,0:0|0:0,0:0:0:0:
16,44,47306,6,0,P|112:56|172:20,1,119.999995231629,10|0,1:0|0:0,0:0:0:0:
216,4,47723,2,0,P|300:16|348:48,1,119.999995231629,0|0,1:0|3:0,0:0:0:0:
512,116,48140,2,0,P|420:104|312:152,1,179.999992847443,6|0,0:3|2:0,0:0:0:0:
280,208,48695,2,0,P|252:176|244:136,1,59.9999976158143,0|0,0:0|3:0,0:0:0:0:
440,292,48973,6,0,P|376:308|296:288,1,119.999995231629,10|0,1:0|0:0,0:0:0:0:
248,280,49390,1,0,1:0:0:0:
172,288,49528,1,0,0:0:0:0:
108,332,49806,5,6,0:3:0:0:
108,332,50084,2,0,P|48:292|44:272,1,59.9999976158143,0|0,0:0|2:0,0:0:0:0:
24,188,50362,2,0,P|84:228|88:248,1,59.9999976158143,0|0,0:0|3:0,0:0:0:0:
260,108,50640,6,0,L|348:104,1,59.9999976158143,10|0,1:0|3:0,0:0:0:0:
392,44,50917,2,0,L|476:40,1,59.9999976158143,0|0,0:0|1:0,0:0:0:0:
512,120,51195,2,0,P|460:156|440:156,1,59.9999976158143,0|0,0:0|3:0,0:0:0:0:
304,12,51473,2,0,P|204:16|120:56,1,179.999992847443,6|0,0:3|3:0,0:0:0:0:
76,112,52028,2,0,P|52:88|40:56,1,59.9999976158143,0|0,0:0|3:0,0:0:0:0:
132,272,52306,6,0,L|124:308,2,29.9999988079071,8|0|0,1:0|0:0|3:0,0:0:0:0:
48,252,52584,2,0,P|47:222|59:194,1,59.9999976158143,2|0,0:0|1:0,0:0:0:0:
159,128,52862,2,0,P|170:155|170:185,1,59.9999976158143,0|0,0:0|1:3,0:0:0:0:
353,128,53140,6,0,P|342:155|342:185,1,59.9999976158143,6|0,0:3|1:3,0:0:0:0:
465,232,53417,2,0,P|461:212|452:194,2,39.9999968210857,2|0|0,0:0|1:0|0:0,0:0:0:0:
450,311,53695,1,10,0:0:0:0:
256,360,53834,1,8,3:0:0:0:
62,311,53973,1,2,1:3:0:0:
62,311,54251,5,0,0:0:0:0:
124,192,54390,1,0,1:0:0:0:
56,176,54528,2,0,L|50:211,1,35.9999974708558,0|0,0:0|3:0,0:0:0:0:
104,120,54806,2,0,P|164:104|196:108,2,71.9999949417116,4|0|0,0:3|0:0|0:0,0:0:0:0:
32,108,55501,1,0,0:0:0:0:
32,108,55640,6,0,P|28:84|32:60,1,35.9999974708558,10|0,1:0|3:0,0:0:0:0:
192,208,55917,1,0,0:0:0:0:
157,216,56056,1,0,2:0:0:0:
124,232,56195,1,0,0:0:0:0:
96,255,56334,1,0,2:0:0:0:
79,286,56473,2,0,P|44:284|6:305,2,71.9999949417116,6|0|0,0:3|0:0|0:0,0:0:0:0:
117,347,57167,1,0,0:0:0:0:
117,347,57306,6,0,L|181:351,1,35.9999974708558,10|0,1:0|3:0,0:0:0:0:
201,294,57584,1,0,0:0:0:0:
327,335,57723,1,0,1:0:0:0:
399,324,57862,2,0,L|395:368,1,35.9999974708558,0|0,0:0|2:0,0:0:0:0:
349,267,58140,2,0,P|382:253|420:250,2,71.9999949417116,6|0|0,0:3|0:0|0:0,0:0:0:0:
279,283,58834,1,0,0:0:0:0:
469,308,58973,5,10,1:0:0:0:
298,208,59251,1,0,0:0:0:0:
318,178,59390,1,2,1:0:0:0:
347,157,59528,1,0,0:0:0:0:
382,153,59667,1,2,1:0:0:0:
417,158,59806,5,14,1:3:0:0:
485,134,59945,1,0,1:0:0:0:
485,134,60223,5,2,2:0:0:0:
484,97,60362,1,0,1:0:0:0:
471,63,60501,1,8,0:3:0:0:
444,38,60640,1,10,1:0:0:0:
64,192,60917,5,0,0:0:0:0:
48,159,61056,1,0,1:0:0:0:
43,123,61195,1,0,0:0:0:0:
51,87,61334,1,0,0:0:0:0:
68,55,61473,5,6,0:3:0:0:
256,120,61751,1,0,0:0:0:0:
444,55,62028,1,0,0:0:0:0:
444,55,62306,5,10,1:0:0:0:
208,360,62584,1,0,0:0:0:0:
134,371,62723,1,0,1:0:0:0:
67,336,62862,1,0,0:0:0:0:
49,262,63001,1,0,2:0:0:0:
81,193,63140,5,6,0:3:0:0:
256,56,63417,1,0,0:0:0:0:
431,193,63695,2,0,L|440:144,1,35.9999974708558,0|0,0:0|3:0,0:0:0:0:
387,322,63973,6,0,L|377:270,1,44.9999999284745,10|0,1:3|3:0,0:0:0:0:
437,157,64251,2,0,L|450:92,1,44.9999999284745,2|0,1:0|3:0,0:0:0:0:
379,369,64528,2,0,L|388:309,1,47.9999980926514,0|0,0:0|2:0,0:0:0:0:
356,140,64806,6,0,L|348:72,1,59.9999976158143,2|0,1:3|3:0,0:0:0:0:
480,328,65084,2,0,L|472:260,1,59.9999976158143,2|0,1:0|3:0,0:0:0:0:
296,380,65362,1,0,0:0:0:0:
284,308,65501,1,8,2:3:0:0:
444,120,65640,6,0,L|458:197,1,71.9999949417116,8|8,1:0|3:3,0:0:0:0:
275,236,65917,2,0,L|284:308,1,71.9999949417116,2|0,0:0|1:0,0:0:0:0:
176,92,66195,2,0,L|168:20,1,71.9999949417116,0|0,1:0|1:3,0:0:0:0:
52,248,66473,2,0,L|44:176,1,71.9999949417116,6|0,0:3|1:3,0:0:0:0:
172,192,66751,5,8,0:2:0:0:
304,156,66890,1,8,0:0:0:0:
339,156,66959,1,8,0:0:0:0:
373,145,67028,1,6,1:3:0:0:
405,129,67098,1,4,3:3:0:0:
429,102,67167,1,4,0:3:0:0:
444,68,67237,1,4,3:3:0:0:
450,26,67306,6,0,P|312:6|200:48,1,251.999982295991,6|0,1:2|1:2,0:0:0:0:
118,90,67862,2,0,P|96:48|36:26,1,83.9999940986636,10|0,0:0|2:0,0:0:0:0:
284,236,68140,6,0,P|316:208|392:200,1,83.9999940986636,6|0,0:1|3:0,0:0:0:0:
456,196,68417,2,0,P|420:284|440:376,1,167.999988197327,0|0,0:0|0:0,0:0:0:0:
328,364,68834,2,0,P|244:320|240:312,1,83.9999940986636,8|8,3:2|1:0,0:0:0:0:
355,196,69112,5,8,3:2:0:0:
420,116,69251,2,0,P|384:32|372:24,1,83.9999940986636,2|8,0:0|1:2,0:0:0:0:
276,148,69528,2,0,P|236:156|184:156,1,83.9999940986636,10|0,0:0|3:0,0:0:0:0:
8,64,69806,2,0,P|120:52|216:60,1,167.999988197327,6|2,0:1|0:0,0:0:0:0:
128,244,70223,2,0,P|52:292|40:304,1,83.9999940986636,0|2,0:0|0:0,0:0:0:0:
164,344,70501,1,8,3:0:0:0:
192,155,70640,5,10,1:0:0:0:
108,164,70778,1,8,3:2:0:0:
372,348,71056,1,8,1:2:0:0:
456,352,71195,2,0,P|440:264|432:252,1,83.9999940986636,10|0,0:0|2:0,0:0:0:0:
192,155,71473,2,0,P|180:255|220:359,1,167.999988197327,6|2,0:1|0:0,0:0:0:0:
124,352,71890,2,0,P|24:344|8:352,2,83.9999940986636,0|2|0,2:0|0:0|0:2,0:0:0:0:
284,364,72306,5,10,1:0:0:0:
372,348,72445,1,8,3:2:0:0:
141,105,72723,1,8,1:2:0:0:
57,93,72862,2,0,P|57:185|69:209,1,83.9999940986636,10|0,0:0|3:0,0:0:0:0:
213,57,73140,5,6,0:1:0:0:
297,61,73278,1,8,3:2:0:0:
141,105,73417,1,2,0:0:0:0:
57,93,73556,2,0,P|57:185|69:209,1,83.9999940986636,8|2,3:2|0:0,0:0:0:0:
256,20,73834,1,8,3:2:0:0:
256,20,73903,1,0,0:0:0:0:
256,20,73973,6,0,P|340:12|448:52,1,167.999988197327,10|0,1:0|0:0,0:0:0:0:
500,16,74390,1,10,1:2:0:0:
368,192,74528,2,0,P|376:104|388:88,1,83.9999940986636,10|0,0:0|2:0,0:0:0:0:
256,20,74806,6,0,P|172:12|64:52,1,167.999988197327,6|0,0:1|0:0,0:0:0:0:
144,192,75223,2,0,P|136:104|124:88,1,83.9999940986636,0|0,0:0|0:0,0:0:0:0:
92,34,75501,1,0,0:0:0:0:
8,192,75640,5,10,1:0:0:0:
8,276,75778,1,8,3:2:0:0:
52,348,75917,1,2,0:0:0:0:
136,364,76056,1,8,1:2:0:0:
220,352,76195,2,0,P|280:316|304:288,1,83.9999940986636,10|0,0:2|3:0,0:0:0:0:
176,152,76473,2,0,P|177:221|189:256,1,83.9999940986636,6|0,0:1|3:0,0:0:0:0:
372,200,76751,2,0,P|310:166|274:159,1,83.9999940986636,2|0,0:0|3:0,0:0:0:0:
484,256,77028,2,0,P|465:188|445:157,1,83.9999940986636,2|8,0:0|3:2,0:0:0:0:
236,104,77306,5,10,1:0:0:0:
236,104,77445,2,0,P|252:24|264:8,1,83.9999940986636,8|0,3:2|0:0,0:0:0:0:
160,192,77723,1,10,1:2:0:0:
160,192,77862,2,0,P|133:114|136:94,1,83.9999940986636,8|0,0:0|0:0,0:0:0:0:
324,20,78140,6,0,P|408:48|480:24,1,167.999988197327,6|0,0:1|0:0,0:0:0:0:
224,32,78556,2,0,P|220:72|244:140,1,83.9999940986636,0|0,2:0|0:0,0:0:0:0:
332,192,78834,2,0,P|336:152|312:84,1,83.9999940986636,0|8,0:0|1:0,0:0:0:0:
128,8,79112,5,8,3:2:0:0:
128,8,79251,2,0,L|36:36,1,83.9999940986636,0|8,1:3|1:2,0:0:0:0:
104,192,79528,1,8,0:2:0:0:
104,192,79806,5,6,0:1:0:0:
0,108,79945,1,0,1:0:0:0:
92,108,80084,1,2,0:0:0:0:
40,252,80223,1,0,0:0:0:0:
188,212,80362,1,10,1:2:0:0:
184,240,80431,1,8,3:2:0:0:
189,269,80501,1,8,0:2:0:0:
202,294,80570,1,8,3:2:0:0:
225,312,80640,6,0,P|313:300|409:332,1,167.999988197327,6|0,1:2|0:0,0:0:0:0:
512,181,81056,2,0,P|428:180|346:198,1,167.999988197327,0|0,1:2|2:0,0:0:0:0:
111,67,81473,2,0,P|235:48|361:55,1,251.999982295991,6|0,0:1|3:0,0:0:0:0:
500,26,82028,2,0,P|452:110|454:131,1,83.9999940986636,0|8,0:0|3:2,0:0:0:0:
295,171,82306,5,10,1:0:0:0:
295,171,82445,2,0,L|413:151,1,83.9999940986636,8|2,3:2|0:0,0:0:0:0:
172,96,82723,1,8,1:2:0:0:
172,96,82862,2,0,L|281:89,1,83.9999940986636,10|0,0:0|3:0,0:0:0:0:
50,27,83140,2,0,L|159:20,1,83.9999940986636,6|0,0:1|3:0,0:0:0:0:
10,184,83417,2,0,P|2:129|11:90,1,83.9999940986636,2|0,0:0|3:0,0:0:0:0:
50,27,83695,1,2,0:0:0:0:
87,120,83834,1,8,3:0:0:0:
0,316,83973,5,10,1:0:0:0:
0,316,84112,2,0,P|98:303|186:334,1,167.999988197327,8|8,3:2|1:2,0:0:0:0:
254,363,84528,2,0,P|286:286|308:266,1,83.9999940986636,10|0,0:0|2:0,0:0:0:0:
475,41,84806,6,0,L|478:166,1,83.9999940986636,6|0,0:1|3:0,0:0:0:0:
372,137,85084,2,0,L|379:223,1,83.9999940986636,2|0,0:0|2:0,0:0:0:0:
247,204,85362,2,0,L|245:121,1,83.9999940986636,2|0,0:0|3:2,0:0:0:0:
123,251,85640,5,10,1:0:0:0:
115,85,85778,2,0,L|120:188,1,83.9999940986636,8|0,3:2|0:0,0:0:0:0:
1,58,86056,1,8,1:2:0:0:
13,275,86195,2,0,L|8:191,1,83.9999940986636,10|0,0:0|3:0,0:0:0:0:
75,9,86473,5,6,0:1:0:0:
75,9,86612,1,8,3:3:0:0:
123,251,86751,1,2,0:0:0:0:
208,47,86890,1,8,3:2:0:0:
215,202,87028,1,2,0:0:0:0:
229,227,87098,1,0,0:0:0:0:
251,245,87167,1,8,0:2:0:0:
278,256,87237,1,0,0:0:0:0:
306,263,87306,6,0,P|392:206|490:186,1,167.999988197327,10|0,1:0|0:0,0:0:0:0:
496,88,87723,1,8,1:2:0:0:
496,88,87862,2,0,P|404:72|380:56,1,83.9999940986636,10|0,0:0|2:0,0:0:0:0:
216,116,88140,2,0,P|96:120|8:156,1,167.999988197327,6|0,0:1|0:0,0:0:0:0:
0,32,88556,2,0,P|112:20|128:24,2,83.9999940986636,0|0|0,0:0|0:0|0:0,0:0:0:0:
51,134,88973,5,10,1:0:0:0:
24,248,89112,1,8,3:2:0:0:
96,204,89251,1,2,0:0:0:0:
112,336,89390,1,8,1:2:0:0:
212,248,89528,2,0,P|204:160|192:144,1,83.9999940986636,10|0,0:2|3:0,0:0:0:0:
84,76,89806,2,0,L|199:68,1,83.9999940986636,6|0,0:1|3:0,0:0:0:0:
404,108,90084,2,0,P|396:20|384:4,1,83.9999940986636,2|0,0:0|3:0,0:0:0:0:
308,108,90362,2,0,P|316:196|328:212,1,83.9999940986636,2|8,0:0|3:2,0:0:0:0:
32,44,90640,6,0,P|136:76|220:40,1,167.999988197327,10|0,1:0|0:0,0:0:0:0:
316,20,91056,2,0,P|420:32|492:68,1,167.999988197327,8|0,1:2|0:0,0:0:0:0:
280,140,91473,2,0,P|240:164|168:160,1,83.9999940986636,6|0,0:1|3:0,0:0:0:0:
164,280,91751,2,0,P|80:244|68:228,1,83.9999940986636,2|0,0:0|2:0,0:0:0:0:
212,24,92028,2,0,P|296:60|308:76,1,83.9999940986636,2|0,0:0|0:0,0:0:0:0:
480,312,92306,6,0,B|391:362|352:273|264:328,1,215.999976242066,10|6,1:0|0:1,0:0:0:0:
271,323,93695,1,10,1:2:0:0:
246,318,93765,1,8,3:2:0:0:
221,313,93834,1,8,0:2:0:0:
196,308,93903,1,8,3:2:0:0:
171,303,93973,5,4,0:3:0:0:
12,192,94251,1,8,0:3:0:0:
80,188,94390,1,0,1:0:0:0:
148,184,94528,1,8,0:3:0:0:
432,64,94806,5,8,0:3:0:0:
168,40,95084,1,8,0:0:0:0:
432,64,95362,1,8,2:0:0:0:
432,64,95501,1,8,3:0:0:0:
432,64,95640,6,0,P|436:128|432:152,1,71.9999949417116,10|0,1:0|0:0,0:0:0:0:
368,160,96056,2,0,P|372:212|392:260,1,71.9999949417116,2|0,1:0|3:0,0:0:0:0:
256,48,96473,2,0,L|180:56,2,71.9999949417116,6|2|2,0:3|0:0|1:0,0:0:0:0:
344,56,97306,5,10,1:0:0:0:
184,55,97584,1,8,0:3:0:0:
344,56,97862,2,0,P|352:84|352:120,1,35.9999974708558,2|0,0:0|3:0,0:0:0:0:
224,192,98140,6,0,L|144:196,1,71.9999949417116,2|0,0:0|0:0,0:0:0:0:
80,184,98556,1,0,1:0:0:0:
108,252,98695,1,0,0:0:0:0:
256,48,98973,2,0,L|336:52,2,71.9999949417116,6|0|0,1:3|0:0|0:0,0:0:0:0:
168,56,99806,5,2,3:0:0:0:
327,51,100084,1,2,0:0:0:0:
168,56,100362,2,0,P|160:84|160:120,1,35.9999974708558,8|0,0:3|3:0,0:0:0:0:
256,192,100640,6,0,P|300:184|340:184,1,71.9999949417116,10|0,1:0|0:0,0:0:0:0:
376,236,101056,2,0,P|444:236|460:232,1,71.9999949417116,2|0,1:2|3:0,0:0:0:0:
380,124,101473,2,0,P|376:104|376:72,1,35.9999974708558,6|0,0:3|3:0,0:0:0:0:
488,76,101751,2,0,L|436:72,1,35.9999974708558,2|0,0:0|3:0,0:0:0:0:
288,32,102028,2,0,L|340:28,1,35.9999974708558,2|0,0:0|3:0,0:0:0:0:
444,0,102306,5,10,1:0:0:0:
256,100,102584,1,8,0:3:0:0:
68,0,102862,2,0,L|60:68,1,35.9999974708558,2|0,0:0|3:0,0:0:0:0:
214,28,103140,1,2,0:0:0:0:
139,32,103278,1,0,3:0:0:0:
0,156,103556,1,0,1:0:0:0:
75,152,103695,1,0,1:0:0:0:
256,336,103973,6,0,L|176:332,2,71.9999949417116,6|0|0,1:3|0:0|1:0,0:0:0:0:
344,331,104806,1,2,3:0:0:0:
184,332,105084,1,2,0:0:0:0:
344,331,105362,2,0,P|352:303|352:267,1,35.9999974708558,8|0,0:3|3:0,0:0:0:0:
80,176,105640,6,0,P|112:164|164:168,1,71.9999949417116,10|0,1:0|0:0,0:0:0:0:
208,212,106056,2,0,P|260:212|296:196,1,71.9999949417116,2|0,1:0|3:0,0:0:0:0:
220,140,106473,2,0,P|212:100|204:88,1,35.9999974708558,6|0,0:3|3:0,0:0:0:0:
48,88,106751,2,0,L|92:80,1,35.9999974708558,2|0,0:0|3:0,0:0:0:0:
224,24,107028,2,0,L|164:24,1,35.9999974708558,2|0,0:0|3:0,0:0:0:0:
60,8,107306,5,10,1:0:0:0:
288,76,107584,1,8,0:3:0:0:
68,164,107862,1,2,0:0:0:0:
288,76,108140,2,0,L|296:32,1,35.9999974708558,2|0,0:0|3:0,0:0:0:0:
364,12,108417,1,0,0:0:0:0:
440,24,108556,1,0,1:0:0:0:
136,52,108834,1,8,3:0:0:0:
60,40,108973,6,0,L|52:80,1,35.9999974708558,6|0,1:3|3:0,0:0:0:0:
96,192,109251,2,0,L|104:152,1,35.9999974708558,0|0,0:0|2:0,0:0:0:0:
288,76,109528,1,0,0:0:0:0:
364,88,109667,2,0,L|356:123,1,35.9999974708558,8|2,2:3|3:0,0:0:0:0:
256,280,109945,1,8,2:3:0:0:
316,324,110084,1,2,0:0:0:0:
392,320,110223,1,2,0:0:0:0:
448,268,110362,1,8,0:3:0:0:
448,192,110501,1,2,0:2:0:0:
364,88,110640,6,0,P|400:72|460:80,1,71.9999949417116,10|0,1:0|0:0,0:0:0:0:
500,32,111056,1,2,1:2:0:0:
500,32,111195,2,0,P|508:52|508:84,1,35.9999974708558,0|0,0:0|3:0,0:0:0:0:
376,168,111473,2,0,L|340:168,1,35.9999974708558,6|0,0:3|3:0,0:0:0:0:
216,112,111751,2,0,L|272:108,1,35.9999974708558,2|0,0:0|3:0,0:0:0:0:
328,16,112028,2,0,P|288:16|268:16,1,35.9999974708558,2|0,0:0|3:0,0:0:0:0:
60,4,112306,5,10,1:0:0:0:
292,16,112584,1,8,0:3:0:0:
88,120,112862,1,2,0:0:0:0:
292,16,113140,6,0,P|376:8|444:40,1,143.999989883423,2|0,0:0|0:0,0:0:0:0:
393,161,113973,2,0,P|323:171|256:148,1,143.999989883423,6|2,1:3|0:0,0:0:0:0:
136,32,114806,1,2,3:0:0:0:
136,32,115362,5,0,1:3:0:0:
40,144,115501,1,8,0:3:0:0:
40,144,115570,1,8,0:3:0:0:
40,144,115640,1,4,0:3:0:0:
128,120,115778,1,6,0:3:0:0:
216,148,115917,1,0,0:3:0:0:
256,232,116056,1,6,1:3:0:0:
348,252,116195,1,0,0:0:0:0:
432,208,116334,1,6,1:3:0:0:
488,40,116473,6,0,P|416:60|308:32,1,179.999992847443,2|0,1:3|3:0,0:0:0:0:
224,4,117028,2,0,P|228:68|248:96,1,59.9999976158143,0|0,0:0|3:0,0:0:0:0:
64,236,117306,2,0,P|60:160|-16:72,1,179.999992847443,2|0,0:3|3:0,0:0:0:0:
92,52,117861,2,0,P|128:0|140:-8,1,59.9999976158143,0|0,1:0|3:0,0:0:0:0:
376,144,118139,6,0,P|292:140|236:164,1,119.999995231629,10|0,1:0|0:0,0:0:0:0:
188,188,118556,1,0,2:0:0:0:
196,112,118695,2,0,P|208:64|204:40,1,59.9999976158143,0|0,0:0|3:0,0:0:0:0:
0,256,118973,6,0,P|80:272|96:264,1,59.9999976158143,2|0,0:3|3:0,0:0:0:0:
125,148,119250,2,0,P|45:132|29:140,1,59.9999976158143,0|0,0:0|3:0,0:0:0:0:
36,20,119528,2,0,P|17:99|24:115,1,59.9999976158143,0|0,0:0|3:0,0:0:0:0:
120,40,119806,6,0,L|204:36,1,59.9999976158143,10|0,1:0|3:0,0:0:0:0:
268,112,120084,1,0,0:0:0:0:
268,112,120223,2,0,L|208:114,1,59.9999976158143,0|0,1:0|0:0,0:0:0:0:
179,37,120500,1,0,2:0:0:0:
392,76,120639,6,0,P|411:132|404:191,1,119.999995231629,2|0,0:3|0:0,0:0:0:0:
328,188,121056,1,0,2:0:0:0:
468,240,121195,2,0,P|488:184|484:156,1,59.9999976158143,0|0,0:0|3:0,0:0:0:0:
376,348,121473,6,0,P|435:343|487:314,1,119.999995231629,10|0,1:0|0:0,0:0:0:0:
328,188,121889,1,0,1:0:0:0:
327,187,122028,2,0,P|336:220|351:241,1,59.9999976158143,0|0,0:0|3:0,0:0:0:0:
452,68,122306,6,0,L|456:8,1,59.9999976158143,2|0,1:3|3:0,0:0:0:0:
327,187,122584,2,0,L|321:127,1,59.9999976158143,2|0,0:0|3:0,0:0:0:0:
196,0,122861,2,0,L|200:88,1,59.9999976158143,0|0,0:0|0:0,0:0:0:0:
12,156,123139,6,0,P|80:204|180:184,1,179.999992847443,10|0,1:0|3:0,0:0:0:0:
228,268,123695,2,0,P|248:212|248:196,1,59.9999976158143,0|0,0:0|3:0,0:0:0:0:
436,68,123973,2,0,P|436:164|384:248,1,179.999992847443,6|0,0:3|3:0,0:0:0:0:
316,288,124528,1,0,0:0:0:0:
256,96,124667,5,0,1:0:0:0:
316,288,124806,1,10,1:0:0:0:
396,235,124945,1,8,3:2:0:0:
396,235,125223,1,8,1:2:0:0:
364,144,125361,2,0,L|306:155,1,59.9999976158143,0|0,0:0|3:0,0:0:0:0:
491,73,125639,6,0,P|430:62|335:69,1,119.999995231629,6|0,0:3|0:0,0:0:0:0:
257,19,126056,1,0,3:0:0:0:
257,19,126195,2,0,P|338:6|350:9,1,59.9999976158143,0|0,0:0|3:0,0:0:0:0:
360,202,126473,6,0,P|367:138|392:115,1,59.9999976158143,10|0,1:0|3:0,0:0:0:0:
392,309,126750,2,0,P|323:287|274:228,1,119.999995231629,0|0,0:0|0:0,0:0:0:0:
360,202,127167,1,0,0:0:0:0:
176,116,127306,6,0,L|180:49,1,59.9999976158143,6|0,0:3|3:0,0:0:0:0:
91,0,127584,2,0,L|87:59,1,59.9999976158143,0|0,0:0|3:0,0:0:0:0:
36,136,127861,1,0,0:0:0:0:
179,56,128000,1,0,1:0:0:0:
108,200,128139,1,8,1:0:0:0:
196,156,128278,1,8,3:2:0:0:
181,165,128556,5,0,1:0:0:0:
93,209,128695,1,0,0:0:0:0:
284,232,128834,1,8,3:3:0:0:
284,232,128903,1,8,0:3:0:0:
284,232,128973,1,6,0:3:0:0:
112,320,129111,1,4,1:3:0:0:
112,320,129250,2,0,P|111:353|124:392,1,59.9999952316285,2|0,0:0|3:0,0:0:0:0:
416,262,129528,6,0,P|416:234|401:181,1,59.9999952316285,10|0,1:0|3:0,0:0:0:0:
327,148,129806,2,0,P|349:69|412:17,1,119.999995231629,2|0,1:3|0:0,0:0:0:0:
459,84,130223,1,0,1:0:0:0:
459,84,130361,2,0,P|468:157|467:170,1,59.9999976158143,0|0,0:0|3:0,0:0:0:0:
256,28,130639,6,0,P|185:25|116:47,1,119.999995231629,4|0,0:3|0:0,0:0:0:0:
60,92,131056,2,0,P|44:32|48:16,2,59.9999976158143,0|0|0,0:0|0:0|0:0,0:0:0:0:
132,192,131473,2,0,P|132:108|124:96,1,59.9999976158143,10|0,1:0|3:0,0:0:0:0:
72,312,131750,2,0,P|48:232|16:192,1,119.999995231629,0|0,0:0|0:0,0:0:0:0:
141,133,132167,1,0,0:0:0:0:
141,133,132306,6,0,L|216:128,1,59.9999976158143,6|0,0:3|3:0,0:0:0:0:
260,52,132584,2,0,P|200:32|176:32,1,59.9999976158143,0|0,0:0|3:0,0:0:0:0:
272,188,132861,1,0,0:0:0:0:
344,156,133000,1,8,3:0:0:0:
420,180,133139,2,0,P|464:232|468:256,1,59.9999976158143,10|0,1:0|3:0,0:0:0:0:
348,328,133417,6,0,L|360:256,1,59.9999976158143,0|0,0:0|1:0,0:0:0:0:
400,102,133695,1,0,0:0:0:0:
328,70,133834,1,0,2:0:0:0:
252,94,133973,2,0,P|208:146|204:170,1,59.9999976158143,6|0,0:3|3:0,0:0:0:0:
72,328,134250,6,0,L|64:236,1,59.9999976158143,0|0,0:0|3:0,0:0:0:0:
120,128,134528,2,0,L|125:187,1,59.9999976158143,0|0,0:0|3:0,0:0:0:0:
32,72,134806,2,0,P|100:32|184:36,1,119.999995231629,10|0,1:0|0:0,0:0:0:0:
236,44,135223,1,0,1:0:0:0:
236,44,135361,2,0,L|320:52,1,59.9999976158143,0|0,0:0|3:0,0:0:0:0:
444,24,135639,5,14,1:3:0:0:
256,120,135917,1,2,0:0:0:0:
72,20,136195,2,0,P|60:48|64:120,1,59.9999976158143,2|0,0:0|0:0,0:0:0:0:
136,256,136473,6,0,P|156:188|120:112,1,119.999995231629,10|0,1:0|0:0,0:0:0:0:
68,160,136889,2,0,P|4:156|-8:148,2,59.9999976158143,0|0|0,1:0|0:0|3:0,0:0:0:0:
266,43,137306,2,0,P|200:32|144:48,1,119.999995231629,6|0,0:3|0:0,0:0:0:0:
9,158,137723,1,0,0:0:0:0:
9,158,137861,6,0,P|38:165|68:160,1,59.9999976158143,0|0,0:0|3:0,0:0:0:0:
72,24,138139,2,0,P|51:45|41:73,1,59.9999976158143,10|0,1:0|3:0,0:0:0:0:
144,196,138417,2,0,P|120:268|68:320,1,119.999995231629,0|0,0:0|0:0,0:0:0:0:
24,348,138834,1,0,0:0:0:0:
212,256,138973,6,0,P|236:245|289:250,1,59.9999952316285,6|0,0:3|3:0,0:0:0:0:
333,198,139250,2,0,P|311:178|284:167,1,59.9999952316285,0|0,0:3|3:0,0:0:0:0:
194,331,139528,2,0,P|215:351|243:362,1,59.9999952316285,0|0,0:3|0:0,0:0:0:0:
354,344,139806,6,0,L|446:340,1,59.9999976158143,10|0,1:0|3:0,0:0:0:0:
477,210,140084,2,0,L|417:206,1,59.9999976158143,0|0,0:0|1:0,0:0:0:0:
283,166,140361,2,0,P|279:98|283:86,1,59.9999976158143,0|0,0:0|3:0,0:0:0:0:
148,37,140639,6,0,L|228:29,1,59.9999976158143,6|0,0:3|3:0,0:0:0:0:
56,128,140917,2,0,L|136:128,1,59.9999976158143,0|0,0:0|3:0,0:0:0:0:
168,264,141195,2,0,P|172:188|176:180,1,59.9999976158143,0|0,0:0|3:0,0:0:0:0:
376,84,141473,6,0,P|392:156|368:220,1,119.999995231629,8|2,1:0|0:0,0:0:0:0:
444,256,141889,1,0,1:0:0:0:
444,256,142028,2,0,P|384:288|348:288,1,59.9999976158143,0|0,0:0|1:3,0:0:0:0:
234,118,142306,6,0,P|174:116|116:127,1,119.999995231629,6|2,0:3|0:0,0:0:0:0:
41,168,142723,1,0,0:0:0:0:
4,243,142861,1,10,1:0:0:0:
37,319,143000,1,8,3:0:0:0:
113,354,143139,1,2,1:3:0:0:
472,136,143417,5,0,0:0:0:0:
472,136,143556,2,0,L|396:136,1,71.9999949417116,0|0,1:0|3:0,0:0:0:0:
332,32,143973,2,0,P|320:80|324:116,2,71.9999949417116,4|0|0,0:3|0:0|0:0,0:0:0:0:
408,56,144806,1,10,1:0:0:0:
192,56,145084,1,0,0:0:0:0:
156,48,145223,1,0,2:0:0:0:
120,52,145361,1,0,0:0:0:0:
88,70,145500,1,0,2:0:0:0:
70,101,145639,6,0,P|62:148|68:185,2,71.9999949417116,6|0|0,0:3|0:0|0:0,0:0:0:0:
192,56,146473,2,0,L|256:57,1,35.9999974708558,10|0,1:0|3:0,0:0:0:0:
294,27,146750,1,0,0:0:0:0:
358,58,146889,1,0,1:0:0:0:
434,193,147028,2,0,L|376:194,1,35.9999974708558,0|0,0:0|2:0,0:0:0:0:
326,178,147306,6,0,P|312:221|322:275,1,71.9999949417116,6|0,0:3|0:0,0:0:0:0:
378,344,147723,2,0,P|392:301|382:247,1,71.9999949417116,0|0,2:0|3:0,0:0:0:0:
214,208,148139,1,10,1:0:0:0:
214,208,148417,1,0,0:0:0:0:
194,178,148556,1,2,1:0:0:0:
165,157,148695,1,0,0:0:0:0:
130,153,148834,1,2,1:0:0:0:
95,158,148973,5,14,1:3:0:0:
27,134,149111,1,0,1:0:0:0:
27,134,149389,5,2,2:0:0:0:
28,97,149528,1,0,1:0:0:0:
41,63,149667,1,8,0:2:0:0:
68,38,149806,1,10,1:0:0:0:
448,192,150084,5,0,0:0:0:0:
464,159,150223,1,0,1:0:0:0:
469,123,150361,1,0,0:0:0:0:
461,87,150500,1,0,0:0:0:0:
444,55,150639,5,6,0:3:0:0:
256,120,150917,1,0,0:0:0:0:
68,55,151195,1,0,0:0:0:0:
68,55,151473,5,10,1:0:0:0:
304,360,151750,1,0,0:0:0:0:
378,371,151889,1,0,1:0:0:0:
445,336,152028,1,0,0:0:0:0:
463,262,152167,1,0,2:0:0:0:
431,193,152306,5,6,0:3:0:0:
256,56,152584,1,0,0:0:0:0:
81,193,152861,2,0,L|72:144,1,35.9999974708558,0|0,0:0|3:0,0:0:0:0:
125,322,153139,6,0,L|135:270,1,44.9999999284745,10|0,1:3|3:0,0:0:0:0:
75,157,153417,2,0,L|62:92,1,44.9999999284745,2|0,1:0|3:0,0:0:0:0:
133,369,153695,2,0,L|124:309,1,47.9999980926514,0|0,0:0|2:0,0:0:0:0:
156,140,153973,6,0,L|164:72,1,59.9999976158143,2|0,1:3|3:0,0:0:0:0:
32,328,154250,2,0,L|40:260,1,59.9999976158143,2|0,1:0|3:0,0:0:0:0:
216,380,154528,5,0,0:0:0:0:
228,308,154667,2,0,L|242:229,1,71.9999949417116,8|8,2:3|1:0,0:0:0:0:
76,49,154945,1,8,3:3:0:0:
64,121,155084,2,0,L|50:200,1,71.9999949417116,2|0,0:0|1:0,0:0:0:0:
376,364,155361,2,0,L|390:285,1,71.9999949417116,0|8,1:0|1:3,0:0:0:0:
400,212,155639,1,6,0:3:0:0:
192,203,155778,6,0,P|180:187|172:155,3,35.9999960403444,0|0|8|8,1:3|0:0|0:2|3:2,0:0:0:0:
168,151,156056,1,0,0:0:0:0:
168,129,156125,1,0,0:0:0:0:
172,107,156195,1,0,0:0:0:0:
180,87,156264,1,0,0:0:0:0:
193,70,156334,1,0,0:0:0:0:
297,138,156473,5,6,1:2:0:0:
297,138,156750,1,0,0:0:0:0:
364,112,156889,1,0,1:2:0:0:
436,128,157028,1,8,0:0:0:0:
180,8,157306,5,6,0:1:0:0:
180,8,157584,1,0,0:0:0:0:
236,52,157723,1,0,0:0:0:0:
308,48,157861,1,0,0:0:0:0:
376,20,158000,1,8,3:2:0:0:
456,192,158139,5,10,1:0:0:0:
377,168,158278,1,8,3:2:0:0:
310,208,158417,1,0,0:0:0:0:
310,286,158556,1,8,1:2:0:0:
364,341,158695,2,0,P|306:364|280:357,1,59.9999976158143,8|0,0:0|3:0,0:0:0:0:
456,192,158973,6,0,L|452:272,1,59.9999976158143,6|0,0:1|3:0,0:0:0:0:
379,108,159250,2,0,L|375:188,1,59.9999976158143,0|0,0:0|3:0,0:0:0:0:
370,245,159528,1,0,0:0:0:0:
256,40,159667,5,8,3:0:0:0:
177,131,159806,1,10,1:0:0:0:
177,131,159945,2,0,L|172:72,1,59.9999976158143,8|0,3:2|0:0,0:0:0:0:
96,188,160223,1,8,1:2:0:0:
96,188,160361,2,0,L|88:100,1,59.9999976158143,8|0,0:0|2:0,0:0:0:0:
256,40,160639,2,0,P|308:24|384:32,2,119.999995231629,6|0|0,0:1|0:0|0:0,0:0:0:0:
184,72,161473,5,10,1:0:0:0:
184,72,161611,2,0,L|192:160,1,59.9999976158143,8|0,3:2|0:0,0:0:0:0:
121,251,161889,1,8,1:2:0:0:
121,251,162028,2,0,L|113:163,1,59.9999976158143,8|0,0:0|3:0,0:0:0:0:
256,40,162306,5,6,0:1:0:0:
400,113,162445,1,8,3:2:0:0:
264,200,162584,1,2,0:0:0:0:
311,123,162723,1,8,3:2:0:0:
400,113,162861,1,2,0:0:0:0:
466,174,163000,1,8,3:2:0:0:
464,264,163139,6,0,P|408:296|328:292,1,119.999995231629,10|0,1:0|0:0,0:0:0:0:
272,276,163556,2,0,P|280:336|296:360,2,59.9999976158143,8|8|0,1:2|0:0|2:0,0:0:0:0:
336,156,163973,5,6,0:1:0:0:
420,164,164250,1,0,0:0:0:0:
496,128,164528,1,0,0:0:0:0:
496,128,164667,2,0,L|488:64,1,59.9999976158143,8|10,0:2|1:0,0:0:0:0:
416,28,164945,5,8,3:2:0:0:
336,52,165084,1,0,0:0:0:0:
321,66,165153,1,0,0:0:0:0:
300,72,165223,1,10,1:2:0:0:
279,71,165292,1,0,0:0:0:0:
260,60,165361,1,8,2:2:0:0:
244,46,165431,1,2,2:0:0:0:
223,39,165500,1,0,2:0:0:0:
202,37,165570,1,2,2:0:0:0:
181,41,165639,6,0,P|145:62|141:65,3,29.9999988079071,6|2|0|2,2:1|2:0|2:0|2:0,0:0:0:0:
133,57,165917,2,0,P|85:54|80:56,3,29.9999988079071,2|2|0|0,2:2|2:2|2:0|2:0,0:0:0:0:
82,53,166195,2,0,P|57:56|26:69,2,29.9999988079071,0|0|0,2:3|2:3|2:3,0:0:0:0:
19,223,166473,5,10,1:0:0:0:
19,223,166611,2,0,L|13:138,1,59.9999976158143,8|0,3:2|0:0,0:0:0:0:
100,122,166889,1,8,1:2:0:0:
100,122,167028,2,0,L|96:198,1,59.9999976158143,8|0,0:0|0:0,0:0:0:0:
159,306,167306,6,0,L|166:220,1,59.9999976158143,6|0,0:1|3:0,0:0:0:0:
235,155,167584,2,0,L|241:95,1,59.9999976158143,0|0,0:0|2:0,0:0:0:0:
319,197,167861,2,0,L|316:256,1,59.9999976158143,0|8,0:0|0:3,0:0:0:0:
416,188,168139,5,8,1:0:0:0:
416,188,168278,2,0,L|411:79,1,59.9999976158143,8|0,3:2|1:3,0:0:0:0:
316,256,168556,1,8,1:2:0:0:
324,120,168695,1,8,0:2:0:0:
324,120,168834,1,8,1:0:0:0:
240,280,168973,5,6,0:1:0:0:
228,88,169111,1,0,1:0:0:0:
160,300,169250,1,2,0:0:0:0:
140,92,169389,1,0,0:0:0:0:
80,296,169528,1,10,1:2:0:0:
68,148,169667,1,8,0:2:0:0:
8,96,169806,5,10,1:0:0:0:
56,28,169945,1,2,3:2:0:0:
136,52,170084,1,0,0:0:0:0:
208,8,170223,1,2,1:2:0:0:
248,76,170361,1,8,0:0:0:0:
316,36,170500,1,2,2:0:0:0:
452,8,170639,6,0,P|388:16|376:20,1,59.9999976158143,6|0,0:1|3:0,0:0:0:0:
480,136,170917,2,0,P|505:76|507:64,1,59.9999976158143,0|0,0:0|3:0,0:0:0:0:
358,103,171195,1,0,0:0:0:0:
358,103,171334,1,8,3:2:0:0:
512,299,171473,5,8,1:0:0:0:
461,366,171611,1,10,3:2:0:0:
405,302,171750,1,2,0:0:0:0:
328,336,171889,1,8,1:2:0:0:
301,256,172028,1,10,0:0:0:0:
217,266,172167,1,2,3:0:0:0:
120,343,172306,6,0,P|116:283|135:226,2,119.999995231629,6|2|0,0:1|0:0|0:0,0:0:0:0:
127,141,173000,1,8,3:0:0:0:
127,141,173139,2,0,L|-17:129,1,119.999995231629,10|0,1:0|0:0,0:0:0:0:
184,240,173556,1,8,1:2:0:0:
184,240,173695,6,0,P|224:228|248:208,1,59.9999976158143,8|0,0:0|2:0,0:0:0:0:
324,256,173973,2,0,P|343:219|346:188,1,59.9999976158143,6|2,0:1|3:0,0:0:0:0:
448,200,174250,1,2,0:0:0:0:
456,116,174389,1,0,2:0:0:0:
412,44,174528,1,2,0:0:0:0:
332,16,174667,1,2,3:2:0:0:
252,136,174806,5,10,1:0:0:0:
168,12,174945,1,8,3:2:0:0:
120,172,175084,1,0,0:0:0:0:
88,80,175223,1,8,1:2:0:0:
20,152,175361,2,0,L|32:232,1,59.9999976158143,10|0,0:0|3:0,0:0:0:0:
192,180,175639,5,6,0:1:0:0:
28,211,175778,1,12,3:3:0:0:
212,320,175917,6,0,L|203:260,1,59.9999976158143,2|8,0:0|3:2,0:0:0:0:
40,292,176195,2,0,L|52:372,1,59.9999976158143,10|8,2:2|0:2,0:0:0:0:
332,364,176473,5,10,1:0:0:0:
332,364,176611,2,0,L|320:280,1,59.9999952316285,0|0,3:0|0:0,0:0:0:0:
396,192,176889,1,8,1:2:0:0:
395,192,177028,2,0,L|405:251,1,59.9999952316285,8|0,0:0|2:0,0:0:0:0:
464,332,177306,6,0,P|508:260|500:212,2,119.999990463257,6|0|0,0:1|0:0|0:0,0:0:0:0:
323,304,178000,1,8,3:2:0:0:
323,304,178278,5,8,3:2:0:0:
323,304,178417,2,0,L|312:220,1,59.9999952316285,2|8,0:0|1:2,0:0:0:0:
478,103,178695,2,0,L|486:163,1,59.9999952316285,10|0,0:2|3:0,0:0:0:0:
256,36,178973,6,0,P|188:44|136:76,2,119.999995231629,6|2|2,0:1|0:0|0:0,0:0:0:0:
336,56,179667,1,8,3:2:0:0:
420,40,179806,1,10,1:0:0:0:
420,40,179945,1,8,3:2:0:0:
151,145,180223,5,8,1:2:0:0:
143,69,180361,2,0,P|96:16|84:8,1,59.9999976158143,10|0,0:0|0:0,0:0:0:0:
4,128,180639,1,6,0:1:0:0:
80,116,180778,1,2,3:0:0:0:
143,69,180917,1,2,0:0:0:0:
184,0,181056,5,2,2:0:0:0:
264,56,181195,1,2,0:0:0:0:
360,60,181334,1,2,0:0:0:0:
448,24,181473,5,10,1:0:0:0:
448,24,181750,1,2,0:0:0:0:
448,24,182028,1,0,0:2:0:0:
349,376,182306,6,0,P|357:347|356:318,1,59.9999952316285,6|0,0:3|0:0,0:0:0:0:
263,244,182584,2,0,P|255:273|257:303,1,59.9999952316285
208,328,182861,1,10,1:2:0:0:
152,332,182954,1,8,0:2:0:0:
96,324,183047,1,8,0:2:0:0:
52,296,183139,5,4,0:3:0:0:
52,296,183417,1,8,0:3:0:0:
52,296,183695,1,8,0:3:0:0:
72,56,183973,6,0,P|42:53|14:65,1,59.9999976158143,8|0,0:3|3:0,0:0:0:0:
63,149,184250,2,0,P|92:151|120:139,1,59.9999976158143,8|0,3:0|2:0,0:0:0:0:
240,176,184528,1,8,2:3:0:0:
352,136,184667,1,8,3:0:0:0:
416,20,184806,6,0,P|340:16|268:24,1,143.999994277954,0|0,0:0|0:0,0:0:0:0:
168,92,186472,2,0,P|103:219|108:366,1,287.999988555908,0|0,0:0|0:0,0:0:0:0:
256,356,188694,1,0,0:0:0:0:
256,356,188972,1,0,0:0:0:0:
388,300,189806,1,0,0:0:0:0:
452,172,190639,1,0,0:0:0:0:
436,76,191194,1,0,0:0:0:0:
360,16,191472,6,0,P|288:32|232:76,1,143.999994277954,0|0,0:0|0:0,0:0:0:0:
8,136,193139,2,0,P|122:169|209:249,1,239.999990463257,0|0,0:0|0:0,0:0:0:0:
128,300,194806,1,0,0:0:0:0:
209,249,195361,1,0,0:0:0:0:
232,156,195639,1,0,0:0:0:0:
200,64,195917,1,0,0:0:0:0:
116,20,196194,1,0,0:0:0:0:
20,36,196472,5,0,0:0:0:0:
116,20,197306,1,0,0:0:0:0:
200,64,198139,6,0,P|296:44|352:64,1,143.999989883423,10|0,1:0|0:0,0:0:0:0:
440,44,198972,2,0,P|409:137|364:175,1,143.999989883423,0|0,0:3|1:0,0:0:0:0:
272,148,199806,1,0,1:0:0:0:
340,56,200639,1,0,0:3:0:0:
376,168,201472,5,10,1:0:0:0:
376,184,201889,1,0,1:0:0:0:
380,196,202306,1,2,0:3:0:0:
136,216,203139,5,10,1:0:0:0:
136,200,203556,1,0,1:0:0:0:
132,188,203972,1,10,1:0:0:0:
172,56,204528,5,0,0:0:0:0:
80,104,204806,2,0,P|56:176|72:252,1,143.999994277954,10|0,1:0|3:0,0:0:0:0:
143,310,205361,2,0,P|162:287|194:271,1,47.9999961853028
251,174,205639,6,0,P|322:175|390:200,1,143.999988555908,6|0,0:3|3:0,0:0:0:0:
456,244,206194,1,0,0:0:0:0:
388,280,206333,1,0,1:0:0:0:
424,136,206472,5,10,1:0:0:0:
348,116,206611,1,8,3:0:0:0:
348,116,206889,2,0,P|288:108|260:112,2,47.9999980926514,8|8|0,1:3|0:3|3:0,0:0:0:0:
456,244,207306,2,0,P|380:244|296:268,1,143.999994277954,6|0,0:3|3:0,0:0:0:0:
244,328,207861,6,0,P|216:272|216:256,1,59.9999976158143,0|0,0:0|3:0,0:0:0:0:
40,204,208139,2,0,P|96:200|180:212,1,119.999995231629,10|0,1:0|0:0,0:0:0:0:
232,144,208556,1,8,1:2:0:0:
232,144,208625,1,8,2:2:0:0:
232,144,208694,2,0,P|204:112|164:100,1,59.9999976158143,8|0,0:3|3:0,0:0:0:0:
296,40,208972,2,0,P|216:16|112:16,1,179.999992847443,8|0,0:3|3:0,0:0:0:0:
31,53,209528,1,0,0:0:0:0:
120,14,209667,1,0,1:0:0:0:
179,193,209806,6,0,P|197:262|172:334,1,143.999984161378,8|0,1:0|0:0,0:0:0:0:
251,378,210222,2,0,L|339:370,1,71.9999949417116,0|0,1:0|0:0,0:0:0:0:
392,312,210500,1,8,3:3:0:0:
392,312,210569,1,8,0:3:0:0:
392,312,210639,1,4,0:3:0:0:
268,292,210778,1,4,1:3:0:0:
268,292,210917,1,0,0:0:0:0:
480,232,211056,1,4,3:0:0:0:
332,212,211194,1,8,1:0:0:0:
508,132,211333,1,4,3:0:0:0:
280,120,211472,5,0,0:0:0:0:
192,152,211611,1,2,0:0:0:0:
100,128,211750,1,0,0:0:0:0:
44,52,211889,2,0,L|50:21,8,17.9999980201722,2|0|0|0|2|0|0|0|0,0:0|0:0|0:0|0:0|0:0|0:0|0:0|0:0|0:0,0:0:0:0:
0,284,212306,6,0,P|120:312|196:280,1,167.999988197327,6|0,1:2|0:0,0:0:0:0:
288,291,212722,2,0,P|259:321|244:360,2,83.9999940986636,0|10|0,1:2|0:0|2:0,0:0:0:0:
140,192,213139,6,0,P|128:140|96:104,1,83.9999940986636,6|0,0:1|3:0,0:0:0:0:
32,52,213417,2,0,P|100:16|224:24,1,167.999988197327,0|0,0:0|0:0,0:0:0:0:
272,24,213833,1,8,3:2:0:0:
472,196,213972,5,8,1:0:0:0:
388,192,214111,1,8,3:2:0:0:
316,152,214250,2,0,P|348:68|368:56,1,83.9999940986636,2|8,0:0|1:2,0:0:0:0:
480,16,214528,2,0,L|392:12,1,83.9999940986636,10|0,0:0|3:0,0:0:0:0:
224,96,214806,2,0,L|136:92,1,83.9999940986636,6|0,0:1|3:0,0:0:0:0:
112,240,215083,2,0,P|109:198|87:162,1,83.9999940986636,2|0,0:0|3:0,0:0:0:0:
20,112,215361,1,2,0:0:0:0:
8,196,215500,1,8,3:0:0:0:
188,24,215639,5,10,1:0:0:0:
188,24,215778,2,0,L|100:20,1,83.9999940986636,8|0,3:2|0:0,0:0:0:0:
20,112,216056,1,8,1:2:0:0:
20,112,216194,2,0,L|128:108,1,83.9999940986636,10|0,0:0|2:0,0:0:0:0:
264,4,216472,6,0,L|372:0,1,83.9999940986636,6|0,0:1|3:0,0:0:0:0:
496,80,216750,2,0,L|392:80,1,83.9999940986636,2|0,0:0|2:0,0:0:0:0:
188,164,217028,2,0,L|272:164,1,83.9999940986636,2|0,0:0|3:2,0:0:0:0:
472,264,217306,5,10,1:0:0:0:
472,264,217444,2,0,L|376:268,1,83.9999940986636,8|0,3:2|0:0,0:0:0:0:
268,352,217722,1,8,1:2:0:0:
268,352,217861,2,0,L|352:352,1,83.9999940986636,10|0,0:0|3:0,0:0:0:0:
344,188,218139,1,6,0:1:0:0:
344,188,218278,2,0,P|240:188|140:236,1,167.999988197327,8|8,3:2|3:2,0:0:0:0:
80,284,218694,2,0,P|79:242|92:202,1,83.9999940986636,2|8,0:0|3:2,0:0:0:0:
40,44,218972,6,0,P|152:44|204:0,1,167.999988197327,10|0,1:0|0:0,0:0:0:0:
296,20,219389,2,0,P|340:72|448:84,1,167.999981521607,10|0,1:2|2:0,0:0:0:0:
480,304,219806,2,0,P|440:260|384:248,1,83.9999907608036,6|0,0:1|3:0,0:0:0:0:
337,278,220083,2,0,P|258:300|178:276,1,167.999981521607
32,303,220500,2,0,P|56:270|93:251,1,83.9999907608036,0|10,0:0|1:0,0:0:0:0:
138,351,220778,5,8,3:2:0:0:
178,276,220917,1,2,0:0:0:0:
154,195,221056,1,8,1:2:0:0:
83,150,221194,2,0,P|-9:174|-21:186,1,83.9999940986636,10|0,0:2|3:0,0:0:0:0:
192,88,221472,2,0,P|97:75|82:82,1,83.9999940986636,6|0,0:1|3:0,0:0:0:0:
340,156,221750,2,0,P|298:70|238:20,1,167.999988197327,2|2,0:0|0:0,0:0:0:0:
192,88,222167,1,8,3:2:0:0:
408,88,222306,5,10,1:0:0:0:
408,88,222444,2,0,P|432:0|444:-20,1,83.9999940986636,8|0,3:2|0:0,0:0:0:0:
512,164,222722,1,10,1:2:0:0:
512,164,222861,2,0,P|423:187|400:186,1,83.9999940986636,8|0,0:0|0:0,0:0:0:0:
212,288,223139,2,0,P|304:272|420:288,1,167.999988197327,6|0,0:1|0:0,0:0:0:0:
504,360,223556,2,0,P|496:312|456:264,1,83.9999940986636,0|0,2:0|0:0,0:0:0:0:
464,276,223972,5,8,1:0:0:0:
512,152,224111,2,0,L|424:160,1,83.9999940986636,8|0,3:2|1:3,0:0:0:0:
336,200,224389,1,8,1:2:0:0:
256,28,224528,2,0,P|368:24|464:36,1,167.999988197327,8|6,0:2|0:1,0:0:0:0:
405,124,224944,2,0,L|437:173,2,41.9999970493318,0|2|2,1:0|0:0|0:0,0:0:0:0:
256,180,225222,1,0,0:0:0:0:
104,123,225361,1,10,1:2:0:0:
75,105,225431,1,8,3:2:0:0:
58,75,225500,1,8,0:2:0:0:
52,41,225569,1,8,3:2:0:0:
61,8,225639,6,0,P|136:3|242:17,1,167.999988197327,6|0,1:2|0:0,0:0:0:0:
400,16,226056,2,0,P|321:51|275:133,1,167.999988197327,0|0,1:2|2:0,0:0:0:0:
256,308,226472,2,0,P|164:320|88:288,1,167.999988197327,6|0,0:1|0:0,0:0:0:0:
44,168,226889,2,0,P|104:196|124:240,1,83.9999940986636,0|0,0:0|0:0,0:0:0:0:
196,192,227167,1,8,3:2:0:0:
340,356,227306,5,10,1:0:0:0:
340,356,227444,2,0,L|348:256,1,83.9999940986636,8|2,3:2|0:0,0:0:0:0:
456,232,227722,1,8,1:2:0:0:
456,232,227861,2,0,L|456:128,1,83.9999940986636,10|0,0:0|3:0,0:0:0:0:
300,96,228139,2,0,L|304:-36,1,83.9999940986636,6|0,0:1|3:0,0:0:0:0:
192,268,228417,2,0,P|192:180|200:92,1,167.999988197327,2|2,0:0|0:0,0:0:0:0:
108,72,228833,1,8,3:0:0:0:
380,88,228972,5,10,1:0:0:0:
380,88,229111,2,0,L|380:172,1,83.9999940986636,8|0,3:2|0:0,0:0:0:0:
308,336,229389,1,8,1:2:0:0:
308,336,229528,2,0,L|308:224,1,83.9999940986636,10|0,0:0|2:0,0:0:0:0:
188,108,229806,2,0,L|188:200,1,83.9999940986636,6|0,0:1|3:0,0:0:0:0:
73,355,230083,2,0,P|71:271|78:187,1,167.999988197327,2|2,0:0|0:0,0:0:0:0:
66,52,230500,1,0,3:2:0:0:
188,108,230639,5,10,1:0:0:0:
188,108,230778,2,0,P|248:124|288:120,1,83.9999940986636,8|0,3:2|0:0,0:0:0:0:
380,48,231056,1,8,1:2:0:0:
380,48,231194,2,0,P|312:32|280:36,1,83.9999940986636,10|0,0:0|3:0,0:0:0:0:
472,168,231472,5,6,0:1:0:0:
316,188,231611,1,8,3:3:0:0:
413,309,231750,1,2,0:0:0:0:
316,188,231889,1,8,3:2:0:0:
255,359,232028,2,0,P|264:318|288:284,1,83.9999940986636,2|8,0:0|3:2,0:0:0:0:
96,187,232306,6,0,P|145:255|167:335,1,167.999988197327,10|0,1:0|0:0,0:0:0:0:
195,171,232722,2,0,P|207:88|250:18,1,167.999988197327,8|0,1:2|2:0,0:0:0:0:
480,76,233139,2,0,P|384:72|304:92,1,167.999988197327,6|0,0:1|0:0,0:0:0:0:
352,164,233556,2,0,P|304:196|284:228,1,83.9999940986636,0|0,0:0|0:0,0:0:0:0:
280,300,233833,1,0,0:0:0:0:
436,188,233972,5,10,1:0:0:0:
352,164,234111,1,8,3:2:0:0:
314,88,234250,2,0,P|312:36|320:0,1,83.9999940986636,2|8,0:0|1:2,0:0:0:0:
256,188,234528,2,0,P|226:144|214:110,1,83.9999940986636,10|0,0:2|3:0,0:0:0:0:
160,32,234806,2,0,P|130:62|109:98,1,83.9999940986636,6|0,0:1|3:0,0:0:0:0:
8,192,235083,2,0,P|96:192|168:236,1,167.999988197327,2|2,0:0|0:0,0:0:0:0:
204,308,235500,1,8,3:2:0:0:
36,364,235639,6,0,P|24:304|32:264,1,83.9999940986636,10|8,1:0|3:2,0:0:0:0:
106,195,235917,1,0,0:0:0:0:
106,195,236056,2,0,P|154:144|174:39,1,167.999981521607,8|0,1:2|0:0,0:0:0:0:
384,8,236472,6,0,P|416:116|468:160,1,167.999988197327,6|2,0:1|0:0,0:0:0:0:
412,228,236889,1,0,2:0:0:0:
336,192,237028,2,0,P|272:200|232:232,1,83.9999940986636,2|0,0:0|0:0,0:0:0:0:
0,48,237306,6,0,P|79:23|256:48,2,251.999982295991,10|8|6,1:0|1:2|0:1,0:0:0:0:
0,48,238417,5,8,0:2:0:0:
94,143,238556,1,8,0:0:0:0:
121,168,238625,1,8,0:0:0:0:
136,202,238694,1,6,1:3:0:0:
141,239,238764,1,4,3:3:0:0:
132,275,238833,1,4,0:3:0:0:
115,308,238903,1,4,3:3:0:0:
92,338,238972,6,0,P|173:330|330:368,1,215.999984825135,6|0,1:2|0:0,0:0:0:0:
410,332,239389,1,0,1:2:0:0:
410,332,239528,2,0,P|441:278|497:250,1,107.999992412567,10|0,0:0|2:0,0:0:0:0:
336,192,239806,6,0,P|312:104|228:4,1,215.999984825135,6|0,0:1|0:0,0:0:0:0:
32,53,240222,2,0,P|85:65|138:56,1,107.999992412567
225,122,240500,1,8,3:2:0:0:
384,8,240639,5,8,1:0:0:0:
480,60,240778,1,8,3:2:0:0:
480,60,240917,2,0,P|468:124|484:188,1,107.999992412567,2|8,0:0|1:2,0:0:0:0:
424,284,241194,2,0,P|384:232|369:168,1,107.999992412567,10|0,0:0|3:0,0:0:0:0:
256,12,241472,2,0,P|199:43|160:97,1,107.999992412567,6|0,0:1|3:0,0:0:0:0:
92,176,241750,2,0,P|48:136|36:80,1,107.999988121033,2|0,0:0|3:0,0:0:0:0:
96,28,242028,1,2,0:0:0:0:
171,75,242167,1,8,3:0:0:0:
260,252,242306,5,10,1:0:0:0:
208,320,242444,1,8,3:2:0:0:
132,360,242583,1,0,0:0:0:0:
48,332,242722,1,8,1:2:0:0:
0,260,242861,2,0,P|16:200|60:140,1,107.999992412567,10|0,0:0|2:0,0:0:0:0:
256,32,243139,6,0,P|328:8|452:16,1,161.999988618851,6|0,0:1|3:0,0:0:0:0:
512,132,243417,2,0,P|440:108|316:116,1,161.999988618851,2|0,0:0|3:0,0:0:0:0:
304,192,243694,2,0,P|232:188|168:160,1,107.999992412567,2|0,0:0|3:2,0:0:0:0:
512,132,243972,5,10,1:0:0:0:
512,132,244111,2,0,L|507:261,1,107.999992412567,8|0,3:2|0:0,0:0:0:0:
384,348,244389,1,8,1:2:0:0:
384,348,244528,2,0,L|388:240,1,107.999992412567,10|0,0:0|3:0,0:0:0:0:
296,80,244806,1,6,0:1:0:0:
292,276,244944,1,8,3:2:0:0:
216,116,245083,5,2,0:0:0:0:
128,116,245222,1,8,3:2:0:0:
48,84,245361,1,2,0:0:0:0:
8,8,245500,1,8,3:2:0:0:
4,264,245639,6,0,P|144:256|232:268,1,215.999984825135,6|0,1:2|0:0,0:0:0:0:
296,368,246056,2,0,P|356:296|472:240,1,215.999984825135,10|0,1:2|2:0,0:0:0:0:
504,152,246472,2,0,P|440:148|364:120,1,107.999992412567,6|0,0:1|3:0,0:0:0:0:
282,87,246750,2,0,P|300:138|304:192,2,107.999992412567
203,198,247167,1,0,0:0:0:0:
104,4,247306,6,0,P|76:60|68:116,1,107.999992412567,10|8,1:0|3:2,0:0:0:0:
21,249,247583,2,0,P|81:213|137:205,1,107.999992412567,2|8,0:0|1:2,0:0:0:0:
184,112,247861,1,10,0:2:0:0:
152,296,248000,1,0,3:0:0:0:
152,296,248069,1,8,0:2:0:0:
152,296,248139,2,0,P|212:312|272:304,1,107.999992412567,6|0,0:1|3:0,0:0:0:0:
496,148,248417,2,0,P|404:140|280:160,1,215.999984825135,2|2,0:0|0:0,0:0:0:0:
184,112,248833,1,8,3:2:0:0:
184,112,248903,1,8,0:2:0:0:
184,112,248972,5,10,1:0:0:0:
120,340,249111,2,0,P|180:356|240:348,1,107.999992412567,8|0,3:2|0:0,0:0:0:0:
512,72,249389,2,0,P|420:64|296:84,1,215.999984825135,10|0,1:2|0:0,0:0:0:0:
120,20,249806,2,0,P|168:12|252:20,1,107.999992412567,6|0,0:1|3:0,0:0:0:0:
284,176,250083,1,0,0:0:0:0:
132,152,250222,1,8,2:2:0:0:
132,152,250292,1,8,0:2:0:0:
132,152,250361,1,0,0:0:0:0:
212,104,250500,1,8,0:2:0:0:
12,80,250639,5,8,1:0:0:0:
32,188,250778,1,8,3:2:0:0:
132,152,250917,1,0,1:3:0:0:
104,304,251056,1,8,1:2:0:0:
184,256,251194,5,8,0:2:0:0:
224,348,251333,1,0,3:0:0:0:
224,348,251403,1,4,0:3:0:0:
224,348,251472,1,6,0:3:0:0:
272,196,251611,1,4,1:3:0:0:
344,364,251750,5,2,0:0:0:0:
388,180,251889,1,4,0:3:0:0:
472,280,252028,1,10,1:2:0:0:
496,136,252167,1,8,0:2:0:0:
496,136,252236,1,8,3:2:0:0:
496,136,252306,6,0,P|412:80|284:120,1,215.999984825135,6|0,1:2|0:0,0:0:0:0:
256,28,252722,1,0,1:2:0:0:
297,221,252861,2,0,P|349:216|387:179,1,107.999992412567,10|0,0:0|2:0,0:0:0:0:
68,104,253139,6,0,P|20:200|76:324,1,215.999984825135,6|0,0:1|0:0,0:0:0:0:
124,376,253556,2,0,P|176:352|240:356,2,107.999992412567,0|0|8,0:0|0:0|0:2,0:0:0:0:
488,292,253972,5,10,1:0:0:0:
412,336,254111,1,8,3:2:0:0:
328,324,254250,2,0,P|276:272|268:232,1,107.999992412567,2|8,0:0|1:2,0:0:0:0:
84,176,254528,2,0,L|204:176,1,107.999992412567,10|0,0:0|3:0,0:0:0:0:
424,132,254806,2,0,L|312:136,1,107.999992412567,6|0,0:1|3:0,0:0:0:0:
48,40,255083,2,0,L|168:40,1,107.999992412567,2|0,0:0|3:0,0:0:0:0:
440,4,255361,1,2,0:0:0:0:
252,72,255500,1,8,3:0:0:0:
336,0,255639,5,10,1:0:0:0:
336,0,255778,2,0,P|339:53|370:96,1,107.999992412567,8|0,3:2|0:0,0:0:0:0:
156,236,256056,1,8,1:2:0:0:
156,236,256194,2,0,P|187:192|190:139,1,107.999992412567,10|0,0:0|2:0,0:0:0:0:
44,193,256472,5,6,0:1:0:0:
44,193,256611,1,0,0:0:0:0:
190,139,256750,1,2,0:0:0:0:
190,139,256889,1,0,0:0:0:0:
328,200,257028,1,2,0:0:0:0:
328,200,257167,1,0,0:2:0:0:
337,358,257306,5,10,1:0:0:0:
510,289,257444,1,8,3:2:0:0:
313,280,257583,1,0,0:0:0:0:
313,280,257653,1,8,0:2:0:0:
313,280,257722,1,8,1:2:0:0:
484,168,257861,1,10,0:0:0:0:
484,168,258000,1,8,0:3:0:0:
380,176,258139,5,6,0:1:0:0:
420,20,258278,1,4,3:3:0:0:
296,132,258417,1,6,0:2:0:0:
232,0,258556,1,8,3:2:0:0:
157,145,258694,1,2,0:0:0:0:
162,112,258764,1,8,0:3:0:0:
158,80,258833,1,8,0:3:0:0:
141,52,258903,1,8,0:3:0:0:
118,27,258972,1,6,1:2:0:0:
118,27,259111,6,0,L|242:20,1,107.999992412567,8|0,3:0|0:0,0:0:0:0:
421,75,259389,1,8,1:2:0:0:
421,75,259528,2,0,L|313:84,1,107.999992412567,10|0,0:0|2:0,0:0:0:0:
40,268,259806,2,0,P|147:260|280:267,1,215.999976242066,6|0,0:1|0:0,0:0:0:0:
415,350,260222,2,0,P|361:358|308:358,1,107.999988121033
452,244,260500,1,0,3:0:0:0:
452,244,260569,1,8,0:2:0:0:
452,244,260639,5,6,1:2:0:0:
340,164,260778,1,8,3:2:0:0:
508,40,260917,2,0,P|452:32|376:72,1,107.999992412567,2|8,0:0|1:2,0:0:0:0:
343,271,261194,2,0,L|339:155,1,107.999992412567,10|0,0:2|3:0,0:0:0:0:
176,24,261472,2,0,L|180:140,1,107.999992412567,6|0,0:1|3:0,0:0:0:0:
44,356,261750,2,0,P|132:328|274:337,1,215.999976242066,2|2,0:0|0:0,0:0:0:0:
338,353,262167,1,8,3:2:0:0:
456,188,262306,5,6,1:2:0:0:
368,252,262444,1,8,3:2:0:0:
368,252,262514,1,8,0:2:0:0:
368,252,262583,1,0,0:0:0:0:
384,112,262722,1,8,1:2:0:0:
256,168,262861,2,0,P|241:96|213:41,1,107.999993843079,10|0,0:0|0:0,0:0:0:0:
63,12,263139,6,0,P|43:62|34:115,1,107.999993843079,6|0,0:2|3:0,0:0:0:0:
368,252,263417,2,0,P|353:180|325:125,1,107.999993843079,2|0,0:0|2:0,0:0:0:0:
119,350,263694,1,2,0:0:0:0:
119,350,263764,1,0,0:0:0:0:
119,350,263833,1,0,0:0:0:0:
504,288,263972,1,6,1:2:0:0:
256,192,264110,12,0,266472,3:0:0:0:
