osu file format v14

[General]
AudioFilename: Secret Liqueur.mp3
AudioLeadIn: 0
PreviewTime: 87129
Countdown: 0
SampleSet: Soft
StackLeniency: 0.7
Mode: 0
LetterboxInBreaks: 0
WidescreenStoryboard: 0

[Editor]
DistanceSpacing: 1.1
BeatDivisor: 4
GridSize: 4
TimelineZoom: 2.699999

[Metadata]
Title:Secret Liqueur -Short ver-
TitleUnicode:Secret Liqueur -Short ver-
Artist:Shimotsuki Haruka
ArtistUnicode:霜月はるか
Creator:PinkHeart
Version:Liqueur
Source:働くオトナの恋愛事情
Tags:imoutosan Eggache0 opening galgame eroge visual novel
BeatmapID:904257
BeatmapSetID:417610

[Difficulty]
HPDrainRate:8
CircleSize:4
OverallDifficulty:8
ApproachRate:9.5
SliderMultiplier:2.4
SliderTickRate:1

[Events]
//Background and Video events
0,0,"bg.jpg",0,0
//Break Periods
//Storyboard Layer 0 (Background)
//Storyboard Layer 1 (Fail)
//Storyboard Layer 2 (Pass)
//Storyboard Layer 3 (Foreground)
//Storyboard Sound Samples

[TimingPoints]
13879,250,4,2,0,50,1,0
13879,-133.333333333333,4,2,0,50,0,0
14045,-133.333333333333,4,2,0,20,0,0
14129,-133.333333333333,4,2,0,50,0,0
15879,-200,4,2,0,50,0,0
17879,-133.333333333333,4,2,0,50,0,0
18045,-133.333333333333,4,2,0,20,0,0
18129,-133.333333333333,4,2,0,50,0,0
22045,-133.333333333333,4,2,0,20,0,0
22129,-133.333333333333,4,2,0,50,0,0
26045,-133.333333333333,4,2,0,20,0,0
26129,-133.333333333333,4,2,0,50,0,0
30045,-133.333333333333,4,2,0,20,0,0
30129,-133.333333333333,4,2,0,50,0,0
34045,-133.333333333333,4,2,0,20,0,0
34129,-133.333333333333,4,2,0,50,0,0
37754,-200,4,2,0,40,0,0
53879,-133.333333333333,4,2,0,50,0,0
69879,-200,4,2,0,50,0,0
77879,-133.333333333333,4,2,0,50,0,0
87754,-100,4,2,0,50,0,0
87879,-100,4,2,0,50,0,1
101879,-100,4,2,0,50,0,0
102754,-66.6666666666667,4,2,0,50,0,0
103754,-100,4,2,0,50,0,0
103879,-100,4,2,0,50,0,1
111629,-100,4,2,0,50,0,0
111879,-100,4,2,0,50,0,1
115129,-66.6666666666667,4,2,0,50,0,1
115879,-100,4,2,0,50,0,0
116379,-100,4,2,0,50,0,1
118879,-133.333333333333,4,2,0,50,0,0
120045,-133.333333333333,4,2,0,20,0,0
120129,-133.333333333333,4,2,0,50,0,0
124045,-133.333333333333,4,2,0,20,0,0
124129,-133.333333333333,4,2,0,50,0,0
128045,-133.333333333333,4,2,0,20,0,0
128128,-133.333333333333,4,2,0,50,0,0
129879,-200,4,2,0,50,0,0
131879,-133.333333333333,4,2,0,50,0,0

[Colours]
Combo1 : 255,128,192
Combo2 : 255,128,255
Combo3 : 128,128,255
Combo4 : 255,128,128

[HitObjects]
16,192,13879,6,0,P|64:225|121:210,1,120.000004577637,4|0,0:0|0:0,0:0:0:0:
141,180,14129,1,0,0:0:0:0:
120,151,14212,1,0,0:0:0:0:
85,162,14295,1,0,0:0:0:0:
85,198,14379,2,0,P|120:212|192:164,1,120.000004577637
191,178,14795,6,0,P|234:146|366:178,1,180.000006866455,2|0,0:0|0:0,0:0:0:0:
358,262,15129,2,0,P|313:255|277:229,1,90.0000034332277
393,251,15379,1,0,0:0:0:0:
414,280,15504,1,0,0:0:0:0:
393,310,15629,1,0,0:0:0:0:
358,298,15754,1,0,0:0:0:0:
358,262,15879,5,0,0:0:0:0:
435,371,16045,2,0,P|487:323|492:247,1,120
496,243,16379,1,0,0:0:0:0:
452,159,16545,2,0,L|484:123,1,40
412,67,16795,2,0,L|444:31,1,40
336,175,17045,2,0,L|368:139,1,40
328,67,17295,1,0,0:0:0:0:
300,60,17379,2,0,P|245:77|234:134,1,120
153,231,17879,6,0,P|154:173|200:136,1,120.000004577637,2|0,0:0|0:0,0:0:0:0:
234,134,18129,1,0,0:0:0:0:
248,167,18212,1,0,0:0:0:0:
221,192,18285,1,0,0:0:0:0:
189,174,18379,2,0,P|194:136|271:98,1,120.000004577637
157,284,18795,6,0,P|236:248|255:163,1,180.000006866455
179,102,19129,2,0,P|158:141|159:186,1,90.0000034332277
208,80,19379,1,0,0:0:0:0:
196,47,19504,1,0,0:0:0:0:
160,47,19629,1,0,0:0:0:0:
149,82,19754,5,0,0:0:0:0:
163,94,19816,1,0,3:0:0:0:
179,102,19879,1,0,1:0:0:0:
312,54,20004,1,0,3:0:0:0:
312,54,20254,1,0,3:0:0:0:
312,54,20504,1,0,3:0:0:0:
264,128,20629,5,0,1:0:0:0:
396,79,20754,1,0,3:0:0:0:
396,79,21004,1,0,3:0:0:0:
396,79,21254,1,0,3:0:0:0:
292,180,21379,5,0,1:0:0:0:
388,204,21504,1,0,3:0:0:0:
220,108,21629,2,0,P|168:116|120:160,1,90.0000034332277,0|0,3:0|0:0,0:0:0:0:
183,310,21879,6,0,P|214:260|205:202,1,120.000004577637,4|0,0:0|0:0,0:0:0:0:
128,161,22129,1,0,0:0:0:0:
148,188,22212,1,0,3:0:0:0:
176,204,22295,1,0,3:0:0:0:
206,203,22378,1,0,1:0:0:0:
323,122,22545,2,0,P|379:104|435:124,1,120.000004577637
474,320,22795,6,0,P|396:281|380:196,1,180.000006866455,0|0,3:0|0:0,0:0:0:0:
455,41,23129,2,0,P|456:85|435:125,1,90.0000034332277
290,230,23379,1,0,1:0:0:0:
227,120,23504,1,0,3:0:0:0:
203,206,23629,1,0,0:0:0:0:
313,143,23754,1,0,3:0:0:0:
166,41,23879,5,0,0:0:0:0:
15,168,24045,2,0,P|99:188|160:127,1,180.000006866455
166,41,24379,1,0,1:0:0:0:
217,218,24545,2,0,L|242:308,1,60.0000022888185,0|0,0:0|3:0,0:0:0:0:
264,112,24795,2,0,L|289:201,1,60.0000022888185,0|0,0:0|3:0,0:0:0:0:
316,12,25045,2,0,L|341:101,1,60.0000022888185,0|0,0:0|3:0,0:0:0:0:
387,280,25295,1,0,0:0:0:0:
419,279,25379,2,0,P|435:209|372:243,1,180.000006866455,0|0,1:0|0:0,0:0:0:0:
439,62,25879,6,0,B|444:46|436:18|436:18|419:48|429:90,1,120.000004577637,0|0,3:0|0:0,0:0:0:0:
438,119,26129,1,0,0:0:0:0:
456,142,26212,1,0,0:0:0:0:
481,157,26295,1,0,0:0:0:0:
510,163,26379,1,0,1:0:0:0:
426,58,26545,2,0,P|368:46|314:71,1,120.000004577637
280,247,26795,6,0,P|360:217|376:132,1,180.000006866455,0|0,3:0|0:0,0:0:0:0:
228,101,27129,2,0,P|251:138|291:159,1,90.0000034332277,0|0,3:0|0:0,0:0:0:0:
475,165,27379,1,0,1:0:0:0:
319,232,27504,1,0,0:0:0:0:
434,142,27629,1,0,3:0:0:0:
441,294,27754,1,0,3:0:0:0:
393,119,27879,5,0,3:0:0:0:
192,308,28129,2,0,L|311:326,1,120.000004577637,0|0,3:0|0:0,0:0:0:0:
164,384,28379,2,0,P|139:371|112:288,1,120.000004577637,0|0,1:0|0:0,0:0:0:0:
158,152,28629,1,0,3:0:0:0:
158,152,28754,2,0,P|211:222|192:308,1,180.000006866455
248,92,29129,5,4,1:2:0:0:
115,244,29254,1,0,3:0:0:0:
276,59,29504,6,0,B|309:21|309:21|373:75|333:166,1,180.000006866455,4|0,0:0|0:0,0:0:0:0:
352,265,29879,6,0,P|321:216|329:158,1,120.000004577637,4|0,0:0|0:0,0:0:0:0:
410,120,30129,1,0,0:0:0:0:
389,143,30212,1,0,0:0:0:0:
361,159,30295,1,0,0:0:0:0:
330,158,30378,1,0,1:0:0:0:
199,72,30545,2,0,P|141:62|88:89,1,120.000004577637
58,281,30795,6,0,P|136:242|153:156,1,180.000006866455,0|0,3:0|0:0,0:0:0:0:
68,5,31129,2,0,P|67:49|88:88,1,90.0000034332277,0|0,3:0|0:0,0:0:0:0:
275,156,31379,1,0,1:0:0:0:
210,77,31504,1,0,3:0:0:0:
239,251,31629,1,0,0:0:0:0:
376,139,31754,1,0,3:0:0:0:
275,156,31879,5,0,0:0:0:0:
426,39,32045,2,0,P|472:83|461:212,1,180.000006866455
437,269,32378,1,0,1:0:0:0:
300,125,32545,2,0,L|252:88,1,60.0000022888185,0|0,0:0|3:0,0:0:0:0:
330,222,32795,2,0,L|386:199,1,60.0000022888185,0|0,0:0|3:0,0:0:0:0:
230,201,33045,2,0,L|222:260,1,60.0000022888185,0|0,0:0|3:0,0:0:0:0:
186,41,33295,1,0,0:0:0:0:
151,38,33379,2,0,P|134:108|199:76,1,180.000006866455,0|0,1:0|0:0,0:0:0:0:
350,13,33879,6,0,P|423:0|491:68,1,120.000004577637,0|0,3:0|0:0,0:0:0:0:
480,43,34129,1,0,0:0:0:0:
492,70,34212,1,0,0:0:0:0:
497,99,34295,1,0,0:0:0:0:
495,129,34379,1,0,1:0:0:0:
350,13,34545,2,0,P|277:0|212:68,1,120.000004577637
232,220,34795,6,0,P|302:171|298:85,1,180.000006866455,0|0,3:0|0:0,0:0:0:0:
149,86,35129,2,0,P|180:118|223:131,1,90.0000034332277,0|0,3:0|0:0,0:0:0:0:
396,71,35379,1,0,1:0:0:0:
360,239,35504,1,0,3:0:0:0:
222,131,35629,1,0,0:0:0:0:
396,71,35754,1,0,3:0:0:0:
258,284,35879,5,0,3:0:0:0:
219,105,36045,2,0,P|159:49|75:83,1,180.000006866455,4|0,0:0|0:0,0:0:0:0:
327,47,36379,1,0,1:0:0:0:
348,179,36504,1,0,3:0:0:0:
222,131,36629,1,0,3:0:0:0:
327,47,36754,1,0,3:0:0:0:
275,220,36879,6,0,P|325:259|381:254,1,90.0000034332277,4|0,1:0|0:0,0:0:0:0:
512,84,37128,1,0,1:0:0:0:
194,140,37253,1,4,0:0:0:0:
194,140,37754,5,0,0:0:0:0:
182,153,37879,2,0,P|159:203|162:278,1,120,4|0,0:0|0:0,0:0:0:0:
310,59,38379,2,0,P|333:109|330:184,1,120,0|0,1:0|0:0,0:0:0:0:
268,345,38879,2,0,B|328:276|430:286|430:286|412:311|381:317,1,240,0|0,0:0|1:0,0:0:0:0:
326,196,39629,1,0,0:0:0:0:
234,253,39879,6,0,P|178:266|118:256,1,120,0|0,3:0|0:0,0:0:0:0:
87,244,40254,1,0,0:0:0:0:
60,225,40379,2,0,P|20:183|0:126,1,120,0|0,1:0|0:0,0:0:0:0:
248,173,40879,1,0,3:0:0:0:
395,31,41129,1,0,3:0:0:0:
444,229,41379,1,0,1:0:0:0:
444,229,41754,5,0,0:0:0:0:
430,217,41879,2,0,P|380:194|305:197,1,120,0|0,3:0|0:0,0:0:0:0:
267,379,42379,2,0,P|327:379|382:356,1,120,0|0,1:0|0:0,0:0:0:0:
84,269,42879,2,0,P|61:214|62:155,1,120,0|0,3:0|0:0,0:0:0:0:
27,330,43254,2,0,P|77:307|152:310,1,120,2|0,0:0|0:0,0:0:0:0:
218,333,43629,2,0,L|288:358,1,60,2|0,0:0|0:0,0:0:0:0:
314,290,43879,6,0,P|269:258|234:191,1,120
231,182,44254,1,0,0:0:0:0:
229,161,44379,2,0,P|234:106|274:42,1,120,0|0,1:0|0:0,0:0:0:0:
266,50,44879,1,0,0:0:0:0:
284,65,45004,2,0,P|334:88|409:85,1,120,4|0,0:0|0:0,0:0:0:0:
463,149,45379,1,0,1:0:0:0:
398,87,45504,1,0,1:0:0:0:
378,174,45629,2,0,P|375:211|386:251,1,60,0|0,3:0|0:0,0:0:0:0:
408,310,45879,6,0,P|325:263|300:261,1,120,4|0,0:0|0:0,0:0:0:0:
148,284,46379,2,0,P|89:270|42:234,1,120,0|0,1:0|0:0,0:0:0:0:
173,11,46879,1,0,3:0:0:0:
212,200,47129,1,0,3:0:0:0:
0,140,47379,1,0,1:0:0:0:
156,28,47629,1,0,0:0:0:0:
176,24,47754,1,0,0:0:0:0:
196,24,47879,6,0,P|254:37|301:73,1,120,0|0,3:0|0:0,0:0:0:0:
464,48,48379,2,0,P|420:88|397:143,1,120,0|0,1:0|0:0,0:0:0:0:
384,348,48879,1,0,0:0:0:0:
492,208,49129,1,0,3:0:0:0:
317,185,49379,1,0,1:0:0:0:
260,308,49629,1,0,0:0:0:0:
244,324,49754,1,0,0:0:0:0:
224,332,49879,6,0,P|164:339|108:321,1,120,0|0,3:0|0:0,0:0:0:0:
28,135,50379,2,0,B|34:104|59:86|59:86|69:188|0:248,1,240,0|0,1:0|3:0,0:0:0:0:
176,188,51129,1,0,0:0:0:0:
224,304,51379,2,0,P|264:347|319:370,1,120,0|0,1:0|0:0,0:0:0:0:
344,376,51754,1,0,0:0:0:0:
368,376,51879,6,0,P|426:362|473:326,1,120,0|0,3:0|0:0,0:0:0:0:
272,224,52379,2,0,P|322:255|381:264,1,120,0|0,1:0|0:0,0:0:0:0:
311,48,52879,1,0,0:0:0:0:
311,48,53004,2,0,P|324:106|360:153,1,120,4|0,0:0|0:0,0:0:0:0:
444,184,53379,1,0,1:0:0:0:
360,153,53504,1,0,3:0:0:0:
316,232,53629,1,0,3:0:0:0:
232,201,53754,1,0,0:0:0:0:
136,204,53879,6,0,P|100:272|140:360,1,180.000006866455,4|0,0:0|0:0,0:0:0:0:
156,112,54379,2,0,B|168:80|200:64|200:64|196:128|236:168,1,180.000006866455,0|0,1:0|3:0,0:0:0:0:
235,167,54754,1,0,0:0:0:0:
324,80,54879,2,0,P|376:64|480:120,1,180.000006866455,0|0,3:0|0:0,0:0:0:0:
450,326,55379,2,0,P|391:260|384:172,1,180.000006866455,0|0,1:0|0:0,0:0:0:0:
336,376,55754,5,0,0:0:0:0:
336,376,55879,2,0,P|363:291|436:241,1,180.000006866455,0|0,3:0|0:0,0:0:0:0:
235,302,56254,1,0,0:0:0:0:
235,302,56379,2,0,P|321:283|401:321,1,180.000006866455,0|0,1:0|0:0,0:0:0:0:
152,360,56879,1,0,3:0:0:0:
243,124,57129,1,0,3:0:0:0:
364,296,57379,1,0,1:0:0:0:
114,334,57629,1,0,0:0:0:0:
205,98,57879,6,0,P|136:144|112:236,1,180.000006866455,0|0,3:0|0:0,0:0:0:0:
142,355,58254,1,0,0:0:0:0:
142,355,58379,2,0,P|214:305|236:220,1,180.000006866455,0|0,1:0|3:0,0:0:0:0:
236,219,58754,1,0,0:0:0:0:
236,219,58879,2,0,P|286:291|373:302,1,180.000006866455,0|0,3:0|0:0,0:0:0:0:
392,117,59254,2,0,B|392:72|424:56|424:56|460:108|432:160|392:196|343:196,1,270.000010299683,2|2,0:0|0:0,0:0:0:0:
244,144,59879,5,0,3:0:0:0:
228,128,60129,1,0,3:0:0:0:
212,112,60379,1,0,1:0:0:0:
196,96,60629,1,0,3:0:0:0:
180,80,60879,5,0,3:0:0:0:
180,80,61004,2,0,P|126:51|96:48,1,90.0000034332277,4|0,0:0|0:0,0:0:0:0:
8,68,61254,1,0,1:0:0:0:
168,264,61379,1,0,3:0:0:0:
189,177,61504,1,0,3:0:0:0:
103,153,61629,1,0,3:0:0:0:
79,241,61754,1,0,0:0:0:0:
148,360,61879,6,0,P|244:328|260:232,1,180.000006866455,4|0,0:0|0:0,0:0:0:0:
428,304,62254,1,0,0:0:0:0:
363,233,62379,2,0,P|352:146|415:87,1,180.000006866455,0|0,1:0|0:0,0:0:0:0:
248,196,62879,2,0,B|176:220|107:171|107:171|131:160|155:169,2,180.000006866455,0|0|0,3:0|0:0|1:0,0:0:0:0:
415,87,63629,2,0,P|424:48|416:0,1,90.0000034332277
320,64,63879,6,0,P|341:149|421:183,1,180.000006866455,0|0,3:0|0:0,0:0:0:0:
512,320,64254,1,0,0:0:0:0:
512,320,64379,2,0,P|437:274|356:307,1,180.000006866455,0|0,1:0|0:0,0:0:0:0:
204,376,64879,1,0,3:0:0:0:
184,140,65129,2,0,L|156:232,1,90.0000034332277,0|0,3:0|3:0,0:0:0:0:
132,316,65379,1,0,1:0:0:0:
120,36,65629,2,0,L|92:128,1,90.0000034332277,0|0,3:0|0:0,0:0:0:0:
72,204,65879,6,0,P|160:140|224:156,1,180.000006866455,0|0,3:0|0:0,0:0:0:0:
364,320,66379,2,0,B|280:356|192:320|164:240|164:240|168:296|120:344,1,360.000013732911,0|0,1:0|3:0,0:0:0:0:
296,196,67129,2,0,P|356:176|468:228,1,180.000006866455,0|0,3:0|1:0,0:0:0:0:
208,248,67629,2,0,P|196:208|200:160,1,90.0000034332277,0|0,0:0|3:0,0:0:0:0:
439,45,67879,6,0,P|370:100|284:88,1,180.000006866455,0|0,3:0|0:0,0:0:0:0:
113,130,68379,2,0,P|128:215|207:248,1,180.000006866455,0|0,1:0|0:0,0:0:0:0:
296,208,68754,1,0,0:0:0:0:
236,340,68879,5,0,3:0:0:0:
207,248,69004,2,0,P|204:181|240:128,1,90.0000034332277,4|0,0:0|0:0,0:0:0:0:
394,30,69254,1,0,3:0:0:0:
394,120,69379,1,0,1:0:0:0:
308,148,69504,1,0,3:0:0:0:
256,75,69629,1,0,3:0:0:0:
308,2,69754,1,0,0:0:0:0:
380,212,69879,6,0,P|432:260|540:264,2,180,4|2|2,0:0|0:0|0:0,0:0:0:0:
340,128,70879,6,0,P|318:195|227:253,2,180,0|2|2,0:0|0:0|0:0,0:0:0:0:
320,36,71879,6,0,P|387:57|445:148,2,180,0|0|2,0:0|0:0|0:0,0:0:0:0:
228,48,72879,1,0,0:0:0:0:
268,140,73129,1,0,0:0:0:0:
176,180,73379,1,0,0:0:0:0:
136,88,73629,1,0,0:0:0:0:
268,140,73879,6,0,P|315:192|319:300,2,180,4|2|2,0:0|0:0|0:0,0:0:0:0:
172,252,74879,6,0,P|193:319|284:377,2,180,0|2|2,0:0|0:0|0:0,0:0:0:0:
36,180,75879,6,0,P|116:176|192:108,2,180,0|0|2,0:0|0:0|0:0,0:0:0:0:
84,276,76879,6,0,P|64:344|12:272,1,180
24,192,77379,1,0,3:0:0:0:
84,129,77504,1,0,3:0:0:0:
60,45,77629,1,0,3:0:0:0:
0,108,77754,1,0,0:0:0:0:
140,200,77879,6,0,P|216:216|312:76,1,270.000010299683,4|0,0:0|0:0,0:0:0:0:
216,17,78379,2,0,P|204:108|268:180,1,180.000006866455,0|0,1:0|0:0,0:0:0:0:
444,296,78879,2,0,P|472:204|440:120,1,180.000006866455,0|0,3:0|0:0,0:0:0:0:
445,127,79254,1,0,0:0:0:0:
400,212,79379,2,0,B|401:290|452:336|452:336|456:316|444:296,1,180.000006866455,0|0,1:0|0:0,0:0:0:0:
400,212,79754,1,0,3:0:0:0:
248,344,79879,6,0,P|168:368|84:328,1,180.000006866455,4|0,0:0|0:0,0:0:0:0:
236,120,80254,2,0,P|296:177|304:270,1,180.000006866455,4|0,0:0|0:0,0:0:0:0:
49,243,80629,2,0,P|68:161|144:108,1,180.000006866455,4|0,1:0|0:0,0:0:0:0:
212,76,81004,1,0,3:0:0:0:
180,7,81129,6,0,P|141:51|144:109,1,120.000004577637,0|0,3:0|0:0,0:0:0:0:
251,106,81379,1,0,3:0:0:0:
259,77,81462,1,0,3:0:0:0:
236,59,81545,1,0,3:0:0:0:
212,76,81628,1,0,3:0:0:0:
219,104,81712,1,0,3:0:0:0:
240,124,81795,1,0,3:0:0:0:
268,136,81879,6,0,P|312:204|276:288,1,180.000006866455,4|0,0:0|3:0,0:0:0:0:
192,324,82254,1,0,0:0:0:0:
124,264,82379,1,0,1:0:0:0:
209,232,82504,2,0,P|249:252|275:288,1,90.0000034332277
268,376,82754,1,0,0:0:0:0:
288,168,82879,1,0,3:0:0:0:
288,168,83129,2,0,P|336:108|264:68,1,180.000006866455,0|0,0:0|1:0,0:0:0:0:
209,160,83504,1,0,0:0:0:0:
364,64,83629,2,0,P|450:77|494:151,1,90.0000034332277
265,67,83879,6,0,L|88:40,1,180.000006866455,4|0,0:0|0:0,0:0:0:0:
288,216,84254,2,0,L|148:103,1,180.000006866455,0|0,3:0|0:0,0:0:0:0:
124,327,84629,2,0,P|186:263|196:176,1,180.000006866455,0|0,3:0|1:0,0:0:0:0:
196,176,85129,1,0,3:0:0:0:
142,258,85254,1,0,3:0:0:0:
114,122,85379,1,0,1:0:0:0:
60,204,85504,1,0,3:0:0:0:
251,195,85629,1,0,3:0:0:0:
148,288,85754,1,0,0:0:0:0:
140,132,85879,5,0,3:0:0:0:
272,174,86004,1,2,0:0:0:0:
375,81,86129,1,0,0:0:0:0:
242,38,86254,1,2,0:0:0:0:
266,149,86379,1,2,0:0:0:0:
349,73,86504,1,2,0:0:0:0:
356,52,86754,5,2,0:0:0:0:
354,95,87129,5,0,3:0:0:0:
362,118,87379,1,0,1:0:0:0:
379,135,87629,1,0,3:0:0:0:
406,148,87754,6,0,P|316:186|326:322,1,240,4|0,0:0|0:0,0:0:0:0:
471,329,88129,2,0,P|445:275|394:248,1,120,0|0,1:0|0:0,0:0:0:0:
112,304,88379,2,0,P|216:345|294:262,1,240,0|0,3:1|0:0,0:0:0:0:
276,56,88754,6,0,P|359:33|313:131,1,240,4|0,0:0|0:0,0:0:0:0:
179,21,89129,2,0,P|123:0|67:17,1,120,0|0,1:0|0:0,0:0:0:0:
105,182,89379,2,0,P|163:171|203:128,1,120,0|0,3:0|0:0,0:0:0:0:
11,153,89629,1,0,3:0:0:0:
121,93,89754,6,0,P|146:188|31:305,1,240,4|0,0:0|0:0,0:0:0:0:
256,36,90129,2,0,P|306:4|364:9,1,120,0|0,1:0|0:0,0:0:0:0:
308,200,90379,2,0,P|256:172|230:118,1,120,0|0,3:0|0:0,0:0:0:0:
422,73,90629,2,0,P|423:131|390:180,1,120,0|0,1:0|0:0,0:0:0:0:
237,358,90879,6,0,P|307:289|466:330,1,240,4|0,1:0|0:0,0:0:0:0:
312,140,91254,2,0,B|284:75|229:52|229:52|212:105|236:166,1,240,4|0,0:0|0:0,0:0:0:0:
511,212,91629,2,0,P|464:176|406:167,1,120,0|0,1:0|0:0,0:0:0:0:
80,264,91879,5,4,0:0:0:0:
80,264,92129,2,0,P|126:212|133:161,1,120,0|0,1:0|0:0,0:0:0:0:
56,20,92379,2,0,P|108:65|159:73,1,120,0|0,3:0|0:0,0:0:0:0:
330,195,92629,2,0,P|278:149|227:142,1,120,0|0,1:0|0:0,0:0:0:0:
185,352,92879,6,0,B|274:366|319:291|319:291|389:278|434:339,1,240,0|0,0:0|1:0,0:0:0:0:
508,329,93254,2,0,P|449:332|398:304,1,120
374,72,93504,1,0,3:0:0:0:
433,169,93629,2,0,P|375:186|318:171,1,120,0|0,1:0|0:0,0:0:0:0:
151,52,93879,6,0,B|135:24|101:22|101:22|88:63|110:140|166:180,1,240,4|0,0:0|1:0,0:0:0:0:
391,187,94254,2,0,P|344:86|233:100,1,240
140,272,94629,1,2,0:0:0:0:
300,168,94754,1,4,1:0:0:0:
173,375,95004,6,0,P|62:346|41:234,1,240,4|0,0:0|3:0,0:0:0:0:
154,195,95379,1,0,1:0:0:0:
84,97,95504,1,0,3:0:0:0:
269,157,95629,2,0,P|304:184|332:252,1,120,0|0,3:0|3:0,0:0:0:0:
269,37,95879,1,4,0:0:0:0:
273,40,96129,6,0,P|329:58|386:43,1,120,0|0,1:0|0:0,0:0:0:0:
255,151,96379,2,0,P|236:207|251:264,1,120,0|0,3:0|0:0,0:0:0:0:
144,132,96629,2,0,P|87:113|30:128,1,120,0|0,1:0|0:0,0:0:0:0:
19,312,96879,6,0,P|115:324|187:217,1,240,0|0,0:0|1:0,0:0:0:0:
356,291,97254,2,0,P|278:349|163:292,1,240,0|0,3:0|0:0,0:0:0:0:
173,35,97629,2,0,P|214:77|226:135,1,120,0|0,1:0|0:0,0:0:0:0:
141,207,97879,6,0,P|195:106|308:111,1,240,0|0,3:0|1:0,0:0:0:0:
442,53,98254,2,0,P|330:78|304:189,1,240,0|0,3:0|0:0,0:0:0:0:
184,30,98629,1,0,1:0:0:0:
303,187,98754,1,0,3:0:0:0:
184,30,98879,6,0,P|70:26|16:127,1,240,0|0,0:0|1:0,0:0:0:0:
152,221,99254,2,0,P|227:135|184:30,1,240,0|0,3:0|0:0,0:0:0:0:
89,296,99629,2,0,P|145:314|202:299,1,120,0|0,1:0|0:0,0:0:0:0:
450,141,99879,5,4,0:0:0:0:
450,141,100129,2,0,P|431:197|446:254,1,120,0|0,1:0|0:0,0:0:0:0:
461,39,100379,2,0,P|403:50|360:92,1,120,0|0,3:0|0:0,0:0:0:0:
262,359,100629,1,0,1:0:0:0:
262,359,100879,6,0,P|265:300|237:248,1,120
65,129,101129,2,0,P|79:186|62:243,1,120,0|0,1:0|0:0,0:0:0:0:
51,345,101379,2,0,P|108:333|151:291,1,120,0|0,3:0|3:0,0:0:0:0:
199,49,101629,2,0,P|180:105|195:162,1,120,0|0,1:0|0:0,0:0:0:0:
413,297,101879,5,4,1:0:0:0:
276,108,102004,1,0,3:0:0:0:
497,180,102129,1,0,1:0:0:0:
276,252,102254,1,0,1:0:0:0:
413,64,102379,1,0,3:0:0:0:
376,179,102504,5,4,0:0:0:0:
376,179,102754,6,2,P|298:53|272:183,1,360.000013732911,4|0,1:0|0:0,0:0:0:0:
326,250,103129,1,4,3:1:0:0:
322,125,103254,1,0,3:0:0:0:
156,364,103379,1,0,1:0:0:0:
99,371,103441,1,0,3:0:0:0:
52,335,103504,1,0,3:0:0:0:
45,278,103566,1,0,3:0:0:0:
81,232,103629,1,0,3:0:0:0:
140,225,103691,1,0,3:0:0:0:
183,259,103754,6,0,P|156:363|52:335,1,240,4|0,0:0|0:0,0:0:0:0:
160,140,104129,2,0,P|218:141|269:172,1,120,0|0,1:0|0:0,0:0:0:0:
348,368,104379,2,0,P|307:325|293:267,1,120
292,68,104629,1,0,1:0:0:0:
408,272,104754,6,0,P|502:247|428:183,1,240,4|0,0:0|0:0,0:0:0:0:
200,356,105129,2,0,P|143:373|85:359,1,120,0|0,1:0|0:0,0:0:0:0:
80,172,105379,2,0,P|136:154|194:168,1,120,0|0,3:0|0:0,0:0:0:0:
140,264,105629,1,0,1:0:0:0:
316,132,105754,6,0,B|358:81|361:26|361:26|301:29|254:80,1,240,4|0,0:0|0:0,0:0:0:0:
228,280,106129,2,0,P|268:236|325:220,1,120,0|0,1:0|0:0,0:0:0:0:
104,88,106379,2,0,P|122:144|107:202,1,120,0|0,3:0|3:0,0:0:0:0:
332,76,106629,2,0,P|273:63|231:21,1,120,0|0,1:0|0:0,0:0:0:0:
421,16,106879,6,0,P|424:130|324:184,1,240,4|0,0:1|0:0,2:0:0:0:
116,80,107254,2,0,P|15:133|19:248,1,240,4|0,0:0|0:0,0:0:0:0:
208,241,107629,2,0,P|165:200|108:188,1,120,0|0,1:0|0:0,0:0:0:0:
308,316,107879,1,4,0:0:0:0:
307,315,108129,6,0,P|320:257|361:214,1,120,0|0,1:0|0:0,0:0:0:0:
280,148,108379,2,0,P|329:115|389:115,1,120,0|0,3:0|0:0,0:0:0:0:
378,10,108629,2,0,P|435:22|478:63,1,120,0|0,1:0|0:0,0:0:0:0:
285,255,108879,6,0,P|184:201|188:86,1,240,0|0,0:0|1:0,0:0:0:0:
355,74,109254,2,0,P|376:185|287:255,1,240,0|0,3:0|0:0,0:0:0:0:
244,47,109629,2,0,P|303:45|355:74,1,120,0|0,1:0|0:0,0:0:0:0:
479,274,109879,6,0,P|377:324|286:255,1,240,0|0,3:0|1:0,0:0:0:0:
340,164,110254,2,0,P|390:266|321:356,1,240
192,88,110629,1,2,0:0:0:0:
271,248,110754,1,4,0:1:0:0:
271,248,111004,6,0,P|384:262|448:168,1,240,4|0,0:0|3:0,0:0:0:0:
296,368,111379,1,0,1:0:0:0:
340,164,111504,1,0,0:0:0:0:
495,305,111629,1,0,3:0:0:0:
88,185,111754,1,0,3:0:0:0:
88,185,111879,6,0,P|193:154|265:50,1,240,4|0,0:0|1:0,0:0:0:0:
132,371,112254,6,0,P|189:277|308:234,1,240,4|0,0:1|0:0,0:0:0:0:
0,160,112629,6,0,P|106:185|220:131,1,240,4|0,0:0|0:0,0:0:0:0:
216,332,113004,1,0,3:0:0:0:
216,332,113129,6,0,P|166:364|108:359,1,120,0|0,1:0|3:0,0:0:0:0:
165,170,113379,2,0,P|217:198|243:252,1,120,0|0,3:0|3:0,0:0:0:0:
50,295,113629,2,0,P|49:237|82:188,1,120,0|0,1:0|0:0,0:0:0:0:
424,185,113879,6,0,P|319:154|247:50,1,240,4|0,0:0|1:0,0:0:0:0:
379,370,114254,6,0,P|322:276|203:233,1,240,4|0,1:1|0:0,0:0:0:0:
512,160,114629,6,0,P|406:185|292:131,1,240,4|0,0:0|0:0,0:0:0:0:
291,130,115129,6,0,P|213:98|316:252,1,540.000020599366,4|0,1:0|3:0,0:0:0:0:
300,3,115629,1,0,1:0:0:0:
214,209,115754,1,0,1:0:0:0:
436,180,115879,1,0,0:0:0:0:
436,180,116254,6,0,P|322:193|258:99,1,240,4|0,0:0|0:0,0:0:0:0:
280,380,116629,2,0,P|354:293|312:188,1,240,4|0,0:1|0:0,0:0:0:0:
135,273,117004,2,0,P|191:293|248:276,1,120,0|0,1:0|0:0,0:0:0:0:
248,96,117254,1,0,0:0:0:0:
196,192,117379,5,0,1:0:0:0:
196,192,117504,1,0,3:0:0:0:
196,192,117629,1,0,3:0:0:0:
196,192,117754,1,0,0:0:0:0:
196,192,117879,6,0,P|176:84|80:1,1,240,4|0,0:0|1:0,0:0:0:0:
288,280,118254,6,0,P|335:181|449:126,1,240,4|0,0:2|0:0,0:0:0:0:
164,292,118629,5,0,3:0:0:0:
183,310,119879,6,0,P|214:260|205:202,1,120.000004577637,4|0,0:0|0:0,0:0:0:0:
128,161,120129,1,0,0:0:0:0:
148,188,120212,1,0,0:0:0:0:
176,204,120295,1,0,0:0:0:0:
206,203,120378,1,0,1:0:0:0:
322,123,120545,2,0,P|378:106|435:124,1,120.000004577637
474,320,120795,6,0,P|396:281|380:196,1,180.000006866455,0|0,3:0|0:0,0:0:0:0:
455,41,121129,2,0,P|456:85|435:125,1,90.0000034332277,0|0,3:0|0:0,0:0:0:0:
290,230,121379,1,0,1:0:0:0:
227,120,121504,1,0,3:0:0:0:
178,256,121629,1,0,0:0:0:0:
304,256,121754,1,0,3:0:0:0:
241,146,121879,5,0,0:0:0:0:
236,332,122045,2,0,P|152:348|88:288,1,180.000006866455
64,192,122379,1,0,1:0:0:0:
256,240,122545,2,0,L|166:215,1,60.0000022888185,0|0,0:0|3:0,0:0:0:0:
360,192,122795,2,0,L|271:167,1,60.0000022888185,0|0,0:0|3:0,0:0:0:0:
464,144,123045,2,0,L|375:119,1,60.0000022888185,0|0,0:0|3:0,0:0:0:0:
194,69,123295,1,0,0:0:0:0:
192,36,123379,2,0,P|262:19|229:83,1,180.000006866455,0|0,1:0|0:0,0:0:0:0:
44,176,123879,6,0,B|28:171|0:179|0:179|30:196|73:185,1,120.000004577637,0|0,3:0|0:0,0:0:0:0:
101,177,124129,1,0,0:0:0:0:
124,159,124212,1,0,0:0:0:0:
139,134,124295,1,0,0:0:0:0:
145,105,124379,1,0,1:0:0:0:
35,188,124545,2,0,P|26:247|53:300,1,120.000004577637
229,335,124795,6,0,P|199:255|114:239,1,180.000006866455,0|0,3:0|0:0,0:0:0:0:
80,384,125129,2,0,P|118:361|140:322,1,90.0000034332277,0|0,3:0|0:0,0:0:0:0:
147,140,125379,1,0,1:0:0:0:
319,232,125504,1,0,3:0:0:0:
384,128,125629,1,0,0:0:0:0:
296,252,125754,1,0,3:0:0:0:
264,72,125879,5,0,0:0:0:0:
274,274,126129,2,0,L|156:292,1,120.000004577637
356,285,126379,2,0,P|340:327|304:352,1,90.0000034332277,0|0,1:0|0:0,0:0:0:0:
160,200,126629,1,0,0:0:0:0:
274,274,126754,2,0,P|254:188|307:118,1,180.000006866455,0|0,3:0|0:0,0:0:0:0:
192,336,127129,5,4,0:0:0:0:
352,210,127254,1,0,1:0:0:0:
192,336,127504,6,0,B|150:364|150:364|102:295|164:217,1,180.000006866455,4|0,0:0|0:0,0:0:0:0:
148,113,127879,6,0,P|181:161|166:218,1,120.000004577637,4|0,0:0|0:0,0:0:0:0:
136,238,128129,1,0,0:0:0:0:
107,217,128212,1,0,0:0:0:0:
118,182,128295,1,0,0:0:0:0:
154,182,128379,2,0,P|168:217|120:289,1,120.000004577637
134,287,128795,6,0,P|167:244|303:241,1,180.000006866455,2|0,0:0|0:0,0:0:0:0:
317,324,129129,2,0,P|271:328|230:313,1,90.0000034332277
348,305,129379,1,0,0:0:0:0:
375,327,129504,1,0,0:0:0:0:
363,362,129629,1,0,0:0:0:0:
326,359,129754,1,0,0:0:0:0:
317,324,129879,5,0,0:0:0:0:
440,276,130045,2,0,P|485:238|502:181,1,120
500,152,130379,1,0,0:0:0:0:
376,48,130545,2,0,L|412:80,1,40
284,88,130795,2,0,L|320:120,1,40
392,160,131045,2,0,L|428:192,1,40
500,152,131295,1,0,0:0:0:0:
506,124,131379,2,0,P|489:69|432:58,1,120
359,231,131879,6,0,P|358:173|312:136,1,120.000004577637
278,134,132129,1,0,0:0:0:0:
264,167,132212,1,0,0:0:0:0:
291,192,132295,1,0,0:0:0:0:
323,174,132379,2,0,P|318:136|241:98,1,120.000004577637
158,285,132795,6,0,P|237:248|256:164,1,180.000006866455,2|0,0:0|0:0,0:0:0:0:
179,102,133129,2,0,P|158:141|159:186,1,90.0000034332277
208,80,133379,1,0,0:0:0:0:
196,47,133504,1,0,0:0:0:0:
160,47,133629,1,0,3:0:0:0:
149,82,133754,1,0,0:0:0:0:
179,102,133879,5,0,3:0:0:0:
304,204,134045,2,0,P|359:134|439:151,1,180.000006866455,4|0,0:0|0:0,0:0:0:0:
201,316,134379,1,0,1:0:0:0:
180,184,134504,1,0,3:0:0:0:
306,232,134629,1,0,3:0:0:0:
201,316,134754,1,0,0:0:0:0:
253,143,134879,6,0,P|203:104|147:109,1,90.0000034332277,4|0,1:0|0:0,0:0:0:0:
16,279,135128,1,0,1:0:0:0:
334,223,135254,1,4,0:0:0:0:
