osu file format v14

[General]
AudioFilename: Secret Liqueur.mp3
AudioLeadIn: 0
PreviewTime: 87129
Countdown: 0
SampleSet: Soft
StackLeniency: 0.7
Mode: 0
LetterboxInBreaks: 0
WidescreenStoryboard: 0

[Editor]
Bookmarks: 16629
DistanceSpacing: 1.1
BeatDivisor: 3
GridSize: 16
TimelineZoom: 0.8999989

[Metadata]
Title:Secret Liqueur -Short ver-
TitleUnicode:Secret Liqueur -Short ver-
Artist:Shimotsuki Haruka
ArtistUnicode:霜月はるか
Creator:PinkHeart
Version:Hard
Source:働くオトナの恋愛事情
Tags:imoutosan Eggache0 opening galgame eroge visual novel
BeatmapID:904523
BeatmapSetID:417610

[Difficulty]
HPDrainRate:5
CircleSize:4
OverallDifficulty:6
ApproachRate:8
SliderMultiplier:1.2
SliderTickRate:1

[Events]
//Background and Video events
0,0,"bg.jpg",0,0
//Break Periods
//Storyboard Layer 0 (Background)
//Storyboard Layer 1 (Fail)
//Storyboard Layer 2 (Pass)
//Storyboard Layer 3 (Foreground)
//Storyboard Sound Samples

[TimingPoints]
13879,250,4,2,0,50,1,0
37754,-100,4,2,0,40,0,0
53879,-100,4,2,0,50,0,0
69879,-133.333333333333,4,2,0,50,0,0
77879,-100,4,2,0,50,0,0
87754,-86.2068965517241,4,2,0,50,0,0
87879,-86.2068965517241,4,2,0,50,0,1
101879,-86.2068965517241,4,2,0,50,0,0
103879,-86.2068965517241,4,2,0,50,0,1
111629,-86.2068965517241,4,2,0,50,0,0
111879,-86.2068965517241,4,2,0,50,0,1
115879,-86.2068965517241,4,2,0,50,0,0
116379,-86.2068965517241,4,2,0,50,0,1
118879,-100,4,2,0,50,0,0

[Colours]
Combo1 : 255,128,192
Combo2 : 255,128,255
Combo3 : 128,128,255
Combo4 : 255,128,128

[HitObjects]
100,208,13879,6,0,B|54:200|43:166|43:166|92:154|134:208|202:204|252:177,1,240,4|0,0:0|0:0,0:0:0:0:
481,141,14795,2,0,P|489:65|427:20,1,160,2|0,0:0|0:0,0:0:0:0:
361,133,15379,2,0,L|411:101,1,60
344,48,15629,2,0,L|280:88,1,60
383,242,16045,6,0,P|376:320|318:372,1,160
196,319,16629,2,0,B|116:306|63:342|63:342|87:360|120:359,1,200
286,281,17379,1,0,0:0:0:0:
184,171,17629,1,0,0:0:0:0:
196,319,17879,6,0,B|165:355|128:347|128:347|144:297|213:287|245:224|246:173,1,240,0|0,3:0|0:0,0:0:0:0:
100,19,18795,2,0,P|30:49|22:125,1,160,2|0,0:0|0:0,0:0:0:0:
146,127,19379,2,0,L|95:96,1,60
212,168,19629,2,0,L|262:199,1,60
136,224,19879,5,0,1:0:0:0:
136,224,20004,2,0,P|128:292|204:357,1,120,0|0,3:0|3:0,0:0:0:0:
288,336,20379,2,0,P|308:304|312:260,1,60
224,272,20629,5,0,1:0:0:0:
224,271,20754,2,0,P|156:264|92:339,1,120,0|0,3:0|3:0,0:0:0:0:
62,351,21129,2,0,L|78:259,1,60,2|0,0:0|0:0,0:0:0:0:
48,72,21545,2,0,L|59:191,1,120,0|0,1:0|0:0,0:0:0:0:
100,132,21879,6,0,P|152:84|240:96,1,120,4|0,0:0|0:0,0:0:0:0:
312,148,22379,2,0,P|392:184|504:56,1,240,0|0,1:0|3:0,0:0:0:0:
501,99,23129,1,0,3:0:0:0:
392,280,23379,2,0,L|308:272,1,60,0|0,1:0|0:0,0:0:0:0:
253,217,23629,2,0,L|169:209,1,60
92,176,23879,5,0,3:0:0:0:
92,177,24004,2,0,B|69:225|141:277|98:349,1,180,0|0,0:0|1:0,0:0:0:0:
31,301,24504,2,0,P|94:270|155:291,1,120
220,347,24879,2,0,P|286:364|336:324,2,120,0|0|0,3:0|0:0|1:0,0:0:0:0:
312,132,25629,1,0,0:0:0:0:
270,293,25879,6,0,P|202:277|157:310,1,120,0|0,3:0|0:0,0:0:0:0:
220,346,26379,2,0,B|249:284|226:218|160:238|116:194|157:160|210:161|190:218,1,240,0|0,1:0|0:0,0:0:0:0:
88,224,27129,1,0,3:0:0:0:
279,199,27379,2,0,P|261:149|221:106,1,60,0|0,1:0|0:0,0:0:0:0:
188,84,27629,2,0,P|140:61|81:59,1,60
47,51,27879,5,0,3:0:0:0:
80,224,28129,1,0,0:0:0:0:
80,224,28379,2,0,P|152:264|220:252,1,120,0|0,1:0|0:0,0:0:0:0:
276,216,28754,2,0,P|332:216|376:288,1,120,0|4,0:0|0:0,0:0:0:0:
393,340,29129,2,0,L|417:244,1,60,0|0,1:0|0:0,0:0:0:0:
480,80,29545,2,0,L|446:215,1,120,4|0,0:0|0:0,0:0:0:0:
416,136,29879,6,0,P|356:92|280:104,1,120,4|0,0:0|3:0,0:0:0:0:
196,184,30379,2,0,P|101:190|161:93,1,240,0|0,1:0|3:0,0:0:0:0:
293,96,31129,1,0,0:0:0:0:
286,238,31379,2,0,L|284:308,1,60,0|0,1:0|0:0,0:0:0:0:
360,280,31629,2,0,L|357:349,1,60
436,348,31879,5,0,3:0:0:0:
436,348,32004,2,0,P|488:288|472:208,1,120
448,156,32379,2,0,P|448:87|497:39,2,120,0|0|0,1:0|0:0|3:0,0:0:0:0:
400,264,33129,1,0,3:0:0:0:
252,296,33379,1,0,1:0:0:0:
298,151,33629,1,0,0:0:0:0:
332,312,33879,6,0,P|292:368|200:360,1,120,0|0,3:0|0:0,0:0:0:0:
75,252,34379,2,0,P|15:285|124:328,1,240,0|0,1:0|3:0,0:0:0:0:
188,264,35129,1,0,0:0:0:0:
96,136,35379,2,0,L|50:72,1,60,0|0,1:0|0:0,0:0:0:0:
144,72,35629,2,0,L|156:-5,2,60,0|0|0,0:0|3:0|0:0,0:0:0:0:
183,145,36004,6,0,P|241:135|279:91,1,120,4|0,0:0|0:0,0:0:0:0:
279,91,36379,2,0,L|299:161,1,60,0|0,1:0|0:0,0:0:0:0:
314,221,36629,2,0,L|333:290,2,60,0|0|0,3:0|3:0|0:0,0:0:0:0:
355,53,37129,2,0,L|375:123,1,60,0|4,3:0|0:0,0:0:0:0:
408,328,37712,5,0,0:0:0:0:
408,328,37879,2,0,P|444:260|436:200,1,120,4|0,0:0|0:0,0:0:0:0:
360,100,38379,2,0,P|291:106|231:72,1,120,0|0,1:0|0:0,0:0:0:0:
112,200,38879,2,0,P|148:288|204:176,1,240,0|0,0:0|1:0,0:0:0:0:
88,112,39629,1,0,0:0:0:0:
249,65,39879,6,0,P|309:67|359:99,1,120,0|0,3:0|0:0,0:0:0:0:
400,168,40254,1,0,0:0:0:0:
400,168,40379,2,0,B|387:219|407:259|407:259|423:243|431:219,1,120,0|0,1:0|0:0,0:0:0:0:
276,176,40879,1,0,3:0:0:0:
160,316,41129,1,0,3:0:0:0:
96,145,41379,1,0,1:0:0:0:
357,84,41712,5,0,0:0:0:0:
357,84,41879,2,0,P|340:141|347:201,1,120,0|0,3:0|0:0,0:0:0:0:
482,346,42379,2,0,P|442:302|387:279,1,120,0|0,1:0|0:0,0:0:0:0:
200,288,42879,1,0,3:0:0:0:
120,76,43254,1,2,0:0:0:0:
200,288,43629,1,2,0:0:0:0:
89,370,43879,6,0,P|63:317|67:257,1,120,0|0,3:0|0:0,0:0:0:0:
172,156,44379,2,0,P|247:153|305:196,1,120,0|0,1:0|0:0,0:0:0:0:
328,313,44879,1,0,3:0:0:0:
328,313,45004,2,0,P|370:272|428:259,1,120,0|0,1:0|0:0,0:0:0:0:
508,272,45379,2,0,P|492:308|468:328,2,60
480,124,45879,6,0,P|392:144|348:128,1,120,4|0,0:0|0:0,0:0:0:0:
210,43,46379,2,0,P|151:34|95:54,1,120,0|0,1:0|0:0,0:0:0:0:
71,275,46879,2,0,B|138:272|176:241|186:179|162:142|162:142|148:152|138:176,1,240,0|0,3:0|1:0,0:0:0:0:
256,248,47629,1,0,0:0:0:0:
288,104,47879,6,0,P|336:48|400:32,1,120,0|0,3:0|0:0,0:0:0:0:
492,204,48379,2,0,P|435:187|394:144,1,120,0|0,1:0|0:0,0:0:0:0:
364,272,48879,2,0,P|316:327|251:343,2,120,0|0|0,0:0|3:0|1:0,0:0:0:0:
394,144,49629,2,0,P|383:110|359:85,1,60
320,152,49879,6,0,P|248:180|116:56,1,240,0|0,3:0|1:0,0:0:0:0:
122,96,50629,1,0,0:0:0:0:
72,204,50879,1,0,0:0:0:0:
240,56,51129,2,0,B|276:31|276:31|376:16,2,120,0|0|0,3:0|1:0|0:0,0:0:0:0:
72,204,51879,5,0,3:0:0:0:
308,116,52254,1,2,0:0:0:0:
267,365,52629,1,2,0:0:0:0:
228,239,52879,1,0,3:0:0:0:
228,239,53004,2,0,P|284:258|343:252,1,120,4|0,0:0|0:0,0:0:0:0:
412,220,53379,2,0,L|420:304,2,60,0|0|0,1:0|3:0|3:0,0:0:0:0:
396,76,53879,6,0,P|436:20|512:0,1,120,4|0,0:0|0:0,0:0:0:0:
416,188,54379,2,0,P|347:181|292:125,1,120,0|0,1:0|0:0,0:0:0:0:
248,4,54879,1,0,3:0:0:0:
236,212,55254,1,2,0:0:0:0:
40,288,55629,1,2,0:0:0:0:
0,132,55879,6,0,P|4:73|43:28,1,120,0|0,3:0|0:0,0:0:0:0:
122,51,56254,2,0,P|114:139|52:201,1,180,2|0,0:0|3:0,0:0:0:0:
216,116,56879,2,0,P|296:116|344:148,2,120,0|0|0,3:0|0:0|1:0,0:0:0:0:
252,244,57629,1,0,0:0:0:0:
333,350,57879,6,0,P|280:376|221:373,1,120,2|0,0:0|0:0,0:0:0:0:
139,266,58379,2,0,P|192:240|251:243,1,120,0|0,1:0|0:0,0:0:0:0:
440,332,58879,2,0,B|468:344|484:368|484:368|508:332|504:272|460:228,2,180,0|2|2,3:0|0:0|0:0,0:0:0:0:
328,248,59879,5,0,3:0:0:0:
512,152,60254,1,2,0:0:0:0:
337,41,60629,1,0,3:0:0:0:
373,156,60879,1,0,3:0:0:0:
373,156,61004,2,0,P|314:158|263:128,1,120,4|0,0:0|0:0,0:0:0:0:
216,76,61379,2,0,L|168:20,1,60,0|0,1:0|3:0,0:0:0:0:
116,68,61629,2,0,L|42:62,1,60,0|0,3:0|0:0,0:0:0:0:
60,136,61879,6,0,P|40:212|60:268,1,120,4|0,0:0|0:0,0:0:0:0:
216,328,62379,1,0,1:0:0:0:
156,200,62629,1,0,0:0:0:0:
316,132,62879,2,0,P|320:200|290:262,2,120,0|0|0,3:0|0:0|1:0,0:0:0:0:
280,0,63629,1,0,0:0:0:0:
148,80,63879,6,0,P|166:137|211:175,1,120,0|0,3:0|0:0,0:0:0:0:
348,208,64379,2,0,P|406:199|452:161,1,120,0|0,1:0|0:0,0:0:0:0:
404,16,64879,1,0,3:0:0:0:
292,144,65129,1,0,3:0:0:0:
180,272,65379,1,0,1:0:0:0:
141,145,65629,2,0,L|122:88,1,60
145,15,65879,6,0,P|78:27|48:88,1,120,2|0,0:0|0:0,0:0:0:0:
69,216,66379,2,0,P|137:248|229:104,1,240,0|0,1:0|3:0,0:0:0:0:
308,0,67129,1,0,0:0:0:0:
486,85,67379,1,0,1:0:0:0:
324,196,67629,1,0,0:0:0:0:
372,92,67879,5,2,0:0:0:0:
512,276,68254,1,2,0:0:0:0:
281,304,68629,1,0,0:0:0:0:
388,224,68879,1,0,3:0:0:0:
388,224,69004,2,0,P|411:279|400:360,1,120,4|0,0:0|0:0,0:0:0:0:
408,338,69379,1,0,1:0:0:0:
408,338,69504,2,0,L|476:318,1,60,0|0,0:0|3:0,0:0:0:0:
248,352,69879,6,0,P|168:376|100:348,1,135.000005149841,4|2,0:0|0:0,0:0:0:0:
224,148,70629,1,0,0:0:0:0:
100,154,70879,2,0,P|123:217|175:259,1,135.000005149841,2|2,0:0|0:0,0:0:0:0:
272,36,71629,1,0,0:0:0:0:
344,112,71879,6,0,P|368:192|340:260,1,135.000005149841
68,192,72629,1,2,0:0:0:0:
171,143,72879,2,0,P|216:145|255:167,1,90.0000034332276
208,324,73379,2,0,P|189:283|188:239,1,90.0000034332276,2|0,0:0|0:0,0:0:0:0:
288,264,73879,6,0,P|364:288|436:268,1,135.000005149841,4|2,0:0|0:0,0:0:0:0:
320,48,74629,1,0,0:0:0:0:
363,164,74879,2,0,P|421:112|441:36,2,135.000005149841,0|2|2,0:0|0:0|0:0,0:0:0:0:
232,200,75879,5,0,3:0:0:0:
88,56,76212,1,0,3:0:0:0:
36,252,76629,1,0,0:0:0:0:
28,145,76879,5,2,0:0:0:0:
142,260,77254,1,0,0:0:0:0:
156,213,77379,2,0,L|168:169,1,45.0000017166138,0|0,1:0|3:0,0:0:0:0:
177,133,77629,2,0,L|190:90,1,45.0000017166138
309,57,77879,6,0,P|392:88|439:162,1,180,4|0,0:0|0:0,0:0:0:0:
476,240,78379,2,0,P|419:246|359:192,1,120,0|0,1:0|0:0,0:0:0:0:
476,56,78879,1,0,3:0:0:0:
340,116,79129,1,0,0:0:0:0:
215,51,79379,2,0,P|148:70|125:161,1,120,0|0,1:0|0:0,0:0:0:0:
175,288,79879,6,0,P|225:216|202:132,2,180,4|0|4,0:0|0:0|0:0,0:0:0:0:
360,344,81129,2,0,P|346:217|467:255,1,300
395,275,81879,6,0,B|402:184|402:184|436:160,1,120,4|0,0:0|0:0,0:0:0:0:
428,48,82379,2,0,B|352:96|352:96|273:65|273:65|215:95,1,240,0|0,1:0|0:0,0:0:0:0:
197,235,83129,2,0,P|248:204|276:151,2,120,0|0|0,3:0|1:0|0:0,0:0:0:0:
92,236,83879,5,4,0:0:0:0:
284,288,84254,1,0,3:0:0:0:
168,128,84629,1,0,0:0:0:0:
196,247,84879,2,0,P|264:193|348:216,1,180,2|0,0:0|0:0,0:0:0:0:
396,272,85379,2,0,P|456:308|520:288,1,120,0|0,1:0|0:0,0:0:0:0:
512,86,85879,5,4,0:0:0:0:
488,52,86004,1,0,0:0:0:0:
448,65,86129,1,0,0:0:0:0:
448,107,86254,1,0,0:0:0:0:
488,120,86379,2,0,P|509:142|519:171,1,60,2|0,0:0|0:0,0:0:0:0:
345,85,86754,2,0,P|269:129|253:215,1,180,2|0,0:0|0:0,0:0:0:0:
316,294,87379,6,0,P|349:245|350:186,1,120,0|0,3:0|0:0,0:0:0:0:
311,127,87754,6,0,P|326:32|423:28,1,208.80000637207,4|0,0:0|1:0,0:0:0:0:
440,212,88379,1,0,3:0:0:0:
380,92,88629,1,0,1:0:0:0:
379,91,88754,6,0,P|290:55|237:136,1,208.80000637207,4|0,0:0|1:0,0:0:0:0:
284,268,89379,1,0,3:0:0:0:
316,132,89629,1,0,1:0:0:0:
316,132,89754,6,0,P|264:64|164:108,1,208.80000637207,4|0,0:0|1:0,0:0:0:0:
83,347,90379,2,0,P|148:323|181:263,1,139.200004248047,0|0,0:0|1:0,0:0:0:0:
0,152,90879,2,0,P|24:216|84:249,1,139.200004248047,4|0,1:0|0:0,0:0:0:0:
144,192,91254,2,0,P|240:208|248:312,1,208.80000637207,4|0,0:0|1:0,0:0:0:0:
396,224,91879,5,4,0:0:0:0:
316,116,92129,2,0,P|304:64|356:0,2,139.200004248047,0|0|0,1:0|0:0|1:0,0:0:0:0:
486,145,92879,2,0,P|444:90|379:72,1,139.200004248047,0|0,0:0|1:0,0:0:0:0:
316,116,93254,2,0,P|249:131|185:105,1,139.200004248047
140,44,93629,1,0,1:0:0:0:
88,172,93879,6,0,P|84:256|172:360,2,208.80000637207,2|2|0,0:0|0:0|0:0,0:0:0:0:
32,112,94754,2,0,P|68:92|156:128,1,139.200004248047,0|4,3:0|0:0,0:0:0:0:
284,232,95254,1,0,0:0:0:0:
284,232,95379,2,0,L|336:185,1,69.6000021240235,0|0,1:0|3:0,0:0:0:0:
256,148,95629,2,0,L|308:101,2,69.6000021240235,0|0|4,0:0|0:0|0:0,0:0:0:0:
108,272,96129,5,0,1:0:0:0:
256,344,96379,1,0,0:0:0:0:
404,272,96629,1,0,1:0:0:0:
256,200,96879,2,0,L|108:128,1,139.200004248047,0|0,3:0|1:0,0:0:0:0:
216,128,97254,2,0,P|277:98|304:35,1,139.200004248047
303,35,97629,1,0,1:0:0:0:
431,160,97879,6,0,P|369:189|343:251,1,139.200004248047,0|0,3:0|1:0,0:0:0:0:
352,347,98254,2,0,P|413:317|440:254,1,139.200004248047
400,184,98629,2,0,L|328:172,1,69.6000021240235,0|0,1:0|0:0,0:0:0:0:
262,223,98879,2,0,P|199:248|134:226,1,139.200004248047,0|0,0:0|1:0,0:0:0:0:
69,150,99254,2,0,P|132:125|197:147,1,139.200004248047
197,147,99629,1,0,1:0:0:0:
256,20,99879,5,2,0:0:0:0:
316,152,100129,2,0,P|360:192|440:204,2,139.200004248047,0|0|0,1:0|0:0|1:0,0:0:0:0:
256,20,100879,1,0,0:0:0:0:
196,152,101129,2,0,P|152:192|72:204,2,139.200004248047,0|0|0,1:0|0:0|1:0,0:0:0:0:
168,384,101879,5,4,0:0:0:0:
328,212,102129,1,2,0:0:0:0:
328,212,102254,1,0,3:0:0:0:
97,257,102504,1,4,0:1:0:0:
321,367,102754,6,0,P|352:271|291:191,1,208.80000637207,4|0,0:0|0:0,0:0:0:0:
240,285,103379,2,0,P|193:235|188:167,1,139.200004248047,0|0,1:0|3:0,0:0:0:0:
229,107,103754,6,0,P|214:12|117:8,1,208.80000637207,4|0,0:0|1:0,0:0:0:0:
100,192,104379,1,0,3:0:0:0:
168,71,104629,1,0,1:0:0:0:
169,70,104754,6,0,P|258:34|311:115,1,208.80000637207,0|0,1:0|1:0,0:0:0:0:
256,248,105379,1,0,3:0:0:0:
238,112,105629,1,0,1:0:0:0:
238,112,105754,6,0,P|290:44|390:88,1,208.80000637207,4|0,0:0|1:0,0:0:0:0:
419,320,106379,2,0,P|355:296|322:236,1,139.200004248047,0|0,3:0|1:0,0:0:0:0:
502,125,106879,6,0,P|478:189|418:222,1,139.200004248047,4|0,1:0|1:0,0:0:0:0:
359,165,107254,2,0,P|262:181|251:278,1,208.80000637207,4|0,0:0|1:0,0:0:0:0:
108,168,107879,5,4,0:0:0:0:
95,293,108129,2,0,P|63:353|0:380,2,139.200004248047,0|0|0,1:0|0:0|1:0,0:0:0:0:
108,168,108879,2,0,P|160:128|172:228,2,208.80000637207,2|2|0,0:0|0:0|1:0,0:0:0:0:
256,300,109879,6,0,P|324:313|387:288,1,139.200004248047,0|0,3:0|1:0,0:0:0:0:
472,284,110254,2,0,P|446:219|460:152,1,139.200004248047
512,96,110629,2,0,L|500:28,1,69.6000021240235,2|4,0:0|0:1,0:0:0:0:
312,192,111004,2,0,P|240:128|172:136,1,139.200004248047,4|0,0:0|0:0,0:0:0:0:
132,148,111379,2,0,L|64:168,1,69.6000021240235,0|0,1:0|3:0,0:0:0:0:
104,232,111629,2,0,L|70:294,1,69.6000021240235,0|0,3:0|0:0,0:0:0:0:
156,292,111879,5,4,0:0:0:0:
256,108,112254,1,4,1:0:0:0:
356,292,112629,1,4,0:0:0:0:
128,116,113129,1,0,3:0:0:0:
192,224,113379,1,0,3:0:0:0:
256,332,113629,1,0,0:0:0:0:
320,224,113879,5,4,0:0:0:0:
320,224,114004,1,0,0:0:0:0:
256,116,114254,1,4,1:0:0:0:
256,116,114379,2,0,L|256:40,2,69.6000021240235
192,224,114879,1,0,3:0:0:0:
258,330,115129,6,0,B|312:296|316:236|316:236|336:292|384:308|428:300|452:272,1,278.400008496094,4|0,0:0|3:0,0:0:0:0:
396,216,115754,1,0,3:0:0:0:
396,216,115879,6,0,B|412:128|476:92|476:92|480:124|456:143,1,208.80000637207,0|4,0:0|1:0,0:0:0:0:
256,192,116629,1,4,0:0:0:0:
347,337,117254,6,0,P|254:378|163:336,1,208.80000637207,0|0,3:0|0:0,0:0:0:0:
116,216,117879,2,0,B|100:128|36:92|36:92|32:124|55:143,1,208.80000637207,4|0,0:0|3:0,0:0:0:0:
256,192,118629,1,0,1:0:0:0:
412,132,119879,6,0,P|360:84|272:96,1,120,4|0,0:0|0:0,0:0:0:0:
200,148,120379,2,0,P|120:184|8:56,1,240,0|0,1:0|3:0,0:0:0:0:
11,99,121129,1,0,3:0:0:0:
120,280,121379,2,0,L|204:272,1,60,0|0,1:0|0:0,0:0:0:0:
259,217,121629,2,0,L|343:209,1,60
420,179,121879,5,0,3:0:0:0:
420,179,122004,2,0,B|445:211|365:269|413:349,1,180,0|0,0:0|1:0,0:0:0:0:
480,301,122504,2,0,P|417:270|357:291,1,120
292,347,122879,2,0,P|226:364|176:324,2,120,0|0|0,3:0|0:0|1:0,0:0:0:0:
200,132,123629,1,0,0:0:0:0:
242,293,123879,6,0,P|310:277|355:310,1,120,0|0,3:0|0:0,0:0:0:0:
291,346,124379,2,0,B|262:284|285:218|351:238|395:194|354:160|301:161|321:218,1,240,0|0,1:0|0:0,0:0:0:0:
424,224,125129,1,0,3:0:0:0:
233,199,125379,2,0,P|251:149|291:106,1,60,0|0,1:0|0:0,0:0:0:0:
324,84,125629,2,0,P|372:61|431:59,1,60
465,51,125879,5,0,3:0:0:0:
432,224,126129,1,0,0:0:0:0:
432,224,126379,2,0,P|360:264|292:252,1,120,0|0,1:0|0:0,0:0:0:0:
236,216,126754,2,0,P|180:216|136:288,1,120,0|4,0:0|0:0,0:0:0:0:
119,340,127129,2,0,L|95:244,1,60,0|0,1:0|0:0,0:0:0:0:
104,27,127545,2,0,L|138:162,1,120,4|0,0:0|0:0,0:0:0:0:
142,175,127879,6,0,B|157:139|187:137|187:137|186:179|134:201|122:258|133:303,1,240,4|0,0:0|0:0,0:0:0:0:
420,363,128795,2,0,P|490:315|472:232,1,160,2|0,0:0|0:0,0:0:0:0:
367,254,129379,2,0,L|419:286,1,60
410,190,129629,2,0,L|350:152,1,60
132,230,130004,6,0,P|133:317|199:375,1,180
319,301,130629,2,0,B|399:288|452:324|452:324|428:342|395:341,1,200
200,375,131379,2,0,P|220:312|192:244,1,120
316,64,131879,6,0,B|340:35|370:42|370:42|357:82|301:90|276:140|274:187,1,240,0|0,3:0|0:0,0:0:0:0:
398,362,132754,2,0,P|479:336|486:252,1,180,2|0,0:0|0:0,0:0:0:0:
369,256,133379,2,0,L|420:288,1,60
305,216,133629,2,0,L|241:176,1,60
379,183,133879,5,0,3:0:0:0:
379,183,134004,2,0,P|387:107|303:35,1,120,0|0,1:0|3:0,0:0:0:0:
246,60,134379,2,0,P|225:81|213:108,1,60,4|0,0:0|3:0,0:0:0:0:
267,182,134629,2,0,P|287:159|298:132,2,60,0|0|4,3:0|3:0|1:0,3:0:0:0:
72,204,135129,2,0,L|152:244,1,60,0|4,3:0|0:0,0:0:0:0:
