osu file format v14

[General]
AudioFilename: Secret Liqueur.mp3
AudioLeadIn: 0
PreviewTime: 87129
Countdown: 0
SampleSet: Soft
StackLeniency: 0.7
Mode: 0
LetterboxInBreaks: 0
WidescreenStoryboard: 0

[Editor]
DistanceSpacing: 1.1
BeatDivisor: 4
GridSize: 8
TimelineZoom: 1.199999

[Metadata]
Title:Secret Liqueur -Short ver-
TitleUnicode:Secret Liqueur -Short ver-
Artist:Shimotsuki Haruka
ArtistUnicode:霜月はるか
Creator:PinkHeart
Version:Extra
Source:働くオトナの恋愛事情
Tags:imoutosan Eggache0 opening galgame eroge visual novel
BeatmapID:905661
BeatmapSetID:417610

[Difficulty]
HPDrainRate:7.2
CircleSize:4
OverallDifficulty:7.2
ApproachRate:9.3
SliderMultiplier:1.6
SliderTickRate:1

[Events]
//Background and Video events
0,0,"bg.jpg",0,0
//Break Periods
//Storyboard Layer 0 (Background)
//Storyboard Layer 1 (Fail)
//Storyboard Layer 2 (Pass)
//Storyboard Layer 3 (Foreground)
//Storyboard Sound Samples

[TimingPoints]
13879,250,4,2,0,50,1,0
37754,-100,4,2,0,40,0,0
53879,-100,4,2,0,50,0,0
69879,-133.333333333333,4,2,0,50,0,0
77879,-100,4,2,0,50,0,0
87879,-100,4,2,0,50,0,1
101879,-100,4,2,0,50,0,0
103879,-100,4,2,0,50,0,1
111629,-100,4,2,0,50,0,0
111879,-100,4,2,0,50,0,1
115879,-100,4,2,0,50,0,0
116379,-100,4,2,0,50,0,1
118879,-100,4,2,0,50,0,0
120045,-100,4,2,0,20,0,0
120129,-100,4,2,0,50,0,0
124045,-100,4,2,0,20,0,0
124129,-100,4,2,0,50,0,0
128045,-100,4,2,0,20,0,0
128128,-100,4,2,0,50,0,0

[Colours]
Combo1 : 255,128,192
Combo2 : 255,128,255
Combo3 : 128,128,255
Combo4 : 255,128,128

[HitObjects]
124,100,13879,5,4,0:0:0:0:
168,220,14129,1,0,0:0:0:0:
172,248,14212,1,0,0:0:0:0:
168,272,14295,1,0,0:0:0:0:
160,296,14379,2,0,P|144:320|76:356,1,106.666666666667,2|0,0:0|0:0,0:0:0:0:
260,232,14795,6,0,P|296:316|404:360,1,213.333333333333
468,127,15379,1,2,0:0:0:0:
396,150,15504,1,0,0:0:0:0:
396,224,15629,1,0,0:0:0:0:
468,248,15754,1,0,0:0:0:0:
511,187,15879,5,0,0:0:0:0:
412,40,16045,2,0,P|340:80|240:56,1,160
264,20,16379,2,0,P|262:83|208:140,1,106.666666666667,2|0,0:0|0:0,0:0:0:0:
196,96,16629,2,0,P|250:128|272:203,1,106.666666666667
227,192,16879,2,0,P|282:161|358:179,1,106.666666666667
327,213,17129,2,0,P|328:149|382:92,1,106.666666666667
395,138,17379,2,0,P|327:90|305:-9,1,160
160,72,17879,5,0,3:0:0:0:
204,192,18129,1,0,0:0:0:0:
208,220,18212,1,0,0:0:0:0:
204,244,18295,1,0,0:0:0:0:
196,268,18379,2,0,P|180:292|112:328,1,106.666666666667,2|0,0:0|0:0,0:0:0:0:
276,156,18795,6,0,P|312:72|424:40,1,213.333333333333
468,256,19379,1,2,0:0:0:0:
396,233,19504,1,0,0:0:0:0:
396,159,19629,1,0,0:0:0:0:
468,135,19754,1,0,3:0:0:0:
511,196,19879,5,0,0:0:0:0:
490,340,20129,2,0,L|330:308,1,160,2|2,0:0|0:0,0:0:0:0:
241,366,20504,1,0,0:0:0:0:
81,343,20629,1,0,3:0:0:0:
159,383,20754,6,0,L|319:351,1,160,2|0,0:0|3:0,0:0:0:0:
331,197,21129,1,0,3:0:0:0:
315,351,21254,1,0,0:0:0:0:
268,269,21379,1,0,1:0:0:0:
410,331,21504,1,0,3:0:0:0:
331,197,21629,1,0,3:0:0:0:
417,235,21754,1,0,0:0:0:0:
408,136,21879,6,0,B|404:60|468:32|468:32|472:48|468:64,1,160,4|0,0:0|0:0,0:0:0:0:
452,80,22212,1,0,0:0:0:0:
428,88,22295,1,0,0:0:0:0:
404,88,22379,2,0,P|320:84|272:124,1,106.666666666667,0|0,1:0|0:0,0:0:0:0:
133,192,22795,6,0,P|159:119|128:48,1,160,2|0,0:0|0:0,0:0:0:0:
104,36,23129,1,2,0:0:0:0:
56,297,23379,1,0,1:0:0:0:
133,272,23504,1,0,0:0:0:0:
133,192,23629,1,0,0:0:0:0:
56,167,23754,1,0,0:0:0:0:
9,232,23879,5,0,0:0:0:0:
200,228,24045,2,0,P|272:188|372:212,1,160
348,248,24379,2,0,P|350:185|404:128,1,106.666666666667,0|0,1:0|0:0,0:0:0:0:
416,172,24629,2,0,P|362:140|340:65,1,106.666666666667
385,76,24879,2,0,P|330:107|254:89,1,106.666666666667,0|0,3:0|0:0,0:0:0:0:
285,55,25129,2,0,P|284:119|230:176,1,106.666666666667
217,130,25379,2,0,P|285:178|307:277,1,160,0|0,1:0|0:0,0:0:0:0:
444,108,25879,5,2,0:0:0:0:
400,228,26129,1,0,0:0:0:0:
396,256,26212,1,0,0:0:0:0:
400,280,26295,1,0,0:0:0:0:
408,304,26379,2,0,P|424:328|492:364,1,106.666666666667,0|0,1:0|0:0,0:0:0:0:
336,152,26795,6,0,P|300:68|188:36,1,213.333333333333,2|2,0:0|0:0,0:0:0:0:
144,253,27379,1,0,1:0:0:0:
216,230,27504,1,0,0:0:0:0:
216,156,27629,1,0,0:0:0:0:
144,132,27754,1,0,0:0:0:0:
101,193,27879,5,0,0:0:0:0:
436,260,28129,1,0,0:0:0:0:
436,260,28379,2,0,L|292:231,1,106.666666666667,0|0,1:0|0:0,0:0:0:0:
304,232,28629,1,0,0:0:0:0:
456,172,28754,2,0,L|295:139,1,160,0|0,3:0|0:0,0:0:0:0:
216,124,29129,1,0,1:0:0:0:
376,72,29254,1,4,0:0:0:0:
280,296,29504,2,0,P|356:282|403:219,1,160,0|0,1:0|0:0,0:0:0:0:
412,136,29879,6,0,B|416:60|352:32|352:32|348:48|352:64,1,160,4|0,0:0|0:0,0:0:0:0:
368,80,30212,1,0,0:0:0:0:
392,88,30295,1,0,0:0:0:0:
416,88,30379,2,0,P|492:56|512:28,1,106.666666666667,0|0,1:0|0:0,0:0:0:0:
379,192,30795,6,0,P|353:265|384:336,1,160,2|0,0:0|0:0,0:0:0:0:
408,348,31129,1,2,0:0:0:0:
456,87,31379,1,0,1:0:0:0:
503,152,31504,1,0,0:0:0:0:
456,217,31629,1,0,0:0:0:0:
379,192,31754,1,0,0:0:0:0:
379,112,31879,5,0,0:0:0:0:
312,256,32045,2,0,P|240:216|140:240,1,160
164,276,32379,2,0,P|162:213|108:156,1,106.666666666667,0|0,1:0|0:0,0:0:0:0:
96,200,32629,2,0,P|150:168|172:93,1,106.666666666667
127,104,32879,2,0,P|182:135|258:117,1,106.666666666667,0|0,3:0|0:0,0:0:0:0:
227,83,33129,2,0,P|228:147|282:204,1,106.666666666667
295,158,33379,2,0,P|227:206|205:305,1,160,0|0,1:0|0:0,0:0:0:0:
80,88,33879,5,2,0:0:0:0:
124,208,34129,1,0,0:0:0:0:
128,236,34212,1,0,0:0:0:0:
124,260,34295,1,0,0:0:0:0:
116,284,34379,2,0,P|100:308|32:344,1,106.666666666667,0|0,1:0|0:0,0:0:0:0:
276,156,34795,6,0,P|312:72|424:40,1,213.333333333333,2|2,0:0|0:0,0:0:0:0:
468,257,35379,1,0,1:0:0:0:
396,234,35504,1,0,0:0:0:0:
396,160,35629,1,0,0:0:0:0:
468,136,35754,1,0,0:0:0:0:
511,197,35879,5,0,3:0:0:0:
320,268,36045,1,4,0:0:0:0:
468,288,36254,5,0,1:0:0:0:
320,268,36379,1,4,0:0:0:0:
248,144,36504,1,0,3:0:0:0:
188,256,36629,1,0,3:0:0:0:
228,364,36754,1,0,0:0:0:0:
188,256,36879,1,4,1:0:0:0:
376,320,37129,5,0,0:0:0:0:
188,256,37254,1,4,0:0:0:0:
88,268,37754,5,0,0:0:0:0:
88,268,37879,2,0,P|180:256|224:200,1,160,4|0,0:0|0:0,0:0:0:0:
138,22,38379,2,0,P|103:92|124:168,1,160,0|0,1:0|0:0,0:0:0:0:
355,93,38879,2,0,P|279:72|208:104,2,160,0|0|0,0:0|0:0|1:0,0:0:0:0:
288,188,39629,1,0,0:0:0:0:
442,26,39879,6,0,P|463:102|428:172,1,160
364,216,40254,1,0,0:0:0:0:
364,216,40379,2,0,P|328:285|349:361,1,160,0|0,1:0|0:0,0:0:0:0:
280,156,40879,2,0,L|120:140,2,160,0|0|0,0:0|0:0|1:0,0:0:0:0:
451,24,41629,6,0,P|428:56|424:96,1,80
428,172,41879,2,0,P|400:252|339:295,1,160
257,210,42379,2,0,P|227:282|244:360,1,160,0|0,1:0|0:0,0:0:0:0:
232,112,42879,5,2,0:0:0:0:
228,108,43254,2,0,B|432:80|432:80|400:120,1,240,2|0,0:0|0:0,0:0:0:0:
340,172,43754,1,0,0:0:0:0:
312,72,43879,2,0,P|230:16|153:54,1,160
140,152,44379,2,0,P|221:207|298:169,1,160,0|0,1:0|0:0,0:0:0:0:
448,56,44879,5,0,0:0:0:0:
448,56,45004,2,0,L|488:224,1,160,4|0,0:0|0:0,0:0:0:0:
392,180,45379,1,0,1:0:0:0:
324,224,45504,1,0,3:0:0:0:
304,300,45629,1,0,3:0:0:0:
328,376,45754,1,0,0:0:0:0:
244,240,45879,6,0,P|152:240|112:316,1,160,4|0,0:0|0:0,0:0:0:0:
324,208,46379,2,0,P|370:128|324:55,1,160,0|0,1:0|0:0,0:0:0:0:
312,292,46879,2,0,P|358:371|443:368,2,160,0|0|0,0:0|0:0|1:0,0:0:0:0:
512,176,47629,2,0,L|448:244,1,80
400,296,47879,1,0,0:0:0:0:
224,124,48129,1,0,0:0:0:0:
0,260,48379,2,0,P|74:282|146:249,1,160,0|0,1:0|0:0,0:0:0:0:
60,8,48879,2,0,L|68:168,2,160,0|0|0,0:0|0:0|1:0,0:0:0:0:
216,212,49629,2,0,L|272:288,1,80
316,344,49879,6,0,P|344:236|380:364,2,320,0|0|0,0:0|1:0|0:0,0:0:0:0:
504,152,51129,2,0,L|352:104,1,160,0|0,0:0|1:0,0:0:0:0:
124,0,51629,2,0,L|200:24,1,80,0|0,3:0|3:0,0:0:0:0:
276,64,51879,2,0,P|192:72|200:200,2,240,2|2|0,0:0|0:0|0:0,0:0:0:0:
239,265,52879,5,0,3:0:0:0:
240,265,53004,2,0,P|277:198|240:132,1,160,4|0,0:0|0:0,0:0:0:0:
272,52,53379,1,0,1:0:0:0:
352,64,53504,1,0,3:0:0:0:
432,76,53629,1,0,0:0:0:0:
512,88,53754,1,0,0:0:0:0:
452,280,53879,6,0,B|488:224|460:152|460:152|432:204,1,160,4|0,0:0|0:0,0:0:0:0:
440,380,54379,2,0,P|360:344|272:356,1,160,0|0,1:0|0:0,0:0:0:0:
352,256,54754,1,0,0:0:0:0:
351,255,54879,2,0,P|272:259|201:225,1,160,0|0,3:0|3:0,0:0:0:0:
28,384,55379,2,0,P|98:347|142:282,1,160,0|0,1:0|0:0,0:0:0:0:
120,204,55754,1,0,0:0:0:0:
120,204,55879,2,0,P|164:138|234:102,1,160
320,84,56254,1,0,0:0:0:0:
320,84,56379,2,0,P|398:96|460:145,1,160,0|0,1:0|0:0,0:0:0:0:
416,272,56879,6,0,P|456:316|488:328,1,80,0|0,3:0|0:0,0:0:0:0:
380,188,57129,2,0,P|323:169|289:175,1,80,0|0,3:0|0:0,0:0:0:0:
200,344,57379,2,0,P|276:326|323:264,1,160,0|0,1:0|0:0,0:0:0:0:
104,276,57879,6,0,P|56:212|60:132,1,160,2|0,0:0|0:0,0:0:0:0:
312,130,58379,2,0,P|250:178|172:176,1,160,0|0,1:0|0:0,0:0:0:0:
216,64,58879,1,0,3:0:0:0:
224,72,59254,1,2,0:0:0:0:
232,80,59629,2,0,L|288:136,1,80,2|0,0:0|0:0,0:0:0:0:
336,56,59879,2,0,P|388:32|488:52,1,160
492,204,60254,1,0,0:0:0:0:
492,204,60379,2,0,P|440:228|340:208,1,160,0|0,1:0|0:0,0:0:0:0:
152,376,60879,6,0,P|224:356|240:336,1,80,0|4,0:0|0:0,0:0:0:0:
268,284,61129,2,0,P|248:212|228:196,1,80,0|0,0:0|3:0,0:0:0:0:
172,176,61379,5,0,1:0:0:0:
68,264,61504,1,0,3:0:0:0:
76,168,61629,1,0,3:0:0:0:
164,272,61754,1,0,0:0:0:0:
284,128,61879,6,0,P|364:96|432:116,1,160,4|0,0:0|0:0,0:0:0:0:
434,273,62379,2,0,B|380:260|364:200|364:200|356:228|336:244,1,160,0|0,1:0|0:0,0:0:0:0:
148,348,62879,2,0,P|160:228|232:336,1,320,0|0,0:0|1:0,0:0:0:0:
40,228,63629,1,0,0:0:0:0:
104,16,63879,2,0,P|128:75|102:165,1,160,0|0,3:0|0:0,0:0:0:0:
212,120,64379,2,0,P|275:128|340:195,1,160,0|0,1:0|0:0,0:0:0:0:
356,78,64879,2,0,P|395:27|486:4,2,160,0|0|0,3:0|0:0|1:0,0:0:0:0:
475,337,65629,6,0,P|484:298|476:260,1,80
432,192,65879,2,0,P|357:166|283:191,1,160,2|0,3:0|0:0,0:0:0:0:
312,384,66379,2,0,B|353:362|369:298|357:274|357:274|345:282|341:302,1,160,0|0,1:0|0:0,0:0:0:0:
475,337,66879,1,0,0:0:0:0:
260,296,67129,2,0,L|72:260,2,160,0|0|0,0:0|1:0|0:0,0:0:0:0:
236,208,67879,2,0,L|0:162,2,240,2|2|0,0:0|0:0|0:0,0:0:0:0:
512,260,68879,5,0,0:0:0:0:
512,260,69004,2,0,P|448:192|448:128,1,160,4|0,0:0|0:0,0:0:0:0:
512,0,69379,1,0,1:0:0:0:
456,52,69504,1,0,3:0:0:0:
380,68,69629,1,0,3:0:0:0:
304,60,69754,1,0,0:0:0:0:
240,16,69879,6,0,P|192:72|192:176,1,180.000006866455,4|0,0:0|0:0,0:0:0:0:
342,253,70629,1,0,0:0:0:0:
302,121,70879,2,0,P|246:72|142:72,1,180.000006866455
68,223,71629,1,0,0:0:0:0:
200,183,71879,2,0,P|248:127|248:23,2,180.000006866455,2|0|0,0:0|0:0|0:0,0:0:0:0:
198,321,72879,1,0,0:0:0:0:
331,227,73129,1,0,0:0:0:0:
283,71,73379,1,0,0:0:0:0:
121,69,73629,1,0,0:0:0:0:
68,223,73879,6,0,L|216:332,1,180.000006866455,4|0,0:0|0:0,0:0:0:0:
311,180,74629,1,0,0:0:0:0:
240,48,74879,2,0,L|219:230,1,180.000006866455
406,231,75629,1,0,0:0:0:0:
477,109,75879,2,0,L|308:182,2,180.000006866455,2|0|0,0:0|0:0|0:0,0:0:0:0:
312,100,76879,5,0,0:0:0:0:
476,192,77254,1,0,0:0:0:0:
395,147,77379,5,0,1:0:0:0:
465,86,77504,1,0,3:0:0:0:
427,0,77629,1,0,3:0:0:0:
332,7,77754,1,0,0:0:0:0:
312,100,77879,6,0,P|240:180|160:184,1,160,4|0,0:0|0:0,0:0:0:0:
328,348,78379,2,0,P|323:269|276:206,1,160,0|0,1:0|0:0,0:0:0:0:
192,188,78754,1,0,0:0:0:0:
108,208,78879,2,0,P|72:278|82:356,1,160,0|0,3:0|3:0,3:0:0:0:
121,120,79379,2,0,P|216:92|192:188,1,240,0|0,1:0|0:0,0:0:0:0:
240,0,79879,6,0,P|316:88|303:204,2,240,4|0|4,0:0|1:0|0:0,0:0:0:0:
271,312,81129,2,0,P|208:265|192:188,1,160,0|0,0:0|1:0,0:0:0:0:
212,104,81504,1,0,3:0:0:0:
212,104,81629,1,0,3:0:0:0:
212,104,81754,1,0,0:0:0:0:
211,103,81879,6,0,P|136:78|65:110,1,160,4|0,0:0|0:0,0:0:0:0:
191,188,82379,2,0,P|276:164|244:24,1,240,0|0,1:0|0:0,0:0:0:0:
328,100,82879,2,0,P|380:112|468:56,1,160
456,180,83379,2,0,B|464:236|524:276|524:276|524:240|480:220,1,160,0|0,1:0|0:0,0:0:0:0:
456,180,83754,1,0,0:0:0:0:
420,328,83879,6,0,L|180:364,2,240,4|2|2,0:0|0:0|0:0,0:0:0:0:
228,276,84879,2,0,P|184:212|296:220,1,240,0|0,1:0|0:0,0:0:0:0:
312,288,85379,1,0,1:0:0:0:
372,232,85504,1,0,3:0:0:0:
432,176,85629,1,0,3:0:0:0:
492,120,85754,1,0,0:0:0:0:
412,100,85879,6,0,L|332:80,1,80
256,64,86129,2,0,L|278:143,1,80
304,220,86379,2,0,L|361:160,1,80
359,162,86754,5,2,0:0:0:0:
168,128,87129,5,0,0:0:0:0:
256,192,87379,1,0,1:0:0:0:
359,162,87629,1,0,3:0:0:0:
377,268,87754,6,0,P|300:255|256:192,1,160,4|0,0:0|0:0,0:0:0:0:
296,36,88129,2,0,L|276:113,1,80,0|0,1:0|0:0,0:0:0:0:
236,269,88379,2,0,L|255:191,1,80
160,136,88629,1,0,1:0:0:0:
141,243,88754,6,0,P|217:230|262:166,1,160,4|0,0:0|0:0,0:0:0:0:
223,10,89129,2,0,L|242:87,1,80,0|0,1:0|0:0,0:0:0:0:
283,243,89379,2,0,L|263:165,1,80
360,108,89629,1,0,1:0:0:0:
379,214,89754,6,0,P|302:201|257:137,1,160,4|0,0:0|0:0,0:0:0:0:
333,2,90129,2,0,L|277:59,1,80,0|0,1:0|0:0,0:0:0:0:
124,64,90379,2,0,L|201:83,1,80
436,85,90629,2,0,L|360:108,1,80
75,186,90879,6,0,L|152:164,1,80,4|0,1:0|0:0,0:0:0:0:
257,137,91129,1,0,1:0:0:0:
326,378,91254,2,0,L|284:224,1,160,4|0,0:0|0:0,0:0:0:0:
209,363,91629,2,0,P|242:341|264:308,1,80,0|0,1:0|0:0,0:0:0:0:
257,137,91879,5,4,0:0:0:0:
180,280,92129,2,0,P|141:288|102:280,1,80,0|0,1:0|0:0,0:0:0:0:
100,96,92379,2,0,P|138:87|177:95,1,80
180,288,92629,2,0,P|141:296|102:288,1,80,0|0,1:0|0:0,0:0:0:0:
232,192,92879,6,0,B|276:220|288:276|288:276|368:304,1,160,2|0,0:0|1:0,0:0:0:0:
464,312,93254,2,0,B|420:284|408:228|408:228|328:200,1,160,2|0,0:0|0:0,0:0:0:0:
236,349,93629,2,0,L|312:376,1,80,0|0,1:0|0:0,0:0:0:0:
512,220,93879,6,0,P|464:276|356:280,1,160,2|0,0:0|1:0,0:0:0:0:
304,141,94254,2,0,P|352:84|460:80,1,160,0|0,0:0|1:0,0:0:0:0:
280,248,94629,1,0,1:0:0:0:
408,180,94754,1,2,0:0:0:0:
152,316,95004,6,0,B|116:336|116:336|124:276|196:256,1,160,4|0,0:0|0:0,0:0:0:0:
324,344,95379,1,0,1:0:0:0:
240,332,95504,1,0,3:0:0:0:
164,180,95629,1,0,3:0:0:0:
248,192,95754,1,0,0:0:0:0:
194,256,95879,5,4,0:0:0:0:
228,36,96129,2,0,L|218:116,1,80,0|0,1:0|0:0,0:0:0:0:
364,16,96379,2,0,L|300:64,1,80
474,97,96629,2,0,L|394:86,1,80,0|0,1:0|0:0,0:0:0:0:
366,287,96879,6,0,P|431:244|445:168,1,160,0|0,0:0|1:0,0:0:0:0:
247,208,97254,2,0,P|289:273|366:287,1,160
260,131,97629,2,0,P|246:168|246:207,1,80,0|0,1:0|0:0,0:0:0:0:
279,30,97879,6,0,P|344:72|358:149,1,160,0|0,0:0|1:0,0:0:0:0:
161,111,98254,2,0,P|203:45|280:31,1,160
175,188,98629,2,0,P|160:150|161:111,1,80,0|0,1:0|0:0,0:0:0:0:
208,260,98879,6,0,L|48:296,1,160,0|0,0:0|1:0,0:0:0:0:
304,232,99254,2,0,L|460:196,1,160
256,76,99629,2,0,L|256:156,1,80,0|0,1:0|0:0,0:0:0:0:
256,336,99879,5,4,0:0:0:0:
164,114,100129,2,0,L|220:170,1,80,0|0,1:0|3:0,3:0:0:0:
347,297,100379,2,0,L|291:241,1,80,0|0,3:0|3:0,3:0:0:0:
125,206,100629,1,0,1:0:0:0:
386,206,100879,5,0,0:0:0:0:
164,297,101129,2,0,L|220:240,1,80,0|0,3:0|3:0,3:0:0:0:
347,114,101379,2,0,L|290:170,1,80,0|0,3:0|3:0,3:0:0:0:
256,336,101629,1,0,1:0:0:0:
256,76,101879,5,4,0:0:0:0:
256,0,102004,1,0,3:0:0:0:
324,36,102129,1,0,3:0:0:0:
188,36,102254,1,0,3:0:0:0:
388,76,102504,5,4,1:0:0:0:
124,76,102754,1,4,0:0:0:0:
344,256,103129,5,0,0:0:0:0:
256,192,103379,1,0,1:0:0:0:
153,222,103629,1,0,0:0:0:0:
135,116,103754,6,0,P|212:129|256:192,1,160,4|0,0:0|0:0,0:0:0:0:
216,348,104129,2,0,L|236:271,1,80,0|0,1:0|0:0,0:0:0:0:
276,115,104379,2,0,L|257:193,1,80
352,248,104629,1,0,1:0:0:0:
371,142,104754,6,0,P|295:155|250:219,1,160,4|0,0:0|0:0,0:0:0:0:
289,374,105129,2,0,L|270:297,1,80,0|0,1:0|0:0,0:0:0:0:
229,141,105379,2,0,L|249:219,1,80
152,276,105629,1,0,1:0:0:0:
133,170,105754,6,0,P|210:183|255:247,1,160,4|0,0:0|0:0,0:0:0:0:
179,382,106129,2,0,L|235:325,1,80,0|0,1:0|0:0,0:0:0:0:
388,320,106379,2,0,L|311:301,1,80
76,299,106629,2,0,L|152:276,1,80,0|0,1:0|0:0,0:0:0:0:
437,198,106879,6,0,L|360:220,1,80,4|0,1:0|0:0,0:0:0:0:
255,247,107129,1,0,1:0:0:0:
186,6,107254,2,0,L|228:160,1,160,4|0,0:0|0:0,0:0:0:0:
303,21,107629,2,0,P|270:43|248:76,1,80,0|0,1:0|0:0,0:0:0:0:
255,247,107879,5,4,0:0:0:0:
92,80,108129,2,0,P|131:82|167:100,1,80,0|0,1:0|0:0,0:0:0:0:
44,220,108379,2,0,P|26:184|23:144,1,80
190,192,108629,2,0,P|167:224|134:247,1,80,0|0,1:0|0:0,0:0:0:0:
256,132,108879,6,0,L|424:100,1,160,2|0,0:0|1:0,0:0:0:0:
488,112,109254,2,0,L|330:141,1,160,2|0,0:0|0:0,0:0:0:0:
184,176,109629,1,0,1:0:0:0:
264,365,109879,6,0,P|288:291|256:220,1,160,2|0,0:0|1:0,0:0:0:0:
111,224,110253,2,0,P|85:298|118:370,1,160,2|0,0:0|0:0,0:0:0:0:
184,176,110629,1,2,0:0:0:0:
188,296,110754,1,4,0:1:0:0:
150,91,111004,6,0,P|98:148|111:225,1,160,4|0,0:0|0:0,0:0:0:0:
290,233,111379,1,0,1:0:0:0:
184,176,111504,1,0,3:0:0:0:
188,296,111629,1,0,3:0:0:0:
188,296,111754,1,0,0:0:0:0:
290,233,111879,6,0,P|367:240|420:298,1,160,4|0,0:0|0:0,0:0:0:0:
414,58,112254,2,0,P|368:121|291:138,1,160,4|0,0:0|0:0,0:0:0:0:
504,252,112629,2,0,P|471:180|495:105,1,160,4|0,0:0|0:0,0:0:0:0:
384,168,113129,5,0,1:0:0:0:
256,192,113379,1,0,3:0:0:0:
128,216,113629,1,0,1:0:0:0:
236,164,113879,6,0,P|186:108|105:98,1,160,4|0,0:0|1:0,0:0:0:0:
116,336,114254,2,0,P|188:320|238:255,1,160,4|0,0:0|0:0,0:0:0:0:
28,148,114629,2,0,P|5:218|36:294,1,160,0|0,3:0|0:0,0:0:0:0:
272,84,115129,6,0,B|260:44|316:36|352:60|292:108|288:192|352:228,1,240,4|0,0:0|3:0,0:0:0:0:
404,160,115629,1,0,1:0:0:0:
404,160,115754,1,0,3:0:0:0:
404,160,115879,6,0,P|328:88|344:4,1,160
420,64,116254,2,0,P|496:136|480:220,1,160,4|0,0:0|0:0,0:0:0:0:
404,160,116629,1,4,0:0:0:0:
120,164,117129,6,0,L|196:140,2,80,0|0|0,3:0|1:0|1:0,3:0:0:0:
225,66,117504,2,0,L|296:104,2,80,0|0|0,3:0|3:0|3:0,3:0:0:0:
152,32,117879,1,4,0:0:0:0:
44,192,118254,1,0,3:0:0:0:
152,32,118629,1,0,3:0:0:0:
104,136,119879,6,0,B|108:60|44:32|44:32|40:48|44:64,1,160,4|0,0:0|0:0,0:0:0:0:
60,80,120212,1,0,0:0:0:0:
84,88,120295,1,0,0:0:0:0:
108,84,120379,2,0,P|192:80|240:120,1,106.666666666667,0|0,1:0|0:0,0:0:0:0:
379,192,120795,6,0,P|353:119|384:48,1,160,2|0,0:0|0:0,0:0:0:0:
408,36,121129,1,2,0:0:0:0:
456,297,121379,1,0,1:0:0:0:
379,272,121504,1,0,0:0:0:0:
379,192,121629,1,0,0:0:0:0:
456,167,121754,1,0,0:0:0:0:
503,232,121879,5,0,0:0:0:0:
268,200,122045,2,0,P|295:126|360:81,1,160
314,105,122379,2,0,P|288:58|291:6,1,106.666666666667,0|0,1:0|0:0,0:0:0:0:
289,57,122629,2,0,P|236:55|191:27,1,106.666666666667
234,54,122879,2,0,P|207:99|160:123,1,106.666666666667,0|0,3:0|0:0,0:0:0:0:
204,101,123129,2,0,P|229:146|228:199,1,106.666666666667
230,148,123378,2,0,P|308:139|376:179,1,160,0|0,1:0|0:0,0:0:0:0:
420,59,123879,5,2,0:0:0:0:
376,179,124129,1,0,0:0:0:0:
372,207,124212,1,0,0:0:0:0:
376,231,124295,1,0,0:0:0:0:
384,255,124379,2,0,P|400:279|468:315,1,106.666666666667,0|0,1:0|0:0,0:0:0:0:
304,143,124795,6,0,P|268:59|156:27,1,213.333333333333,2|2,0:0|0:0,0:0:0:0:
112,244,125379,1,0,1:0:0:0:
184,221,125504,1,0,0:0:0:0:
184,147,125629,1,0,0:0:0:0:
112,123,125754,1,0,0:0:0:0:
69,184,125879,5,0,0:0:0:0:
424,96,126129,1,0,0:0:0:0:
424,96,126379,2,0,L|280:125,1,106.666666666667,0|0,1:0|0:0,0:0:0:0:
292,124,126629,1,0,0:0:0:0:
444,184,126754,2,0,L|283:217,1,160,0|0,0:0|1:0,0:0:0:0:
204,232,127129,1,0,1:0:0:0:
364,284,127254,1,4,0:0:0:0:
268,60,127504,2,0,P|344:74|391:137,1,160,0|0,1:0|0:0,0:0:0:0:
427,333,127879,5,4,0:0:0:0:
383,213,128129,1,0,0:0:0:0:
379,185,128212,1,0,0:0:0:0:
383,161,128295,1,0,0:0:0:0:
391,137,128379,2,0,P|407:113|475:77,1,106.666666666667,2|0,0:0|0:0,0:0:0:0:
291,201,128795,6,0,P|255:117|147:73,1,213.333333333333
83,306,129379,1,2,0:0:0:0:
155,283,129504,1,0,0:0:0:0:
155,209,129629,1,0,0:0:0:0:
83,185,129754,1,0,0:0:0:0:
40,245,129879,5,0,0:0:0:0:
264,220,130045,2,0,P|236:146|171:101,1,160
217,125,130378,2,0,P|242:78|239:26,1,106.666666666667
242,77,130628,2,0,P|294:75|339:47,1,106.666666666667
297,74,130878,2,0,P|323:119|370:143,1,106.666666666667
327,121,131128,2,0,P|301:166|302:219,1,106.666666666667
301,168,131378,2,0,P|222:159|154:199,1,160
110,79,131879,5,0,3:0:0:0:
154,199,132129,1,0,0:0:0:0:
158,227,132212,1,0,0:0:0:0:
154,251,132295,1,0,0:0:0:0:
146,275,132379,2,0,P|130:299|62:335,1,106.666666666667,2|0,0:0|0:0,0:0:0:0:
226,163,132795,6,0,P|262:79|374:47,1,213.333333333333
418,264,133379,1,2,0:0:0:0:
346,241,133504,1,0,0:0:0:0:
346,167,133629,1,0,0:0:0:0:
416,144,133754,1,0,0:0:0:0:
461,204,133879,5,0,1:0:0:0:
151,175,134045,1,4,0:0:0:0:
148,172,134254,5,0,1:0:0:0:
299,187,134379,1,4,1:0:0:0:
361,318,134504,1,0,3:0:0:0:
417,203,134629,1,0,3:0:0:0:
357,87,134754,1,0,0:0:0:0:
417,203,134879,1,4,0:0:0:0:
185,267,135129,5,0,3:0:0:0:
417,203,135254,1,4,0:0:0:0:
