osu file format v14

[General]
AudioFilename: Secret Liqueur.mp3
AudioLeadIn: 0
PreviewTime: 87129
Countdown: 0
SampleSet: Soft
StackLeniency: 0.7
Mode: 0
LetterboxInBreaks: 0
WidescreenStoryboard: 0

[Editor]
DistanceSpacing: 1.1
BeatDivisor: 4
GridSize: 4
TimelineZoom: 0.8999989

[Metadata]
Title:Secret Liqueur -Short ver-
TitleUnicode:Secret Liqueur -Short ver-
Artist:Shimotsuki Haruka
ArtistUnicode:霜月はるか
Creator:PinkHeart
Version:Easy
Source:働くオトナの恋愛事情
Tags:imoutosan Eggache0 opening galgame eroge visual novel
BeatmapID:904975
BeatmapSetID:417610

[Difficulty]
HPDrainRate:2
CircleSize:2.5
OverallDifficulty:2
ApproachRate:3
SliderMultiplier:0.6
SliderTickRate:1

[Events]
//Background and Video events
0,0,"bg.jpg",0,0
//Break Periods
2,14079,16439
//Storyboard Layer 0 (Background)
//Storyboard Layer 1 (Fail)
//Storyboard Layer 2 (Pass)
//Storyboard Layer 3 (Foreground)
//Storyboard Sound Samples

[TimingPoints]
13879,250,4,2,0,50,1,0
37754,-100,4,2,0,40,0,0
53879,-100,4,2,0,50,0,0
87879,-100,4,2,0,60,0,1
101879,-100,4,2,0,60,0,0
103879,-100,4,2,0,60,0,1
111629,-100,4,2,0,60,0,0
111879,-100,4,2,0,60,0,1
115879,-100,4,2,0,60,0,0
116379,-100,4,2,0,60,0,1
118879,-100,4,2,0,50,0,0

[Colours]
Combo1 : 255,128,192
Combo2 : 255,128,255
Combo3 : 128,128,255
Combo4 : 255,128,128

[HitObjects]
256,192,13879,5,4,0:0:0:0:
256,192,17879,5,2,0:0:0:0:
332,324,19879,2,0,P|408:356|464:284,2,180,0|0|0,3:0|1:0|3:0,0:0:0:0:
380,200,21879,6,0,B|294:135|237:221|149:157,1,240,4|0,0:0|0:0,0:0:0:0:
224,48,23379,1,0,1:0:0:0:
356,52,23879,2,0,P|440:88|512:212,1,240,0|0,3:0|0:0,0:0:0:0:
408,296,25379,1,0,1:0:0:0:
280,272,25879,6,0,P|272:192|400:196,1,240,0|0,3:0|0:0,0:0:0:0:
372,320,27379,1,0,1:0:0:0:
248,368,27879,2,0,B|132:384|60:324|60:324|112:312|144:272,1,300,0|4,3:0|0:0,0:0:0:0:
24,116,29879,6,0,P|40:64|204:72,1,240,4|0,0:0|0:0,0:0:0:0:
256,180,31379,1,0,1:0:0:0:
314,61,31879,2,0,P|421:25|488:116,1,240,0|0,3:0|0:0,0:0:0:0:
468,244,33379,1,0,1:0:0:0:
340,264,33879,6,0,P|264:332|360:352,1,240,0|0,3:0|0:0,0:0:0:0:
468,296,35379,2,0,P|464:216|424:160,1,150,0|4,1:0|0:0,0:0:0:0:
396,64,36379,1,0,1:0:0:0:
324,176,36879,2,0,P|284:203|243:213,1,90,0|4,0:0|0:0,0:0:0:0:
120,324,37879,6,0,B|74:247|185:178|144:92,1,240,4|0,0:0|0:0,0:0:0:0:
20,132,39379,1,0,1:0:0:0:
48,4,39879,1,0,3:0:0:0:
251,172,40879,2,0,L|359:104,1,120,0|0,3:0|1:0,0:0:0:0:
463,36,41879,6,0,B|417:112|528:181|488:265,1,240,0|0,3:0|0:0,0:0:0:0:
392,356,43378,1,0,1:0:0:0:
364,228,43879,2,0,P|295:268|261:366,2,180,0|2|2,3:0|0:0|0:0,0:0:0:0:
336,100,45879,6,0,P|224:80|256:148,1,240,4|0,0:0|0:0,0:0:0:0:
80,347,47879,2,0,P|36:258|135:266,1,240,0|0,3:0|0:0,0:0:0:0:
268,272,49379,1,0,1:0:0:0:
356,368,49879,6,0,B|432:315|370:200|448:156,1,240,0|0,3:0|0:0,0:0:0:0:
512,40,51379,1,0,1:0:0:0:
384,4,51879,2,0,P|264:52|261:181,1,270,0|4,3:0|0:0,0:0:0:0:
88,332,53879,6,0,P|132:284|20:256,1,240,4|0,0:0|0:0,0:0:0:0:
32,124,55379,1,0,1:0:0:0:
132,36,55879,2,0,B|187:10|245:42|245:42|310:28|359:72,1,240,0|0,3:0|0:0,0:0:0:0:
384,200,57379,1,0,1:0:0:0:
252,176,57879,6,0,P|216:248|332:316,1,240,2|0,0:0|0:0,0:0:0:0:
384,200,59379,1,0,1:0:0:0:
428,72,59879,2,0,P|495:123|516:223,2,180,0|2|0,3:0|0:0|1:0,0:0:0:0:
300,104,61879,6,0,P|208:76|112:176,1,240,4|0,0:0|0:0,0:0:0:0:
92,296,63379,1,0,1:0:0:0:
216,256,63879,2,0,B|232:224|228:192|228:192|284:228|352:216|388:168,1,240,0|0,3:0|0:0,0:0:0:0:
416,44,65379,1,0,1:0:0:0:
300,104,65879,5,2,0:0:0:0:
428,336,66879,2,0,L|368:228,1,120,0|0,3:0|1:0,0:0:0:0:
276,324,67879,2,0,B|216:372|139:345|139:345|128:336|128:320|128:320|90:339|52:328,2,240,0|4|4,3:0|0:0|0:0,0:0:0:0:
440,116,70879,5,0,0:0:0:0:
208,240,71879,1,2,0:0:0:0:
84,8,72879,1,0,0:0:0:0:
312,140,73879,6,0,P|348:256|272:344,1,240,4|0,0:0|0:0,0:0:0:0:
176,96,75879,2,0,P|192:52|308:0,2,180,2|2|0,0:0|0:0|1:0,0:0:0:0:
148,224,77879,6,0,P|125:290|80:322,1,120,4|0,0:0|1:0,0:0:0:0:
22,206,78879,2,0,P|44:139|89:107,1,120,0|0,0:0|1:0,0:0:0:0:
212,128,79879,2,0,L|308:128,2,90,4|0|4,0:0|0:0|0:0,0:0:0:0:
76,128,81129,1,4,0:1:0:0:
130,318,81879,6,0,P|210:270|358:382,1,300,4|2,0:0|0:0,0:0:0:0:
433,195,83879,2,0,P|389:186|356:156,2,90,4|2|0,0:0|0:0|0:0,0:0:0:0:
497,187,84879,1,0,1:0:0:0:
484,56,85379,1,0,3:0:0:0:
368,0,85879,6,0,B|299:23|299:23|292:85|292:85|224:116,1,210,0|2,0:0|0:0,0:0:0:0:
64,84,87379,5,0,1:0:0:0:
72,180,87754,2,0,P|64:256|104:328,1,150,4|0,0:0|1:0,0:0:0:0:
168,252,88754,2,0,P|225:302|307:310,1,150,4|0,0:0|1:0,0:0:0:0:
282,214,89754,2,0,P|356:195|410:133,1,150,4|0,0:0|1:0,0:0:0:0:
388,12,90879,2,0,P|328:13|276:42,1,120,4|0,0:0|1:0,0:0:0:0:
184,136,91879,6,0,P|104:168|48:156,2,120,4|0|0,0:0|1:0|0:0,0:0:0:0:
100,36,93379,1,0,1:0:0:0:
232,40,93879,2,0,P|284:100|272:192,1,120,0|0,3:0|1:0,0:0:0:0:
280,268,94879,2,0,P|348:227|336:338,1,240,2|4,0:0|0:0,0:0:0:0:
221,381,96379,5,0,1:0:0:0:
128,287,96879,2,0,P|112:235|120:171,1,120,0|0,3:0|1:0,0:0:0:0:
5,104,97879,2,0,P|42:64|101:39,1,120,0|0,0:0|1:0,0:0:0:0:
219,97,98879,2,0,P|277:105|335:89,1,120,0|0,3:0|1:0,0:0:0:0:
448,16,99879,5,2,0:0:0:0:
460,148,100379,2,0,L|468:280,1,120,0|0,1:0|0:0,0:0:0:0:
368,356,101379,5,0,1:0:0:0:
356,224,101879,2,0,L|346:59,1,150,4|0,0:0|1:0,0:0:0:0:
340,8,102754,2,0,P|308:84|244:120,1,150,4|0,0:0|1:0,0:0:0:0:
176,52,103754,6,0,P|100:63|41:121,1,150,4|0,0:0|1:0,0:0:0:0:
131,163,104754,2,0,P|97:231|110:313,1,150,4|0,0:0|1:0,0:0:0:0:
196,263,105754,2,0,P|233:329|307:365,1,150,4|0,0:0|1:0,0:0:0:0:
328,236,106879,2,4,P|402:244|466:210,1,120,4|0,0:0|1:0,0:0:0:0:
512,112,107879,5,4,0:0:0:0:
388,72,108379,2,0,P|329:47|284:4,2,120,0|0|0,1:0|3:0|1:0,0:0:0:0:
288,164,109879,2,0,P|216:184|172:176,1,120,0|0,3:0|1:0,0:0:0:0:
112,148,110629,2,0,B|64:120|64:120|32:156|36:224|72:252,1,180,0|0,3:0|1:0,0:0:0:0:
156,324,111879,6,0,L|64:364,2,90,4|4|4,0:0|0:0|0:0,0:0:0:0:
356,60,113879,2,0,L|448:20,2,90,4|4|0,0:0|0:0|0:0,0:0:0:0:
253,149,115129,2,0,B|184:192|148:116|81:166,1,180,4|0,0:0|0:0,0:0:0:0:
56,260,116254,6,0,P|108:284|168:280,1,90,4|4,0:1|0:0,0:0:0:0:
300,240,117254,2,0,P|344:244|384:265,1,90,0|0,1:0|0:0,0:0:0:0:
428,316,117879,2,0,L|484:212,2,90,4|0|0,0:0|1:0|3:0,0:0:0:0:
168,112,119879,6,0,P|108:60|108:172,1,240,4|0,0:0|0:0,0:0:0:0:
224,188,121379,1,0,1:0:0:0:
336,256,121879,2,0,P|336:296|288:360,2,120,0|0|0,3:0|1:0|3:0,0:0:0:0:
308,128,123379,1,0,1:0:0:0:
440,108,123879,6,0,P|453:10|364:51,1,240,0|0,3:0|0:0,0:0:0:0:
384,184,125379,2,0,P|392:260|368:312,1,120,0|0,1:0|3:0,0:0:0:0:
268,228,126379,2,0,P|132:192|112:200,2,150,0|4|0,1:0|0:0|0:0,0:0:0:0:
304,284,127879,5,4,0:0:0:0:
424,228,128379,2,0,P|474:199|333:160,2,360,0|2|0,0:0|0:0|0:0,0:0:0:0:
296,260,131879,5,2,0:0:0:0:
36,308,132879,1,2,0:0:0:0:
124,56,133879,6,0,P|44:56|66:130,1,180,4|0,0:0|1:0,0:0:0:0:
124,160,134879,2,0,P|156:216|156:256,1,90,4|4,1:0|0:0,0:0:0:0:
