osu file format v14

[General]
AudioFilename: Secret Liqueur.mp3
AudioLeadIn: 0
PreviewTime: 168206
Countdown: 0
SampleSet: Soft
StackLeniency: 0.6
Mode: 0
LetterboxInBreaks: 0
WidescreenStoryboard: 0

[Editor]
Bookmarks: 143081
DistanceSpacing: 0.9
BeatDivisor: 3
GridSize: 4
TimelineZoom: 1.2

[Metadata]
Title:Secret Liqueur
TitleUnicode:Secret Liqueur
Artist:Shimotsuki Haruka
ArtistUnicode:霜月はるか
Creator:PinkHeart
Version:Last Order
Source:働くオトナの恋愛事情
Tags:imoutosan Eggache0 Fushimi Rio opening galgame eroge visual novel full ver. version Hataraku Otona no Ren'ai Jijou GWAVE 2016 1st advance
BeatmapID:1169586
BeatmapSetID:552217

[Difficulty]
HPDrainRate:7.2
CircleSize:4
OverallDifficulty:9.1
ApproachRate:9.6
SliderMultiplier:2.4
SliderTickRate:1

[Events]
//Background and Video events
0,0,"bg.jpg",0,0
//Break Periods
//Storyboard Layer 0 (Background)
//Storyboard Layer 1 (Fail)
//Storyboard Layer 2 (Pass)
//Storyboard Layer 3 (Foreground)
//Storyboard Sound Samples

[TimingPoints]
675,571.428571428571,4,2,1,40,1,0
675,-200,4,2,1,40,0,0
1246,-200,4,2,1,5,0,0
1433,631.578947368421,4,2,1,40,1,0
1433,-200,4,2,1,40,0,0
2064,-200,4,2,1,5,0,0
2169,-200,4,2,1,40,0,0
2643,689.655172413793,4,2,1,40,1,0
2643,-200,4,2,1,40,0,0
3813,600,4,2,1,40,1,0
3953,600,4,2,1,40,1,0
3953,-200,4,2,1,40,0,0
5020,600,4,2,1,40,1,0
5020,-200,4,2,1,40,0,0
5470,-200,4,1,2,40,0,0
5620,857.142857142857,4,2,1,40,1,0
6330,625,4,2,1,40,1,0
6330,-200,4,2,1,40,0,0
8830,689.655172413793,4,2,1,40,1,0
13081,500,4,2,1,70,1,0
13081,-66.6666666666667,4,2,1,70,0,0
36081,-133.333333333333,4,2,1,70,0,0
36247,-133.333333333333,4,2,1,5,0,0
36331,-133.333333333333,4,2,1,70,0,0
37081,-133.333333333333,4,2,1,50,0,0
44581,-100,4,2,1,70,0,0
45081,-133.333333333333,4,2,1,50,0,0
52081,-100,4,2,1,70,0,0
53081,-100,4,2,1,60,0,0
60081,-80,4,2,1,70,0,0
61081,-100,4,2,1,60,0,0
68081,-100,4,2,1,70,0,0
69081,-200,4,2,1,50,0,0
76581,-100,4,2,1,50,0,0
77081,-80,4,2,1,70,0,0
85081,-200,4,2,1,70,0,0
86956,-50,4,2,1,70,0,1
87081,250,4,2,1,70,1,1
87081,-100,4,2,1,70,0,1
112581,-111.111111111111,4,2,1,70,0,1
112831,-125,4,2,1,70,0,1
113081,-100,4,2,1,70,0,1
114331,-100,4,2,1,80,0,1
115081,-100,4,2,1,70,0,1
115831,-133.333333333333,4,2,1,70,0,1
116456,-100,4,2,1,70,0,1
117831,-100,4,2,1,70,0,0
118581,-100,4,2,1,60,0,0
118831,-100,4,2,1,50,0,0
119081,500,4,2,1,70,1,0
119081,-66.6666666666667,4,2,1,70,0,0
134081,-133.333333333333,4,2,1,70,0,0
134247,-133.333333333333,4,2,1,5,0,0
134331,-133.333333333333,4,2,1,70,0,0
135081,-200,4,2,1,40,0,0
143081,-133.333333333333,4,2,1,50,0,0
158831,-80,4,2,1,70,0,0
168956,-50,4,2,1,70,0,0
169081,250,4,2,1,70,1,1
169081,-100,4,2,1,70,0,1
194581,-111.111111111111,4,2,1,70,0,1
194831,-125,4,2,1,70,0,1
195081,-100,4,2,1,70,0,1
196331,-80,4,2,1,80,0,1
197081,-100,4,2,1,70,0,1
197831,-133.333333333333,4,2,1,70,0,1
198456,-100,4,2,1,70,0,1
199831,-100,4,2,1,70,0,0
200581,-100,4,2,1,60,0,0
200831,-100,4,2,1,50,0,0
201081,500,4,2,1,30,1,0
201081,-200,4,2,1,30,0,0
217081,-100,4,2,1,40,0,0
225081,-100,4,2,1,50,0,0
229081,-100,4,2,1,60,0,0
231081,-100,4,2,1,70,0,0
232081,-50,4,2,1,70,0,0
233081,250,4,2,1,80,1,1
233081,-100,4,2,1,80,0,1
246581,-111.111111111111,4,2,1,70,0,1
247081,-90.9090909090909,4,2,1,80,0,1
248081,-90.9090909090909,4,2,1,90,0,1
248581,-90.9090909090909,4,2,1,100,0,1
250331,-100,4,2,1,80,0,0
250956,-100,4,2,1,70,0,1
265956,-66.6666666666667,4,2,1,70,0,1
266956,-100,4,2,1,80,0,1
275081,-100,4,2,1,90,0,1
276581,-111.111111111111,4,2,1,80,0,1
276831,-125,4,2,1,70,0,1
277081,-100,4,2,1,90,0,1
278331,-66.6666666666667,4,2,1,100,0,1
279331,-100,4,2,1,70,0,1
279831,-133.333333333333,4,2,1,70,0,1
280456,-100,4,2,1,70,0,1
281831,-100,4,2,1,70,0,0
282581,-100,4,2,1,60,0,0
282831,-100,4,2,1,50,0,0
283081,500,4,2,1,70,1,0
283081,-66.6666666666667,4,2,1,70,0,0
290706,-50,4,2,1,70,0,0
291081,-66.6666666666667,4,2,1,50,0,0
294831,-66.6666666666667,4,2,1,60,0,0
295081,-66.6666666666667,4,2,1,70,0,0
298081,-80,4,2,1,70,0,0
298247,-100,4,2,1,5,0,0
298331,-66.6666666666667,4,2,1,70,0,0
298581,-66.6666666666667,4,1,2,5,0,0

[Colours]
Combo1 : 255,128,192
Combo2 : 223,128,255
Combo3 : 128,128,255
Combo4 : 255,128,128

[HitObjects]
172,316,675,5,0,0:0:0:0:
176,234,960,2,0,P|162:200|135:175,1,75
134,174,1433,6,0,P|207:183|263:143,1,140,8|0,0:0|0:0,0:0:0:0:
416,182,2643,6,0,P|371:143|358:86,1,120
359,86,3505,1,0,0:0:0:0:
352,248,3813,5,0,0:0:0:0:
352,248,3953,2,0,P|300:280|280:280,1,60,2|0,0:0|0:0,0:0:0:0:
204,280,4553,2,0,P|176:290|154:311,1,60,2|0,0:0|0:0,0:0:0:0:
220,356,5020,6,0,P|224:296|200:248,1,90
204,252,5620,2,0,P|191:208|216:140,1,120
296,116,6330,6,0,P|252:20|232:76,1,240,8|0,0:0|0:0,0:0:0:0:
308,200,7892,5,0,0:0:0:0:
392,156,8205,1,2,0:0:0:0:
476,200,8517,1,0,0:0:0:0:
476,200,8830,5,0,0:0:0:0:
256,192,9002,12,8,11588,0:0:0:0:
92,184,13081,6,0,P|168:168|216:104,1,120,4|0,0:0|0:0,0:0:0:0:
220,107,13331,1,0,0:0:0:0:
197,75,13414,1,0,0:0:0:0:
158,87,13497,1,0,0:0:0:0:
158,127,13581,2,0,P|192:176|260:188,1,90.0000034332277,2|0,0:1|0:0,0:0:0:0:
218,187,13997,2,0,P|300:172|340:72,1,180.000006866455,2|0,0:0|0:0,0:0:0:0:
355,175,14331,2,0,L|371:275,1,90.0000034332277,2|0,0:0|0:0,0:0:0:0:
512,356,14581,1,2,0:1:0:0:
456,288,14706,1,0,0:0:0:0:
370,264,14831,1,0,0:0:0:0:
283,287,14956,2,0,P|247:319|231:359,1,90.0000034332277
283,287,15206,6,0,P|199:272|144:339,1,180.000006866455
231,356,15581,1,2,0:1:0:0:
144,338,15747,2,0,L|85:353,1,60.0000022888184
141,249,15997,2,0,L|82:232,1,60.0000022888184
183,172,16247,2,0,L|140:128,1,60.0000022888184
249,98,16497,1,0,0:0:0:0:
249,98,16581,2,0,P|292:19|377:29,1,180.000006866455,2|0,0:1|0:0,0:0:0:0:
433,133,17081,6,0,P|357:117|309:53,1,120,8|0,0:0|0:0,0:0:0:0:
305,56,17331,1,0,0:0:0:0:
328,24,17414,1,0,0:0:0:0:
367,36,17497,1,0,0:0:0:0:
367,76,17581,2,0,P|333:125|265:137,1,90.0000034332277,2|0,0:1|0:0,0:0:0:0:
306,136,17997,2,0,P|224:121|184:21,1,180.000006866455,2|0,0:0|0:0,0:0:0:0:
212,148,18331,2,0,P|196:189|164:220,1,90.0000034332277,2|0,0:0|0:0,0:0:0:0:
4,273,18581,1,2,0:1:0:0:
75,221,18706,1,0,0:0:0:0:
164,220,18831,1,0,0:0:0:0:
241,266,18956,1,0,3:0:0:0:
260,282,19018,1,0,3:0:0:0:
270,306,19081,5,0,1:0:0:0:
320,212,19206,2,0,L|404:48,2,180.000006866455,0|0|0,3:0|3:0|0:0,0:0:0:0:
214,217,19831,1,0,1:0:0:0:
320,212,19956,2,0,L|504:202,2,180.000006866455,0|0|0,3:0|3:0|0:0,0:0:0:0:
263,122,20581,5,0,1:0:0:0:
377,302,20706,1,0,3:0:0:0:
372,116,20831,5,0,3:0:0:0:
270,306,20956,1,0,0:0:0:0:
320,212,21081,6,0,P|396:199|464:241,1,120.000004577637,4|0,0:2|0:0,0:0:0:0:
490,313,21331,1,0,0:0:0:0:
459,287,21414,1,0,0:0:0:0:
440,253,21497,1,0,0:0:0:0:
434,213,21581,1,0,1:0:0:0:
475,123,21747,2,0,P|481:76|444:12,1,120.000004577637
324,156,21997,2,0,P|408:178|475:124,1,180.000006866455,2|0,0:0|0:0,0:0:0:0:
296,74,22331,2,0,P|299:118|323:155,1,90.0000034332277,2|0,0:0|0:0,0:0:0:0:
388,88,22581,1,0,1:0:0:0:
282,233,22706,1,0,0:0:0:0:
208,72,22831,1,0,0:0:0:0:
388,88,22956,1,0,0:0:0:0:
184,176,23081,5,2,0:1:0:0:
442,0,23247,2,0,P|488:62|449:177,1,180.000006866455
398,212,23581,1,0,1:0:0:0:
497,245,23747,1,0,0:0:0:0:
510,267,23831,1,0,0:0:0:0:
377,111,23997,1,0,0:0:0:0:
388,89,24081,1,2,0:0:0:0:
321,282,24247,1,0,0:0:0:0:
296,283,24331,1,2,0:1:0:0:
388,89,24497,1,0,0:0:0:0:
400,66,24581,2,0,P|464:53|453:138,1,180.000006866455,0|0,1:0|0:0,0:0:0:0:
221,53,25081,6,0,P|205:110|220:168,1,120.000004577637,8|0,0:0|0:0,0:0:0:0:
333,159,25331,1,0,0:0:0:0:
295,148,25414,1,0,0:0:0:0:
256,151,25497,1,0,0:0:0:0:
219,168,25580,1,0,1:0:0:0:
126,227,25747,2,0,P|81:230|16:188,1,120.000004577637
173,79,25997,2,0,P|187:165|126:227,1,180.000006866455,2|0,0:0|0:0,0:0:0:0:
93,42,26330,2,0,P|137:51|173:79,1,90.0000034332277,2|0,0:0|0:0,0:0:0:0:
283,253,26581,1,0,1:0:0:0:
288,116,26706,1,0,0:0:0:0:
283,253,26831,1,0,0:0:0:0:
403,153,26956,1,0,3:0:0:0:
173,79,27081,5,0,3:0:0:0:
417,265,27331,2,0,P|427:206|403:153,1,120.000004577637,2|0,0:0|0:0,0:0:0:0:
310,138,27581,2,0,P|315:182|339:219,1,90.0000034332277,0|0,1:0|0:0,0:0:0:0:
376,67,27831,1,2,0:0:0:0:
303,361,27956,2,0,P|364:300|339:219,1,180.000006866455,0|4,0:0|0:0,0:0:0:0:
228,337,28331,1,0,1:0:0:0:
402,152,28456,1,0,1:2:0:0:
228,337,28706,2,0,P|146:362|85:301,1,180.000006866455,4|0,1:0|0:0,0:0:0:0:
106,81,29081,6,0,P|122:138|107:195,1,120.000004577637,4|0,0:0|0:0,0:0:0:0:
0,236,29331,1,0,0:0:0:0:
30,210,29414,1,0,0:0:0:0:
67,196,29497,1,0,0:0:0:0:
107,195,29580,1,0,1:0:0:0:
240,248,29747,2,0,P|287:254|351:217,1,120.000004577637
207,97,29997,2,0,P|185:181|239:248,1,180.000006866455,2|0,0:0|0:0,0:0:0:0:
289,70,30331,2,0,P|245:73|207:96,1,90.0000034332277,2|0,0:0|0:0,0:0:0:0:
348,219,30581,1,0,1:0:0:0:
207,97,30706,1,0,0:0:0:0:
172,281,30831,1,0,0:0:0:0:
348,219,30956,1,0,0:0:0:0:
136,176,31081,5,2,0:1:0:0:
356,308,31247,2,0,P|428:261|428:174,1,180.000006866455
384,108,31581,1,0,1:0:0:0:
272,308,31747,1,0,0:0:0:0:
260,332,31831,1,0,0:0:0:0:
210,249,31997,1,0,0:0:0:0:
188,264,32081,1,2,0:0:0:0:
185,166,32247,1,0,0:0:0:0:
159,168,32331,1,2,0:1:0:0:
205,83,32497,1,0,0:0:0:0:
182,72,32581,2,0,P|96:92|60:172,1,180.000006866455,0|0,1:0|0:0,0:0:0:0:
120,368,33081,6,0,P|136:311|121:253,1,120.000004577637,8|0,0:0|0:0,0:0:0:0:
8,262,33331,1,0,0:0:0:0:
46,273,33414,1,0,0:0:0:0:
85,270,33497,1,0,0:0:0:0:
122,253,33580,1,0,1:0:0:0:
214,194,33747,2,0,P|259:191|324:233,1,120.000004577637
168,342,33997,2,0,P|154:256|215:194,1,180.000006866455,2|0,0:0|0:0,0:0:0:0:
247,377,34330,2,0,P|203:369|168:342,1,90.0000034332277,2|0,0:0|0:0,0:0:0:0:
136,132,34581,1,0,1:0:0:0:
244,284,34706,1,0,0:0:0:0:
280,68,34831,1,0,0:0:0:0:
244,284,34956,1,0,3:0:0:0:
64,180,35081,5,0,1:0:0:0:
332,264,35206,2,0,P|316:340|228:372,1,180.000006866455,4|0,0:0|0:0,0:0:0:0:
364,68,35581,5,0,1:0:0:0:
244,284,35706,1,0,1:0:0:0:
412,236,35831,5,0,1:0:0:0:
196,116,35956,1,0,3:0:0:0:
344,317,36081,6,0,L|320:232,1,60.0000022888184,4|0,1:0|0:0,0:0:0:0:
263,33,36331,1,0,3:0:0:0:
344,317,36456,1,4,0:0:0:0:
344,317,36956,5,0,0:0:0:0:
368,308,37081,2,0,P|400:288|432:232,1,90.0000034332277,4|0,0:0|0:0,0:0:0:0:
396,64,37581,2,0,P|378:97|378:161,1,90.0000034332277,2|0,0:1|0:0,0:0:0:0:
432,220,38081,2,0,P|360:188|276:232,1,180.000006866455,2|2,0:0|0:1,0:0:0:0:
275,232,38831,1,0,0:0:0:0:
190,76,39081,6,0,P|250:84|290:120,1,90.0000034332277,0|0,3:0|0:0,0:0:0:0:
291,124,39456,1,0,3:0:0:0:
299,148,39581,2,0,P|291:207|255:247,1,90.0000034332277,2|0,3:1|0:0,0:0:0:0:
376,84,40081,1,2,0:0:0:0:
211,166,40331,1,0,0:0:0:0:
293,331,40581,1,2,0:1:0:0:
293,331,40956,5,0,0:0:0:0:
273,314,41081,2,0,P|239:296|175:296,1,90.0000034332277,0|0,3:0|0:0,0:0:0:0:
32,240,41581,2,0,P|69:239|125:207,1,90.0000034332277,2|0,0:1|0:0,0:0:0:0:
148,124,42081,2,0,P|156:202|231:249,2,135.000005149841,2|2|0,0:0|0:0|0:0,0:0:0:0:
276,252,43081,6,0,P|312:236|348:172,1,90.0000034332277,0|0,3:0|0:0,0:0:0:0:
348,172,43456,1,0,3:0:0:0:
348,144,43581,2,0,P|374:107|414:88,1,90.0000034332277,2|0,0:1|0:0,0:0:0:0:
496,212,44081,5,0,0:0:0:0:
429,173,44206,2,0,P|410:132|414:87,1,90.0000034332277,4|0,0:0|0:0,0:0:0:0:
384,236,44581,1,0,1:0:0:0:
316,272,44706,1,0,3:0:0:0:
260,220,44831,2,0,P|212:208|192:212,1,60,0|0,3:0|0:0,0:0:0:0:
133,376,45081,6,0,P|195:353|216:292,1,135.000005149841,4|0,0:0|0:0,0:0:0:0:
215,291,45581,2,0,P|260:305|301:294,1,90,2|0,0:1|0:0,0:0:0:0:
320,276,45956,1,0,3:0:0:0:
340,260,46081,2,0,P|383:249|425:263,1,90,0|0,0:0|3:0,0:0:0:0:
260,220,46581,1,2,0:1:0:0:
312,64,46831,1,0,0:0:0:0:
340,260,47081,6,0,P|272:311|222:301,1,135.000005149841,0|0,3:0|0:0,0:0:0:0:
226,304,47581,2,0,P|165:299|134:318,1,90.0000034332277,2|0,0:1|0:0,0:0:0:0:
125,334,47956,1,0,3:0:0:0:
112,360,48081,2,0,P|67:364|27:345,1,90.0000034332277,0|0,0:0|3:0,3:0:0:0:
188,376,48581,1,2,0:1:0:0:
260,228,48831,5,0,0:0:0:0:
256,200,48956,1,0,0:0:0:0:
244,176,49081,2,0,P|164:180|168:272,2,180.000006866455,8|2|0,0:0|0:1|0:0,0:0:0:0:
300,280,50331,5,0,3:0:0:0:
332,136,50581,1,2,0:1:0:0:
204,223,50831,1,2,0:0:0:0:
366,283,51081,6,0,P|363:235|279:230,1,135.000005149841,0|0,3:0|0:0,0:0:0:0:
204,223,51581,2,0,P|247:234|289:220,1,90.0000034332277,2|0,0:1|0:0,0:0:0:0:
400,104,52081,5,0,0:0:0:0:
392,180,52206,2,0,P|413:234|466:259,1,120,4|0,0:0|3:0,0:0:0:0:
462,150,52581,1,0,1:0:0:0:
396,183,52706,1,0,3:0:0:0:
316,172,52831,1,0,3:0:0:0:
256,108,52956,1,0,0:0:0:0:
244,20,53081,6,0,P|301:32|338:78,1,120,4|0,0:0|0:0,0:0:0:0:
220,192,53581,2,0,P|176:152|167:93,1,120,0|0,1:0|0:0,0:0:0:0:
223,195,53956,1,0,0:0:0:0:
300,160,54081,2,0,P|357:172|394:218,2,120,2|0|0,0:1|3:0|1:0,0:0:0:0:
284,299,54831,2,0,P|303:276|312:247,1,60
132,232,55081,6,0,P|151:287|201:318,1,120,0|0,3:0|0:0,0:0:0:0:
89,154,55456,1,0,0:0:0:0:
89,154,55581,2,0,P|50:198|48:257,1,120,0|0,1:0|0:0,0:0:0:0:
64,64,56081,1,2,3:1:0:0:
220,232,56331,1,0,3:1:0:0:
288,13,56581,1,0,1:0:0:0:
64,64,56831,1,0,0:0:0:0:
220,232,57081,6,0,P|277:243|329:216,1,120,8|0,0:0|0:0,0:0:0:0:
384,56,57581,2,0,P|442:58|486:97,1,120,0|0,1:0|0:0,0:0:0:0:
480,184,57956,1,0,0:0:0:0:
408,136,58081,2,0,P|380:84|392:27,1,120,2|0,0:1|3:0,0:0:0:0:
413,140,58456,1,0,3:0:0:0:
296,100,58581,2,0,P|240:118|208:167,1,120,0|0,1:0|0:0,0:0:0:0:
236,248,58956,1,0,3:0:0:0:
292,184,59081,5,0,3:1:0:0:
69,140,59331,1,0,0:0:0:0:
143,355,59581,1,0,1:0:0:0:
292,184,59831,1,0,0:0:0:0:
69,140,60081,5,2,0:1:0:0:
112,241,60206,2,0,P|144:175|211:145,1,150,4|0,0:0|0:0,0:0:0:0:
292,184,60581,1,0,1:0:0:0:
216,150,60706,1,0,3:0:0:0:
224,67,60831,1,0,3:0:0:0:
305,49,60956,1,0,0:0:0:0:
347,121,61081,6,0,P|408:152|468:136,1,120,4|0,0:0|0:0,0:0:0:0:
512,88,61456,1,0,0:0:0:0:
476,220,61581,2,0,P|479:288|523:332,1,120,0|0,1:0|0:0,0:0:0:0:
284,164,62081,1,2,0:1:0:0:
476,220,62331,1,0,3:0:0:0:
244,296,62581,1,0,1:0:0:0:
320,64,62831,5,0,0:0:0:0:
320,64,62956,1,0,0:0:0:0:
320,64,63081,2,0,P|316:132|272:176,1,120,0|0,3:0|0:0,0:0:0:0:
208,190,63456,1,0,0:0:0:0:
148,140,63581,2,0,P|89:132|38:162,1,120,0|0,1:0|0:0,0:0:0:0:
172,288,64081,1,2,0:1:0:0:
220,112,64331,2,0,L|240:32,2,60,0|0|0,0:0|0:0|1:0,0:0:0:0:
240,332,64831,5,0,0:0:0:0:
309,368,64956,1,0,0:0:0:0:
384,348,65081,2,0,P|416:316|408:188,1,180,8|0,0:0|0:0,0:0:0:0:
360,124,65581,2,0,P|348:76|376:12,1,120,0|0,1:0|0:0,0:0:0:0:
324,256,66081,1,2,0:1:0:0:
440,76,66331,1,0,3:0:0:0:
227,66,66581,1,0,1:0:0:0:
324,256,66831,2,0,P|328:208|320:188,1,60,0|0,0:0|3:0,0:0:0:0:
234,190,67081,6,0,P|267:238|324:256,1,120,0|0,3:0|0:0,0:0:0:0:
376,112,67581,2,0,P|322:86|265:100,1,120,0|0,1:0|0:0,0:0:0:0:
300,340,68081,5,2,0:1:0:0:
300,340,68206,2,0,P|358:335|401:292,1,120,4|0,0:0|0:0,0:0:0:0:
412,208,68581,5,0,1:0:0:0:
251,185,68706,1,0,1:0:0:0:
395,109,68831,1,0,3:0:0:0:
323,255,68956,1,0,3:0:0:0:
295,95,69081,6,0,L|279:0,2,90,4|0|2,0:0|0:0|0:1,0:0:0:0:
264,252,70081,2,0,P|234:285|193:303,2,90,2|0|0,0:1|0:0|3:0,0:0:0:0:
160,128,71081,2,0,P|115:123|73:137,2,90,0|0|2,0:0|3:0|0:1,0:0:0:0:
212,192,72081,5,2,0:1:0:0:
288,172,72331,5,2,0:0:0:0:
364,152,72581,5,10,0:0:0:0:
440,132,72831,5,0,0:0:0:0:
409,289,73081,6,0,L|425:384,2,90,4|0|2,0:0|0:0|0:1,0:0:0:0:
440,132,74081,2,0,P|470:99|511:81,2,90,2|0|0,0:1|0:0|3:0,0:0:0:0:
328,256,75081,2,0,P|283:258|241:242,2,90,0|0|2,0:0|3:0|0:1,0:0:0:0:
384,172,76081,2,0,P|342:155|297:158,1,90,8|0,0:0|0:0,0:0:0:0:
328,256,76581,5,0,1:0:0:0:
388,175,76706,1,0,1:0:0:0:
413,274,76831,2,0,P|454:290|499:287,1,60,0|0,3:0|0:0,0:0:0:0:
328,256,77081,6,0,P|284:296|292:380,1,150,4|0,0:0|0:0,0:0:0:0:
308,176,77456,1,0,0:0:0:0:
308,176,77581,2,0,P|348:220|436:216,1,150,0|0,1:0|0:0,0:0:0:0:
28,256,78081,6,0,P|95:280|154:239,1,150,2|2,0:1|0:1,0:0:0:0:
190,163,78456,1,0,0:0:0:0:
248,384,78581,2,0,L|234:235,1,150,0|0,1:0|0:0,0:0:0:0:
304,39,79081,6,0,L|331:263,2,225,4|4|4,1:0|0:0|0:0,0:0:0:0:
254,363,80206,5,0,0:0:0:0:
254,363,80331,2,0,L|240:244,1,75,4|0,0:1|0:0,0:0:0:0:
206,161,80581,1,0,0:1:0:0:
226,147,80664,1,0,3:0:0:0:
249,152,80747,1,0,3:0:0:0:
260,174,80831,1,0,3:0:0:0:
251,196,80914,1,0,3:0:0:0:
228,204,80997,1,0,3:0:0:0:
208,192,81081,6,0,P|165:163|72:176,1,150,4|0,0:0|0:0,0:0:0:0:
32,252,81456,1,0,0:0:0:0:
72,88,81581,2,0,P|122:102|144:128,1,75,0|0,1:0|0:0,0:0:0:0:
237,233,81831,1,0,0:0:0:0:
204,60,81956,1,0,0:0:0:0:
71,176,82081,5,2,0:1:0:0:
416,112,82331,2,0,P|355:151|345:212,1,75,2|0,0:1|0:0,0:0:0:0:
432,200,82581,2,0,P|501:146|491:62,1,150,0|0,1:1|0:0,0:0:0:0:
432,200,82956,1,0,0:0:0:0:
264,88,83081,6,0,P|200:80|136:136,1,150,4|0,0:0|0:0,0:0:0:0:
232,238,83456,1,0,0:0:0:0:
232,238,83581,2,0,P|235:201|220:168,1,75,0|0,1:0|0:0,0:0:0:0:
80,196,83831,2,0,P|110:215|147:218,1,75,0|0,0:1|0:0,0:0:0:0:
348,176,84081,5,2,0:1:0:0:
348,176,84331,5,2,0:1:0:0:
373,47,84456,1,0,0:0:0:0:
348,176,84581,5,0,1:0:0:0:
275,67,84706,1,0,0:0:0:0:
348,176,84831,5,0,1:1:0:0:
220,149,84956,1,0,3:0:0:0:
348,176,85081,5,4,0:0:0:0:
236,298,85206,1,0,0:0:0:0:
185,141,85331,1,0,0:0:0:0:
297,17,85456,1,2,0:0:0:0:
339,147,85581,1,2,0:0:0:0:
208,118,85706,1,0,0:0:0:0:
192,88,85956,5,2,0:0:0:0:
153,83,86331,5,0,3:0:0:0:
119,94,86581,1,0,1:0:0:0:
95,120,86831,1,0,0:0:0:0:
87,154,86956,6,0,P|148:248|259:227,1,240,4|0,0:0|0:0,0:0:0:0:
220,48,87331,2,0,P|187:97|188:157,1,120,0|0,1:0|0:0,0:0:0:0:
319,310,87581,2,0,P|360:204|280:125,1,240,4|0,3:1|0:0,0:0:0:0:
420,344,87956,6,0,P|498:354|439:267,1,240,4|0,1:0|0:0,0:0:0:0:
224,360,88331,2,0,P|213:301|235:246,1,120,0|0,1:0|0:0,0:0:0:0:
312,28,88581,2,0,P|322:86|299:140,1,120,4|0,0:0|0:0,0:0:0:0:
140,192,88830,1,0,0:0:0:0:
420,104,88956,6,0,B|484:97|527:145|527:145|485:194|419:182,1,240,4|0,1:0|0:0,0:0:0:0:
248,228,89331,2,0,P|261:170|304:129,1,120,0|0,1:0|0:0,0:0:0:0:
300,326,89581,2,0,P|243:343|186:326,1,120,4|0,0:0|0:0,0:0:0:0:
190,131,89831,2,0,P|246:113|303:130,1,120,0|0,1:0|0:0,0:0:0:0:
148,220,90081,6,0,P|96:118|171:33,1,240,4|0,1:0|1:0,0:0:0:0:
360,304,90456,2,0,P|439:294|359:225,1,240,4|0,0:2|0:0,0:0:0:0:
148,324,90831,2,0,P|205:311|245:267,1,120,0|0,1:0|0:0,0:0:0:0:
256,40,91081,5,4,0:2:0:0:
332,324,91331,2,0,P|371:366|429:379,1,120,0|0,1:0|0:0,0:0:0:0:
429,173,91581,2,0,P|373:185|332:229,1,120,0|0,3:0|0:0,0:0:0:0:
512,332,91831,2,0,P|528:277|511:220,1,120,0|0,1:0|0:0,0:0:0:0:
214,178,92081,6,0,B|181:177|163:206|163:206|192:238|269:257|332:229,1,240,2|0,0:0|1:0,0:0:0:0:
450,37,92456,2,0,P|339:27|295:130,1,240,2|0,0:0|0:0,0:0:0:0:
420,284,92831,2,0,P|436:229|419:172,1,120,0|0,1:0|0:0,0:0:0:0:
344,344,93081,6,0,B|272:356|228:300|228:300|172:280|120:312,1,240,0|0,3:0|1:0,0:0:0:0:
320,232,93456,2,0,P|332:170|206:179,1,240,0|0,3:0|0:0,0:0:0:0:
344,344,93831,1,4,1:0:0:0:
428,84,93956,1,4,3:1:0:0:
344,344,94206,6,0,P|331:282|459:292,1,240,4|0,0:0|0:0,0:0:0:0:
213,129,94581,5,0,1:0:0:0:
396,144,94706,1,0,1:0:0:0:
240,240,94831,5,0,3:0:0:0:
309,71,94956,1,0,3:0:0:0:
353,248,95081,5,4,0:0:0:0:
149,56,95331,2,0,P|122:108|127:167,1,120,0|0,1:0|0:0,0:0:0:0:
325,152,95581,2,0,P|273:124|214:129,1,120,0|0,3:0|0:0,0:0:0:0:
153,256,95831,2,0,P|185:306|239:331,1,120,0|0,1:0|0:0,0:0:0:0:
464,212,96081,6,0,P|482:102|383:49,1,240,2|0,0:0|1:0,0:0:0:0:
252,227,96456,2,0,P|272:336|382:352,1,240,2|0,0:0|0:0,0:0:0:0:
325,152,96831,2,0,P|273:124|214:129,1,120,0|0,1:0|0:0,0:0:0:0:
97,321,97081,6,0,P|209:330|252:227,1,240,0|0,3:0|1:0,0:0:0:0:
256,48,97456,2,0,P|145:67|130:179,1,240
348,124,97831,2,0,P|399:152|427:205,1,120,0|0,1:0|0:0,0:0:0:0:
226,277,98081,6,0,P|241:163|347:123,1,240,0|0,3:0|1:0,0:0:0:0:
420,305,98456,2,0,P|314:348|225:276,1,240
424,191,98831,2,0,P|439:249|420:305,1,120,0|0,1:0|0:0,0:0:0:0:
140,112,99081,5,4,0:0:0:0:
439,93,99331,2,0,P|381:102|339:144,1,120,0|0,1:0|0:0,0:0:0:0:
420,305,99581,2,0,P|439:249|425:192,1,120,0|0,3:0|0:0,0:0:0:0:
245,182,99831,2,0,P|283:227|340:244,1,120,0|0,1:0|0:0,0:0:0:0:
512,140,100081,5,0,3:0:0:0:
159,337,100331,2,0,P|102:321|64:276,1,120,0|0,1:0|0:0,0:0:0:0:
245,182,100581,2,0,P|259:239|240:295,1,120,0|0,3:0|0:0,0:0:0:0:
69,185,100831,2,0,P|110:144|168:131,1,120,0|0,1:0|0:0,0:0:0:0:
354,249,101081,5,4,0:0:0:0:
273,47,101206,1,0,3:0:0:0:
219,258,101331,5,0,0:0:0:0:
386,117,101456,1,0,3:1:0:0:
169,132,101581,5,0,3:0:0:0:
354,249,101706,1,4,1:0:0:0:
354,249,101956,6,0,P|355:183|498:159,1,240,4|0,0:0|0:0,0:0:0:0:
370,333,102331,2,0,P|311:323|274:279,1,120,0|0,1:0|3:0,0:0:0:0:
433,217,102581,5,0,3:0:0:0:
438,262,102643,1,0,3:0:0:0:
420,302,102706,1,0,3:0:0:0:
384,329,102768,1,0,3:0:0:0:
340,333,102831,1,0,3:0:0:0:
299,316,102893,1,0,3:0:0:0:
273,278,102956,6,0,P|163:253|99:347,1,240,4|0,0:0|0:0,0:0:0:0:
335,354,103331,2,0,P|368:305|367:245,1,120,0|0,1:0|0:0,0:0:0:0:
152,20,103581,2,0,P|185:126|299:135,1,240,4|0,0:1|0:0,0:0:0:0:
444,68,103956,6,0,P|337:101|328:215,1,240,4|0,1:0|0:0,0:0:0:0:
509,222,104331,2,0,P|471:177|414:163,1,120,0|0,1:0|0:0,0:0:0:0:
140,312,104581,2,0,P|198:300|239:258,1,120,4|0,0:0|0:0,0:0:0:0:
264,40,104831,1,0,0:0:0:0:
363,344,104956,6,0,P|328:236|414:164,1,240,4|0,1:0|0:0,0:0:0:0:
475,346,105331,2,0,P|418:362|362:343,1,120,0|0,1:0|0:0,0:0:0:0:
204,120,105581,2,0,P|251:85|310:84,1,120,4|0,0:0|0:0,0:0:0:0:
164,212,105831,2,0,P|117:174|101:117,1,120,0|0,1:0|0:0,0:0:0:0:
216,300,106081,6,0,P|322:338|397:254,1,240,4|0,1:0|1:0,0:0:0:0:
452,64,106456,2,0,P|340:83|317:194,1,240,4|0,0:0|0:0,0:0:0:0:
496,228,106831,2,0,P|465:177|411:153,1,120,0|0,1:0|0:0,0:0:0:0:
216,300,107081,5,4,0:0:0:0:
92,28,107331,2,0,P|150:30|199:64,1,120,0|0,1:0|0:0,0:0:0:0:
87,228,107581,2,0,P|88:168|122:120,1,120,0|0,3:3|0:0,0:0:0:0:
263,135,107831,2,0,P|290:187|284:246,1,120,0|0,1:0|0:0,0:0:0:0:
263,135,108081,6,0,P|338:51|444:90,1,240,2|0,0:0|1:0,0:0:0:0:
492,285,108456,2,0,P|381:261|363:150,1,240,2|0,0:0|0:0,0:0:0:0:
308,320,108831,2,0,P|255:347|196:341,1,120,0|0,1:0|0:0,0:0:0:0:
24,148,109081,6,0,P|94:241|209:210,1,240,0|0,3:0|1:0,0:0:0:0:
193,59,109456,2,0,P|74:52|25:160,1,240
268,16,109831,1,4,1:0:0:0:
172,316,109956,1,0,3:0:0:0:
172,316,110206,6,0,P|218:213|331:218,1,240,4|0,0:0|0:0,0:0:0:0:
88,199,110581,5,0,1:0:0:0:
452,44,110706,1,0,1:0:0:0:
331,218,110831,1,0,3:0:0:0:
240,26,110956,1,0,3:0:0:0:
416,228,111081,6,0,P|311:259|239:363,1,240,4|0,0:0|1:0,0:0:0:0:
371,43,111456,6,0,P|314:137|195:180,1,240,4|0,0:1|0:0,0:0:0:0:
504,253,111831,6,0,P|398:228|284:282,1,240,4|0,0:0|0:0,0:0:0:0:
360,116,112206,5,0,3:0:0:0:
283,282,112331,6,0,P|227:302|168:298,1,120,0|0,1:0|3:0,0:0:0:0:
0,190,112581,6,0,P|42:221|96:228,1,107.999996704102,0|0,3:0|3:0,0:0:0:0:
244,60,112831,6,0,P|238:106|211:146,1,96,0|0,3:0|0:0,0:0:0:0:
96,228,113081,6,0,P|201:259|273:363,1,240,4|0,1:2|1:0,0:0:0:0:
141,43,113456,6,0,P|198:137|317:180,1,240,4|0,1:0|0:0,0:0:0:0:
8,253,113831,6,0,P|114:228|228:282,1,240,4|0,0:0|0:0,0:0:0:0:
228,282,114331,6,0,P|202:175|382:45,1,360,4|0,1:0|0:0,0:0:0:0:
512,136,114831,1,0,1:0:0:0:
472,56,114956,1,0,3:0:0:0:
512,136,115081,1,0,0:0:0:0:
512,136,115456,6,0,P|524:242|418:246,1,240,4|0,1:0|0:0,0:0:0:0:
238,158,115831,6,0,P|317:280|367:143,1,360,4|0,0:0|3:0,0:0:0:0:
432,18,116456,5,0,1:0:0:0:
432,18,116581,1,0,3:0:0:0:
432,18,116706,1,0,3:0:0:0:
432,18,116831,1,0,3:0:0:0:
432,18,116956,1,0,0:0:0:0:
432,18,117081,6,0,P|342:93|317:209,1,240,4|0,1:0|0:0,0:0:0:0:
65,143,117456,6,0,P|172:191|225:297,1,240,4|0,0:0|0:0,0:0:0:0:
215,47,117831,5,0,0:0:0:0:
368,120,118331,5,2,0:0:0:0:
308,48,118581,5,0,0:0:0:0:
240,72,118831,5,0,0:0:0:0:
215,47,119081,6,0,P|231:104|216:161,1,120.000004577637,4|0,0:0|0:0,0:0:0:0:
109,202,119331,1,0,0:0:0:0:
139,176,119414,1,0,0:0:0:0:
176,162,119497,1,0,0:0:0:0:
216,161,119580,1,0,1:0:0:0:
349,214,119747,2,0,P|396:220|460:183,1,120.000004577637
464,0,119997,2,0,P|388:40|386:126,1,180.000006866455,2|0,0:0|0:0,0:0:0:0:
491,264,120331,2,0,P|484:220|457:185,1,90.0000034332277,2|0,0:0|0:0,0:0:0:0:
300,130,120581,1,0,1:0:0:0:
460,84,120706,1,0,0:0:0:0:
359,214,120831,1,0,0:0:0:0:
364,49,120956,1,0,0:0:0:0:
457,185,121081,5,2,0:1:0:0:
200,68,121247,2,0,P|124:108|122:194,1,180.000006866455
168,256,121581,1,0,1:0:0:0:
54,69,121747,1,0,0:0:0:0:
28,64,121831,1,0,0:0:0:0:
194,151,121997,1,0,0:0:0:0:
220,156,122081,1,2,0:0:0:0:
46,223,122247,1,0,0:0:0:0:
40,249,122331,1,2,0:1:0:0:
152,64,122497,1,0,0:0:0:0:
158,38,122581,2,0,P|90:44|146:91,1,180.000006866455,0|0,1:0|0:0,0:0:0:0:
360,40,123081,6,0,P|418:39|464:76,1,120.000004577637,8|0,0:0|0:0,0:0:0:0:
476,114,123331,1,0,0:0:0:0:
476,153,123414,1,0,0:0:0:0:
464,191,123497,1,0,0:0:0:0:
440,222,123581,1,0,1:0:0:0:
300,216,123747,2,0,P|332:162|395:145,1,120.000004577637
317,308,123997,2,0,P|233:287|204:205,1,180.000006866455,2|0,0:0|0:0,0:0:0:0:
383,228,124331,2,0,P|411:264|417:308,1,90.0000034332277,2|0,0:0|0:0,0:0:0:0:
244,40,124581,1,0,1:0:0:0:
300,216,124706,1,0,0:0:0:0:
424,80,124831,1,0,0:0:0:0:
248,136,124956,1,0,0:0:0:0:
460,68,125081,5,0,3:0:0:0:
244,304,125331,2,0,P|181:303|134:256,1,120.000004577637,2|0,0:0|0:0,0:0:0:0:
64,224,125581,2,0,P|107:235|139:267,1,90.0000034332277,0|0,1:0|0:0,0:0:0:0:
64,312,125831,1,2,0:0:0:0:
216,220,125956,2,0,P|278:220|332:316,1,180.000006866455,0|4,0:0|0:0,0:0:0:0:
244,88,126331,1,0,1:0:0:0:
332,313,126456,1,0,1:0:0:0:
244,88,126706,2,0,P|176:34|92:64,1,180.000006866455,4|0,1:0|0:0,0:0:0:0:
110,211,127081,6,0,P|168:223|221:198,1,120.000004577637,4|0,0:0|0:0,0:0:0:0:
244,88,127331,1,0,0:0:0:0:
224,122,127414,1,0,0:0:0:0:
217,162,127497,1,0,0:0:0:0:
224,200,127580,1,0,1:0:0:0:
300,276,127747,2,0,P|304:323|265:385,1,120.000004577637
82,383,127997,2,0,P|124:308|210:309,1,180.000006866455,2|0,0:0|0:0,0:0:0:0:
388,360,128331,2,0,P|441:334|469:282,1,90.0000034332277,2|0,0:0|0:0,0:0:0:0:
380,100,128581,1,0,1:0:0:0:
375,265,128706,1,0,0:0:0:0:
476,135,128831,1,0,0:0:0:0:
316,181,128956,1,0,0:0:0:0:
473,236,129081,5,2,0:1:0:0:
240,152,129247,2,0,P|198:76|244:3,1,180.000006866455
316,181,129581,1,0,1:0:0:0:
487,76,129747,1,0,0:0:0:0:
502,48,129831,1,0,0:0:0:0:
403,230,129996,1,0,0:0:0:0:
419,256,130080,1,2,0:0:0:0:
312,80,130246,1,0,0:0:0:0:
280,80,130330,1,2,0:1:0:0:
419,256,130497,1,0,0:0:0:0:
434,283,130581,2,0,P|479:235|400:230,1,180.000006866455,0|0,1:0|0:0,0:0:0:0:
213,350,131081,6,0,P|255:308|271:251,1,120.000004577637,8|0,0:0|0:0,0:0:0:0:
270,212,131331,1,0,0:0:0:0:
261,174,131414,1,0,0:0:0:0:
239,142,131497,1,0,0:0:0:0:
205,118,131580,1,0,1:0:0:0:
271,251,131706,2,0,P|328:267|385:252,1,120.000004577637
236,164,131997,2,0,P|179:229|202:313,1,180.000006866455,2|0,0:0|0:0,0:0:0:0:
328,168,132331,2,0,P|312:112|261:74,1,90.0000034332277,2|0,0:0|0:0,0:0:0:0:
107,279,132581,1,0,1:0:0:0:
87,98,132706,1,0,0:0:0:0:
109,311,132831,1,0,0:0:0:0:
184,143,132956,1,0,3:0:0:0:
1,163,133081,5,0,1:0:0:0:
303,287,133206,2,0,P|385:262|407:179,1,180.000006866455,4|0,0:0|0:0,0:0:0:0:
88,208,133581,5,0,1:0:0:0:
321,68,133706,1,0,1:0:0:0:
206,273,133831,5,0,1:0:0:0:
202,2,133956,1,0,3:0:0:0:
324,204,134081,6,0,L|264:171,1,60.0000022888184,4|0,1:0|0:0,0:0:0:0:
85,72,134331,1,0,3:0:0:0:
332,208,134456,1,4,0:0:0:0:
332,208,134956,5,0,0:0:0:0:
348,220,135081,2,0,P|384:236|464:224,1,120,8|0,0:0|0:0,0:0:0:0:
264,276,136081,2,0,P|198:334|111:326,1,180
21,384,137081,2,0,P|5:348|17:268,1,120,8|0,0:0|0:0,0:0:0:0:
15,270,138081,1,0,0:0:0:0:
15,270,138956,5,0,0:0:0:0:
28,256,139081,2,0,P|85:242|141:261,1,120,8|0,0:0|0:0,0:0:0:0:
377,154,140081,2,0,P|290:146|225:205,1,180
328,356,141081,2,0,P|341:298|322:242,1,120,8|0,0:0|0:0,0:0:0:0:
322,242,142081,1,0,0:0:0:0:
322,242,142831,1,0,0:0:0:0:
416,260,143081,6,0,P|472:242|511:197,1,90.0000034332277,8|0,0:0|0:0,0:0:0:0:
512,196,143456,1,0,0:0:0:0:
512,164,143581,2,0,P|494:107|449:68,1,90.0000034332277,2|0,0:1|0:0,0:0:0:0:
322,242,144081,2,0,P|284:264|196:256,2,135.000005149841,2|0|2,0:0|0:0|0:1,0:0:0:0:
196,160,145081,6,0,P|139:177|100:222,1,90.0000034332277,0|0,0:1|0:0,0:0:0:0:
100,224,145456,1,0,0:0:0:0:
100,256,145581,2,0,P|117:312|162:351,1,90.0000034332277,2|0,0:1|0:0,0:0:0:0:
280,212,146081,2,0,P|292:146|265:86,2,135.000005149841,2|0|2,0:0|0:0|0:1,0:0:0:0:
196,256,146956,1,0,0:0:0:0:
380,228,147081,6,0,P|456:260|480:352,1,180.000006866455,8|2,0:0|0:1,0:0:0:0:
384,328,147831,1,0,0:0:0:0:
288,228,148081,2,0,P|298:184|326:150,1,90.0000034332277,0|0,3:0|0:0,0:0:0:0:
288,324,148581,2,0,P|244:313|210:285,1,90.0000034332277
144,216,149081,2,0,P|78:214|36:268,2,135.000005149841,8|0|8,0:0|0:0|0:0,0:0:0:0:
112,288,150081,6,0,P|186:286|224:214,1,135.000005149841,2|0,0:1|3:0,0:0:0:0:
204,56,150581,1,0,1:0:0:0:
286,101,150706,1,0,3:0:0:0:
304,188,150831,1,0,3:0:0:0:
288,272,150956,1,0,0:0:0:0:
314,349,151081,6,0,L|446:380,2,135.000005149841,4|2|0,0:0|0:0|0:0,0:0:0:0:
368,248,152081,2,0,L|500:279,2,135.000005149841,2|2|0,0:1|0:0|3:0,0:0:0:0:
264,272,153081,2,0,L|131:303,2,135.000005149841,0|0|2,3:0|0:0|0:0,0:0:0:0:
296,284,153956,5,0,0:0:0:0:
328,280,154081,1,0,0:0:0:0:
384,224,154331,5,2,0:0:0:0:
304,204,154581,5,8,0:0:0:0:
328,280,154831,5,0,0:0:0:0:
364,144,155081,6,0,L|398:12,2,135.000005149841,4|2|0,0:0|0:0|0:0,0:0:0:0:
272,116,156081,2,0,L|140:81,2,135.000005149841,2|2|0,0:1|0:0|3:0,0:0:0:0:
216,216,157081,2,0,L|84:181,2,135.000005149841,0|0|2,3:0|0:0|0:0,0:0:0:0:
320,260,158081,2,0,P|364:278|443:249,1,135.000005149841
496,180,158581,5,0,1:0:0:0:
442,249,158706,1,0,3:0:0:0:
376,188,158831,2,0,P|332:168|252:196,1,75,0|0,3:0|0:0,0:0:0:0:
284,384,159081,6,0,P|333:331|320:260,1,150,4|0,0:0|0:0,0:0:0:0:
268,88,159456,1,0,0:0:0:0:
268,88,159581,2,0,P|218:141|232:212,1,150,0|0,1:0|0:0,0:0:0:0:
512,248,160081,2,0,P|458:198|387:212,1,150,2|2,0:1|0:1,0:0:0:0:
320,260,160456,1,0,3:0:0:0:
294,31,160581,2,0,L|312:180,1,150,0|0,1:0|0:0,0:0:0:0:
192,376,161081,6,0,P|103:364|65:246,2,225,4|4|4,1:0|0:0|0:0,0:0:0:0:
314,66,162206,5,0,0:0:0:0:
314,66,162331,2,0,P|288:92|275:127,1,75,4|0,0:1|0:0,0:0:0:0:
266,318,162581,1,0,1:0:0:0:
284,282,162664,1,0,3:0:0:0:
281,243,162747,1,0,3:0:0:0:
258,211,162831,1,0,3:0:0:0:
222,195,162914,1,0,3:0:0:0:
183,201,162997,1,0,0:0:0:0:
153,226,163081,6,0,P|78:240|23:161,1,150,4|0,0:0|0:0,0:0:0:0:
102,331,163456,1,0,0:0:0:0:
105,161,163581,2,0,P|140:146|177:148,1,75,0|0,1:0|0:0,0:0:0:0:
291,207,163831,1,0,0:0:0:0:
153,226,163956,1,0,0:0:0:0:
204,97,164081,5,2,0:1:0:0:
392,336,164331,2,0,P|430:347|469:338,1,75,2|0,0:1|0:0,0:0:0:0:
494,152,164581,2,0,P|433:191|429:264,1,150,0|0,1:0|0:0,0:0:0:0:
428,263,164956,1,0,0:0:0:0:
340,196,165081,6,0,P|275:163|210:195,1,150,4|0,0:0|0:0,0:0:0:0:
160,269,165456,1,0,0:0:0:0:
160,269,165581,2,0,P|123:292|87:293,1,75,0|0,1:0|0:0,0:0:0:0:
32,236,165831,2,0,P|69:213|105:212,1,75
217,323,166081,5,2,0:1:0:0:
105,214,166331,5,2,0:1:0:0:
224,330,166456,1,0,0:0:0:0:
219,164,166581,5,0,1:0:0:0:
224,330,166706,1,0,0:0:0:0:
338,208,166831,5,0,1:0:0:0:
224,330,166956,1,0,1:0:0:0:
457,252,167081,5,4,0:0:0:0:
219,164,167206,1,0,0:0:0:0:
365,132,167331,1,0,0:0:0:0:
309,282,167456,1,2,0:0:0:0:
382,89,167581,1,2,0:0:0:0:
294,327,167706,1,0,0:0:0:0:
278,371,167956,5,2,0:0:0:0:
297,321,168331,5,0,3:0:0:0:
288,268,168581,1,0,1:0:0:0:
254,226,168831,1,0,0:0:0:0:
211,196,168956,6,0,P|135:191|63:324,1,240,4|0,0:0|0:0,0:0:0:0:
356,216,169331,2,0,P|375:160|358:102,1,120,0|0,1:0|0:0,0:0:0:0:
270,272,169581,2,0,P|333:314|461:234,1,240,4|0,0:1|0:0,0:0:0:0:
380,18,169956,6,0,P|285:38|358:103,1,240,4|0,1:0|0:0,0:0:0:0:
176,36,170331,2,0,P|117:31|66:62,1,120,0|0,1:0|0:0,0:0:0:0:
106,238,170581,2,0,P|139:188|138:129,1,120,4|0,0:0|0:0,0:0:0:0:
136,328,170831,1,0,0:0:0:0:
245,95,170956,6,0,P|356:93|395:217,1,240,4|0,1:0|0:0,0:0:0:0:
339,383,171331,2,0,P|323:326|343:271,1,120,0|0,1:0|0:0,0:0:0:0:
499,145,171581,2,0,P|458:187|400:199,1,120,4|0,0:0|0:0,0:0:0:0:
224,26,171831,2,0,P|184:69|180:127,1,120,0|0,1:0|0:0,0:0:0:0:
192,336,172081,6,0,P|149:231|36:231,1,240,4|0,1:0|1:0,0:0:0:0:
296,320,172456,2,0,B|395:339|413:289|430:235|515:248,1,240,4|0,0:2|0:0,0:0:0:0:
331,233,172831,2,0,P|288:170|306:100,1,120,0|0,1:0|0:0,0:0:0:0:
493,341,173081,1,4,0:0:0:0:
297,47,173331,6,0,P|236:68|210:113,1,120,0|0,1:0|0:0,0:0:0:0:
100,340,173581,2,0,P|161:319|187:274,1,120,0|0,3:0|0:0,0:0:0:0:
119,78,173831,2,0,P|114:136|145:188,1,120,0|0,1:0|0:0,0:0:0:0:
368,194,174081,6,0,P|319:94|209:113,1,240,2|0,0:0|1:0,0:0:0:0:
325,280,174456,2,0,B|386:307|463:288|492:256|492:256|474:227|441:228,1,240,2|0,0:0|0:0,0:0:0:0:
260,200,174831,2,0,P|228:249|227:308,1,120,0|0,1:0|0:0,0:0:0:0:
437,341,175081,6,0,P|455:285|440:228,1,120,0|0,3:0|0:0,0:0:0:0:
248,12,175331,2,0,P|258:70|300:111,1,120,0|0,1:0|0:0,0:0:0:0:
500,154,175581,2,0,P|444:133|388:150,1,120,0|0,3:0|0:0,0:0:0:0:
257,234,175831,1,4,1:0:0:0:
344,24,175956,1,4,3:1:0:0:
257,234,176206,6,0,P|163:171|77:243,1,240,4|0,0:0|0:0,0:0:0:0:
285,117,176581,5,0,1:0:0:0:
103,88,176706,1,0,1:0:0:0:
309,89,176831,5,0,3:0:0:0:
169,260,176956,1,0,3:0:0:0:
90,54,177081,5,4,0:0:0:0:
217,336,177331,2,0,P|255:292|256:233,1,120,0|0,1:0|0:0,0:0:0:0:
106,323,177581,2,0,P|159:349|217:336,1,120,0|0,3:0|0:0,0:0:0:0:
324,60,177831,2,0,P|268:79|238:130,1,120,0|0,1:0|0:0,0:0:0:0:
360,338,178081,6,0,P|400:277|302:143,1,240,2|0,0:0|1:0,0:0:0:0:
193,243,178456,2,0,P|245:343|359:337,1,240,2|0,0:0|0:0,0:0:0:0:
386,79,178831,2,0,P|332:53|275:66,1,120,0|0,1:0|0:0,0:0:0:0:
93,280,179081,6,0,P|116:168|227:143,1,240,0|0,3:0|1:0,0:0:0:0:
288,297,179456,2,0,P|186:348|94:281,1,240,0|0,3:0|0:0,0:0:0:0:
248,48,179831,2,0,P|300:73|327:126,1,120,0|0,1:0|0:0,0:0:0:0:
400,336,180081,6,0,P|449:368|507:364,1,120,2|0,3:2|0:0,0:0:0:0:
436,140,180331,1,0,1:0:0:0:
301,340,180456,2,0,P|275:229|163:206,1,240
106,360,180831,2,0,P|164:349|202:304,1,120,0|0,1:0|0:0,0:0:0:0:
256,32,181081,5,4,0:0:0:0:
400,336,181331,2,0,P|449:368|507:364,1,120,0|0,1:0|0:0,0:0:0:0:
344,264,181581,2,0,P|311:313|315:371,1,120,0|0,3:0|0:0,0:0:0:0:
416,208,181831,2,0,P|366:175|308:179,1,120,0|0,1:0|0:0,0:0:0:0:
60,348,182081,5,0,3:0:0:0:
100,28,182331,2,0,P|158:23|207:56,1,120,0|0,1:0|0:0,0:0:0:0:
56,191,182581,2,0,P|81:138|134:111,1,120,0|0,3:0|0:0,0:0:0:0:
176,312,182831,2,0,P|143:263|146:204,1,120,0|0,1:0|0:0,0:0:0:0:
352,52,183081,5,4,1:0:0:0:
232,236,183206,1,0,3:0:0:0:
452,248,183331,1,0,3:0:0:0:
238,109,183456,5,0,3:0:0:0:
338,305,183581,1,0,3:0:0:0:
458,120,183706,1,4,1:0:0:0:
457,119,183956,6,0,P|348:103|312:208,1,240,4|0,0:0|0:0,0:0:0:0:
434,347,184331,2,0,P|437:288|403:239,1,120,0|0,1:0|3:0,0:0:0:0:
248,273,184581,5,0,3:0:0:0:
288,300,184643,1,0,3:0:0:0:
336,303,184706,1,0,3:0:0:0:
378,280,184768,1,0,3:0:0:0:
404,240,184831,1,0,3:0:0:0:
406,191,184893,1,0,3:0:0:0:
383,148,184956,6,0,P|263:135|229:251,1,240,4|0,0:0|0:0,0:0:0:0:
345,323,185331,2,0,P|348:264|315:216,1,120,0|0,1:0|0:0,0:0:0:0:
120,44,185581,2,0,P|101:99|120:155,1,120,4|0,0:1|0:0,0:0:0:0:
240,20,185831,1,0,0:0:0:0:
80,236,185956,6,0,P|151:323|259:290,1,240,4|0,1:0|0:0,0:0:0:0:
327,86,186331,2,0,P|385:81|434:114,1,120,0|0,1:0|0:0,0:0:0:0:
343,286,186581,2,0,P|290:260|263:207,1,120,4|0,0:0|0:0,0:0:0:0:
248,32,186831,1,0,0:0:0:0:
168,350,186956,6,0,P|124:248|7:251,1,240,4|0,1:0|0:0,0:0:0:0:
343,286,187331,2,0,P|400:274|439:229,1,120,0|0,1:0|0:0,0:0:0:0:
239,118,187581,2,0,P|220:173|239:229,1,120,4|0,0:0|0:0,0:0:0:0:
436,111,187831,2,0,P|397:66|339:55,1,120,0|0,1:0|0:0,0:0:0:0:
225,332,188081,6,0,P|328:285|324:172,1,240,4|0,1:0|0:0,0:0:0:0:
136,122,188456,2,0,B|231:153|253:107|278:56|360:82,1,240,4|0,0:2|0:0,0:0:0:0:
328,283,188831,2,0,P|306:228|323:172,1,120,0|0,1:0|0:0,0:0:0:0:
443,20,189081,5,4,0:0:0:0:
436,307,189331,2,0,P|378:314|328:283,1,120,0|0,1:0|0:0,0:0:0:0:
170,43,189581,2,0,P|111:40|65:77,1,120,0|0,3:0|0:0,0:0:0:0:
121,268,189831,2,0,P|180:271|228:236,1,120,0|0,1:0|0:0,0:0:0:0:
53,191,190081,6,0,P|20:299|105:374,1,240,2|0,0:0|1:0,0:0:0:0:
307,176,190456,2,0,P|281:65|169:42,1,240,2|0,0:0|0:0,0:0:0:0:
227,236,190831,2,0,P|273:272|332:271,1,120,0|0,1:0|0:0,0:0:0:0:
440,38,191081,6,0,P|329:64|307:176,1,240,0|0,3:0|1:0,0:0:0:0:
458,326,191456,2,0,P|491:217|406:142,1,240
236,342,191831,1,4,1:0:0:0:
121,53,191956,1,0,3:0:0:0:
121,52,192206,6,0,P|146:163|258:185,1,240,4|0,0:0|0:0,0:0:0:0:
223,17,192581,5,0,1:0:0:0:
183,227,192706,1,0,1:0:0:0:
21,87,192831,1,0,3:0:0:0:
476,168,192956,1,0,3:0:0:0:
95,235,193081,6,0,P|200:266|272:370,1,240,4|0,0:0|1:0,0:0:0:0:
140,50,193456,6,0,P|197:144|316:187,1,240,4|0,0:1|0:0,0:0:0:0:
7,260,193831,6,0,P|113:235|227:289,1,240,4|0,0:0|0:0,0:0:0:0:
192,112,194206,5,0,3:0:0:0:
335,334,194331,6,0,P|276:322|227:288,1,120,0|0,1:0|3:0,0:0:0:0:
293,79,194581,6,0,P|298:132|277:181,1,107.999996704102,0|0,3:0|3:0,0:0:0:0:
67,224,194831,6,0,P|106:197|153:190,1,96,0|0,3:0|0:0,0:0:0:0:
415,235,195081,6,0,P|310:266|238:370,1,240,4|0,1:2|1:0,0:0:0:0:
370,50,195456,6,0,P|313:144|194:187,1,240,4|0,1:0|0:0,0:0:0:0:
503,260,195831,6,0,P|397:235|283:289,1,240,4|0,0:0|0:0,0:0:0:0:
282,289,196331,6,0,P|185:101|153:294,1,450,4|0,1:0|0:0,0:0:0:0:
147,382,196831,1,0,3:0:0:0:
174,289,196956,1,0,3:0:0:0:
80,312,197081,1,0,0:0:0:0:
80,312,197456,6,0,P|147:348|241:241,1,240,4|0,1:0|0:0,0:0:0:0:
152,257,197831,6,0,P|264:338|284:162,1,360,4|0,0:0|3:0,0:0:0:0:
432,366,198456,5,0,1:0:0:0:
432,366,198581,1,0,3:0:0:0:
432,366,198706,1,0,3:0:0:0:
432,366,198831,1,0,3:0:0:0:
432,366,198956,1,0,0:0:0:0:
432,366,199081,6,0,P|342:291|317:175,1,240,4|0,1:0|0:0,0:0:0:0:
65,241,199456,6,0,P|172:193|225:87,1,240,4|0,0:0|0:0,0:0:0:0:
215,337,199831,5,0,0:0:0:0:
248,65,200331,5,2,0:0:0:0:
274,153,200581,5,0,0:0:0:0:
227,211,200831,5,0,0:0:0:0:
256,240,201081,6,0,P|304:264|376:264,3,120,10|0|0|0,0:0|0:0|0:0|0:0,0:0:0:0:
248,104,203081,6,0,P|200:128|128:128,3,120,8|0|0|0,0:0|0:0|0:0|0:0,0:0:0:0:
336,152,205081,6,0,P|380:122|416:60,3,120,8|0|0|0,0:0|0:0|0:0|0:0,0:0:0:0:
136,248,207081,6,0,P|78:232|33:193,3,120,8|0|0|8,0:0|0:0|0:0|0:0,0:0:0:0:
237,183,209081,6,0,P|191:144|134:128,3,120,8|0|0|0,0:0|0:0|0:0|0:0,0:0:0:0:
272,312,211082,6,0,P|301:260|350:226,3,120,8|0|0|0,0:0|0:0|0:0|0:0,0:0:0:0:
136,248,213081,6,0,P|76:248|22:273,3,120,8|0|0|0,0:0|0:0|0:0|0:0,0:0:0:0:
316,124,215081,6,0,P|375:124|429:149,3,120,8|0|0|0,0:0|0:0|0:0|3:0,0:0:0:0:
464,216,216706,1,0,3:0:0:0:
444,288,216831,1,2,0:0:0:0:
392,236,216956,1,0,3:0:0:0:
320,220,217081,6,0,P|258:230|216:268,1,120,4|2,0:0|0:1,0:0:0:0:
208,284,217456,2,0,P|162:322|104:331,1,120,0|0,0:0|0:1,0:0:0:0:
86,328,217831,1,0,0:0:0:0:
384,264,218081,2,0,P|396:200|304:144,2,180,2|0|2,0:1|0:1|0:1,0:0:0:0:
304,316,219081,5,0,3:0:0:0:
208,104,219331,1,2,0:1:0:0:
208,104,219456,2,0,L|151:85,1,60
159,193,219706,1,0,0:1:0:0:
159,193,219831,2,0,L|215:211,1,60
87,145,220081,2,0,P|81:230|153:278,2,180,2|0|2,0:1|0:0|0:1,0:0:0:0:
152,84,221081,6,0,P|210:105|266:94,1,120,8|2,0:0|0:1,0:0:0:0:
280,84,221456,2,0,P|338:73|393:94,1,120
408,107,221831,1,0,0:0:0:0:
360,328,222081,2,0,P|306:260|328:176,2,180,2|0|2,0:1|0:0|0:1,0:0:0:0:
220,160,223081,5,0,3:0:0:0:
396,240,223331,1,0,0:0:0:0:
259,204,223581,5,0,3:0:0:0:
356,195,223706,1,0,0:0:0:0:
276,222,223956,5,0,3:0:0:0:
339,177,224081,1,2,0:1:0:0:
276,222,224206,5,0,0:0:0:0:
339,177,224331,1,2,0:1:0:0:
300,295,224456,1,0,3:0:0:0:
401,222,224581,1,0,0:0:0:0:
376,295,224706,1,0,3:0:0:0:
479,224,224831,1,0,1:0:0:0:
437,341,224956,1,0,1:0:0:0:
502,298,225081,5,4,0:0:0:0:
437,341,225206,1,0,0:0:0:0:
376,295,225331,2,0,P|364:272|360:236,1,60,0|0,1:0|0:0,0:0:0:0:
437,341,225581,1,0,0:0:0:0:
307,341,225706,2,0,P|320:283|359:238,1,120,0|0,3:0|0:0,0:0:0:0:
439,199,226081,6,0,P|358:213|336:134,1,180,8|0,0:0|0:0,0:0:0:0:
344,142,226706,1,0,1:0:0:0:
344,142,226831,2,0,P|324:180|312:192,1,60,2|0,1:0|0:0,0:0:0:0:
160,296,227081,6,0,P|180:258|192:246,1,60
248,372,227331,1,0,3:0:0:0:
248,372,227456,2,0,P|235:330|235:314,1,60
363,363,227706,2,0,P|325:343|313:331,1,60,0|0,3:0|0:0,0:0:0:0:
277,166,227956,6,0,P|358:196|380:280,1,180,2|2,0:0|0:0,0:0:0:0:
379,280,228581,1,0,3:0:0:0:
403,193,228706,1,0,1:0:0:0:
292,256,228831,1,0,1:0:0:0:
316,169,228956,1,0,3:0:0:0:
379,280,229081,6,0,P|412:304|436:312,1,60,8|0,0:0|0:0,0:0:0:0:
412,180,229331,2,0,P|428:217|445:236,1,60,0|0,3:0|0:0,0:0:0:0:
490,109,229581,2,0,P|485:149|490:174,1,60,0|0,3:0|3:0,0:0:0:0:
408,44,229831,5,0,0:0:0:0:
380,32,229914,1,2,0:0:0:0:
349,32,229997,1,2,0:0:0:0:
320,44,230081,2,0,P|288:69|274:90,1,60,2|0,0:0|0:0,0:0:0:0:
272,236,230331,2,0,P|303:210|317:189,1,60,0|0,3:0|0:0,0:0:0:0:
200,116,230581,1,0,3:0:0:0:
392,164,230706,1,0,1:0:0:0:
392,164,230831,2,0,P|366:132|345:118,1,60,0|0,1:0|0:0,0:0:0:0:
173,238,231081,6,0,P|187:199|189:174,1,60,0|0,3:0|0:0,0:0:0:0:
157,318,231331,2,0,P|195:332|220:334,1,60,0|0,3:0|0:0,0:0:0:0:
77,302,231581,2,0,P|62:340|60:365,1,60,0|0,3:0|0:0,0:0:0:0:
93,222,231831,2,0,P|54:207|29:205,1,60,0|0,3:0|0:0,0:0:0:0:
211,278,232081,5,4,1:0:0:0:
36,205,232206,2,0,P|32:262|75:301,1,120,4|0,0:0|3:0,0:0:0:0:
140,271,232414,1,0,3:0:0:0:
211,278,232497,1,0,3:0:0:0:
266,323,232581,1,0,3:0:0:0:
321,369,232664,1,0,3:0:0:0:
389,381,232747,1,0,3:0:0:0:
455,353,232831,1,0,3:0:0:0:
498,295,232914,1,0,3:0:0:0:
501,225,232997,1,0,0:0:0:0:
453,171,233081,6,0,P|392:150|340:162,1,120,4|0,0:2|0:0,0:0:0:0:
176,348,233331,2,0,L|216:196,1,120,0|0,1:0|0:0,0:0:0:0:
220,36,233581,2,0,L|260:188,1,120,0|0,3:0|3:0,0:0:0:0:
28,188,233831,5,0,1:0:0:0:
153,159,233956,1,0,0:0:0:0:
270,274,234081,5,0,3:0:0:0:
397,247,234206,1,0,0:0:0:0:
355,370,234331,1,0,1:0:0:0:
252,253,234456,1,0,0:0:0:0:
404,221,234581,5,0,3:0:0:0:
453,72,234706,1,0,0:0:0:0:
303,110,234831,1,0,1:0:0:0:
388,203,234956,1,0,0:0:0:0:
310,90,235081,5,0,3:0:0:0:
252,253,235206,1,0,0:0:0:0:
118,285,235331,1,0,1:0:0:0:
159,154,235456,1,0,0:0:0:0:
235,236,235581,5,0,3:0:0:0:
108,265,235706,1,0,0:0:0:0:
147,141,235831,1,0,1:0:0:0:
216,220,235956,1,0,0:0:0:0:
89,245,236081,5,0,3:0:0:0:
241,210,236206,1,0,0:0:0:0:
196,359,236331,1,0,1:0:0:0:
106,264,236456,1,0,0:0:0:0:
260,227,236581,5,0,3:2:0:0:
216,379,236706,1,0,3:0:0:0:
106,264,236831,1,0,1:0:0:0:
150,112,236956,1,0,3:0:0:0:
282,225,237081,6,0,B|306:286|288:344|288:344|234:316|209:258,2,240,4|0|0,0:0|1:0|3:0,0:0:0:0:
177,111,237706,1,0,3:0:0:0:
265,207,237831,1,0,1:0:0:0:
303,82,237956,1,0,0:0:0:0:
256,231,238081,5,0,3:0:0:0:
408,196,238206,1,0,0:0:0:0:
285,63,238331,1,0,1:0:0:0:
232,237,238456,1,0,0:0:0:0:
384,202,238581,5,0,3:0:0:0:
277,88,238706,1,0,0:0:0:0:
240,212,238831,1,0,1:0:0:0:
328,307,238956,1,0,0:0:0:0:
367,183,239081,5,0,3:0:0:0:
215,218,239206,1,0,0:0:0:0:
321,332,239331,1,0,1:0:0:0:
374,158,239456,1,0,0:0:0:0:
197,200,239581,6,0,L|20:243,2,160,0|0|0,3:0|0:0|0:0,0:0:0:0:
372,52,240081,6,0,L|256:81,1,120,4|0,0:0|0:0,0:0:0:0:
214,218,240331,2,0,L|457:159,2,240,4|0|0,1:0|0:0|1:0,0:0:0:0:
288,308,240956,1,0,3:0:0:0:
181,333,241081,5,4,0:0:0:0:
214,218,241206,1,0,0:0:0:0:
181,333,241331,1,0,1:0:0:0:
329,190,241456,2,0,P|272:113|140:124,1,240,2|2,0:0|0:0,0:0:0:0:
362,75,241831,5,0,1:0:0:0:
329,190,241956,1,0,0:0:0:0:
362,75,242081,1,0,0:0:0:0:
214,218,242206,2,0,P|271:295|403:284,1,240,2|2,0:0|0:0,0:0:0:0:
245,103,242581,5,0,3:0:0:0:
329,190,242706,1,0,3:0:0:0:
362,75,242831,1,0,1:0:0:0:
245,103,242956,1,0,3:0:0:0:
446,162,243081,5,4,0:0:0:0:
245,103,243206,1,0,0:0:0:0:
329,190,243331,5,0,1:0:0:0:
245,103,243456,1,0,0:0:0:0:
295,307,243581,5,0,3:0:0:0:
245,103,243706,1,0,0:0:0:0:
212,219,243831,5,0,1:0:0:0:
245,103,243956,1,0,0:0:0:0:
94,248,244081,5,0,3:0:0:0:
245,103,244206,1,0,0:0:0:0:
128,132,244331,5,0,1:0:0:0:
245,103,244456,1,0,0:0:0:0:
44,44,244581,5,0,3:0:0:0:
245,103,244706,1,0,0:0:0:0:
161,16,244831,5,0,1:0:0:0:
211,219,244956,1,0,0:0:0:0:
362,75,245081,6,0,P|256:80|212:220,2,240,4|0|0,0:0|1:0|0:0,0:0:0:0:
409,232,245706,1,0,3:0:0:0:
312,172,245831,1,0,1:0:0:0:
409,232,245956,1,0,0:0:0:0:
362,75,246081,1,0,3:0:0:0:
117,306,246331,2,0,L|90:190,1,120,0|0,1:0|0:0,0:0:0:0:
64,84,246581,6,0,P|128:87|191:158,2,143.999995605469,2|0|2,3:2|3:0|3:2,0:0:0:0:
435,106,247081,6,0,P|354:135|309:208,2,176.000005371094,4|0|2,0:0|3:0|3:2,0:0:0:0:
72,196,247581,5,2,0:2:0:0:
301,120,247747,1,0,3:0:0:0:
250,358,247914,1,2,3:2:0:0:
277,1,248081,5,4,1:0:0:0:
218,268,248248,1,4,0:0:0:0:
477,185,248414,1,2,3:2:0:0:
108,184,248581,5,2,3:2:0:0:
392,90,248748,1,0,3:0:0:0:
332,384,248914,1,2,3:2:0:0:
24,160,249081,5,4,1:0:0:0:
222,223,249206,1,0,0:0:0:0:
376,83,249331,1,0,0:0:0:0:
177,19,249456,1,2,0:0:0:0:
213,185,249581,1,2,0:0:0:0:
337,71,249706,1,0,0:0:0:0:
348,40,249956,5,8,0:0:0:0:
344,112,250331,5,0,3:0:0:0:
360,146,250581,1,0,1:0:0:0:
387,169,250831,1,0,0:0:0:0:
423,184,250956,6,0,P|333:222|343:358,1,240,4|0,1:0|0:0,0:0:0:0:
488,368,251331,2,0,P|462:314|412:284,1,120,0|0,1:0|0:0,0:0:0:0:
60,360,251581,2,0,P|156:372|216:249,1,240,4|0,0:0|0:0,0:0:0:0:
112,48,251956,6,0,P|48:96|152:116,1,240,4|0,1:0|0:0,1:0:0:0:
340,16,252331,2,0,P|377:61|384:120,1,120,0|0,1:0|0:0,0:0:0:0:
241,271,252581,2,0,P|232:213|256:159,1,120,4|0,0:0|0:0,0:0:0:0:
344,364,252831,1,0,1:0:0:0:
142,321,252956,6,0,P|152:207|256:159,1,240,4|0,1:0|0:0,0:0:0:0:
504,244,253331,2,0,P|448:263|390:248,1,120,0|0,1:0|0:0,0:0:0:0:
294,68,253581,2,0,P|338:106|351:164,1,120,4|0,0:0|0:0,0:0:0:0:
249,338,253831,2,0,P|260:279|301:237,1,120,0|0,1:0|0:0,0:0:0:0:
441,0,254081,6,0,P|452:112|352:165,1,240,4|0,1:0|1:0,0:0:0:0:
112,48,254456,2,0,P|48:96|152:116,1,240,4|0,0:0|0:0,0:0:0:0:
276,0,254831,2,0,P|252:54|262:112,1,120,0|0,1:0|0:0,0:0:0:0:
412,344,255081,1,4,0:0:0:0:
164,188,255331,6,0,P|104:190|56:224,1,120,0|0,1:0|0:0,0:0:0:0:
252,201,255581,2,0,P|308:182|347:138,1,120,0|0,3:0|0:0,0:0:0:0:
188,0,255831,2,0,P|148:43|137:101,1,120,0|0,1:0|0:0,0:0:0:0:
274,337,256081,6,0,P|368:274|348:164,1,240,10|0,0:0|1:0,0:0:0:0:
211,162,256456,2,0,P|182:270|274:337,1,240,2|0,0:0|0:0,0:0:0:0:
288,96,256831,2,0,P|236:66|176:69,1,120,0|0,1:0|0:0,0:0:0:0:
8,308,257081,6,0,P|60:281|93:231,1,120,10|0,3:2|0:0,0:0:0:0:
83,32,257331,2,0,P|78:91|105:143,1,120,0|0,1:0|0:0,0:0:0:0:
289,204,257581,2,0,P|233:183|175:196,1,120,0|0,3:0|0:0,0:0:0:0:
229,299,257831,1,0,1:0:0:0:
173,103,257956,6,0,B|147:44|83:31|83:31|62:92|105:143,1,240,4|4,0:1|0:0,0:0:0:0:
372,248,258331,5,0,0:0:0:0:
117,304,258456,1,0,1:0:0:0:
263,77,258581,5,0,1:0:0:0:
75,313,258706,1,0,1:0:0:0:
372,248,258831,5,0,3:0:0:0:
94,127,258956,1,0,3:0:0:0:
251,378,259081,5,4,0:0:0:0:
428,0,259331,2,0,P|455:52|450:111,1,120,0|0,1:0|0:0,0:0:0:0:
252,96,259581,2,0,P|304:68|363:73,1,120,0|0,3:0|0:0,0:0:0:0:
428,200,259831,2,0,P|396:250|342:275,1,120,0|0,1:0|0:0,0:0:0:0:
124,168,260081,6,0,B|60:88|88:-1|88:-1|112:16|120:48,1,240,10|0,0:0|1:0,0:0:0:0:
36,248,260456,2,0,P|122:168|250:204,1,240,2|0,0:0|0:0,0:0:0:0:
231,377,260831,2,0,P|181:345|156:292,1,120,0|0,1:0|0:0,0:0:0:0:
299,83,261081,6,0,P|354:186|286:301,1,240,0|0,3:0|1:0,0:0:0:0:
108,159,261456,2,0,P|184:73|300:84,1,240
138,271,261831,2,0,P|110:218|107:159,1,120,0|0,1:0|3:0,0:0:0:0:
311,351,262081,6,0,P|426:361|502:275,1,240,0|0,3:0|1:0,0:0:0:0:
288,146,262456,2,0,P|248:255|312:352,1,240
503,276,262831,2,0,P|507:216|480:164,1,120,0|0,1:0|0:0,0:0:0:0:
139,270,263081,5,4,0:0:0:0:
340,44,263331,2,0,P|367:96|362:155,1,120,0|0,1:0|0:0,0:0:0:0:
160,88,263581,2,0,P|191:37|245:12,1,120,0|0,3:0|0:0,0:0:0:0:
289,222,263831,1,0,1:0:0:0:
90,1,264081,6,0,P|149:3|197:37,1,120,0|0,3:0|0:0,0:0:0:0:
289,221,264331,2,0,P|229:218|181:184,1,120,0|0,1:0|0:0,0:0:0:0:
300,12,264581,2,0,P|297:71|263:119,1,120,0|0,3:0|0:0,0:0:0:0:
80,211,264831,2,0,P|82:151|116:103,1,120,0|0,1:0|0:0,0:0:0:0:
344,316,265081,5,0,1:0:0:0:
197,37,265206,1,0,3:0:0:0:
112,312,265331,5,0,3:0:0:0:
342,192,265456,1,0,3:0:0:0:
122,123,265581,5,0,3:0:0:0:
216,301,265706,1,4,1:0:0:0:
216,301,265956,6,0,B|284:252|288:144|228:88|228:88|204:120|207:166|230:200,1,360.000013732911,4|0,0:0|0:0,0:0:0:0:
297,263,266331,5,0,3:0:0:0:
344,270,266393,1,0,3:0:0:0:
391,259,266456,1,0,3:0:0:0:
431,230,266518,1,0,3:0:0:0:
456,188,266581,1,0,3:0:0:0:
463,141,266643,1,0,3:0:0:0:
451,94,266706,1,0,3:0:0:0:
422,55,266768,1,0,3:0:0:0:
381,30,266831,1,0,3:0:0:0:
333,23,266893,1,0,3:0:0:0:
285,34,266956,6,0,P|234:134|308:220,1,240,4|0,1:0|0:0,0:0:0:0:
152,44,267331,2,0,P|92:39|41:67,1,120,0|0,1:0|0:0,0:0:0:0:
199,236,267581,2,0,P|232:186|233:128,1,120,4|0,0:0|0:0,0:0:0:0:
72,260,267831,5,0,1:0:0:0:
288,32,267956,2,0,P|400:40|436:147,1,240,4|0,1:0|0:0,0:0:0:0:
279,212,268331,2,0,P|294:154|338:115,1,120,0|0,1:0|0:0,0:0:0:0:
468,296,268581,2,0,P|415:324|356:320,1,120,4|0,0:0|0:0,0:0:0:0:
352,0,268831,5,0,1:0:0:0:
392,216,268956,2,0,P|331:310|215:307,1,240,4|0,1:0|0:0,0:0:0:0:
202,130,269331,2,0,P|253:160|279:212,1,120,0|0,1:0|0:0,0:0:0:0:
100,104,269581,2,0,P|130:53|183:26,1,120,4|0,0:0|0:0,0:0:0:0:
383,239,269831,2,0,P|353:290|300:317,1,120,0|0,1:0|0:0,0:0:0:0:
83,285,270081,6,0,P|138:187|251:200,1,240,4|0,1:0|1:0,0:0:0:0:
436,336,270456,2,0,P|530:273|508:162,1,240,4|0,0:0|0:0,0:0:0:0:
352,80,270831,2,0,P|348:139|376:190,1,120,0|0,1:0|0:0,0:0:0:0:
388,0,271081,5,4,0:0:0:0:
238,254,271331,2,0,P|198:211|186:153,1,120,0|0,1:0|0:0,0:0:0:0:
343,260,271581,2,0,P|326:316|281:355,1,120,0|0,3:0|0:0,0:0:0:0:
296,159,271832,2,0,P|353:146|409:165,1,120,0|0,1:0|0:0,0:0:0:0:
105,229,272081,6,0,P|55:124|112:24,1,240,10|0,3:2|1:0,0:0:0:0:
296,159,272456,2,0,P|219:244|105:228,1,240,2|0,0:0|0:0,0:0:0:0:
372,62,272831,2,0,P|407:109|416:168,1,120,0|0,1:0|0:0,0:0:0:0:
179,129,273081,6,0,P|258:45|373:63,1,240,10|0,3:2|1:0,0:0:0:0:
311,286,273456,2,0,P|204:241|178:128,1,240
168,384,273831,1,4,1:0:0:0:
283,103,273956,1,0,3:0:0:0:
283,103,274206,6,0,P|202:24|94:61,1,240,4|0,0:2|0:0,0:0:0:0:
248,332,274581,5,0,1:0:0:0:
179,129,274706,1,0,1:0:0:0:
38,291,274831,1,0,3:0:0:0:
492,148,274956,1,0,3:0:0:0:
88,185,275081,6,0,P|193:154|265:50,1,240,4|0,0:2|0:0,0:0:0:0:
132,371,275456,6,0,P|189:277|308:234,1,240,4|0,0:1|0:0,0:0:0:0:
0,160,275831,6,0,P|106:185|220:131,1,240,4|0,0:0|0:0,0:0:0:0:
132,371,276206,5,0,3:0:0:0:
220,130,276331,6,0,P|276:110|335:114,1,120,0|0,1:0|3:0,0:0:0:0:
182,226,276581,6,0,P|188:173|219:130,1,107.999996704102,0|0,3:0|3:0,0:0:0:0:
237,299,276831,6,0,P|201:268|181:225,1,96,0|0,3:0|3:0,0:0:0:0:
424,188,277081,6,0,P|319:157|247:53,1,240,4|0,1:2|0:0,0:0:0:0:
379,373,277456,6,0,P|322:279|203:236,1,240,4|0,1:0|0:0,0:0:0:0:
512,163,277831,6,0,P|406:188|292:134,1,240,4|0,0:0|0:0,0:0:0:0:
291,133,278331,6,0,P|80:123|232:247,1,540.000020599366,4|0,1:0|0:0,0:0:0:0:
416,3,278831,1,0,3:0:0:0:
296,340,278956,1,0,3:0:0:0:
512,163,279081,1,0,0:0:0:0:
511,162,279456,6,0,P|396:151|319:237,1,240,4|0,1:0|0:0,0:0:0:0:
444,274,279831,6,0,P|378:122|215:155,1,360.000013732911,4|0,0:0|3:0,0:0:0:0:
111,75,280456,5,0,1:0:0:0:
111,75,280581,1,0,3:0:0:0:
111,75,280706,1,0,3:0:0:0:
111,75,280831,1,0,3:0:0:0:
111,75,280956,1,0,0:0:0:0:
111,75,281081,6,0,P|201:150|226:266,1,240,4|0,1:0|0:0,0:0:0:0:
478,200,281456,6,0,P|371:248|318:354,1,240,4|0,0:0|0:0,0:0:0:0:
317,93,281831,5,0,0:0:0:0:
328,104,282331,5,2,0:0:0:0:
328,104,282581,5,0,0:0:0:0:
328,104,282831,5,0,0:0:0:0:
328,104,283081,6,0,P|256:148|184:128,1,120.000004577637,4|0,0:0|0:0,0:0:0:0:
134,76,283331,1,0,0:0:0:0:
172,86,283414,1,0,0:0:0:0:
203,111,283497,1,0,0:0:0:0:
223,146,283581,1,0,1:0:0:0:
248,272,283747,2,0,P|281:320|336:341,1,120.000004577637
500,199,283997,2,0,P|413:187|344:239,1,180.000006866455,2|0,0:0|0:0,0:0:0:0:
440,376,284331,2,0,P|443:332|432:289,1,90.0000034332277,2|0,0:0|0:0,0:0:0:0:
200,143,284581,5,0,1:0:0:0:
343,240,284706,1,0,0:0:0:0:
320,120,284831,5,0,0:0:0:0:
223,263,284956,1,0,0:0:0:0:
248,56,285081,5,2,0:1:0:0:
226,368,285247,2,0,P|148:332|127:247,1,180.000006866455
148,172,285581,1,0,1:0:0:0:
284,256,285747,1,0,0:0:0:0:
260,238,285831,1,0,0:0:0:0:
4,168,285997,1,0,0:0:0:0:
33,164,286080,1,2,0:0:0:0:
303,115,286247,1,0,0:0:0:0:
285,139,286330,1,2,0:1:0:0:
132,340,286497,1,0,0:0:0:0:
103,343,286581,2,0,P|69:281|134:322,1,180.000006866455,0|0,1:0|0:0,0:0:0:0:
384,352,287081,6,0,P|426:311|432:252,1,120.000004577637,8|0,0:0|0:0,0:0:0:0:
414,216,287331,1,0,0:0:0:0:
386,189,287414,1,0,0:0:0:0:
351,171,287497,1,0,0:0:0:0:
312,166,287581,1,0,1:0:0:0:
414,216,287747,2,0,P|468:184|485:120,1,120.000004577637
321,199,287997,2,0,P|342:282|424:311,1,180.000006866455,2|0,0:0|0:0,0:0:0:0:
400,132,288331,2,0,P|364:104|320:97,1,90.0000034332277,2|0,0:0|0:0,0:0:0:0:
36,308,288581,5,0,1:0:0:0:
248,236,288706,1,0,0:0:0:0:
75,218,288831,5,0,0:0:0:0:
209,326,288956,1,0,3:0:0:0:
284,132,289081,1,0,3:0:0:0:
315,371,289331,6,0,L|300:252,1,120.000004577637,2|0,0:0|0:0,0:0:0:0:
248,160,289581,2,0,P|214:190|197:231,1,90.0000034332277,0|0,1:0|0:0,0:0:0:0:
373,149,289831,1,2,0:0:0:0:
428,300,289956,2,0,B|476:304|507:273|507:273|480:236|424:236,1,180.000006866455,0|4,0:0|0:0,0:0:0:0:
240,304,290331,5,0,1:0:0:0:
512,176,290456,1,0,1:0:0:0:
239,303,290706,6,0,P|165:227|212:116,1,240,4|0,1:0|0:0,0:0:0:0:
380,203,291081,6,0,P|367:261|322:299,1,120.000004577637,4|0,0:0|0:0,0:0:0:0:
282,312,291331,1,0,0:0:0:0:
258,279,291414,1,0,0:0:0:0:
283,246,291497,1,0,0:0:0:0:
321,258,291581,2,0,P|340:307|297:384,1,120.000004577637
256,312,291997,6,0,P|341:278|417:319,1,180.000006866455,2|0,0:1|0:1,0:0:0:0:
334,242,292331,2,0,P|340:185|368:143,1,90.0000034332277,2|0,0:1|0:2,0:2:0:0:
460,77,292581,1,2,0:0:0:0:
420,112,292706,1,0,0:0:0:0:
373,81,292831,1,0,0:0:0:0:
388,29,292956,1,0,0:0:0:0:
442,27,293081,1,0,0:0:0:0:
296,180,293247,6,0,P|220:200|104:136,1,180.000006866455
76,104,293581,1,0,0:0:0:0:
102,239,293747,2,0,L|80:295,1,60.0000022888184
208,104,293997,2,0,L|228:48,1,60.0000022888184,0|2,0:0|0:1,0:0:0:0:
324,312,294247,2,0,L|344:368,1,60.0000022888184,0|2,0:0|0:1,0:0:0:0:
56,220,294497,1,0,0:0:0:0:
56,220,294581,2,0,L|232:184,1,180.000006866455,0|0,0:0|3:0,0:0:0:0:
408,336,295081,6,0,P|330:347|284:308,1,120.000004577637,0|0,3:0|0:0,0:0:0:0:
286,287,295331,1,0,0:0:0:0:
319,262,295414,1,0,0:0:0:0:
353,287,295498,1,0,0:0:0:0:
341,326,295581,2,0,P|285:350|233:322,1,120.000004577637
205,231,295997,6,0,P|143:292|157:377,1,180.000006866455,2|0,0:1|0:0,0:0:0:0:
291,197,296331,2,0,P|265:160|225:141,1,90.0000034332277,2|0,0:1|0:0,0:0:0:0:
235,325,296581,1,2,0:0:0:0:
323,299,296706,1,0,0:0:0:0:
390,236,296831,1,0,3:0:0:0:
415,145,296956,1,0,0:0:0:0:
392,54,297081,5,4,1:0:0:0:
216,228,297206,2,0,P|122:196|88:129,1,180.000006866455,4|0,0:0|0:0,0:0:0:0:
244,348,297581,5,0,1:0:0:0:
415,195,297706,1,0,1:0:0:0:
198,125,297831,1,0,1:0:0:0:
244,348,297956,1,0,3:0:0:0:
280,56,298081,2,0,P|249:29|185:19,1,100,4|0,1:0|0:0,0:0:0:0:
456,300,298331,5,0,1:0:0:0:
0,150,298456,1,4,1:2:0:0:
256,192,298518,12,0,300706,0:0:0:0:
