osu file format v14

[General]
AudioFilename: audio.mp3
AudioLeadIn: 0
PreviewTime: 80253
Countdown: 0
SampleSet: Soft
StackLeniency: 0.5
Mode: 0
LetterboxInBreaks: 0
WidescreenStoryboard: 1

[Editor]
Bookmarks: 53218,59497,61590,86008,87753,91415,102753,104497,105543,109032
DistanceSpacing: 1.2
BeatDivisor: 4
GridSize: 4
TimelineZoom: 1.3

[Metadata]
Title:Rengoku
TitleUnicode:恋獄
Artist:Shimotsuki Haruka
ArtistUnicode:霜月はるか
Creator:Dored
Version:Irin's Hard
Source:カルタグラ~ツキ狂イノ病~
Tags:Innocent Grey Cartagra Tsuki Kurui no Yamai Opening OP Short Version Manyo Little Wing Japanese Eroge Visual Novel VN Galgame Video Game Folk J-pop Jpop Pop Gust Ultimate Madoka Shunao ShogunMoon Irin UjiMatcha Misure Affliction of the Soul
BeatmapID:3469522
BeatmapSetID:1692763

[Difficulty]
HPDrainRate:5
CircleSize:3.7
OverallDifficulty:6
ApproachRate:7.6
SliderMultiplier:1.4
SliderTickRate:1

[Events]
//Background and Video events
0,0,"BG1.jpg",0,0
//Break Periods
//Storyboard Layer 0 (Background)
//Storyboard Layer 1 (Fail)
//Storyboard Layer 2 (Pass)
//Storyboard Layer 3 (Foreground)
//Storyboard Layer 4 (Overlay)
//Storyboard Sound Samples

[TimingPoints]
28102,348.837209302326,6,2,3,30,1,0
28102,-125,6,2,3,30,0,0
44846,-100,6,2,3,45,0,0
59497,-111.111111111111,6,2,3,45,0,0
74148,-111.111111111111,6,2,3,55,0,0
75195,-111.111111111111,6,2,3,60,0,0
80427,-83.3333333333333,6,2,3,75,0,1
96997,-83.3333333333333,6,2,3,75,0,0
97171,-83.3333333333333,6,2,3,75,0,1
109729,-83.3333333333333,6,2,3,65,0,0
112869,-111.111111111111,6,2,3,65,0,0

[Colours]
Combo1 : 94,94,255
Combo2 : 159,64,255

[HitObjects]
72,125,28102,6,0,B|38:255|75:127|42:257,2,112,2|0|0,0:0|0:0|0:0,0:0:0:0:
197,13,29148,2,0,P|249:5|292:45,2,112,2|0|0,0:0|0:0|0:0,0:0:0:0:
207,181,30195,1,2,0:0:0:0:
47,233,30543,2,0,P|155:268|264:316,1,224,2|0,0:0|0:0,0:0:0:0:
472,71,32113,1,0,0:0:0:0:
472,71,32288,6,0,L|448:182,2,112,2|2|2,0:0|0:0|0:0,0:0:0:0:
330,162,33334,2,0,P|276:181|225:205,1,112,2|0,0:0|0:0,0:0:0:0:
140,349,34032,2,0,P|130:319|115:287,1,56,2|0,0:0|0:0,0:0:0:0:
45,256,34381,1,2,0:0:0:0:
45,256,34555,2,0,P|66:178|93:92,1,168,2|0,0:0|0:0,0:0:0:0:
241,171,35427,1,2,0:0:0:0:
341,47,35776,1,2,0:0:0:0:
490,123,36125,1,2,0:0:0:0:
496,290,36474,6,0,P|432:364|320:335,1,224,2|0,0:0|0:0,0:0:0:0:
329,167,37520,2,0,P|364:219|396:273,1,112,2|0,0:0|0:0,0:0:0:0:
224,294,38218,1,2,0:0:0:0:
113,167,38567,2,0,P|217:111|324:64,1,224,2|0,0:0|0:0,0:0:0:0:
463,145,39613,1,2,0:0:0:0:
374,288,39962,2,0,P|316:270|251:253,1,112,2|0,0:0|0:0,0:0:0:0:
139,367,40660,6,0,P|103:285|36:156,1,224,2|0,0:0|0:0,0:0:0:0:
129,22,41706,2,0,P|186:38|250:62,2,112,2|0|0,0:0|0:0|0:0,0:0:0:0:
42,166,42753,1,2,0:0:0:0:
135,305,43102,2,0,B|187:323|238:278|238:278|306:251|359:301,1,224,2|0,0:0|0:0,0:0:0:0:
498,361,44148,2,0,L|512:298,1,56,2|0,0:0|0:0,0:0:0:0:
434,269,44497,2,0,L|420:193,1,56,2|0,0:0|0:0,0:0:0:0:
477,140,44846,6,0,L|515:133,2,35,2|0|0,3:2|0:0|0:0,0:0:0:0:
412,75,45195,2,0,L|334:60,1,70,2|0,0:0|0:0,0:0:0:0:
296,139,45543,2,0,L|303:177,2,35,2|0|0,0:0|0:0|0:0,0:0:0:0:
224,82,45892,2,0,L|146:67,1,70,2|0,0:0|0:0,0:0:0:0:
64,56,46241,1,2,0:0:0:0:
18,232,46590,2,0,L|29:278,2,35,2|0|0,0:0|0:0|0:0,0:0:0:0:
98,188,46939,6,0,P|135:193|170:218,1,70,2|0,3:2|0:0,0:0:0:0:
249,182,47288,2,0,P|271:211|278:254,1,70,2|0,0:0|0:0,0:0:0:0:
238,324,47636,1,2,0:0:0:0:
356,185,47985,1,2,3:2:0:0:
191,107,48334,2,0,P|257:84|332:68,1,140,2|2,0:0|0:0,0:0:0:0:
391,6,48857,1,0,0:0:0:0:
475,41,49032,6,0,L|509:32,2,35,2|0|0,3:2|0:0|0:0,0:0:0:0:
470,132,49381,2,0,L|483:216,1,70,2|0,0:0|0:0,0:0:0:0:
430,276,49729,2,0,L|436:322,2,35,2|0|0,0:0|0:0|0:0,0:0:0:0:
368,208,50078,2,0,L|288:194,1,70,2|0,0:0|0:0,0:0:0:0:
238,264,50427,2,0,P|196:323|132:318,1,140,2|2,0:0|0:0,0:0:0:0:
13,182,51125,5,2,3:2:0:0:
13,182,51299,2,0,P|78:150|151:121,1,140,2|0,0:0|0:0,0:0:0:0:
213,179,51822,1,2,0:0:0:0:
337,45,52171,2,0,P|316:72|324:123,1,70,2|0,3:2|0:0,0:0:0:0:
376,174,52520,2,0,P|409:178|450:146,1,70,2|0,0:0|0:0,0:0:0:0:
468,76,52869,1,2,0:0:0:0:
479,257,53218,6,0,L|526:275,2,35,2|0|0,3:2|0:0|0:0,0:0:0:0:
405,310,53567,2,0,L|326:332,1,70,2|0,0:0|0:0,0:0:0:0:
309,364,53828,1,0,0:0:0:0:
309,364,53915,2,0,L|241:345,1,70,2|0,0:0|0:0,0:0:0:0:
188,271,54264,2,0,L|143:280,2,35,2|0|0,0:0|0:0|0:0,0:0:0:0:
236,193,54613,1,2,0:0:0:0:
236,193,54788,1,0,0:0:0:0:
326,200,54962,2,0,L|339:116,1,70,2|0,0:0|0:0,0:0:0:0:
383,52,55311,6,0,P|352:15|249:35,1,140,2|2,3:2|0:0,0:0:0:0:
100,94,56008,2,0,L|82:178,1,70,0|2,0:0|0:0,0:0:0:0:
41,242,56357,2,0,P|54:283|90:294,1,70,2|0,3:2|0:0,0:0:0:0:
166,280,56706,1,2,0:0:0:0:
326,365,57055,2,0,L|398:337,1,70,2|0,0:0|0:0,0:0:0:0:
463,283,57404,5,2,3:2:0:0:
463,283,57578,2,0,P|439:206|413:137,1,140,2|0,0:0|0:0,0:0:0:0:
326,153,58102,1,0,0:0:0:0:
283,234,58276,1,2,0:0:0:0:
283,234,58450,2,0,P|242:288|148:280,1,140,2|2,0:0|0:0,0:0:0:0:
42,167,59148,2,0,P|50:131|66:88,1,70,2|0,0:0|0:0,0:0:0:0:
121,31,59497,6,0,B|179:-26|324:-13|380:97|295:195|218:156|196:91,1,377.999988464356,2|2,3:2|3:2,0:0:0:0:
487,68,61241,5,8,0:1:0:0:
487,68,61415,1,8,0:1:0:0:
440,143,61590,6,0,P|468:203|490:275,2,125.999996154785,2|2|2,3:2|0:0|0:0,0:0:0:0:
359,119,62462,1,0,3:0:0:0:
359,119,62636,1,2,3:2:0:0:
219,227,62985,1,2,0:0:0:0:
68,135,63334,1,2,0:0:0:0:
219,227,63683,6,0,P|196:291|180:350,2,125.999996154785,2|2|2,3:2|0:0|0:0,0:0:0:0:
306,213,64555,1,0,3:0:0:0:
306,213,64729,1,2,3:2:0:0:
131,184,65078,1,2,0:0:0:0:
20,47,65427,2,0,P|56:31|90:23,1,62.9999980773926,8|0,0:1|0:0,0:0:0:0:
159,61,65776,6,0,P|223:45|281:-9,2,125.999996154785,2|2|2,3:2|0:0|0:0,0:0:0:0:
90,116,66648,1,0,3:0:0:0:
90,116,66822,1,2,3:2:0:0:
87,292,67171,1,2,0:0:0:0:
238,382,67520,1,2,0:0:0:0:
391,296,67869,6,0,P|373:233|346:153,1,125.999996154785,2|2,3:2|0:0,0:0:0:0:
334,89,68392,2,0,P|304:73|267:63,1,62.9999980773926,0|2,0:0|0:0,0:0:0:0:
205,115,68741,1,0,3:0:0:0:
205,115,68915,1,2,3:2:0:0:
266,280,69264,1,2,0:0:0:0:
117,375,69613,2,0,P|101:340|87:310,1,62.9999980773926,2|8,0:0|0:1,0:0:0:0:
29,253,69962,6,0,P|83:222|157:207,1,125.999996154785,2|2,3:2|0:0,0:0:0:0:
300,123,70660,2,0,P|333:131|373:149,1,62.9999980773926,2|0,0:0|3:0,0:0:0:0:
410,215,71008,1,2,3:2:0:0:
314,363,71357,2,0,P|296:304|271:238,1,125.999996154785,2|2,0:0|0:0,0:0:0:0:
141,125,72055,6,0,P|158:64|179:-1,2,125.999996154785,2|2|0,3:2|0:0|0:0,0:0:0:0:
174,207,72927,1,0,3:0:0:0:
174,207,73102,2,0,P|242:213|284:159,1,125.999996154785,2|2,3:2|0:0,0:0:0:0:
340,9,73799,2,0,P|360:43|377:75,1,62.9999980773926,8|2,0:1|0:0,0:0:0:0:
455,102,74148,6,0,P|436:162|419:232,1,125.999996154785,2|2,3:2|3:2,0:0:0:0:
479,289,74671,1,8,0:1:0:0:
416,351,74846,2,0,P|380:363|350:343,1,62.9999980773926,2|0,0:0|3:0,0:0:0:0:
306,281,75195,1,2,3:2:0:0:
135,237,75543,2,0,P|121:267|111:296,1,62.9999980773926,2|0,3:2|0:0,0:0:0:0:
174,364,75892,1,8,0:1:0:0:
174,364,76067,1,8,0:1:0:0:
210,283,76241,6,0,P|236:222|262:161,1,125.999996154785,2|2,3:2|3:2,0:0:0:0:
238,81,76764,2,0,P|264:63|293:51,1,62.9999980773926,8|0,0:1|0:0,0:0:0:0:
382,80,77113,1,0,3:0:0:0:
382,80,77288,2,0,P|399:106|411:135,1,62.9999980773926,2|0,3:2|0:0,0:0:0:0:
349,198,77636,1,2,3:2:0:0:
349,198,77811,1,8,0:1:0:0:
401,268,77985,2,0,P|411:282|386:274,1,62.9999980773926,2|2,3:2|0:0,0:0:0:0:
385,277,79381,5,0,3:0:0:0:
266,172,79729,1,0,3:0:0:0:
266,172,79904,1,8,3:0:0:0:
189,202,80078,2,0,P|173:229|159:272,1,62.9999980773926,8|4,3:2|3:0,0:0:0:0:
134,367,80427,6,0,P|108:282|81:203,1,167.999994873047,6|0,3:2|3:0,0:0:0:0:
10,135,80950,2,0,P|90:80|145:110,1,167.999994873047,8|0,0:0|3:0,0:0:0:0:
189,202,81474,1,2,3:2:0:0:
371,117,81822,2,0,P|415:129|469:146,1,83.9999974365235,2|0,3:2|0:0,0:0:0:0:
429,41,82171,2,0,P|388:28|348:17,1,83.9999974365235,10|2,0:0|3:2,0:0:0:0:
265,76,82520,6,0,P|282:158|298:241,1,167.999994873047,2|2,3:2|3:2,0:0:0:0:
392,277,83043,2,0,P|377:319|367:357,1,83.9999974365235,8|2,0:0|0:0,0:0:0:0:
273,369,83392,1,0,3:0:0:0:
273,369,83479,1,0,3:0:0:0:
273,369,83567,2,0,P|221:305|130:326,1,167.999994873047,2|2,3:2|3:2,0:0:0:0:
11,161,84264,2,0,P|21:116|34:73,1,83.9999974365235,10|2,0:0|3:2,0:0:0:0:
103,8,84613,6,0,P|184:-9|232:53,1,167.999994873047,2|2,3:2|3:2,0:0:0:0:
164,126,85136,2,0,P|207:142|254:162,1,83.9999974365235,8|2,0:0|0:0,0:0:0:0:
328,100,85485,1,0,3:0:0:0:
328,100,85572,1,0,3:0:0:0:
328,100,85660,2,0,P|373:88|417:79,1,83.9999974365235,2|0,3:2|0:0,0:0:0:0:
490,139,86008,2,0,P|508:176|486:220,1,83.9999974365235,2|0,3:2|0:0,0:0:0:0:
395,189,86357,2,0,P|377:226|399:270,1,83.9999974365235,10|0,0:0|3:0,0:0:0:0:
464,333,86706,6,0,P|379:305|297:284,1,167.999994873047,2|2,3:2|3:2,0:0:0:0:
290,189,87229,2,0,P|222:234|211:315,1,167.999994873047,8|0,0:0|3:0,0:0:0:0:
131,378,87753,2,0,P|111:333|88:283,1,83.9999974365235,2|0,3:2|0:0,0:0:0:0:
3,262,88102,2,0,P|-5:207|29:171,1,83.9999974365235,2|0,3:2|3:0,0:0:0:0:
111,205,88450,1,8,0:0:0:0:
111,205,88625,1,0,3:0:0:0:
123,105,88799,6,0,B|134:62|162:43|206:44|206:44|178:73|179:112,1,167.999994873047,6|2,3:2|3:2,0:0:0:0:
206,189,89322,2,0,L|290:207,1,83.9999974365235,8|2,0:0|0:0,0:0:0:0:
323,311,89671,1,0,3:0:0:0:
323,311,89758,1,0,3:0:0:0:
323,311,89846,2,0,P|413:328|460:260,1,167.999994873047,2|2,3:2|3:2,0:0:0:0:
509,81,90543,2,0,P|478:108|431:105,1,83.9999974365235,10|0,0:0|3:0,0:0:0:0:
373,29,90892,6,0,B|325:15|277:61|312:52|272:96|217:81,1,167.999994873047,2|2,3:2|3:2,0:0:0:0:
154,8,91415,2,0,P|116:2|75:30,1,83.9999974365235,10|2,0:0|0:0,0:0:0:0:
28,114,91764,1,2,3:2:0:0:
28,114,91939,2,0,P|63:191|94:281,1,167.999994873047,2|2,3:2|3:2,0:0:0:0:
263,383,92636,1,10,0:0:0:0:
263,383,92811,1,0,3:0:0:0:
196,307,92985,6,0,P|221:218|246:143,1,167.999994873047,2|2,3:2|3:2,0:0:0:0:
264,47,93508,2,0,P|298:19|343:24,1,83.9999974365235,10|2,0:0|0:0,0:0:0:0:
436,67,93857,1,0,3:0:0:0:
436,67,93945,1,0,3:0:0:0:
436,67,94032,2,0,P|466:143|496:234,1,167.999994873047,2|2,3:2|3:2,0:0:0:0:
365,380,94729,2,0,P|378:337|396:285,1,83.9999974365235,10|0,0:0|3:0,0:0:0:0:
334,216,95078,6,0,P|268:263|186:240,1,167.999994873047,2|2,3:2|3:2,0:0:0:0:
122,166,95602,2,0,P|115:85|176:25,1,167.999994873047,10|0,0:0|3:0,0:0:0:0:
272,9,96125,2,0,P|316:20|355:60,1,83.9999974365235,8|0,3:1|3:0,0:0:0:0:
285,129,96474,1,2,3:2:0:0:
285,129,96648,1,8,3:0:0:0:
334,216,96822,1,10,0:0:0:0:
334,216,96997,1,4,3:0:0:0:
435,218,97171,6,0,P|350:246|271:275,1,167.999994873047,6|0,3:2|3:0,0:0:0:0:
228,361,97694,2,0,P|140:328|60:300,1,167.999994873047,8|0,0:0|3:0,0:0:0:0:
14,218,98218,1,2,3:2:0:0:
125,52,98567,2,0,P|132:97|139:144,1,83.9999974365235,2|0,3:2|0:0,0:0:0:0:
220,192,98915,2,0,P|227:147|234:100,1,83.9999974365235,10|2,0:0|3:2,0:0:0:0:
296,30,99264,6,0,P|355:1|432:63,1,167.999994873047,2|2,3:2|3:2,0:0:0:0:
399,152,99788,2,0,P|406:197|413:244,1,83.9999974365235,8|2,0:0|0:0,0:0:0:0:
436,341,100136,1,0,3:0:0:0:
436,341,100223,1,0,3:0:0:0:
436,341,100311,2,0,P|351:306|274:285,1,167.999994873047,2|2,3:2|3:2,0:0:0:0:
91,362,101008,2,0,P|107:317|138:296,1,83.9999974365235,10|2,0:0|3:2,0:0:0:0:
206,225,101357,6,0,P|287:242|335:180,1,167.999994873047,2|2,3:2|3:2,0:0:0:0:
308,83,101881,2,0,P|263:71|219:62,1,83.9999974365235,8|2,0:0|0:0,0:0:0:0:
133,60,102229,1,0,3:0:0:0:
133,60,102316,1,0,3:0:0:0:
133,60,102404,2,0,P|121:105|112:149,1,83.9999974365235,2|0,3:2|0:0,0:0:0:0:
43,215,102753,2,0,P|31:263|69:299,1,83.9999974365235,2|0,3:2|0:0,0:0:0:0:
106,371,103101,2,0,P|151:349|199:333,1,83.9999974365235,10|0,0:0|3:0,0:0:0:0:
275,378,103450,6,0,P|291:293|312:205,1,167.999994873047,2|2,3:2|3:2,0:0:0:0:
410,212,103973,2,0,P|452:131|420:56,1,167.999994873047,8|0,0:0|3:0,0:0:0:0:
330,34,104497,2,0,P|304:72|249:61,1,83.9999974365235,2|0,3:2|0:0,0:0:0:0:
187,14,104846,2,0,P|172:53|161:93,1,83.9999974365235,2|0,3:2|3:0,0:0:0:0:
161,198,105194,1,8,0:0:0:0:
161,198,105369,1,0,3:0:0:0:
251,253,105543,6,0,P|214:331|121:325,1,167.999994873047,6|2,3:2|3:2,0:0:0:0:
67,265,106066,2,0,P|54:217|42:183,1,83.9999974365235,8|2,0:0|0:0,0:0:0:0:
52,91,106415,1,0,3:0:0:0:
52,91,106502,1,0,3:0:0:0:
52,91,106590,2,0,P|136:58|222:30,1,167.999994873047,2|2,3:2|3:2,0:0:0:0:
409,5,107287,2,0,P|436:36|433:83,1,83.9999974365235,10|2,0:0|3:2,0:0:0:0:
347,127,107636,6,0,P|326:224|309:309,1,167.999994873047,2|2,3:2|3:2,0:0:0:0:
237,360,108160,2,0,P|191:349|146:341,1,83.9999974365235,8|2,0:0|0:0,0:0:0:0:
100,271,108508,1,0,3:0:0:0:
100,271,108596,1,0,3:0:0:0:
100,271,108683,2,0,P|110:225|118:180,1,83.9999974365235,2|0,3:2|0:0,0:0:0:0:
63,102,109032,2,0,P|97:61|156:58,1,83.9999974365235,2|0,3:2|0:0,0:0:0:0:
207,120,109381,1,10,0:0:0:0:
207,120,109555,1,2,3:2:0:0:
303,84,109729,6,0,P|392:109|467:134,2,167.999994873047,6|0|0,3:2|0:0|0:0,0:0:0:0:
159,227,110776,2,0,P|70:252|-5:277,2,167.999994873047,2|0|0,3:2|0:0|0:0,0:0:0:0:
197,325,111648,1,0,3:0:0:0:
197,325,111822,5,6,3:2:0:0:
381,244,112171,1,0,3:0:0:0:
219,125,112520,1,2,0:0:0:0:
197,325,112869,2,0,P|259:346|320:368,2,125.999996154785,2|8|4,0:0|3:0|3:0,0:0:0:0:
286,203,113915,5,6,3:2:0:0:
