osu file format v14

[General]
AudioFilename: audio.ogg
AudioLeadIn: 0
PreviewTime: 93678
Countdown: 0
SampleSet: Soft
StackLeniency: 0.7
Mode: 0
LetterboxInBreaks: 0
WidescreenStoryboard: 0

[Editor]
Bookmarks: 9323,29969,50614,71259,89323,94485,125452,135775,156420,177065,187388,197711,239001,261017,263517,269969,290614,311259
DistanceSpacing: 4
BeatDivisor: 16
GridSize: 8
TimelineZoom: 1.6

[Metadata]
Title:Re:Call
TitleUnicode:Re:Call
Artist:Shimotsuki Haruka
ArtistUnicode:霜月はるか
Creator:Visionary
Version:ephemeral chronokinesis
Source:できない私が、くり返す。
Tags:recall video game vgm japanese pop j-pop jpop dekinai watashi ga kurikaesu. i will start over again and again for you. opening visual novel eroge vn galgame
BeatmapID:4452718
BeatmapSetID:2119650

[Difficulty]
HPDrainRate:4
CircleSize:4
OverallDifficulty:9
ApproachRate:9
SliderMultiplier:1.9
SliderTickRate:1

[Events]
//Background and Video events
0,0,"image - 2023-12-16T210712.861.png",0,0
//Break Periods
2,90614,93840
2,177065,184807
2,264842,269340
//Storyboard Layer 0 (Background)
//Storyboard Layer 1 (Fail)
//Storyboard Layer 2 (Pass)
//Storyboard Layer 3 (Foreground)
//Storyboard Layer 4 (Overlay)
//Storyboard Sound Samples

[TimingPoints]
1582,645.161290322581,4,2,1,40,1,0
9323,-142.857142857143,4,2,1,40,0,0
26098,-123.211682250387,4,2,1,40,0,0
27066,-120.473945690933,4,2,1,40,0,0
27388,-119.590945928535,4,2,1,40,0,0
28356,-142.857142857143,4,2,1,40,0,0
29969,-142.857142857143,4,2,1,55,0,0
30130,-125.000000000002,4,2,1,55,0,0
50614,-166.666666666667,4,2,1,60,0,0
71259,-117.647058823529,4,2,1,70,0,0
74969,-142.857142857143,4,2,1,70,0,0
76420,-142.857142857143,4,2,1,70,0,0
79001,-125,4,2,1,70,0,0
84323,-129.87012987013,4,2,1,70,0,0
86098,-111.111111111111,4,2,1,70,0,0
94485,-58.8235294117647,4,2,1,85,0,0
135614,-166.666666666667,4,2,1,55,0,0
135936,-125,4,2,1,55,0,0
156420,-125,4,2,1,60,0,0
156582,-90.9090909090909,4,2,1,60,0,0
186743,-90.9090909090909,4,2,1,45,0,0
187388,-90.9090909090909,4,2,1,55,0,0
192549,-90.9090909090909,4,2,1,60,0,0
195130,-90.9090909090909,4,2,1,65,0,0
196420,-90.9090909090909,4,2,1,70,0,0
197065,-90.9090909090909,4,2,1,75,0,0
197711,-58.8235294117647,4,2,1,85,0,0
239001,-40,4,2,1,80,0,0
240130,-37.224278105894,4,2,1,80,0,0
240614,-36.8824544342833,4,2,1,80,0,0
241259,-35.4342369449885,4,2,1,80,0,0
241582,-39.8546932115427,4,2,1,80,0,0
242549,-37.224278105894,4,2,1,80,0,0
243194,-39.1858964982741,4,2,1,80,0,0
243678,-42.6235693867874,4,2,1,80,0,0
244162,-46.9700490624932,4,2,1,80,0,0
244807,-46.9700357618079,4,2,1,80,0,0
245614,-39.7564057154783,4,2,1,80,0,0
246098,-34.5332570281703,4,2,1,80,0,0
246743,-40.0804397975197,4,2,1,80,0,0
247065,-40.3055696109572,4,2,1,80,0,0
248194,-39.0812044881683,4,2,1,80,0,0
248678,-37.224278105894,4,2,1,80,0,0
249324,-39.7876789193664,4,2,1,80,0,0
249646,-38.9661815266988,4,2,1,80,0,0
249969,-44.2208042040539,4,2,1,80,0,0
251259,-55.2446320598667,4,2,1,80,0,0
252065,-37.224278105894,4,2,1,80,0,0
252711,-46.8035138772308,4,2,1,80,0,0
253356,-37.1853396177605,4,2,1,80,0,0
253840,-40.4124763767377,4,2,1,80,0,0
254162,-28.3069652096072,4,2,1,80,0,0
254646,-38.9661815266988,4,2,1,80,0,0
254969,-37.1853396177605,4,2,1,80,0,0
255614,-39.0812044881683,4,2,1,80,0,0
256582,-53.4981525041471,4,2,1,80,0,0
257227,-39.1565084693157,4,2,1,80,0,0
257549,-39.6222771766838,4,2,1,80,0,0
260291,-68.9565661926331,4,2,1,80,0,0
263517,662.983425414365,4,2,1,80,1,0
264842,645.161290322581,4,2,1,80,1,0
269358,582.52427184466,4,2,1,80,1,0
269649,634.920634920635,4,2,1,80,1,0
269940,645.161290322581,4,2,1,40,1,0
269940,-88.7908592174445,4,2,1,40,0,0
271875,666.666666666667,4,2,1,40,1,0
272208,-77.3612534141907,4,2,1,40,0,0
272541,657.534246575342,4,2,1,40,1,0
272541,-73.3670558947147,4,2,1,40,0,0
274842,615.384615384616,4,2,1,40,1,0
274842,-72.1590833839031,4,2,1,40,0,0
275149,645.161290322581,4,2,1,40,1,0
275149,-70.8034934767074,4,2,1,40,0,0
276116,634.920634920635,4,2,1,40,1,0
276116,-53.9021200845974,4,2,1,40,0,0
276433,634.920634920635,4,2,1,40,1,0
277385,655.737704918033,4,2,1,40,1,0
277712,634.920634920635,4,2,1,40,1,0
277712,-59.6413291893034,4,2,1,40,0,0
278981,625,4,2,1,40,1,0
279293,-77.3277026884131,4,2,1,40,0,0
279606,670.391061452515,4,2,1,40,1,0
279606,-63.971363520762,4,2,1,40,0,0
280276,645.161290322581,4,2,1,40,1,0
280276,-65.6352176948951,4,2,1,40,0,0
282211,655.737704918033,4,2,1,40,1,0
282538,-63.6960983512613,4,2,1,40,0,0
282866,646.900269541779,4,2,1,40,1,0
282866,-52.6348603629853,4,2,1,40,0,0
284159,-50.1463107130346,4,2,1,40,0,0
285453,643.43163538874,4,2,1,40,1,0
287383,662.983425414364,4,2,1,40,1,0
288045,648.648648648649,4,2,1,40,1,0
289342,594.059405940594,4,2,1,40,1,0
289936,655.737704918033,4,2,1,15,1,0
290263,670.391061452514,4,2,1,15,1,0
290614,645.161290322581,4,2,4,90,1,0
290614,-58.8235294117647,4,2,4,90,0,0
311098,-166.666666666667,4,2,4,40,0,0

[Colours]
Combo1 : 125,190,255
Combo2 : 145,251,249

[HitObjects]
0,327,9323,6,0,P|16:323|36:309,1,33.2499989852906,2|0,3:0|2:0,2:0:0:0:
81,261,9646,1,2,2:0:0:0:
145,294,9807,2,0,P|161:298|181:312,1,33.2499989852906,2|0,2:0|2:0,2:0:0:0:
253,370,10130,6,0,B|244:348|244:348|265:312|248:274,1,99.7499969558717,2|0,2:0|3:0,2:0:0:0:
213,211,10775,1,0,2:0:0:0:
213,211,10936,2,0,P|221:196|225:180,1,33.2499989852906,2|2,2:0|2:0,2:0:0:0:
196,109,11259,2,0,B|168:83|134:73,1,66.4999979705811,0|0,2:0|2:0,2:0:0:0:
274,118,11904,6,0,P|290:113|304:105,1,33.2499989852906,0|0,3:0|2:0,2:0:0:0:
361,55,12226,1,2,2:0:0:0:
423,94,12388,2,0,P|439:99|453:107,1,33.2499989852906,2|0,2:0|2:0,2:0:0:0:
373,151,12711,5,2,2:0:0:0:
373,151,12872,2,0,P|380:191|382:228,2,66.4999979705811,0|0|2,2:0|3:0|2:0,2:0:0:0:
222,269,13840,6,0,P|205:273|191:281,1,33.2499989852906,0|2,2:0|2:0,2:0:0:0:
127,320,14162,1,0,2:0:0:0:
72,267,14323,2,0,P|55:262|41:254,1,33.2499989852906,0|2,2:0|2:3,2:0:0:0:
199,357,14646,5,0,2:0:0:0:
199,357,14807,2,0,B|236:395|296:383|296:383,1,99.7499969558717,2|2,2:0|2:0,2:0:0:0:
354,339,15452,1,0,2:0:0:0:
428,366,15614,1,0,2:0:0:0:
428,366,15775,6,0,B|445:320|445:320|441:290|441:290|421:270|421:239,1,132.999995941162,0|0,3:0|2:0,2:0:0:0:
496,227,16582,5,2,2:0:0:0:
448,170,16743,2,0,P|456:155|460:139,1,33.2499989852906,0|0,2:0|2:0,2:0:0:0:
494,66,17065,6,0,B|502:54|502:54|442:24|406:70|406:70|419:80,1,132.999995941162,0|0,3:0|2:0,2:0:0:0:
374,140,17872,1,2,2:0:0:0:
301,143,18033,2,0,P|284:138|270:130,1,33.2499989852906,0|0,2:0|2:0,2:0:0:0:
174,18,18356,6,0,P|188:9|204:5,2,33.2499989852906,0|0|2,3:0|2:0|2:0,2:0:0:0:
115,69,18840,1,2,2:0:0:0:
60,9,19001,2,0,B|32:41|39:86|39:86|29:73,1,99.7499969558717,0|0,2:0|2:0,2:0:0:0:
119,77,19646,6,0,P|135:81|155:95,1,33.2499989852906,2|0,3:0|2:0,2:0:0:0:
194,151,19969,1,2,2:0:0:0:
268,139,20130,2,0,P|284:135|304:121,1,33.2499989852906,2|0,2:0|2:0,2:0:0:0:
212,18,20452,5,2,2:0:0:0:
232,48,20614,2,0,L|224:81,1,33.2499989852906,0|0,2:0|2:0,2:0:0:0:
171,228,20936,6,0,B|158:273|158:273|145:277|145:277|136:316,1,99.7499969558717,2|2,3:0|2:0,2:0:0:0:
71,351,21582,6,0,P|56:359|40:363,1,33.2499989852906,0|2,2:0|2:0,2:0:0:0:
210,329,21904,2,0,P|226:333|240:341,1,33.2499989852906,0|0,2:0|2:0,2:0:0:0:
448,299,22227,6,0,B|525:281,1,66.4999979705811,2|2,3:0|2:0,2:0:0:0:
411,362,22711,2,0,P|394:357|380:349,1,33.2499989852906,2|0,2:0|2:0,2:0:0:0:
312,321,23032,5,2,2:0:0:0:
332,291,23194,2,0,L|324:258,1,33.2499989852906,0|0,2:0|2:0,2:0:0:0:
168,204,23517,6,0,B|214:195|241:230|241:230|258:226,1,99.7499969558717,2|2,3:0|2:0,2:0:0:0:
64,313,24163,6,0,P|49:319|33:319,2,33.2499989852906,0|2|0,2:0|2:0|2:0,2:0:0:0:
120,264,24646,1,0,2:0:0:0:
189,285,24807,2,0,L|198:316,1,33.2499989852906,2|0,3:0|2:0,2:0:0:0:
111,256,25130,6,0,B|89:212|89:212|89:184|89:184|61:169|59:134,1,132.999995941162,2|0,2:0|2:0,2:0:0:0:
99,77,25936,1,0,2:0:0:0:
57,13,26098,2,0,B|49:0|49:0|129:-33|166:39,1,154.206156859288,2|0,3:0|2:0,2:0:0:0:
223,91,26905,5,2,2:0:0:0:
292,60,27066,2,0,P|311:55|328:46,1,39.4276121094741,0|0,2:0|2:0,2:0:0:0:
468,127,27388,6,0,B|453:90|404:80|404:80|412:43|395:6,1,158.87490355126,2|0,3:0|2:0,2:0:0:0:
444,58,28195,1,2,2:0:0:0:
393,160,28356,6,0,P|376:165|362:173,1,33.2499989852906,0|0,2:0|2:0,2:0:0:0:
288,159,28679,2,0,P|271:154|257:145,2,33.2499989852906,2|0|2,3:0|2:0|2:0,2:0:0:0:
311,234,29163,1,2,2:0:0:0:
311,234,29323,6,0,L|292:340,1,99.7499969558717,0|0,2:0|2:0,2:0:0:0:
489,323,29969,5,0,3:0:0:0:
489,323,30130,2,0,L|436:335,1,37.9999999999994,2|0,3:0|2:0,2:0:0:0:
389,290,30452,1,0,3:0:0:0:
225,383,30614,2,0,L|137:363,1,75.9999999999997,2|0,3:0|2:0,2:0:0:0:
225,383,31098,1,2,3:2:0:0:
381,364,31259,5,0,3:0:0:0:
317,321,31420,2,0,L|280:330,1,38.0000000000003,2|0,3:0|2:0,2:0:0:0:
438,224,31743,1,0,3:0:0:0:
383,182,31904,2,0,L|309:199,1,75.9999999999989,2|0,3:0|2:0,2:0:0:0:
383,182,32388,1,2,3:2:0:0:
202,304,32549,5,0,3:0:0:0:
202,304,32711,2,0,L|149:292,1,38.0000000000003,2|0,3:0|2:0,2:0:0:0:
253,248,33033,1,0,3:0:0:0:
98,145,33194,2,0,L|10:166,1,76.0000000000006,2|0,3:0|2:0,2:0:0:0:
98,145,33678,1,2,3:2:0:0:
94,270,33840,5,0,3:0:0:0:
180,217,34001,2,0,L|143:209,1,38.0000000000003,2|0,3:0|2:0,2:0:0:0:
72,72,34323,1,0,3:0:0:0:
210,0,34485,5,2,3:0:0:0:
286,22,34646,1,0,3:0:0:0:
264,98,34807,1,0,2:0:0:0:
190,76,34969,1,2,3:2:0:0:
445,134,35130,5,0,3:0:0:0:
376,103,35291,2,0,L|323:115,1,37.9999999999986,2|0,3:0|2:0,2:0:0:0:
440,59,35614,1,0,3:0:0:0:
329,191,35775,2,0,L|241:171,1,76.0000000000006,2|0,3:0|2:0,2:0:0:0:
329,191,36259,1,2,3:2:0:0:
189,67,36420,5,0,3:0:0:0:
162,0,36582,2,0,L|125:9,1,38.0000000000003,2|0,3:0|2:0,2:0:0:0:
256,100,36904,1,0,3:0:0:0:
180,145,37065,2,0,L|106:128,1,76.0000000000006,2|0,3:0|2:0,2:0:0:0:
180,145,37549,1,2,3:2:0:0:
166,294,37711,5,0,3:0:0:0:
75,196,37872,2,0,L|22:208,1,38.0000000000003,2|0,3:0|2:0,2:0:0:0:
150,219,38194,1,0,3:0:0:0:
94,272,38356,2,0,L|6:293,1,76.0000000000006,2|0,3:0|2:0,2:0:0:0:
94,272,38840,1,2,3:2:0:0:
249,323,39001,5,0,3:0:0:0:
188,370,39162,2,0,L|151:362,1,38.0000000000003,2|0,3:0|2:0,2:0:0:0:
174,291,39485,1,0,3:0:0:0:
311,118,39646,5,2,3:0:0:0:
333,44,39807,1,0,3:0:0:0:
257,22,39969,1,0,2:0:0:0:
235,98,40130,1,2,3:2:0:0:
24,277,40291,5,4,3:2:0:0:
24,277,40452,2,0,L|77:289,1,38.0000000000003,2|0,3:0|2:0,2:0:0:0:
105,223,40775,1,0,3:0:0:0:
199,341,40936,2,0,L|287:321,1,76.0000000000006,2|0,3:0|2:0,2:0:0:0:
199,341,41420,1,2,3:2:0:0:
160,174,41582,5,0,3:0:0:0:
176,248,41743,2,0,L|213:257,1,38.000000000002,2|0,3:0|2:0,2:0:0:0:
132,304,42065,1,0,3:0:0:0:
23,160,42227,2,0,L|97:143,1,76.0000000000006,2|0,3:0|2:0,2:0:0:0:
23,160,42711,1,2,3:2:0:0:
162,64,42872,5,0,3:0:0:0:
162,64,43033,2,0,L|215:52,1,37.9999999999986,2|0,3:0|2:0,2:0:0:0:
111,121,43356,1,0,3:0:0:0:
23,2,43517,2,0,L|111:23,1,76.0000000000006,2|0,3:0|2:0,2:0:0:0:
23,2,44001,1,2,3:2:0:0:
234,126,44162,5,0,3:0:0:0:
234,126,44323,2,0,L|271:118,1,38.0000000000003,2|0,3:0|2:0,2:0:0:0:
327,64,44646,1,0,3:0:0:0:
422,116,44807,5,2,3:0:0:0:
498,94,44969,1,0,3:0:0:0:
476,18,45130,1,0,2:0:0:0:
402,40,45291,1,2,3:2:0:0:
364,283,45452,5,0,3:0:0:0:
290,340,45614,2,0,L|327:349,1,38.000000000002,2|0,3:0|2:0,2:0:0:0:
400,374,45936,1,0,3:0:0:0:
438,306,46098,2,0,L|512:290,1,76.0000000000023,2|0,3:0|2:0,2:0:0:0:
437,307,46582,1,2,3:2:0:0:
498,209,46743,5,0,3:0:0:0:
419,134,46904,2,0,L|456:143,1,38.0000000000003,2|0,3:0|2:0,2:0:0:0:
358,287,47227,1,0,3:0:0:0:
347,202,47388,2,0,L|421:219,1,75.9999999999989,2|0,3:0|2:0,2:0:0:0:
347,202,47872,1,2,3:2:0:0:
259,112,48033,5,0,3:0:0:0:
233,39,48194,2,0,L|270:31,1,38.0000000000003,2|0,3:0|2:0,2:0:0:0:
329,82,48517,1,0,3:0:0:0:
159,171,48678,2,0,L|233:188,1,76.0000000000006,2|0,3:0|2:0,2:0:0:0:
159,171,49162,1,2,3:2:0:0:
268,122,49323,5,0,3:0:0:0:
116,8,49485,2,0,L|153:0,1,38,2|0,3:0|2:0,2:0:0:0:
87,81,49807,1,0,3:0:0:0:
22,257,49969,5,2,3:0:0:0:
2,333,50130,1,0,3:0:0:0:
76,355,50291,1,0,2:0:0:0:
98,279,50452,1,2,3:2:0:0:
230,307,50614,6,0,P|252:294|265:289,1,28.4999991302491,6|2,3:2|3:0,2:0:0:0:
307,239,50936,1,2,2:0:0:0:
382,253,51098,2,0,P|394:259|406:267,1,28.4999991302491,2|2,3:2|3:0,2:0:0:0:
473,228,51420,1,2,2:0:0:0:
428,341,51582,1,2,2:0:0:0:
473,228,51743,2,0,L|479:193,1,28.4999991302491,2|0,3:2|3:0,2:0:0:0:
437,133,52065,1,2,3:0:0:0:
475,63,52227,2,0,P|463:55|450:49,1,28.4999991302491,0|0,2:0|3:0,2:0:0:0:
387,6,52549,2,0,P|355:4|331:16,1,56.9999982604981,2|2,3:0|3:2,2:0:0:0:
200,116,53194,6,0,P|187:110|175:102,1,28.4999991302491,2|2,3:2|3:0,2:0:0:0:
118,50,53516,1,2,2:0:0:0:
45,72,53678,2,0,P|33:80|20:86,1,28.4999991302491,2|2,3:0|3:0,2:0:0:0:
138,197,54000,1,2,2:0:0:0:
83,280,54162,1,2,2:0:0:0:
138,197,54323,2,0,L|133:225,1,28.4999991302491,2|0,3:2|3:0,2:0:0:0:
100,128,54645,1,2,3:0:0:0:
60,195,54807,2,0,P|48:187|35:181,1,28.4999991302491,0|0,2:0|3:0,2:0:0:0:
158,297,55130,2,0,P|195:290|215:279,1,56.9999982604981,2|2,3:0|2:0,2:0:0:0:
419,195,55614,6,0,P|431:203|444:209,1,28.4999991302491,2|0,3:2|3:0,2:0:0:0:
408,279,55936,1,2,3:0:0:0:
484,331,56098,2,0,P|489:302|484:271,1,56.9999982604981,2|2,2:0|3:0,2:0:0:0:
434,124,56581,1,0,2:0:0:0:
499,88,56743,1,2,2:0:0:0:
434,124,56904,2,0,L|406:115,1,28.4999991302491,2|0,3:2|3:0,2:0:0:0:
271,47,57226,1,2,3:0:0:0:
309,111,57388,2,0,P|322:105|334:97,1,28.4999991302491,0|0,2:0|3:0,2:0:0:0:
345,21,57711,2,0,P|382:28|402:39,1,56.9999982604981,2|2,3:0|2:0,2:0:0:0:
151,150,58194,5,2,3:2:0:0:
105,92,58356,2,0,P|92:86|80:78,2,28.4999991302491,0|2|0,3:0|3:0|2:0,2:0:0:0:
180,82,58840,1,0,3:0:0:0:
138,163,59001,2,0,P|126:189|122:217,1,56.9999982604981,2|2,3:0|2:0,2:0:0:0:
150,290,59485,2,0,P|158:302|164:315,1,28.4999991302491,2|0,3:2|3:0,2:0:0:0:
69,269,59807,2,0,P|57:276|44:282,1,28.4999991302491,2|0,3:0|2:0,2:0:0:0:
92,346,60130,1,0,3:0:0:0:
259,263,60291,5,2,3:0:0:0:
333,241,60452,1,0,3:0:0:0:
355,317,60614,1,0,2:0:0:0:
279,339,60775,1,2,3:2:0:0:
103,176,60936,6,0,P|90:170|78:162,1,28.4999991302491,6|2,3:2|3:0,2:0:0:0:
11,117,61259,1,2,2:0:0:0:
20,40,61420,2,0,P|32:32|45:26,1,28.4999991302491,0|2,3:0|3:0,2:0:0:0:
164,0,61743,1,2,2:0:0:0:
246,28,61905,1,2,2:0:0:0:
164,0,62066,2,0,L|170:35,1,28.4999991302491,2|0,3:2|3:0,2:0:0:0:
117,82,62388,1,2,3:0:0:0:
187,120,62550,2,0,P|195:108|201:95,1,28.4999991302491,0|0,2:0|3:0,2:0:0:0:
120,160,62872,2,0,L|66:177,1,56.9999982604981,2|2,3:0|2:0,2:0:0:0:
260,13,63356,1,2,3:2:0:0:
341,36,63517,6,0,P|353:44|366:50,1,28.4999991302491,2|2,3:2|3:0,2:0:0:0:
290,91,63839,1,2,2:0:0:0:
421,184,64001,2,0,P|434:178|446:170,1,28.4999991302491,0|2,3:0|3:0,2:0:0:0:
361,124,64323,1,2,2:0:0:0:
285,166,64485,1,2,2:0:0:0:
361,124,64646,2,0,L|356:152,1,28.4999991302491,2|0,3:2|3:0,2:0:0:0:
337,256,64968,1,2,3:0:0:0:
290,318,65130,2,0,P|278:310|265:304,1,28.4999991302491,0|0,2:0|3:0,2:0:0:0:
336,375,65453,2,0,P|373:368|393:357,1,56.9999982604981,2|2,3:0|2:0,2:0:0:0:
173,281,65937,6,0,P|160:287|148:295,1,28.4999991302491,2|0,3:2|3:0,2:0:0:0:
97,351,66259,1,2,3:0:0:0:
31,310,66420,2,0,P|36:284|40:248,1,56.9999982604981,2|2,2:0|3:0,2:0:0:0:
37,166,66904,1,0,2:0:0:0:
102,202,67066,1,2,2:0:0:0:
37,166,67227,2,0,L|9:175,1,28.4999991302491,2|0,3:2|3:0,2:0:0:0:
131,57,67549,1,2,3:0:0:0:
199,86,67711,2,0,P|212:80|224:72,1,28.4999991302491,0|0,2:0|3:0,2:0:0:0:
254,4,68034,2,0,P|291:11|311:22,1,56.9999982604981,2|2,3:0|2:0,2:0:0:0:
419,150,68517,5,2,3:2:0:0:
356,194,68679,2,0,P|343:188|331:180,2,28.4999991302491,0|2|0,3:0|3:0|2:0,2:0:0:0:
477,288,69163,1,0,3:0:0:0:
424,232,69323,2,0,P|436:224|449:218,1,28.4999991302491,2|0,3:0|2:0,2:0:0:0:
330,371,69646,1,2,2:0:0:0:
288,303,69807,6,0,P|282:290|274:278,1,28.4999991302491,2|0,3:2|3:0,2:0:0:0:
403,360,70130,2,0,P|416:354|428:347,1,28.4999991302491,2|0,3:0|2:0,2:0:0:0:
369,294,70453,1,0,3:0:0:0:
137,350,70614,5,2,3:0:0:0:
63,372,70775,1,8,3:0:0:0:
41,296,70937,1,4,3:0:0:0:
117,274,71098,1,2,1:2:0:0:
215,191,71259,5,6,3:0:0:0:
89,143,71420,2,0,L|78:99,1,40.375000770092,4|0,3:0|0:0,0:0:0:0:
278,95,71743,5,2,2:0:0:0:
393,34,71904,1,2,2:0:0:0:
278,95,72065,2,0,L|272:137,1,40.375000770092,2|4,2:0|3:0,0:0:0:0:
334,182,72388,5,4,3:0:0:0:
507,102,72549,1,2,2:0:0:0:
323,10,72711,2,0,L|281:18,1,40.375000770092,2|0,2:0|0:0,0:0:0:0:
400,222,73033,5,2,2:0:0:0:
245,307,73194,1,2,1:2:0:0:
492,376,73356,2,0,L|480:330,1,40.375000770092,2|0,2:0|0:0,0:0:0:0:
280,234,73678,5,2,2:0:0:0:
175,266,73840,1,6,3:0:0:0:
115,182,74001,2,0,L|73:173,1,40.375000770092,4|0,3:0|2:0,0:0:0:0:
250,384,74323,2,0,P|281:375|322:347,1,80.750001540184,2|0,2:0|0:0,0:0:0:0:
122,187,74807,5,6,3:0:0:0:
56,366,74969,2,0,L|23:359,1,33.2499989852906,4|0,3:0|0:0,0:0:0:0:
102,262,75291,5,2,2:0:0:0:
126,331,75452,2,0,L|165:339,1,33.2499989852906,2|0,3:0|2:0,0:0:0:0:
27,264,75775,5,2,1:2:0:0:
27,264,76098,1,2,3:0:0:0:
156,96,76259,1,2,1:2:0:0:
156,96,76340,1,8,3:0:0:0:
156,96,76420,1,4,3:0:0:0:
104,31,76582,2,0,B|48:34|8:13,1,99.7499969558717,6|0,3:0|3:0,0:0:0:0:
230,82,77388,5,6,3:0:0:0:
291,29,77549,1,6,3:0:0:0:
362,63,77711,2,0,B|400:60|428:75,1,66.4999979705811,2|2,2:0|3:0,0:0:0:0:
495,48,78194,5,2,2:0:0:0:
349,150,78356,2,0,L|316:143,1,33.2499989852906,0|0,1:2|0:0,0:0:0:0:
468,277,78678,2,0,L|435:284,1,33.2499989852906,2|0,2:0|0:0,0:0:0:0:
217,384,79001,5,4,3:0:0:0:
379,227,79162,2,0,B|323:230|264:202,1,114,4|0,3:0|3:0,0:0:0:0:
192,204,79807,5,2,2:0:0:0:
142,266,79969,1,6,3:0:0:0:
150,344,80130,2,0,L|32:315,1,114,6|2,3:0|3:0,0:0:0:0:
370,7,80936,5,0,1:2:0:0:
232,132,81259,1,2,3:0:0:0:
292,192,81420,1,0,3:0:0:0:
292,192,81501,1,0,3:0:0:0:
292,192,81582,6,0,P|300:159|325:123,1,76,6|0,3:0|2:0,0:0:0:0:
228,264,82065,2,0,P|219:249|213:227,1,38,2|0,2:0|0:0,0:0:0:0:
285,315,82388,1,2,2:0:0:0:
358,294,82549,1,6,3:0:0:0:
472,372,82711,2,0,L|396:358,1,76,4|0,3:0|0:0,0:0:0:0:
494,299,83194,6,0,P|498:283|511:263,1,38,2|0,3:0|2:0,0:0:0:0:
380,222,83517,1,2,1:2:0:0:
283,329,83678,2,0,P|253:340|206:343,1,76,2|0,2:0|0:0,0:0:0:0:
28,290,84162,5,6,3:0:0:0:
60,361,84323,2,0,B|76:299|76:299|56:277|57:246|57:246|-9:221,1,182.874996372414,4|6,3:0|3:0,0:0:0:0:
136,251,85291,1,4,3:0:0:0:
135,251,85452,2,0,P|152:218|157:182,1,73.1499985489655,0|2,2:0|3:0,0:0:0:0:
93,130,85936,1,2,2:0:0:0:
172,12,86098,6,0,L|215:2,1,42.7499986953736,0|0,1:0|2:0,0:0:0:0:
353,83,86420,2,0,L|310:73,1,42.7499986953736,2|0,3:0|3:0,0:0:0:0:
300,97,86662,1,0,3:0:0:0:
300,97,86743,1,4,3:3:0:0:
256,192,86823,12,0,89323,3:0:0:0:
472,20,94485,6,0,B|423:30|423:30|384:26|384:26|355:50|314:53,1,161.5,6|0,1:2|2:0,2:0:0:0:
246,27,94969,1,4,3:0:0:0:
396,384,95130,1,0,1:2:0:0:
492,274,95291,1,2,3:0:0:0:
427,229,95453,1,10,3:0:0:0:
334,329,95614,6,0,P|371:313|410:303,1,80.75,6|2,3:0|3:0,2:0:0:0:
76,384,95936,2,0,P|36:374|-1:358,1,80.75,4|4,1:2|3:0,2:0:0:0:
116,322,96259,1,4,3:0:0:0:
489,287,96420,5,6,1:2:0:0:
506,361,96582,1,4,3:0:0:0:
272,220,96743,5,2,1:2:0:0:
272,220,96824,1,0,1:2:0:0:
272,220,96904,2,0,L|217:204,1,40.375,8|4,3:0|3:0,2:0:0:0:
0,155,97065,6,0,P|78:138|148:98,1,161.5,6|0,1:2|2:0,2:0:0:0:
217,130,97549,1,4,3:0:0:0:
20,289,97711,2,0,P|55:309|93:325,1,80.75,0|2,1:2|3:0,2:0:0:0:
146,273,98033,1,10,3:0:0:0:
260,373,98194,6,0,P|290:347|328:332,1,80.750001540184,6|2,3:0|3:0,2:0:0:0:
508,142,98517,1,4,1:2:0:0:
393,202,98678,1,4,3:0:0:0:
449,343,98840,1,4,3:0:0:0:
353,22,99001,5,6,1:2:0:0:
287,85,99162,1,4,3:0:0:0:
394,284,99324,5,2,1:2:0:0:
394,284,99404,1,0,1:2:0:0:
394,284,99485,2,0,L|449:268,1,40.375,8|4,3:0|3:0,2:0:0:0:
512,129,99646,6,0,B|474:118|440:94|440:94|402:106|360:97,1,161.5,6|2,1:2|3:0,2:0:0:0:
319,161,100130,1,6,3:0:0:0:
11,0,100291,2,0,P|45:21|83:37,1,80.75,0|0,1:2|3:0,2:0:0:0:
224,35,100614,5,10,3:0:0:0:
151,3,100775,1,6,3:0:0:0:
224,35,100936,1,6,3:0:0:0:
297,307,101098,5,4,1:2:0:0:
335,242,101259,2,0,P|372:227|403:201,1,80.75,10|6,3:0|3:0,2:0:0:0:
0,356,101582,5,4,1:2:0:0:
23,284,101743,1,4,3:0:0:0:
161,90,101904,5,2,1:2:0:0:
161,90,101985,1,0,1:2:0:0:
161,90,102065,2,0,L|173:128,1,40.375,10|4,3:0|3:0,2:0:0:0:
225,284,102227,6,0,P|146:300|73:344,1,161.5,6|2,1:2|3:0,2:0:0:0:
229,358,102711,1,6,3:0:0:0:
8,83,102872,5,4,1:2:0:0:
71,36,103033,2,0,P|36:14|0:0,1,80.75,2|8,3:0|3:0,2:0:0:0:
48,147,103356,2,0,P|82:168|119:183,1,80.75,6|0,3:0|3:0,2:0:0:0:
493,58,103678,5,4,1:2:0:0:
379,118,103840,1,0,1:2:0:0:
418,55,104001,1,4,3:0:0:0:
232,369,104162,5,6,1:2:0:0:
506,211,104324,1,4,3:0:0:0:
356,229,104485,1,2,1:2:0:0:
462,342,104646,1,8,3:0:0:0:
453,126,104807,6,0,B|450:163|426:192|426:192|430:231|430:231|420:280,1,161.5,6|0,1:2|2:0,2:0:0:0:
507,72,105291,1,4,3:0:0:0:
115,274,105453,2,0,P|81:252|41:243,1,80.75,0|2,1:2|3:0,2:0:0:0:
105,185,105775,5,10,3:0:0:0:
58,324,105936,1,6,3:0:0:0:
107,384,106098,1,2,3:0:0:0:
162,133,106259,6,0,P|231:92|310:77,1,161.5,4|4,1:2|3:0,2:0:0:0:
325,315,106743,1,2,1:2:0:0:
345,241,106904,1,4,3:0:0:0:
1,113,107065,5,2,1:2:0:0:
1,113,107146,1,0,1:2:0:0:
1,113,107227,2,0,L|38:129,1,40.375,8|4,3:0|3:0,2:0:0:0:
177,210,107388,6,0,B|198:275|170:337|170:337|182:365,1,161.5,6|0,1:2|2:0,2:0:0:0:
252,337,107872,1,4,3:0:0:0:
407,19,108033,5,0,1:2:0:0:
434,89,108194,2,0,P|472:86|517:71,1,80.75,2|10,3:0|3:0,2:0:0:0:
370,123,108517,1,6,3:0:0:0:
370,123,108678,1,2,3:0:0:0:
37,10,108840,5,4,1:2:0:0:
107,41,109001,1,4,3:0:0:0:
0,76,109162,1,4,3:0:0:0:
211,284,109324,5,4,1:2:0:0:
21,383,109485,1,6,3:0:0:0:
21,383,109565,1,4,3:0:0:0:
21,383,109646,2,0,L|34:344,1,40.375,2|0,1:2|1:2,2:0:0:0:
152,240,109807,5,10,3:0:0:0:
152,240,109888,1,4,3:0:0:0:
152,240,109969,2,0,B|103:252|103:252|70:273|70:273|33:264|0:277,1,161.5,4|2,1:2|3:0,2:0:0:0:
125,161,110453,1,6,3:0:0:0:
413,303,110614,1,4,1:2:0:0:
356,354,110775,2,0,P|322:331|283:320,1,80.75,0|10,3:0|3:0,2:0:0:0:
430,377,111098,5,6,3:0:0:0:
267,0,111259,2,0,B|305:11|339:35|339:35|377:23|419:32,1,161.5,4|10,1:2|3:0,2:0:0:0:
462,96,111743,1,6,3:0:0:0:
137,313,111904,1,4,1:2:0:0:
189,378,112065,2,0,P|205:340|215:301,1,80.75,6|2,3:0|1:2,2:0:0:0:
266,85,112388,1,10,3:0:0:0:
266,85,112469,1,4,3:0:0:0:
266,85,112549,6,0,B|238:73|238:73|176:101|111:80,1,161.5,6|2,1:2|3:0,2:0:0:0:
83,10,113033,1,6,3:0:0:0:
253,236,113194,1,0,1:2:0:0:
318,187,113356,2,0,P|285:166|246:158,1,80.75,2|8,3:0|3:0,2:0:0:0:
411,342,113678,5,6,3:0:0:0:
443,271,113840,1,0,3:0:0:0:
107,234,114001,2,0,P|146:225|181:204,1,80.75,4|0,1:2|1:2,2:0:0:0:
5,91,114324,5,4,3:0:0:0:
5,91,114404,1,4,3:0:0:0:
5,91,114485,2,0,L|18:129,1,40.375,4|0,1:2|2:0,2:0:0:0:
366,280,114646,6,0,B|369:243|393:214|393:214|389:175|389:175|399:126,1,161.5,6|0,3:0|2:0,2:0:0:0:
101,159,115130,6,0,P|84:80|44:11,1,161.5,6|0,1:2|2:0,2:0:0:0:
38,202,115614,1,4,3:0:0:0:
443,349,115775,2,0,P|460:289|463:261,1,80.75,0|6,1:2|3:0,2:0:0:0:
412,213,116098,1,10,3:0:0:0:
492,200,116259,1,6,3:0:0:0:
492,200,116420,1,2,3:0:0:0:
164,349,116582,6,0,B|136:337|136:337|74:365|9:344,1,161.5,4|4,1:2|3:0,2:0:0:0:
433,141,117065,1,2,1:2:0:0:
384,286,117227,1,4,3:0:0:0:
112,167,117388,5,2,1:2:0:0:
112,167,117469,1,0,1:2:0:0:
112,167,117549,2,0,L|159:160,1,40.375,8|4,3:0|3:0,2:0:0:0:
386,81,117711,6,0,B|348:70|314:46|314:46|276:58|234:49,1,161.5,6|0,1:2|2:0,2:0:0:0:
173,89,118194,1,4,3:0:0:0:
310,384,118356,2,0,P|331:349|346:312,1,80.75,0|2,1:2|3:0,2:0:0:0:
305,249,118678,1,10,3:0:0:0:
305,249,118840,1,6,3:0:0:0:
511,127,119001,1,2,3:0:0:0:
163,0,119162,6,0,P|132:25|95:42,1,80.75,4|4,1:2|3:0,2:0:0:0:
33,85,119485,1,4,3:0:0:0:
148,232,119646,1,2,1:2:0:0:
194,176,119807,1,4,3:0:0:0:
107,124,119969,5,2,1:2:0:0:
107,124,120049,1,0,1:2:0:0:
107,124,120130,2,0,L|123:179,1,40.375,8|4,3:0|3:0,2:0:0:0:
236,357,120291,6,0,B|269:344|306:353|306:353|339:332|339:332|388:320,1,161.5,6|2,1:2|3:0,2:0:0:0:
180,304,120775,1,6,3:0:0:0:
432,0,120936,2,0,P|462:25|500:40,1,80.75,0|10,1:2|3:0,2:0:0:0:
380,108,121259,5,6,3:0:0:0:
360,33,121420,1,10,3:0:0:0:
380,108,121582,1,6,3:0:0:0:
491,319,121743,5,4,1:2:0:0:
462,248,121904,2,0,P|407:279|380:288,1,80.75,10|6,3:0|3:0,2:0:0:0:
39,344,122227,1,4,1:2:0:0:
110,369,122388,1,6,3:0:0:0:
177,207,122549,5,2,1:2:0:0:
177,207,122630,1,0,1:2:0:0:
177,207,122711,2,0,L|232:184,1,40.375,10|4,3:0|3:0,2:0:0:0:
144,76,122872,6,0,P|67:100|0:151,1,161.5,6|2,1:2|3:0,2:0:0:0:
210,112,123356,1,4,3:0:0:0:
192,359,123517,2,0,P|176:321|155:287,1,80.75,6|0,1:2|3:0,2:0:0:0:
261,325,123840,1,10,3:0:0:0:
209,37,124001,6,0,P|249:18|274:-8,1,80.75,6|0,1:2|3:0,2:0:0:0:
82,276,124324,5,6,1:2:0:0:
293,80,124485,1,2,1:2:0:0:
283,155,124646,1,4,3:0:0:0:
43,38,124807,5,4,1:2:0:0:
218,198,124969,1,4,3:0:0:0:
218,198,125130,1,2,1:2:0:0:
429,77,125291,1,8,3:0:0:0:
317,384,125453,6,0,B|307:335|307:335|311:296|311:296|287:267|284:230,1,161.5,6|0,1:2|2:0,2:0:0:0:
284,230,125936,1,6,3:0:0:0:
497,42,126098,1,0,1:2:0:0:
431,2,126259,1,4,3:0:0:0:
140,316,126420,6,0,P|66:284|3:230,1,161.5,6|2,1:2|3:0,2:0:0:0:
211,282,126904,2,0,P|242:256|280:242,1,80.75,6|0,3:0|2:0,2:0:0:0:
208,356,127227,1,4,3:0:0:0:
56,127,127388,6,0,P|40:89|19:55,1,80.75,6|4,1:2|3:0,2:0:0:0:
133,140,127711,2,0,P|149:178|170:212,1,80.75,2|8,1:2|3:0,2:0:0:0:
512,358,128033,6,0,B|484:346|484:346|422:374|357:353,1,161.5,4|0,1:2|2:0,2:0:0:0:
294,309,128517,1,6,3:0:0:0:
450,53,128678,1,0,1:2:0:0:
492,116,128840,1,0,3:0:0:0:
154,15,129001,6,0,B|105:25|105:25|66:21|66:21|37:45|-4:48,1,161.5,6|2,1:2|3:0,2:0:0:0:
198,79,129485,1,8,3:0:0:0:
97,251,129646,2,0,P|76:217|61:180,1,80.75,4|4,3:0|3:0,2:0:0:0:
393,57,129969,5,6,1:2:0:0:
393,57,130049,1,4,3:0:0:0:
393,57,130130,2,0,L|338:73,1,40.375,4|8,3:0|3:0,2:0:0:0:
474,235,130291,1,2,1:2:0:0:
474,235,130372,1,0,1:2:0:0:
474,235,130453,2,0,L|529:251,1,40.375,8|4,3:0|3:0,2:0:0:0:
512,0,130614,6,0,P|486:76|439:141,1,161.5,6|0,1:2|3:0,2:0:0:0:
393,201,131098,1,6,3:0:0:0:
267,111,131259,2,0,P|304:125|335:150,1,80.75,0|4,1:2|3:0,2:0:0:0:
0,384,131582,6,0,P|23:307|78:235,1,161.500003080368,6|4,1:2|3:0,2:0:0:0:
130,190,132065,1,10,3:0:0:0:
196,232,132227,2,0,P|233:217|264:192,1,80.75,4|4,3:0|3:0,2:0:0:0:
28,8,132549,1,6,1:2:0:0:
5,77,132711,1,4,3:0:0:0:
185,13,132872,1,2,1:2:0:0:
478,335,133033,1,8,3:0:0:0:
478,335,133114,1,4,3:0:0:0:
478,335,133194,6,0,B|441:332|412:308|412:308|373:312|373:312|324:302,1,161.5,6|0,1:2|3:0,2:0:0:0:
256,269,133678,1,4,3:0:0:0:
181,381,133840,2,0,P|218:365|252:344,1,80.75,8|0,3:0|3:0,2:0:0:0:
484,146,134162,5,4,1:2:0:0:
18,216,134324,1,4,1:2:0:0:
18,216,135614,6,0,L|14:202,1,14.25,0|0,3:0|3:0,2:0:0:0:
37,112,135775,5,0,3:0:0:0:
37,112,135936,2,0,L|-16:124,1,38.0000000000003,2|0,3:0|2:0,2:0:0:0:
179,178,136259,1,0,3:0:0:0:
89,23,136420,2,0,L|1:43,1,76.0000000000006,2|0,3:0|2:0,2:0:0:0:
89,23,136904,1,2,3:2:0:0:
169,24,137066,5,0,3:0:0:0:
150,102,137227,2,0,L|113:93,1,38.000000000002,2|0,3:0|2:0,2:0:0:0:
274,7,137549,1,0,3:0:0:0:
376,57,137711,2,0,L|302:74,1,76.0000000000006,2|0,3:0|2:0,2:0:0:0:
382,62,138195,1,2,3:2:0:0:
173,192,138356,5,0,3:0:0:0:
173,192,138517,2,0,L|120:180,1,37.9999999999986,2|0,3:0|2:0,2:0:0:0:
227,79,138840,1,0,3:0:0:0:
348,163,139001,2,0,L|260:142,1,76.0000000000006,2|0,3:0|2:0,2:0:0:0:
348,163,139485,1,2,3:2:0:0:
457,124,139646,5,0,3:0:0:0:
457,124,139807,2,0,L|420:132,1,38.0000000000003,2|0,3:0|2:0,2:0:0:0:
458,203,140130,1,0,3:0:0:0:
343,323,140291,5,2,3:0:0:0:
267,301,140453,1,0,3:0:0:0:
289,225,140614,1,0,2:0:0:0:
363,247,140775,1,2,3:2:0:0:
64,282,140936,5,0,3:0:0:0:
64,282,141098,2,0,L|27:291,1,38.000000000002,2|0,3:0|2:0,2:0:0:0:
66,204,141420,1,0,3:0:0:0:
214,246,141582,2,0,L|140:230,1,76.0000000000023,2|0,3:0|2:0,2:0:0:0:
214,246,142066,1,2,3:2:0:0:
168,6,142227,5,0,3:0:0:0:
125,66,142388,2,0,L|88:75,1,38.0000000000003,2|0,3:0|2:0,2:0:0:0:
250,136,142711,1,0,3:0:0:0:
96,1,142872,2,0,L|22:18,1,75.9999999999989,2|0,3:0|2:0,2:0:0:0:
96,1,143356,1,2,3:2:0:0:
265,63,143517,5,0,3:0:0:0:
265,63,143678,2,0,L|228:55,1,38.0000000000003,2|0,3:0|2:0,2:0:0:0:
331,23,144001,1,0,3:0:0:0:
425,130,144162,2,0,L|351:147,1,76.0000000000006,2|0,3:0|2:0,2:0:0:0:
425,130,144646,1,2,3:2:0:0:
271,135,144807,5,0,3:0:0:0:
325,220,144969,2,0,L|288:212,1,38.0000000000037,2|0,3:0|2:0,2:0:0:0:
400,207,145291,1,0,3:0:0:0:
211,286,145452,5,2,3:0:0:0:
135,306,145614,1,0,3:0:0:0:
113,232,145775,1,0,2:0:0:0:
189,210,145936,1,2,3:2:0:0:
26,356,146098,5,4,3:2:0:0:
26,356,146259,2,0,L|79:368,1,37.9999999999994,2|0,3:0|2:0,2:0:0:0:
102,221,146581,1,0,3:0:0:0:
32,159,146743,2,0,L|120:139,1,75.9999999999997,2|0,3:0|2:0,2:0:0:0:
32,159,147227,1,2,3:2:0:0:
162,94,147388,5,0,3:0:0:0:
137,11,147549,2,0,L|174:20,1,38.0000000000003,2|0,3:0|2:0,2:0:0:0:
278,137,147872,1,0,3:0:0:0:
239,71,148033,2,0,L|313:54,1,75.9999999999989,2|0,3:0|2:0,2:0:0:0:
239,71,148517,1,2,3:2:0:0:
425,183,148678,5,0,3:2:0:0:
425,183,148840,2,0,L|478:195,1,38.0000000000003,2|0,3:0|2:0,2:0:0:0:
332,291,149162,1,0,3:0:0:0:
389,350,149323,2,0,L|477:371,1,76.0000000000006,2|0,3:0|2:0,2:0:0:0:
389,350,149807,1,2,3:2:0:0:
347,162,149969,5,0,3:0:0:0:
403,272,150130,2,0,L|440:264,1,38.0000000000003,2|0,3:0|2:0,2:0:0:0:
313,363,150452,1,0,3:0:0:0:
215,253,150614,5,2,3:0:0:0:
139,275,150775,1,0,3:0:0:0:
161,351,150936,1,0,2:0:0:0:
235,329,151098,1,2,3:2:0:0:
124,268,151259,5,0,3:2:0:0:
117,188,151420,2,0,L|170:200,1,37.9999999999986,2|0,3:0|2:0,2:0:0:0:
0,202,151743,1,0,3:0:0:0:
22,100,151904,2,0,L|110:120,1,76.0000000000006,2|0,3:0|2:0,2:0:0:0:
22,100,152388,1,2,3:2:0:0:
162,36,152549,5,0,3:0:0:0:
228,81,152711,2,0,L|265:72,1,38.0000000000003,2|0,3:0|2:0,2:0:0:0:
180,142,153033,1,0,3:0:0:0:
290,3,153194,2,0,L|364:20,1,76,2|0,3:0|2:0,2:0:0:0:
290,3,153678,1,2,3:2:0:0:
297,142,153840,5,0,3:2:0:0:
349,87,154001,2,0,L|402:99,1,38.0000000000003,2|0,3:0|2:0,2:0:0:0:
464,215,154323,1,0,3:0:0:0:
335,257,154485,2,0,L|423:278,1,76.0000000000006,2|0,3:0|2:0,2:0:0:0:
335,257,154969,1,2,3:2:0:0:
312,329,155130,5,0,3:0:0:0:
359,183,155291,2,0,L|396:175,1,38.0000000000003,2|0,3:0|2:0,2:0:0:0:
295,144,155614,1,0,3:0:0:0:
232,341,155775,5,8,3:0:0:0:
158,363,155936,1,4,3:0:0:0:
136,287,156098,1,0,1:0:0:0:
212,265,156259,1,0,1:0:0:0:
475,312,156420,5,6,3:0:0:0:
408,380,156582,2,0,L|400:329,1,52.2500015945435,4|2,3:0|2:0,2:0:0:0:
332,296,156904,2,0,P|282:310|242:343,1,104.500003189087,2|2,2:0|2:0,2:0:0:0:
422,256,157388,5,6,3:0:0:0:
419,181,157549,2,0,L|351:166,1,52.2500015945435,4|0,3:0|2:0,2:0:0:0:
488,142,158033,5,2,3:0:0:0:
6,75,158356,1,2,1:2:0:0:
6,75,158678,1,2,2:0:0:0:
107,315,159001,5,6,3:0:0:0:
151,244,159162,2,0,L|100:236,1,52.2500015945435,4|2,3:0|2:0,2:0:0:0:
172,365,159485,2,0,P|224:362|276:365,1,104.500003189087,2|2,2:0|2:0,2:0:0:0:
221,215,159969,5,6,3:0:0:0:
158,167,160130,2,0,P|108:152|68:119,1,104.500003189087,4|0,3:0|2:0,2:0:0:0:
149,32,160614,2,0,L|147:84,1,52.2500015945435,2|0,3:0|2:0,2:0:0:0:
214,293,160937,5,2,1:2:0:0:
414,342,161259,1,2,3:0:0:0:
346,382,161420,1,2,1:2:0:0:
346,382,161501,1,0,1:2:0:0:
346,382,161582,5,4,3:0:0:0:
288,318,161743,1,6,3:0:0:0:
408,263,161904,2,0,P|460:261|517:264,1,104.500003189087,2|0,2:0|3:0,2:0:0:0:
366,200,162549,5,6,3:0:0:0:
292,193,162711,2,0,P|243:210|191:216,1,104.500003189087,6|0,3:0|2:0,2:0:0:0:
45,112,163194,5,2,3:0:0:0:
496,25,163517,1,0,1:2:0:0:
245,68,163840,6,0,L|192:65,1,52.2500015945435,2|2,2:0|2:0,2:0:0:0:
287,1,164162,1,4,3:0:0:0:
308,121,164324,2,0,P|392:98|429:99,1,104.500003189087,4|0,3:0|2:0,2:0:0:0:
408,97,164807,1,0,3:0:0:0:
158,258,165130,5,6,3:0:0:0:
105,317,165291,2,0,P|53:311|4:293,1,104.500003189087,6|0,3:0|2:0,2:0:0:0:
232,280,165775,2,0,P|255:268|277:254,1,52.2500015945435,2|0,3:0|2:0,2:0:0:0:
180,338,166098,6,0,L|191:393,1,52.2500015945435,0|0,1:2|2:0,2:0:0:0:
313,191,166420,1,2,3:0:0:0:
115,131,166582,1,2,1:2:0:0:
115,131,166662,1,0,1:2:0:0:
115,131,166743,5,6,3:0:0:0:
51,173,166905,2,0,L|0:165,1,52.2500015945435,4|2,3:0|2:0,2:0:0:0:
0,85,167227,2,0,P|49:71|89:38,1,104.500003189087,2|2,2:0|2:0,2:0:0:0:
261,111,167711,1,6,3:0:0:0:
210,52,167872,2,0,L|160:67,1,52.2500015945435,4|0,3:0|2:0,2:0:0:0:
113,128,168356,5,2,3:0:0:0:
462,14,168679,1,2,1:2:0:0:
462,14,169001,1,2,2:0:0:0:
325,71,169324,5,6,3:0:0:0:
382,221,169485,2,0,L|431:239,1,52.2500015945435,4|2,3:0|2:0,2:0:0:0:
432,147,169808,2,0,P|379:144|327:147,1,104.500003189087,2|2,2:0|2:0,2:0:0:0:
302,222,170292,5,6,3:0:0:0:
421,319,170453,2,0,P|471:304|511:271,1,104.500003189087,4|0,3:0|2:0,2:0:0:0:
346,292,170937,2,0,L|344:344,1,52.2500015945435,2|0,3:0|2:0,2:0:0:0:
497,195,171260,5,2,1:2:0:0:
49,44,171582,1,2,3:0:0:0:
119,7,171743,1,2,1:2:0:0:
119,7,171824,1,0,1:3:0:0:
119,7,171905,5,4,3:0:0:0:
163,77,172066,1,6,3:0:0:0:
77,187,172227,2,0,P|25:181|-29:165,1,104.500003189087,2|0,2:0|3:0,2:0:0:0:
91,111,172872,5,6,3:0:0:0:
155,155,173033,2,0,L|153:211,1,52.2500015945435,6|0,3:0|2:0,2:0:0:0:
64,367,173517,5,2,3:0:0:0:
495,269,173840,1,0,1:2:0:0:
179,320,174163,6,0,L|126:323,1,52.2500015945435,2|2,2:0|2:0,2:0:0:0:
230,378,174485,1,4,3:0:0:0:
302,349,174646,2,0,P|304:296|301:244,1,104.500003189087,4|0,3:0|2:0,2:0:0:0:
301,244,175130,1,0,3:0:0:0:
101,85,175453,5,6,3:0:0:0:
180,47,175614,2,0,P|177:99|180:152,1,104.500003189087,6|0,3:0|2:0,2:0:0:0:
86,6,176098,2,0,P|62:16|40:30,1,52.2500015945435,2|0,3:0|2:0,2:0:0:0:
24,240,176420,5,0,1:2:0:0:
488,144,176743,1,2,3:0:0:0:
0,0,186743,5,0,1:0:0:0:
104,43,186850,5,0,1:0:0:0:
123,126,186958,5,0,1:0:0:0:
94,160,187065,5,10,3:0:0:0:
66,160,187173,5,8,3:0:0:0:
51,145,187280,5,4,3:0:0:0:
57,135,187388,6,0,P|54:192|57:243,1,104.500003189087,6|0,1:2|2:0,2:0:0:0:
117,290,187872,1,6,3:0:0:0:
234,262,188033,5,0,1:2:0:0:
281,322,188194,1,6,3:0:0:0:
234,262,188356,2,0,P|188:247|174:246,1,52.2500015945435,2|4,2:0|3:0,2:0:0:0:
38,314,188678,1,2,3:0:0:0:
425,315,189001,5,2,2:0:0:0:
354,338,189162,1,4,3:0:0:0:
429,240,189324,1,0,1:2:0:0:
498,278,189485,6,0,P|501:330|498:382,1,104.500003189087,6|0,3:0|2:0,2:0:0:0:
492,108,189969,1,6,3:0:0:0:
492,108,190453,5,4,3:0:0:0:
505,36,190614,1,0,1:2:0:0:
433,57,190775,2,0,P|407:52|383:42,1,52.2500015945435,4|0,3:0|2:0,2:0:0:0:
322,0,191098,1,4,3:0:0:0:
268,53,191259,6,0,P|217:65|176:96,1,104.500003189087,2|0,3:0|2:0,2:0:0:0:
170,170,191743,1,6,3:0:0:0:
49,262,191904,2,0,P|23:257|-1:247,1,52.2500015945435,0|4,1:2|3:0,2:0:0:0:
120,232,192227,5,2,2:0:0:0:
120,232,192388,1,4,3:0:0:0:
414,339,192549,6,0,P|465:327|506:296,1,104.500003189087,6|0,1:2|2:0,2:0:0:0:
345,300,193033,1,4,3:0:0:0:
342,372,193194,5,0,1:2:0:0:
241,232,193356,2,0,P|267:235|291:245,1,52.2500015945435,4|0,3:0|2:0,2:0:0:0:
183,276,193678,1,4,3:0:0:0:
416,257,193840,6,0,L|426:141,1,104.500003189087,2|0,3:0|2:0,2:0:0:0:
351,151,194324,1,4,3:0:0:0:
486,108,194485,1,0,1:2:0:0:
309,85,194646,6,0,P|283:88|259:98,1,52.2500015945435,4|0,3:0|2:0,2:0:0:0:
192,59,194969,1,4,3:0:0:0:
37,214,195130,5,4,1:2:0:0:
113,58,195291,2,0,P|120:83|132:106,1,52.2500015945435,4|8,3:0|3:0,2:0:0:0:
63,142,195614,1,4,3:0:0:0:
110,310,195775,6,0,P|85:303|62:291,1,52.2500015945435,4|0,1:2|2:0,2:0:0:0:
325,172,196098,1,4,3:0:0:0:
278,3,196259,2,0,P|290:26|298:52,1,52.2500015945435,4|4,1:2|3:0,2:0:0:0:
240,107,196528,5,4,3:0:0:0:
218,184,196635,5,8,3:0:0:0:
264,256,196743,5,0,1:0:0:0:
343,274,196850,5,8,3:0:0:0:
411,231,196958,5,8,3:0:0:0:
426,156,197065,5,6,3:0:0:0:
395,110,197173,5,4,3:0:0:0:
407,64,197280,5,4,3:0:0:0:
444,37,197388,5,10,3:0:0:0:
486,54,197496,5,0,1:0:0:0:
486,72,197603,5,10,3:0:0:0:
479,76,197711,6,0,B|441:65|407:41|407:41|369:53|327:44,1,161.5,6|0,1:2|2:0,2:0:0:0:
265,0,198195,1,4,3:0:0:0:
403,384,198356,2,0,P|419:346|429:307,1,80.75,0|0,1:2|2:0,2:0:0:0:
394,242,198679,1,10,3:0:0:0:
115,308,198840,5,6,3:0:0:0:
139,379,199001,1,4,3:0:0:0:
435,181,199162,2,0,P|472:196|511:206,1,80.75,4|4,1:2|3:0,2:0:0:0:
395,116,199485,1,4,3:0:0:0:
57,27,199646,5,6,1:2:0:0:
25,101,199808,1,4,3:0:0:0:
207,236,199969,5,2,1:2:0:0:
207,236,200050,1,0,1:2:0:0:
207,236,200130,2,0,L|262:252,1,40.375,8|4,3:0|3:0,2:0:0:0:
482,294,200291,6,0,P|413:333|334:350,1,161.5,6|0,1:2|2:0,2:0:0:0:
315,277,200775,1,4,3:0:0:0:
119,211,200936,6,0,P|82:197|52:171,1,80.75,0|2,1:2|3:0,2:0:0:0:
194,228,201259,1,10,3:0:0:0:
299,119,201420,6,0,P|261:133|231:159,1,80.75,6|2,3:0|3:0,2:0:0:0:
65,378,201743,1,4,1:2:0:0:
302,199,201904,1,4,3:0:0:0:
129,137,202066,1,4,3:0:0:0:
220,384,202227,5,6,1:2:0:0:
253,321,202388,1,4,3:0:0:0:
92,26,202550,5,2,1:2:0:0:
92,26,202630,1,0,1:2:0:0:
92,26,202711,2,0,L|108:81,1,40.375,8|4,3:0|3:0,2:0:0:0:
194,227,202872,6,0,P|177:305|137:375,1,161.5,6|2,1:2|3:0,2:0:0:0:
120,212,203356,1,6,3:0:0:0:
357,61,203517,2,0,P|391:40|429:24,1,80.75,0|0,1:2|3:0,2:0:0:0:
347,140,203840,5,10,3:0:0:0:
285,89,204001,1,6,3:0:0:0:
422,107,204162,1,6,3:0:0:0:
72,331,204324,5,4,1:2:0:0:
19,208,204485,1,10,3:0:0:0:
85,80,204646,1,6,3:0:0:0:
0,365,204807,1,4,1:2:0:0:
7,286,204969,1,4,3:0:0:0:
345,364,205130,5,2,1:2:0:0:
345,364,205211,1,0,1:2:0:0:
345,364,205291,2,0,L|383:352,1,40.375,10|4,3:0|3:0,2:0:0:0:
502,320,205453,2,0,P|467:298|431:284,1,80.75,6|0,1:2|2:0,2:0:0:0:
75,90,205775,5,2,3:0:0:0:
157,207,205936,1,6,3:0:0:0:
476,117,206098,1,4,1:2:0:0:
437,184,206259,2,0,P|402:206|366:220,1,80.75,2|8,3:0|3:0,2:0:0:0:
327,82,206582,6,0,P|361:103|398:118,1,80.75,6|0,3:0|3:0,2:0:0:0:
85,164,206904,5,4,1:2:0:0:
275,22,207066,1,0,1:2:0:0:
205,48,207227,1,4,3:0:0:0:
394,341,207388,5,6,1:2:0:0:
512,187,207550,1,4,3:0:0:0:
219,252,207711,1,2,1:2:0:0:
286,298,207872,1,8,3:0:0:0:
153,376,208033,6,0,B|116:373|87:349|87:349|48:353|48:353|-1:343,1,161.5,6|0,1:2|2:0,2:0:0:0:
161,302,208517,1,4,3:0:0:0:
10,75,208678,1,0,1:2:0:0:
123,21,208840,1,2,3:0:0:0:
86,91,209001,5,10,3:0:0:0:
43,257,209162,1,6,3:0:0:0:
115,238,209324,1,2,3:0:0:0:
389,338,209485,6,0,B|361:326|361:326|299:354|234:333,1,161.5,4|4,1:2|3:0,2:0:0:0:
95,164,209969,1,2,1:2:0:0:
25,183,210130,1,4,3:0:0:0:
440,279,210291,5,2,1:2:0:0:
440,279,210372,1,0,1:2:0:0:
440,279,210453,2,0,L|480:274,1,40.375,8|4,3:0|3:0,2:0:0:0:
191,232,210614,6,0,B|179:281|179:281|158:314|158:314|167:351|154:384,1,161.5,6|0,1:2|2:0,2:0:0:0:
85,344,211098,1,4,3:0:0:0:
379,55,211259,5,0,1:2:0:0:
432,147,211420,1,2,3:0:0:0:
360,128,211582,1,10,3:0:0:0:
452,77,211743,1,6,3:0:0:0:
452,77,211904,1,2,3:0:0:0:
27,178,212066,5,4,1:2:0:0:
73,115,212227,1,4,3:0:0:0:
56,43,212388,1,4,3:0:0:0:
323,349,212550,5,4,1:2:0:0:
247,224,212711,1,6,3:0:0:0:
247,224,212791,1,4,3:0:0:0:
247,224,212872,2,0,L|260:185,1,40.375,2|0,1:2|1:2,2:0:0:0:
267,37,213033,5,10,3:0:0:0:
267,37,213114,1,4,3:0:0:0:
267,37,213195,2,0,B|218:25|218:25|185:4|185:4|148:13|115:0,1,161.5,0|2,1:2|3:0,2:0:0:0:
0,102,213679,1,6,3:0:0:0:
246,362,213840,6,0,P|285:351|318:328,1,80.75,4|0,1:2|3:0,2:0:0:0:
387,300,214162,1,10,3:0:0:0:
421,367,214324,1,6,3:0:0:0:
512,175,214485,6,0,P|433:192|363:232,1,161.5,4|10,1:2|3:0,2:0:0:0:
295,257,214969,1,6,3:0:0:0:
166,99,215130,1,4,1:2:0:0:
224,38,215291,2,0,P|240:76|250:115,1,80.75,6|2,3:0|1:2,2:0:0:0:
105,331,215614,1,10,3:0:0:0:
105,331,215695,1,4,3:0:0:0:
105,331,215775,6,0,P|65:320|28:305,1,80.75,6|0,1:2|2:0,2:0:0:0:
270,185,216098,5,2,3:0:0:0:
320,132,216259,1,6,3:0:0:0:
21,46,216420,1,0,1:2:0:0:
11,123,216582,2,0,P|50:115|84:93,1,80.75,2|8,3:0|3:0,2:0:0:0:
336,34,216904,6,0,L|374:21,1,40.375,6|0,3:0|2:0,2:0:0:0:
187,20,217065,5,0,1:0:0:0:
187,20,217145,1,8,3:0:0:0:
187,20,217227,1,0,1:2:0:0:
187,20,217307,1,8,3:0:0:0:
187,20,217388,2,0,L|149:33,1,40.375,4|4,3:0|3:0,2:0:0:0:
262,59,217550,5,4,3:0:0:0:
262,59,217630,1,4,3:0:0:0:
262,59,217711,2,0,L|249:97,1,40.375,4|0,1:2|2:0,2:0:0:0:
202,313,217872,1,6,3:0:0:0:
378,288,218033,1,2,3:0:0:0:
413,106,218194,1,0,3:0:0:0:
116,381,218356,6,0,B|106:352|106:352|138:291|109:225,1,161.500003080368,6|0,1:2|2:0,2:0:0:0:
79,160,218840,1,4,3:0:0:0:
196,306,219001,2,0,P|202:346|216:384,1,80.75,0|6,1:2|3:0,2:0:0:0:
247,249,219324,1,10,3:0:0:0:
24,217,219485,2,0,P|38:255|44:295,1,80.75,6|2,3:0|3:0,2:0:0:0:
323,71,219807,6,0,P|399:47|464:0,1,161.5,4|4,1:2|3:0,2:0:0:0:
408,273,220291,1,2,1:2:0:0:
362,211,220453,1,4,3:0:0:0:
102,368,220614,5,2,1:2:0:0:
102,368,220695,1,0,1:2:0:0:
102,368,220775,2,0,L|114:322,1,40.375000770092,8|4,3:0|3:0,2:0:0:0:
168,110,220936,6,0,B|201:123|238:114|238:114|271:135|271:135|320:147,1,161.5,6|0,1:2|2:0,2:0:0:0:
310,68,221420,1,4,3:0:0:0:
474,297,221582,6,0,P|494:331|509:368,1,80.75,0|2,1:2|3:0,2:0:0:0:
397,147,221904,1,10,3:0:0:0:
440,87,222065,2,0,P|477:71|511:51,1,80.75,6|2,3:0|3:0,2:0:0:0:
97,298,222388,6,0,P|59:313|25:333,1,80.75,4|4,1:2|3:0,2:0:0:0:
122,226,222711,1,4,3:0:0:0:
416,360,222872,1,2,1:2:0:0:
344,384,223033,1,4,3:0:0:0:
199,251,223195,5,2,1:2:0:0:
199,251,223275,1,0,1:2:0:0:
199,251,223356,2,0,L|215:196,1,40.375,8|4,3:0|3:0,2:0:0:0:
249,73,223517,6,0,P|325:49|391:2,1,161.5,6|2,1:2|3:0,2:0:0:0:
221,143,224001,1,6,3:0:0:0:
155,110,224162,2,0,P|123:84|86:69,1,80.75,0|10,1:2|3:0,2:0:0:0:
417,164,224485,5,6,3:0:0:0:
397,89,224646,1,10,3:0:0:0:
417,164,224808,1,6,3:0:0:0:
62,146,224969,5,4,1:2:0:0:
64,225,225130,2,0,P|101:210|132:184,1,80.75,10|6,3:0|3:0,2:0:0:0:
326,61,225453,1,4,1:2:0:0:
472,110,225614,1,6,3:0:0:0:
290,216,225775,5,2,1:2:0:0:
290,216,225856,1,0,1:2:0:0:
290,216,225937,2,0,L|235:239,1,40.375,10|4,3:0|3:0,2:0:0:0:
17,317,226098,6,0,B|55:328|89:352|89:352|127:340|169:349,1,161.5,6|2,1:2|3:0,2:0:0:0:
235,309,226582,1,4,3:0:0:0:
75,4,226743,6,0,P|37:19|4:40,1,80.75,6|0,1:2|3:0,2:0:0:0:
137,53,227065,2,0,P|171:74|208:89,1,80.75,10|0,3:0|2:0,2:0:0:0:
134,271,227388,1,4,3:0:0:0:
508,94,227549,5,6,1:2:0:0:
268,36,227711,1,2,1:2:0:0:
290,109,227872,1,4,3:0:0:0:
430,280,228033,5,4,1:2:0:0:
218,198,228195,1,4,3:0:0:0:
348,54,228356,1,2,1:2:0:0:
423,74,228517,1,8,3:0:0:0:
383,369,228678,6,0,B|372:331|348:297|348:297|360:259|351:217,1,161.5,6|0,1:2|2:0,2:0:0:0:
280,251,229162,1,6,3:0:0:0:
489,29,229324,1,0,1:2:0:0:
425,201,229485,1,4,3:0:0:0:
135,9,229646,6,0,P|61:41|-2:95,1,161.5,6|2,1:2|3:0,2:0:0:0:
236,74,230130,2,0,P|266:99|304:113,1,80.75,6|0,3:0|2:0,2:0:0:0:
211,3,230453,1,4,3:0:0:0:
65,277,230614,6,0,P|49:314|28:348,1,80.75,6|4,1:2|3:0,2:0:0:0:
153,90,230937,2,0,P|168:127|189:161,1,80.75,2|8,1:2|3:0,2:0:0:0:
431,367,231259,6,0,B|419:339|419:339|447:277|426:212,1,161.5,4|0,1:2|2:0,2:0:0:0:
357,285,231743,1,6,3:0:0:0:
435,135,231904,1,0,1:2:0:0:
496,174,232066,1,0,3:0:0:0:
174,380,232227,6,0,B|125:370|125:370|86:374|86:374|57:350|16:347,1,161.5,6|2,1:2|3:0,2:0:0:0:
217,317,232711,1,8,3:0:0:0:
12,156,232872,2,0,P|27:193|48:227,1,80.75,4|4,3:0|3:0,2:0:0:0:
377,215,233195,5,6,1:2:0:0:
377,215,233275,1,4,3:0:0:0:
377,215,233356,2,0,L|432:199,1,40.375,4|8,3:0|3:0,2:0:0:0:
160,256,233517,1,2,1:2:0:0:
160,256,233598,1,0,1:2:0:0:
160,256,233679,2,0,L|105:240,1,40.375,8|4,3:0|3:0,2:0:0:0:
370,287,233840,6,0,P|435:335|512:360,1,161.5,6|0,1:2|3:0,2:0:0:0:
301,314,234324,1,6,3:0:0:0:
237,201,234485,2,0,P|274:215|305:240,1,80.75,0|4,1:2|3:0,2:0:0:0:
7,153,234807,6,0,B|10:116|34:87|34:87|30:48|30:48|40:-1,1,161.500003080368,6|4,1:2|3:0,2:0:0:0:
87,147,235291,1,10,3:0:0:0:
233,100,235453,2,0,P|217:62|192:31,1,80.75,4|4,3:0|3:0,2:0:0:0:
0,297,235775,5,6,1:2:0:0:
152,99,235937,1,4,3:0:0:0:
111,38,236098,1,2,1:2:0:0:
465,144,236259,1,8,3:0:0:0:
465,144,236340,1,4,3:0:0:0:
465,144,236420,6,0,B|423:153|385:141|385:141|351:165|313:176,1,161.5,6|0,1:2|3:0,2:0:0:0:
322,251,236904,1,4,3:0:0:0:
423,70,237066,2,0,P|460:54|494:33,1,80.75,8|0,3:0|3:0,2:0:0:0:
128,30,237388,5,4,1:2:0:0:
394,224,237550,1,4,1:2:0:0:
71,362,237711,5,0,1:0:0:0:
59,376,237818,5,8,3:0:0:0:
20,376,237926,5,8,3:0:0:0:
0,322,238033,5,4,3:0:0:0:
54,277,238141,5,8,3:0:0:0:
119,236,238248,5,4,3:0:0:0:
100,157,238356,6,0,L|49:144,1,40.375000770092,4|4,3:0|3:0,2:0:0:0:
132,314,238517,5,4,3:0:0:0:
184,310,238598,1,8,3:0:0:0:
220,342,238678,2,0,L|259:351,1,40.375000770092,0|0,1:0|1:0,2:0:0:0:
361,198,238840,2,0,L|322:207,1,40.375000770092,0|0,1:0|1:0,2:0:0:0:
249,191,239001,6,0,B|230:255|297:288|297:288|303:280|303:280|358:313|341:374,1,237.5,6|0,3:0|3:2,2:0:0:0:
414,257,239485,1,4,3:0:0:0:
512,5,239646,6,0,B|419:-20|419:-20|385:9|398:55,1,178.125,2|0,1:2|2:0,2:0:0:0:
466,93,239969,1,2,3:2:0:0:
283,82,240130,6,0,B|332:97|332:97|343:116|343:116|395:132,1,127.604892336318,6|0,3:0|3:2,2:0:0:0:
208,93,240453,1,2,1:2:0:0:
136,0,240614,6,0,B|150:43|150:43|10:89,1,193.181286584256,10|0,3:0|2:0,2:0:0:0:
66,36,240936,1,2,1:2:0:0:
184,166,241098,1,6,3:0:0:0:
5,210,241259,6,0,B|26:141|109:151|109:151|73:170|68:202,1,201.076716032056,2|0,1:2|2:0,2:0:0:0:
78,198,241582,2,0,B|123:212|123:212|134:230|134:230|182:245,1,119.182952300937,6|2,3:0|2:0,2:0:0:0:
250,211,241904,1,2,3:2:0:0:
217,29,242065,1,6,3:0:0:0:
217,29,242146,1,0,3:0:0:0:
217,29,242227,5,0,1:2:0:0:
276,74,242388,1,0,3:0:0:0:
274,299,242549,6,0,B|222:315|222:315|211:334|211:334|162:349,1,127.604892336318,2|6,3:2|3:0,2:0:0:0:
103,302,242872,1,2,3:2:0:0:
293,148,243033,1,2,1:2:0:0:
275,375,243194,6,0,B|328:376|348:329|348:329|395:308|433:336,1,181.825615720963,10|0,3:0|2:0,2:0:0:0:
512,234,243517,1,2,1:2:0:0:
509,313,243678,6,0,B|454:306|433:261|433:261|454:304|440:329,1,167.161035607888,6|0,3:0|2:0,2:0:0:0:
495,384,244001,1,0,2:0:0:0:
359,244,244162,6,0,B|413:128|413:128|348:92,1,202.256548366826,4|2,3:0|3:2,2:0:0:0:
416,194,244646,1,6,3:0:0:0:
358,8,244807,6,0,B|325:26|325:26|353:84,1,101.128302820285,2|2,1:2|2:0,2:0:0:0:
423,49,245130,1,2,3:2:0:0:
310,167,245291,1,4,3:0:0:0:
310,167,245453,1,2,3:2:0:0:
105,75,245614,6,0,B|41:117|1:52|1:52,1,119.477604042179,2|10,1:2|3:0,2:0:0:0:
63,166,245936,1,6,3:0:0:0:
243,68,246098,6,0,B|222:-1|139:9|139:9|175:28|182:66,1,206.322849715214,2|0,1:2|2:0,2:0:0:0:
176,80,246420,1,2,1:2:0:0:
63,12,246582,1,2,2:0:0:0:
136,182,246743,6,0,B|122:227|122:227|104:238|104:238|89:286,1,118.511673624242,6|2,3:0|3:2,2:0:0:0:
70,295,246985,1,0,3:0:0:0:
70,295,247065,6,0,B|83:309|82:333|82:333|38:331|10:303,1,117.849720368322,0|4,3:2|3:0,2:0:0:0:
19,231,247307,1,0,3:2:0:0:
19,231,247388,1,0,1:2:0:0:
218,353,247549,5,2,3:2:0:0:
218,353,247630,1,0,3:2:0:0:
218,353,247711,1,2,3:2:0:0:
167,289,247872,1,6,3:0:0:0:
445,168,248033,5,0,3:2:0:0:
407,11,248194,2,0,B|435:49|414:96|414:96|367:116|368:169,1,182.312702315946,2|0,1:2|2:0,2:0:0:0:
385,93,248517,1,6,3:0:0:0:
385,93,248598,1,2,3:2:0:0:
385,93,248678,6,0,B|333:77|333:77|322:58|322:58|273:43,1,127.604892336318,2|6,1:2|3:0,2:0:0:0:
266,120,249001,1,0,1:0:0:0:
498,36,249162,1,0,2:0:0:0:
109,8,249324,6,0,B|16:34|16:34|3:76|37:109,1,179.07553779248,6|0,1:2|2:0,2:0:0:0:
73,176,249646,2,0,B|103:182|128:167|128:167|134:133|113:106,1,121.900576702522,0|6,3:2|3:0,2:0:0:0:
7,215,249969,6,0,B|65:343|65:343|0:379,1,214.831009317769,0|2,1:2|3:2,2:0:0:0:
8,294,250453,1,4,3:0:0:0:
166,384,250614,1,2,3:2:0:0:
298,296,250775,1,2,1:2:0:0:
132,312,250936,5,10,3:0:0:0:
177,301,251044,5,8,3:0:0:0:
222,318,251151,5,4,3:0:0:0:
241,356,251259,6,0,P|266:372|293:375,1,57.3208029195521,2|4,1:2|3:0,2:0:0:0:
444,292,251474,5,4,3:0:0:0:
462,246,251582,6,0,P|434:249|410:265,2,57.3208029195521,2|0|8,1:2|1:0|3:0,2:0:0:0:
383,383,251904,1,6,3:0:0:0:
383,383,251985,1,4,3:0:0:0:
383,383,252065,6,0,B|367:331|367:331|348:320|348:320|333:271,1,127.604892336318,4|2,3:0|3:2,2:0:0:0:
365,200,252388,1,4,3:0:0:0:
425,62,252549,1,0,1:2:0:0:
354,113,252711,6,0,B|480:196|509:60|509:60,1,202.976218614652,2|4,2:0|3:0,2:0:0:0:
324,31,253194,1,2,3:2:0:0:
238,141,253356,6,0,B|292:129|292:129|303:112|303:112|354:101,1,127.738513318056,0|8,1:2|3:0,2:0:0:0:
437,159,253678,5,6,3:0:0:0:
180,30,253840,2,0,B|235:23|256:-22|256:-22|235:21|249:55,1,176.306938817077,0|0,1:2|2:0,2:0:0:0:
239,66,254162,6,0,B|145:114|110:9|110:9,1,167.803223158222,2|0,1:2|2:0,2:0:0:0:
147,294,254485,5,6,1:2:0:0:
41,317,254646,2,0,B|35:347|50:372|50:372|84:378|111:357,1,121.900576702522,6|2,3:0|2:0,2:0:0:0:
10,178,254969,6,0,B|64:166|64:166|75:149|75:149|126:138,1,127.738513318056,2|0,1:2|2:0,2:0:0:0:
16,101,255291,1,4,3:0:0:0:
261,189,255453,5,2,1:2:0:0:
264,264,255614,2,0,B|211:265|191:218|191:218|144:197|106:225,1,182.312702315946,6|0,3:0|2:0,2:0:0:0:
112,232,255936,1,2,1:2:0:0:
214,330,256098,1,2,3:0:0:0:
379,201,256259,5,6,3:0:0:0:
325,149,256420,1,2,1:2:0:0:
283,277,256582,6,0,L|297:328,1,44.3940554269685,8|8,3:0|3:0,2:0:0:0:
397,128,256743,1,6,3:0:0:0:
397,128,256904,1,6,3:0:0:0:
506,322,257065,5,6,1:2:0:0:
464,384,257227,2,0,B|409:354|409:354|458:245,1,181.962082659662,4|0,3:0|2:0,2:0:0:0:
469,248,257549,2,0,B|502:230|502:230|466:156,1,119.882054704189,2|2,1:2|3:0,2:0:0:0:
366,278,257872,5,6,3:0:0:0:
290,25,258033,1,0,1:2:0:0:
497,89,258194,1,6,3:0:0:0:
497,89,258275,1,4,3:0:0:0:
497,89,258356,5,2,1:2:0:0:
242,225,258517,5,2,1:2:0:0:
46,186,258678,1,2,2:0:0:0:
288,287,258840,5,2,1:2:0:0:
465,167,259001,1,2,1:2:0:0:
236,341,259162,5,2,1:2:0:0:
279,74,259485,1,4,3:0:0:0:
25,259,259646,5,2,1:2:0:0:
477,335,259807,1,6,3:0:0:0:
411,374,259969,5,10,3:0:0:0:
387,332,260076,5,0,1:2:0:0:
396,285,260184,5,0,1:2:0:0:
426,250,260291,6,0,L|473:265,1,34.4419703981125,10|4,3:0|3:0,2:0:0:0:
445,177,260453,2,0,L|398:162,1,34.4419703981125,4|4,3:0|3:0,2:0:0:0:
482,108,260614,1,2,1:2:0:0:
482,108,260694,1,0,1:2:0:0:
482,108,260775,1,4,3:0:0:0:
224,0,260936,5,10,3:0:0:0:
266,153,261098,1,2,1:2:0:0:
266,153,261420,5,4,3:0:0:0:
256,232,261582,1,2,1:2:0:0:
256,232,261662,1,4,3:0:0:0:
256,232,261743,1,10,3:0:0:0:
237,302,261904,5,6,3:0:0:0:
469,335,262065,1,6,3:0:0:0:
469,335,262146,1,4,3:0:0:0:
469,335,262227,5,2,1:2:0:0:
279,76,262388,1,6,3:0:0:0:
51,266,262549,1,2,2:0:0:0:
341,378,262711,5,2,1:2:0:0:
456,170,262872,1,2,1:2:0:0:
291,0,263033,1,4,3:0:0:0:
79,96,263194,1,0,1:2:0:0:
108,330,263356,1,0,1:2:0:0:
246,111,269940,6,0,B|170:101|149:163|149:163|133:178|133:178|102:137|-1:187|-1:187|-28:180|-28:180|7:-5|180:13|180:13|187:-12,1,641.963322602934,2|2,3:2|2:0,2:0:0:0:
54,4,272208,6,0,B|82:17|89:52|89:52,1,61.4002461228129,2|0,2:0|2:0,2:0:0:0:
224,187,272541,6,0,B|247:209|247:209|152:281|303:379|303:379|288:344|295:311|295:311|412:366|491:247|491:247|330:256|349:127,1,776.915460282304,2|2,2:0|2:0,2:0:0:0:
404,196,274842,6,0,B|390:225|352:233|352:233,1,65.8267785183476,2|0,2:0|2:0,2:0:0:0:
177,335,275149,6,0,B|70:325|133:308|57:289|57:289|159:275|91:307|177:335|177:335,1,268.348340837889,2|0,2:0|2:0,2:0:0:0:
42,359,276116,6,0,B|8:375|8:375|-18:298|27:228|124:237|57:278|154:287|186:212|161:143|161:143|123:137|123:94|123:94|90:160|13:187|-27:130|-27:130|2:110|45:126,1,704.996860052907,2|2,2:0|2:0,2:0:0:0:
461,113,277712,6,0,B|461:46|532:14|532:14|538:-9|538:-9|355:-9|280:103|280:103|327:133|383:112|383:112|379:156|419:181,1,637.135475636586,2|0,2:0|2:0,2:0:0:0:
223,221,279293,6,0,B|201:199|166:204|166:204,1,61.4268862886023,0|0,2:0|2:0,2:0:0:0:
107,265,279606,6,0,B|150:269|163:304|163:304|202:284|236:301,1,148.503947346964,2|2,2:0|2:0,2:0:0:0:
0,340,280276,6,0,B|36:308|36:308|-66:197|107:79|107:79|83:134|94:186|94:186|253:118|304:285|304:285|208:307|204:386,1,868.439773773927,2|2,2:0|2:0,2:0:0:0:
208,306,282538,6,0,B|249:306|272:339|272:339,1,74.5728564692512,2|0,2:0|2:0,2:0:0:0:
510,207,282866,6,0,B|393:217|392:102|392:102|472:49|472:49|373:64|357:14|357:14|323:7|323:7|284:42|313:93,1,541.466241260174,2|2,2:0|2:0,2:0:0:0:
480,133,284159,6,0,B|414:177|444:241|444:241|403:279|403:279|335:280|307:245|307:245|225:254|169:331|169:331|207:282|184:225,1,568.336924386976,2|2,2:0|2:0,2:0:0:0:
256,192,285453,12,0,289936,2:0:0:0:
148,292,290614,6,0,P|78:332|0:348,1,161.5,6|0,1:2|2:0,2:0:0:0:
89,244,291097,1,6,3:0:0:0:
403,356,291259,2,0,P|343:339|315:336,1,80.75,2|2,1:2|2:0,2:0:0:0:
456,305,291582,1,10,3:0:0:0:
480,382,291743,1,6,3:0:0:0:
480,382,291904,1,2,3:0:0:0:
154,15,292065,6,0,B|105:25|105:25|66:21|66:21|37:45|-4:48,1,161.5,4|4,1:2|3:0,2:0:0:0:
386,275,292549,1,2,1:2:0:0:
359,208,292710,1,4,3:0:0:0:
52,123,292872,5,2,1:2:0:0:
52,123,292953,1,0,1:2:0:0:
52,123,293033,2,0,L|107:107,1,40.375,8|4,3:0|3:0,2:0:0:0:
391,56,293194,6,0,P|321:16|243:0,1,161.5,6|0,1:2|2:0,2:0:0:0:
306,93,293678,1,6,3:0:0:0:
99,377,293840,2,0,P|42:347|15:339,1,80.75,0|2,1:2|3:0,2:0:0:0:
169,348,294162,1,10,3:0:0:0:
169,348,294324,1,6,3:0:0:0:
40,239,294485,1,2,3:0:0:0:
465,76,294646,6,0,P|503:58|536:29,1,80.75,4|4,1:2|3:0,2:0:0:0:
413,129,294969,1,4,3:0:0:0:
60,21,295130,1,6,1:2:0:0:
5,70,295291,1,4,3:0:0:0:
335,105,295453,5,2,1:2:0:0:
335,105,295533,1,0,1:2:0:0:
335,105,295614,2,0,L|280:89,1,40.375,8|4,3:0|3:0,2:0:0:0:
75,93,295775,2,0,B|117:84|155:96|155:96|189:72|227:61,1,161.5,6|2,1:2|3:0,2:0:0:0:
21,142,296259,1,6,3:0:0:0:
209,374,296420,2,0,P|235:343|250:305,1,80.75,0|0,1:2|2:0,2:0:0:0:
90,341,296743,5,10,3:0:0:0:
75,268,296904,1,6,3:0:0:0:
90,341,297065,1,6,3:0:0:0:
478,238,297227,1,4,1:2:0:0:
449,309,297388,2,0,P|394:278|367:269,1,80.75,10|6,3:0|3:0,2:0:0:0:
9,15,297711,1,4,1:2:0:0:
82,0,297872,1,4,3:0:0:0:
389,193,298033,5,2,1:2:0:0:
389,193,298114,1,0,1:2:0:0:
389,193,298194,2,0,L|444:177,1,40.375,10|4,3:0|3:0,2:0:0:0:
141,174,298356,6,0,P|62:190|-11:234,1,161.5,6|2,1:2|3:0,2:0:0:0:
172,105,298840,1,4,3:0:0:0:
286,351,299001,2,0,P|251:329|214:314,1,80.75,2|0,1:2|3:0,2:0:0:0:
300,271,299324,1,10,3:0:0:0:
229,158,299485,2,0,P|266:142|300:121,1,80.75,6|0,3:0|3:0,2:0:0:0:
60,348,299807,5,6,1:2:0:0:
233,235,299969,1,2,1:2:0:0:
163,257,300130,1,4,3:0:0:0:
303,354,300291,5,4,1:2:0:0:
502,178,300453,1,4,3:0:0:0:
442,138,300614,1,2,1:2:0:0:
480,246,300775,1,8,3:0:0:0:
94,25,300936,6,0,B|84:74|84:74|88:113|88:113|64:142|61:179,1,161.5,6|0,1:2|2:0,2:0:0:0:
61,179,301420,1,6,3:0:0:0:
232,33,301582,1,0,1:2:0:0:
165,0,301743,1,4,3:0:0:0:
109,319,301904,6,0,P|187:335|257:375,1,161.5,6|2,1:2|3:0,2:0:0:0:
44,267,302388,2,0,P|6:251|-28:220,1,80.75,6|0,3:0|2:0,2:0:0:0:
37,345,302711,1,4,3:0:0:0:
311,323,302872,6,0,P|345:301|382:286,1,80.75,2|4,1:2|3:0,2:0:0:0:
504,380,303194,2,0,P|466:364|432:343,1,80.75,2|8,1:2|3:0,2:0:0:0:
0,84,303517,6,0,B|65:105|127:77|127:77|155:89,1,161.5,4|0,1:2|2:0,2:0:0:0:
119,159,304001,1,6,3:0:0:0:
275,0,304162,6,0,P|235:6|198:22,1,80.75,0|0,1:2|3:0,2:0:0:0:
455,274,304485,2,0,B|452:237|428:208|428:208|432:169|432:169|422:120,1,161.5,6|2,1:2|3:0,2:0:0:0:
503,186,304969,1,8,3:0:0:0:
376,270,305130,1,4,3:0:0:0:
376,270,305291,1,4,3:0:0:0:
479,13,305453,5,6,1:2:0:0:
479,13,305533,1,4,3:0:0:0:
479,13,305614,2,0,L|424:-3,1,40.375,4|8,3:0|3:0,2:0:0:0:
287,130,305775,1,2,1:2:0:0:
287,130,305856,1,0,1:2:0:0:
287,130,305936,2,0,L|232:146,1,40.375,8|4,3:0|3:0,2:0:0:0:
147,268,306098,6,0,P|69:283|0:325,1,161.5,6|0,1:2|3:0,2:0:0:0:
223,290,306582,1,6,3:0:0:0:
261,224,306743,2,0,P|301:218|337:196,1,80.75,0|4,1:2|3:0,2:0:0:0:
28,35,307065,6,0,B|70:26|108:38|108:38|142:14|180:3,1,161.5,6|4,1:2|3:0,2:0:0:0:
75,238,307549,1,10,3:0:0:0:
22,182,307711,2,0,P|43:148|59:110,1,80.75,4|4,3:0|3:0,2:0:0:0:
326,0,308033,6,0,P|363:15|397:37,1,80.75,6|4,1:2|3:0,2:0:0:0:
256,28,308356,1,2,1:2:0:0:
256,28,308517,1,8,3:0:0:0:
49,311,308678,6,0,B|114:332|176:304|176:304|204:316,1,161.5,6|0,1:2|3:0,2:0:0:0:
339,325,309162,2,0,P|301:309|272:282,1,80.75,4|0,3:0|3:2,2:0:0:0:
212,238,309485,1,0,3:0:0:0:
321,72,309646,5,8,3:0:0:0:
167,384,309807,1,4,3:0:0:0:
167,384,311098,6,0,L|163:370,2,14.25,0|0|2,3:0|3:0|3:0,2:0:0:0:
