osu file format v14

[General]
AudioFilename: ReCall.mp3
AudioLeadIn: 0
PreviewTime: 268028
Countdown: 0
SampleSet: Soft
StackLeniency: 0.7
Mode: 0
LetterboxInBreaks: 0
WidescreenStoryboard: 0

[Editor]
DistanceSpacing: 1.2
BeatDivisor: 4
GridSize: 4
TimelineZoom: 1.7

[Metadata]
Title:Re:Call
TitleUnicode:Re:Call
Artist:Shimotsuki Haruka
ArtistUnicode:霜月はるか
Creator:Narcissu
Version:Re:Encounter
Source:できない私が、くり返す。
Tags:Opening Visual Novel Eroge Galgame Dekinai Watashi ga, Kurikaesu. Akabei Soft3 recall
BeatmapID:1131410
BeatmapSetID:534109

[Difficulty]
HPDrainRate:6
CircleSize:4
OverallDifficulty:8
ApproachRate:9
SliderMultiplier:2
SliderTickRate:1

[Events]
//Background and Video events
0,0,"BG.jpg",0,0
//Break Periods
2,176131,180043
2,181293,182623
//Storyboard Layer 0 (Background)
//Storyboard Layer 1 (Fail)
//Storyboard Layer 2 (Pass)
//Storyboard Layer 3 (Foreground)
//Storyboard Sound Samples
Sample,92060,0,"normal-hitwhistle2.wav",40
Sample,264964,0,"normal-hitwhistle2.wav",40
Sample,267544,0,"normal-hitwhistle2.wav",40
Sample,315286,0,"normal-hitwhistle2.wav",40
Sample,320448,0,"normal-hitwhistle2.wav",40
Sample,321738,0,"normal-hitwhistle2.wav",35
Sample,323028,0,"normal-hitwhistle2.wav",35
Sample,324319,0,"normal-hitwhistle2.wav",30
Sample,325609,0,"normal-hitwhistle2.wav",30
Sample,326899,0,"normal-hitwhistle2.wav",25
Sample,328190,0,"normal-hitwhistle2.wav",25
Sample,329480,0,"normal-hitwhistle2.wav",20
Sample,330770,0,"normal-hitwhistle2.wav",20
Sample,332060,0,"normal-hitwhistle2.wav",15
Sample,333351,0,"normal-hitwhistle2.wav",15
Sample,334641,0,"normal-hitwhistle2.wav",10

[TimingPoints]
8190,645.161290322581,4,2,1,40,1,0
8190,-83.3333333333333,4,2,1,40,0,0
17222,-111.111111111111,4,2,1,20,0,0
18512,-76.9230769230769,4,2,1,40,0,0
27544,-111.111111111111,4,2,1,20,0,0
28835,-71.4285714285714,4,2,1,40,0,0
49480,-66.6666666666667,4,2,1,40,0,0
70125,-62.5,4,2,1,40,0,0
88190,-62.5,4,2,1,20,0,0
88512,-62.5,4,2,1,25,0,0
88835,-62.5,4,2,1,30,0,0
89157,-62.5,4,2,1,35,0,0
89480,-62.5,4,2,1,40,0,0
92706,-71.4285714285714,4,2,1,20,0,0
93351,-58.1395348837209,4,2,1,60,0,1
113512,-100,4,2,1,60,0,1
113996,-58.1395348837209,4,2,1,60,0,1
134641,-71.4285714285714,4,2,1,40,0,0
155286,-62.5,4,2,1,40,0,0
175286,-83.3333333333333,4,2,1,40,0,0
175931,-133.333333333333,4,2,1,40,0,0
184319,-133.333333333333,4,3,1,40,0,0
184964,-133.333333333333,4,2,1,40,0,0
185609,-71.4285714285714,4,2,1,40,0,0
186254,-62.5,4,2,1,40,0,0
195609,-60.6060606060606,4,2,1,40,0,0
195931,-58.8235294117647,4,2,1,40,0,0
196254,-57.1428571428571,4,2,1,40,0,0
196577,-55.5555555555556,4,2,1,65,0,1
237867,-55.5555555555556,4,2,1,65,0,0
263673,-100,4,2,1,40,0,0
268835,-83.3333333333333,4,2,1,40,0,0
289480,-52.0833333333333,4,2,1,70,0,1
310125,-133.333333333333,4,1,1,60,0,0
310770,-133.333333333333,4,3,1,60,0,0
311415,-133.333333333333,4,1,1,60,0,0
312060,-133.333333333333,4,3,1,60,0,0
312706,-133.333333333333,4,1,1,60,0,0
313351,-133.333333333333,4,3,1,60,0,0
313996,-133.333333333333,4,1,1,60,0,0
314641,-133.333333333333,4,3,1,60,0,0
315286,-133.333333333333,4,1,1,60,0,0
315931,-133.333333333333,4,3,1,60,0,0
316577,-133.333333333333,4,1,1,60,0,0
317222,-133.333333333333,4,3,1,60,0,0
317867,-133.333333333333,4,1,1,60,0,0
318512,-133.333333333333,4,3,1,60,0,0
319157,-133.333333333333,4,1,1,60,0,0
319802,-133.333333333333,4,3,1,60,0,0
320448,-133.333333333333,4,2,1,60,0,0
321738,-133.333333333333,4,2,1,55,0,0
323028,-133.333333333333,4,2,1,50,0,0
324319,-133.333333333333,4,2,1,45,0,0
325609,-133.333333333333,4,2,1,40,0,0
326899,-133.333333333333,4,2,1,35,0,0
328190,-133.333333333333,4,2,1,30,0,0
329480,-133.333333333333,4,2,1,25,0,0
330770,-66.6666666666667,4,2,1,20,0,0

[Colours]
Combo1 : 192,192,192
Combo2 : 128,255,255
Combo3 : 255,255,128
Combo4 : 128,128,255
Combo5 : 255,128,255

[HitObjects]
64,200,8190,6,0,P|56:263|84:315,1,119.999996337891
148,243,8673,2,0,P|206:235|260:260,2,119.999996337891
356,252,9480,6,0,B|440:244|440:244|480:208,1,119.999996337891
400,152,9964,2,0,P|402:89|404:24,2,119.999996337891
470,279,10770,6,0,L|466:220,1,59.9999981689454
324,212,11093,1,0,0:0:0:0:
324,212,11254,2,0,L|188:204,2,119.999996337891
376,308,12060,6,0,L|240:316,1,119.999996337891
160,320,12544,2,0,P|108:288|80:216,1,119.999996337891
156,84,13190,1,0,0:0:0:0:
156,84,13270,1,0,0:0:0:0:
156,84,13351,22,0,P|216:84|300:92,2,119.999996337891
64,108,14157,2,0,P|36:100|4:72,2,59.9999981689454
184,176,14641,6,0,L|187:295,1,119.999996337891
280,272,15125,2,0,L|288:128,2,119.999996337891
352,336,15931,5,0,0:0:0:0:
432,308,16093,2,0,P|464:308|504:320,1,59.9999981689454
448,224,16415,2,0,P|452:160|492:116,2,119.999996337891
404,32,17222,22,0,B|352:108|252:116|252:116|208:96|208:96|104:100,1,314.999990386963
180,184,18512,6,0,P|187:247|156:303,1,129.999994049073,8|0,0:0|0:0,0:0:0:0:
4,276,18996,2,0,P|-3:213|28:157,2,129.999994049073
72,336,19802,5,8,0:0:0:0:
155,303,19964,1,0,0:0:0:0:
236,344,20125,1,0,0:0:0:0:
196,224,20286,2,0,B|196:136|196:136|172:80,2,129.999994049073
304,148,21093,6,0,L|436:148,1,129.999994049073,8|0,0:0|0:0,0:0:0:0:
352,53,21577,2,0,L|288:48,2,64.9999970245363
434,148,22060,1,0,0:0:0:0:
448,64,22222,1,0,0:0:0:0:
344,148,22383,6,0,P|344:216|400:280,1,129.999994049073,8|0,0:0|0:0,0:0:0:0:
479,288,22867,2,0,P|451:344|392:368,1,129.999994049073
224,288,23512,1,0,0:0:0:0:
224,288,23593,1,0,0:0:0:0:
224,288,23673,22,0,P|224:224|220:152,2,129.999994049073,8|0|0,0:0|0:0|0:0,0:0:0:0:
116,292,24480,2,0,L|124:216,1,64.9999970245363
60,88,24802,1,0,0:0:0:0:
134,138,24963,6,0,P|196:124|239:76,1,129.999994049073,8|0,0:0|0:0,0:0:0:0:
332,96,25447,2,0,P|396:92|480:88,2,129.999994049073
440,180,26254,6,0,L|448:245,1,64.9999970245363,8|0,0:0|0:0,0:0:0:0:
332,96,26577,1,0,0:0:0:0:
284,180,26738,2,0,L|272:324,1,129.999994049073
180,240,27222,2,0,L|112:244,1,64.9999970245363
24,136,27544,22,0,B|156:140|156:140|200:124|200:124|336:120,1,314.999990386963,8|0,0:0|0:0,0:0:0:0:
464,60,28835,6,0,P|432:128|456:212,1,139.999995727539,2|0,0:0|0:0,0:0:0:0:
392,268,29319,2,0,L|322:264,1,69.9999978637696,2|0,0:0|0:0,0:0:0:0:
484,276,29641,2,0,L|491:345,1,69.9999978637696,2|0,0:0|0:0,0:0:0:0:
442,189,29964,1,0,0:0:0:0:
311,347,30125,6,0,P|252:316|237:249,1,139.999995727539,2|0,0:0|0:0,0:0:0:0:
263,104,30609,2,0,P|281:133|287:167,1,69.9999978637696,2|0,0:0|0:0,0:0:0:0:
124,156,30931,2,0,P|158:155|191:167,1,69.9999978637696,2|0,0:0|0:0,0:0:0:0:
179,313,31254,1,0,0:0:0:0:
179,313,31415,6,0,L|40:320,1,139.999995727539,2|0,0:0|0:0,0:0:0:0:
56,217,31899,2,0,L|196:224,1,139.999995727539,2|0,0:0|0:0,0:0:0:0:
152,120,32383,2,0,L|-8:128,1,139.999995727539,2|0,0:0|0:0,0:0:0:0:
40,28,32867,2,0,L|179:31,1,139.999995727539,2|0,0:0|0:0,0:0:0:0:
328,80,33351,5,2,0:0:0:0:
240,100,33512,1,0,0:0:0:0:
328,80,33673,1,2,0:0:0:0:
240,100,33835,1,0,0:0:0:0:
417,134,33996,22,0,P|431:67|404:4,1,139.999995727539,2|0,0:0|0:0,0:0:0:0:
344,192,34480,2,0,L|340:268,1,69.9999978637696,2|0,0:0|0:0,0:0:0:0:
508,240,34802,2,0,L|501:171,1,69.9999978637696,2|0,0:0|0:0,0:0:0:0:
432,324,35125,1,0,0:0:0:0:
340,261,35286,6,0,P|268:264|204:304,1,139.999995727539,2|0,0:0|0:0,0:0:0:0:
55,282,35770,2,0,P|90:282|124:272,1,69.9999978637696,2|0,0:0|0:0,0:0:0:0:
187,134,36092,2,0,L|184:204,2,69.9999978637696,2|0|0,0:0|0:0|0:0,0:0:0:0:
108,24,36577,5,2,0:0:0:0:
31,73,36738,2,0,P|15:140|35:206,1,139.999995727539,2|0,0:0|0:0,0:0:0:0:
187,134,37222,2,0,L|279:134,1,69.9999978637696,2|0,0:0|0:0,0:0:0:0:
198,47,37545,2,0,L|268:44,1,69.9999978637696
448,120,37867,5,2,0:0:0:0:
355,155,38029,2,0,P|355:87|398:33,1,139.999995727539,2|0,0:0|0:0,0:0:0:0:
432,216,38512,2,0,P|405:238|373:250,1,69.9999978637696,2|0,0:0|0:0,0:0:0:0:
408,344,38835,2,0,P|373:350|339:344,1,69.9999978637696
276,268,39157,22,0,L|124:260,1,139.999995727539,2|0,0:0|0:0,0:0:0:0:
32,324,39641,2,0,L|44:256,1,69.9999978637696,2|0,0:0|0:0,0:0:0:0:
204,144,39963,2,0,L|208:216,1,69.9999978637696,2|0,0:0|0:0,0:0:0:0:
64,168,40286,1,0,0:0:0:0:
156,59,40448,6,0,P|224:51|282:87,1,139.999995727539,2|0,0:0|0:0,0:0:0:0:
356,32,40931,2,0,L|425:28,1,69.9999978637696,2|0,0:0|0:0,0:0:0:0:
364,124,41253,2,0,L|372:204,1,69.9999978637696,2|0,0:0|0:0,0:0:0:0:
476,200,41576,1,0,0:0:0:0:
476,200,41737,6,0,P|448:272|364:296,1,139.999995727539,2|0,0:0|0:0,0:0:0:0:
288,376,42221,2,0,L|276:236,1,139.999995727539,2|0,0:0|0:0,0:0:0:0:
378,53,42705,2,0,L|370:209,1,139.999995727539,2|0,0:0|0:0,0:0:0:0:
252,136,43190,2,0,P|191:168|170:233,1,139.999995727539,2|0,0:0|0:0,0:0:0:0:
96,144,43673,5,2,0:0:0:0:
4,136,43835,1,0,0:0:0:0:
96,144,43996,1,2,0:0:0:0:
4,136,44157,1,0,0:0:0:0:
40,280,44318,22,0,L|196:276,1,139.999995727539,2|0,0:0|0:0,0:0:0:0:
344,272,44802,2,0,L|356:348,1,69.9999978637696,2|0,0:0|0:0,0:0:0:0:
260,236,45124,2,0,L|260:166,1,69.9999978637696,2|0,0:0|0:0,0:0:0:0:
308,88,45448,1,0,0:0:0:0:
510,95,45608,6,0,P|453:134|384:136,1,139.999995727539,2|0,0:0|0:0,0:0:0:0:
308,88,46092,2,0,L|301:18,1,69.9999978637696,2|0,0:0|0:0,0:0:0:0:
160,84,46415,2,0,L|80:80,2,69.9999978637696,2|0|0,0:0|0:0|0:0,0:0:0:0:
232,136,46899,5,2,0:0:0:0:
120,192,47060,2,0,B|96:232|96:232|84:340,1,139.999995727539,2|0,0:0|0:0,0:0:0:0:
184,268,47544,2,0,L|268:264,1,69.9999978637696,2|0,0:0|0:0,0:0:0:0:
316,332,47867,2,0,L|385:335,1,69.9999978637696
500,252,48189,5,2,0:0:0:0:
376,224,48351,2,0,P|348:168|356:80,1,139.999995727539,2|0,0:0|0:0,0:0:0:0:
508,121,48835,2,0,P|478:139|444:144,1,69.9999978637696,2|0,0:0|0:0,0:0:0:0:
347,0,49157,2,0,P|382:4|412:22,1,69.9999978637696
248,88,49480,22,0,L|88:84,1,150.000005722046,2|2,0:3|0:0,0:0:0:0:
16,136,49964,2,0,P|-12:212|8:296,1,150.000005722046,2|2,0:0|0:0,0:0:0:0:
180,344,50448,2,0,L|174:269,1,75.0000028610231,2|0,0:0|0:0,0:0:0:0:
88,220,50770,5,2,0:0:0:0:
174,269,50931,2,0,P|247:268|352:260,1,150.000005722046,2|0,0:0|0:0,0:0:0:0:
456,333,51415,2,0,P|420:342|384:336,1,75.0000028610231,2|0,0:0|0:0,0:0:0:0:
481,205,51738,2,0,P|454:231|420:244,1,75.0000028610231,2|0,0:0|0:0,0:0:0:0:
399,4,52060,6,0,P|420:75|404:148,1,150.000005722046,2|2,0:3|0:0,0:0:0:0:
180,180,52544,2,0,P|159:108|175:36,1,150.000005722046,2|2,0:0|0:0,0:0:0:0:
300,208,53028,2,0,L|296:288,1,75.0000028610231,2|0,0:0|0:0,0:0:0:0:
196,320,53351,5,2,0:0:0:0:
55,302,53512,2,0,P|128:290|196:320,1,150.000005722046,2|0,0:0|0:0,0:0:0:0:
296,282,53996,2,0,P|333:277|373:253,2,75.0000028610231,2|0|0,0:0|0:0|0:0,0:0:0:0:
156,168,54480,22,0,P|150:95|152:16,1,150.000005722046,2|2,0:0|0:0,0:0:0:0:
312,40,54964,2,0,P|314:116|308:200,1,150.000005722046,2|0,0:0|0:0,0:0:0:0:
224,328,55448,1,0,0:0:0:0:
147,263,55609,2,0,P|109:261|73:270,1,75.0000028610231,2|0,0:0|0:0,0:0:0:0:
224,328,55932,5,2,0:0:0:0:
312,284,56093,2,0,L|476:276,2,150.000005722046,2|0|0,0:0|0:0|0:0,0:0:0:0:
308,189,56899,1,2,0:0:0:0:
457,172,57060,6,0,L|308:189,1,150.000005722046,2|0,0:0|0:0,0:0:0:0:
220,144,57544,2,0,P|204:112|200:60,1,75.0000028610231
383,7,57867,2,0,P|388:45|381:81,1,75.0000028610231
292,44,58190,1,2,0:0:0:0:
72,11,58351,6,0,P|124:63|198:73,1,150.000005722046,2|2,0:0|0:0,0:0:0:0:
268,144,58835,2,0,L|280:240,1,75.0000028610231,2|0,0:0|0:0,0:0:0:0:
152,172,59157,2,0,L|147:268,1,75.0000028610231,2|0,0:0|0:0,0:0:0:0:
36,140,59480,2,0,L|14:234,1,75.0000028610231,2|0,0:0|0:0,0:0:0:0:
80,316,59802,22,0,P|144:292|240:316,1,150.000005722046,2|2,0:3|0:0,0:0:0:0:
328,272,60286,2,0,P|400:286|470:261,1,150.000005722046,2|2,0:0|0:0,0:0:0:0:
459,89,60770,2,0,L|452:164,1,75.0000028610231,2|0,0:0|0:0,0:0:0:0:
372,48,61092,5,2,0:0:0:0:
304,116,61254,2,0,P|228:116|144:104,1,150.000005722046,2|0,0:0|0:0,0:0:0:0:
104,24,61737,2,0,P|76:48|56:92,1,75.0000028610231,2|0,0:0|0:0,0:0:0:0:
84,176,62060,2,0,P|71:210|76:258,1,75.0000028610231,2|0,0:0|0:0,0:0:0:0:
120,332,62383,6,0,L|284:328,1,150.000005722046,2|2,0:3|0:0,0:0:0:0:
489,263,62867,2,0,L|340:260,1,150.000005722046,2|2,0:0|0:0,0:0:0:0:
276,188,63350,2,0,P|268:152|268:112,1,75.0000028610231,2|0,0:0|0:0,0:0:0:0:
332,40,63673,5,2,0:0:0:0:
191,57,63835,2,0,P|265:69|333:39,1,150.000005722046,2|0,0:0|0:0,0:0:0:0:
420,88,64318,2,0,L|416:180,2,75.0000028610231,2|0|0,0:0|0:0|0:0,0:0:0:0:
512,52,64802,22,0,L|524:228,1,150.000005722046,2|2,0:0|0:0,0:0:0:0:
348,277,65286,2,0,P|357:204|416:162,1,150.000005722046,2|0,0:0|0:0,0:0:0:0:
440,256,65770,1,0,0:0:0:0:
380,372,65931,2,0,L|304:368,1,75.0000028610231,2|0,0:0|0:0,0:0:0:0:
248,288,66254,5,2,0:0:0:0:
168,340,66415,2,0,B|72:344|72:344|16:324,2,150.000005722046,2|0|0,0:0|0:0|0:0,0:0:0:0:
248,288,67221,1,2,0:0:0:0:
241,138,67383,6,0,L|248:288,1,150.000005722046,2|0,0:0|0:0,0:0:0:0:
152,216,67866,2,0,L|77:212,1,75.0000028610231
144,120,68189,2,0,L|70:104,1,75.0000028610231
168,28,68512,1,2,0:0:0:0:
332,56,68673,6,0,P|364:120|360:212,1,150.000005722046,2|0,0:0|0:0,0:0:0:0:
247,287,69157,2,0,P|287:279|339:291,1,75.0000028610231,0|0,0:0|3:0,0:0:0:0:
347,307,69399,1,0,3:0:0:0:
347,307,69480,2,0,P|384:311|420:303,1,75.0000028610231,0|0,3:0|0:0,0:0:0:0:
460,160,69802,1,8,0:1:0:0:
508,348,69964,1,8,0:1:0:0:
460,160,70125,22,0,P|460:88|456:-16,1,160,6|2,0:0|0:0,0:0:0:0:
360,84,70609,1,2,0:0:0:0:
252,52,70770,2,0,L|260:146,1,80,2|0,0:0|0:0,0:0:0:0:
268,228,71093,1,2,3:2:0:0:
268,228,71254,1,2,3:2:0:0:
276,324,71415,6,0,L|192:308,1,80,2|0,0:0|0:0,0:0:0:0:
364,248,71738,1,2,0:0:0:0:
364,248,71899,1,2,0:0:0:0:
460,268,72060,2,0,L|472:364,2,80,2|0|2,1:2|0:0|0:0,0:0:0:0:
456,88,72544,1,2,0:0:0:0:
431,180,72706,6,0,P|366:112|378:37,1,160,2|0,3:2|3:0,0:0:0:0:
332,224,73190,2,0,P|343:301|308:372,1,160,2|0,0:0|0:0,0:0:0:0:
220,280,73673,1,2,3:2:0:0:
220,280,73835,1,0,3:0:0:0:
156,352,73996,6,0,L|72:360,1,80,2|0,0:0|0:0,0:0:0:0:
196,248,74319,2,0,L|196:168,1,80,2|0,0:0|0:0,0:0:0:0:
84,32,74641,1,0,1:0:0:0:
96,136,74802,1,2,0:0:0:0:
84,32,74964,1,0,3:0:0:0:
252,72,75125,1,2,3:2:0:0:
252,72,75206,1,2,3:2:0:0:
252,72,75286,22,0,P|336:72|424:80,1,160,2|2,3:2|0:0,0:0:0:0:
404,192,75770,2,0,P|368:188|324:176,2,80,2|0|0,0:0|0:0|0:0,0:0:0:0:
488,144,76254,1,2,3:2:0:0:
488,144,76415,1,2,3:2:0:0:
332,208,76577,5,2,0:0:0:0:
480,256,76738,2,0,P|488:296|484:356,1,80,2|0,1:2|3:0,3:0:0:0:
336,236,77060,1,2,0:0:0:0:
352,344,77222,2,0,B|192:340,1,160,2|2,1:2|0:0,0:0:0:0:
31,300,77706,1,2,0:0:0:0:
132,192,77867,6,0,P|131:232|124:272,1,80,2|0,3:2|0:0,0:0:0:0:
31,300,78190,1,2,0:0:0:0:
39,127,78351,2,0,P|103:81|180:90,1,160,2|2,3:2|0:0,0:0:0:0:
248,180,78835,1,2,3:2:0:0:
248,180,78996,1,0,3:0:0:0:
324,124,79157,6,0,L|328:36,1,80,2|0,0:0|0:0,0:0:0:0:
468,80,79480,2,0,L|476:168,1,80,2|0,0:0|0:0,0:0:0:0:
316,264,79802,1,2,1:2:0:0:
432,334,79964,1,2,0:2:0:0:
339,358,80125,1,2,0:2:0:0:
413,243,80286,1,2,3:2:0:0:
413,243,80367,1,2,3:2:0:0:
413,243,80448,22,0,P|420:168|388:80,1,160,6|2,0:0|0:0,0:0:0:0:
308,44,80931,2,0,L|214:37,1,80,2|0,0:0|0:0,0:0:0:0:
320,180,81254,1,2,0:0:0:0:
236,136,81415,2,0,L|152:140,1,80,2|0,3:2|3:0,0:0:0:0:
64,108,81738,6,0,P|52:68|52:16,1,80,2|0,0:0|0:0,0:0:0:0:
177,233,82060,2,0,P|175:273|164:312,1,80,2|0,1:2|0:0,0:0:0:0:
85,205,82382,1,2,0:0:0:0:
156,139,82544,2,0,B|316:135,1,160,2|2,1:2|0:0,0:0:0:0:
488,176,83028,5,2,0:0:0:0:
488,176,83190,1,2,0:0:0:0:
344,48,83351,1,2,0:0:0:0:
344,48,83512,1,2,0:0:0:0:
350,239,83673,2,0,L|348:160,1,80,2|2,1:2|0:0,0:0:0:0:
468,64,83996,2,0,L|464:156,1,80,2|2,3:2|3:2,0:0:0:0:
348,160,84319,5,2,0:0:0:0:
456,272,84480,1,2,0:0:0:0:
348,160,84641,1,2,0:0:0:0:
456,272,84802,1,2,0:0:0:0:
312,250,84964,2,0,P|258:195|261:117,1,160,2|2,1:2|0:0,0:0:0:0:
340,64,85448,1,2,1:2:0:0:
340,64,85528,1,2,1:2:0:0:
340,64,85609,21,6,0:2:0:0:
261,116,85770,1,2,0:2:0:0:
168,132,85931,1,2,0:2:0:0:
72,112,86093,1,2,0:2:0:0:
340,64,86254,6,0,P|384:72|440:60,1,80,2|2,0:0|0:0,0:0:0:0:
261,117,86577,2,0,P|296:144|352:156,1,80,2|2,3:2|3:2,0:0:0:0:
168,132,86899,2,0,P|188:172|228:208,1,80,2|2,0:0|0:0,0:0:0:0:
72,112,87222,2,0,P|76:156|92:192,1,80,2|0,3:2|0:1,0:0:0:0:
200,44,87544,5,10,0:1:0:0:
148,328,87867,2,0,L|228:324,1,80,0|0,1:0|1:0,0:0:0:0:
312,276,88190,5,2,0:0:0:0:
382,337,88351,1,2,0:0:0:0:
463,291,88512,1,2,0:0:0:0:
444,199,88673,1,2,0:0:0:0:
350,189,88835,21,2,0:0:0:0:
482,114,88996,1,2,0:0:0:0:
331,97,89157,1,2,0:0:0:0:
412,51,89318,1,2,0:0:0:0:
350,189,89480,53,8,0:0:0:0:
312,276,90770,1,8,0:0:0:0:
244,344,92060,1,8,0:0:0:0:
80,316,92706,54,0,P|112:300|164:292,1,69.9999978637696,2|0,0:0|0:0,0:0:0:0:
412,328,93028,2,0,P|377:320|346:304,1,69.9999978637696,2|0,0:0|0:0,0:0:0:0:
224,24,93351,22,0,P|268:88|248:200,1,172.000002624512,4|0,0:1|0:0,0:0:0:0:
160,124,93835,1,0,3:0:0:0:
368,68,93996,2,0,L|476:64,1,86.0000013122559,8|0,0:1|0:0,0:0:0:0:
260,178,94319,1,2,0:0:0:0:
160,124,94480,6,0,B|36:124|36:124|-16:152,1,172.000002624512,2|2,0:0|0:0,0:0:0:0:
260,178,94964,2,0,P|268:140|268:88,1,86.0000013122559,2|0,0:0|0:0,0:0:0:0:
68,216,95286,2,0,P|68:258|76:301,1,86.0000013122559,8|0,0:1|0:0,0:0:0:0:
160,124,95609,1,8,0:1:0:0:
236,296,95770,1,0,3:0:0:0:
236,296,95851,1,0,3:0:0:0:
236,296,95931,6,0,P|324:284|384:200,1,172.000002624512,2|0,3:2|0:0,0:0:0:0:
360,48,96415,1,0,3:0:0:0:
268,94,96577,2,0,B|256:126|256:126|260:178,1,86.0000013122559,8|0,0:1|0:0,0:0:0:0:
360,48,96899,1,2,0:0:0:0:
444,108,97060,6,0,L|548:104,1,86.0000013122559,2|0,0:0|0:0,0:0:0:0:
496,272,97383,1,2,0:0:0:0:
348,140,97544,1,2,0:0:0:0:
512,136,97706,1,2,0:0:0:0:
360,252,97867,2,0,L|256:248,1,86.0000013122559,8|0,0:1|0:0,0:0:0:0:
144,320,98190,1,0,3:0:0:0:
144,320,98270,1,0,3:0:0:0:
144,320,98351,1,0,3:0:0:0:
237,86,98512,22,0,B|268:128|268:128|274:248,1,172.000002624512,6|2,0:0|0:0,0:0:0:0:
20,256,98996,2,0,L|28:156,1,86.0000013122559,2|8,0:0|0:1,0:0:0:0:
237,86,99319,1,2,0:0:0:0:
140,204,99480,1,2,0:0:0:0:
104,60,99641,1,2,0:0:0:0:
260,204,99802,6,0,P|352:196|436:144,1,172.000002624512,2|2,0:0|0:0,0:0:0:0:
464,300,100286,2,0,P|420:292|360:300,1,86.0000013122559,2|8,0:0|0:1,0:0:0:0:
284,340,100609,1,2,0:0:0:0:
236,164,100770,1,2,0:0:0:0:
192,292,100931,1,2,3:2:0:0:
192,292,101012,1,0,3:0:0:0:
192,292,101093,6,0,P|104:308|20:284,1,172.000002624512,2|2,3:0|0:0,0:0:0:0:
287,255,101577,2,0,P|292:298|283:340,1,86.0000013122559,2|8,0:0|0:1,0:0:0:0:
60,200,101899,2,0,L|56:112,1,86.0000013122559,2|0,0:0|0:1,0:0:0:0:
172,52,102222,5,2,0:0:0:0:
264,148,102383,1,2,0:0:0:0:
160,156,102544,1,2,0:0:0:0:
295,49,102705,1,2,0:0:0:0:
368,160,102867,1,2,0:0:0:0:
264,148,103028,5,8,0:1:0:0:
416,69,103190,1,8,0:1:0:0:
264,148,103351,1,4,0:3:0:0:
416,69,103513,1,8,0:3:0:0:
375,331,103673,6,0,L|368:160,1,172.000002624512,4|0,0:1|0:0,0:0:0:0:
416,69,104157,1,0,3:0:0:0:
264,148,104318,2,0,L|178:136,1,86.0000013122559,8|0,0:1|0:0,0:0:0:0:
332,248,104641,1,2,0:0:0:0:
123,223,104802,6,0,P|82:150|100:67,1,172.000002624512,2|2,0:0|0:0,0:0:0:0:
183,307,105286,2,0,P|143:323|95:323,1,86.0000013122559,2|0,0:0|0:0,0:0:0:0:
178,136,105609,2,0,L|276:132,1,86.0000013122559,8|0,0:1|0:0,0:0:0:0:
496,172,105931,1,8,0:1:0:0:
436,68,106092,1,0,3:0:0:0:
436,68,106173,1,0,3:0:0:0:
436,67,106254,6,0,P|382:131|384:215,1,172.000002624512,2|0,3:2|0:0,0:0:0:0:
264,176,106738,2,0,L|260:64,1,86.0000013122559,0|8,0:0|0:1,0:0:0:0:
56,136,107060,1,2,0:0:0:0:
160,156,107222,1,2,0:0:0:0:
24,284,107383,6,0,P|108:264|212:276,1,172.000002624512,2|2,0:0|0:0,0:0:0:0:
368,288,107867,1,2,0:0:0:0:
276,332,108029,1,2,0:0:0:0:
444,356,108190,2,0,P|464:316|468:272,1,86.0000013122559,8|0,0:1|0:0,0:0:0:0:
368,288,108513,1,0,3:0:0:0:
438,166,108674,1,0,3:0:0:0:
438,166,108754,1,0,3:0:0:0:
438,166,108835,22,0,P|359:198|276:180,1,172.000002624512,4|0,0:1|0:0,0:0:0:0:
355,22,109319,2,0,L|352:108,1,86.0000013122559,0|8,0:0|0:1,0:0:0:0:
160,52,109641,1,2,0:0:0:0:
168,156,109803,1,2,0:0:0:0:
48,36,109964,6,0,P|56:112|24:208,1,172.000002624512,2|2,0:0|0:0,0:0:0:0:
114,353,110448,2,0,P|106:310|108:268,1,86.0000013122559,2|0,0:0|0:0,0:0:0:0:
168,156,110770,1,8,0:1:0:0:
364,272,110931,1,2,0:0:0:0:
208,308,111093,1,2,0:0:0:0:
328,180,111254,1,0,3:0:0:0:
328,180,111335,1,0,3:0:0:0:
328,180,111415,6,0,P|329:266|319:352,1,172.000002624512,2|2,3:0|0:0,0:0:0:0:
260,104,111899,2,0,P|252:60|252:-4,1,86.0000013122559,2|8,0:0|0:1,0:0:0:0:
416,131,112222,2,0,P|458:126|500:115,1,86.0000013122559,2|0,0:0|0:0,0:0:0:0:
356,48,112544,5,2,0:0:0:0:
276,208,112706,1,2,0:0:0:0:
400,156,112867,1,8,0:1:0:0:
260,104,113028,1,2,0:0:0:0:
420,272,113190,1,2,0:0:0:0:
420,272,113270,1,2,0:0:0:0:
420,272,113351,1,2,0:0:0:0:
260,308,113512,6,0,P|214:344|198:397,1,100,0|0,1:0|0:0,0:0:0:0:
12,232,113996,6,0,B|136:224|136:224|196:188,1,172.000002624512,4|0,0:1|0:0,0:0:0:0:
208,4,114480,1,0,3:0:0:0:
111,38,114641,2,0,L|108:124,1,86.0000013122559,8|0,0:1|0:0,0:0:0:0:
208,4,114964,1,2,0:0:0:0:
332,148,115125,6,0,P|416:148|489:104,1,172.000002624512,2|2,0:0|0:0,0:0:0:0:
235,103,115609,2,0,P|231:147|239:195,1,86.0000013122559,2|0,0:0|0:0,0:0:0:0:
432,280,115931,2,0,L|424:188,1,86.0000013122559,8|0,0:1|0:0,0:0:0:0:
384,44,116254,1,8,0:1:0:0:
320,260,116415,1,0,3:0:0:0:
320,260,116496,1,0,3:0:0:0:
320,260,116577,6,0,P|236:288|156:260,1,172.000002624512,2|0,3:2|0:0,0:0:0:0:
106,100,117060,2,0,L|80:8,1,86.0000013122559,0|8,0:0|0:1,0:0:0:0:
73,199,117383,1,2,0:0:0:0:
209,102,117544,1,2,0:0:0:0:
73,199,117706,6,0,P|32:208|-16:200,1,86.0000013122559,2|0,0:0|0:0,0:0:0:0:
106,100,118028,1,2,0:0:0:0:
209,102,118190,2,0,P|232:64|236:12,1,86.0000013122559,2|0,0:0|0:0,0:0:0:0:
159,262,118512,2,0,L|156:368,1,86.0000013122559,8|0,0:1|0:0,0:0:0:0:
240,199,118835,1,0,3:0:0:0:
240,199,118915,1,0,3:0:0:0:
240,199,118996,1,0,3:0:0:0:
486,219,119157,22,0,B|444:250|444:250|324:256,1,172.000002624512,6|2,0:0|0:0,0:0:0:0:
292,52,119641,2,0,L|388:56,1,86.0000013122559,2|8,0:0|0:1,0:0:0:0:
486,219,119964,1,2,0:0:0:0:
328,152,120125,1,2,0:0:0:0:
488,60,120286,1,2,0:0:0:0:
388,235,120447,6,0,P|304:247|235:200,1,172.000002624512,2|2,0:0|0:0,0:0:0:0:
144,252,120931,2,0,L|137:337,1,86.0000013122559,2|8,0:0|0:1,0:0:0:0:
44,228,121254,1,2,0:0:0:0:
235,200,121415,1,2,0:0:0:0:
88,96,121576,1,2,3:2:0:0:
88,96,121657,1,0,3:0:0:0:
88,96,121738,6,0,P|176:112|260:88,1,172.000002624512,2|0,3:0|0:0,0:0:0:0:
328,16,122222,1,0,3:0:0:0:
496,74,122383,2,0,P|454:83|411:75,1,86.0000013122559,8|0,0:1|0:0,0:0:0:0:
328,16,122706,1,2,0:0:0:0:
412,75,122867,6,0,L|417:248,1,172.000002624512,2|10,3:2|0:1,0:0:0:0:
249,176,123351,2,0,L|254:80,1,86.0000013122559,2|0,0:0|0:0,0:0:0:0:
312,280,123673,5,8,0:1:0:0:
136,196,123835,1,8,0:1:0:0:
372,160,123996,1,4,0:3:0:0:
224,104,124157,1,8,0:3:0:0:
192,320,124319,6,0,P|108:328|32:288,1,172.000002624512,6|0,0:0|0:0,0:0:0:0:
312,280,124802,2,0,P|396:276|496:296,1,172.000002624512,0|0,1:0|0:0,0:0:0:0:
136,196,125286,2,0,P|128:112|132:8,1,172.000002624512,8|0,0:1|0:0,0:0:0:0:
408,64,125770,2,0,L|400:256,1,172.000002624512,0|0,3:0|0:0,0:0:0:0:
300,176,126254,6,0,L|296:80,1,86.0000013122559
508,144,126577,2,0,L|512:240,1,86.0000013122559
448,323,126899,6,0,P|375:280|292:292,1,172.000002624512,4|0,0:0|0:0,0:0:0:0:
2,268,127383,2,0,P|87:279|168:252,1,172.000002624512,0|0,3:0|0:0,0:0:0:0:
88,0,127867,2,0,P|76:88|76:184,1,172.000002624512,8|0,0:1|0:0,0:0:0:0:
368,236,128351,2,0,L|360:56,1,172.000002624512,8|0,3:0|0:0,0:0:0:0:
192,156,128835,5,0,3:0:0:0:
192,156,128942,2,0,L|260:152,1,57.3333342081706,0|0,3:0|3:0,0:0:0:0:
268,256,129157,1,0,3:0:0:0:
268,256,129265,2,0,L|200:252,1,57.3333342081706,0|0,3:0|3:0,0:0:0:0:
80,332,129480,22,0,L|96:152,1,172.000002624512,6|0,0:0|0:0,0:0:0:0:
440,288,129964,2,0,P|436:200|424:108,1,172.000002624512,4|0,0:3|0:0,0:0:0:0:
120,60,130448,2,0,P|108:144|128:256,1,172.000002624512,8|0,0:1|0:0,0:0:0:0:
408,24,130931,2,0,P|420:116|384:216,1,172.000002624512,0|0,3:0|0:0,0:0:0:0:
148,144,131415,5,0,1:0:0:0:
324,240,131577,1,0,3:0:0:0:
156,260,131738,1,0,1:0:0:0:
336,140,131899,1,0,3:0:0:0:
148,144,132060,6,0,P|240:116|280:36,1,172.000002624512,4|0,0:0|0:0,0:0:0:0:
432,244,132544,2,0,P|372:220|260:244,1,172.000002624512,0|0,3:3|0:0,0:0:0:0:
277,54,133028,5,8,1:0:0:0:
264,340,133190,1,8,1:0:0:0:
277,54,134641,22,0,L|284:208,1,139.999995727539,2|0,0:0|0:0,0:0:0:0:
364,240,135125,2,0,P|376:272|376:316,1,69.9999978637696,2|0,0:0|0:0,0:0:0:0:
200,236,135447,2,0,L|117:235,1,69.9999978637696,2|0,0:0|0:0,0:0:0:0:
283,193,135770,1,0,0:0:0:0:
364,240,135931,6,0,P|432:229|485:185,1,139.999995727539,2|0,0:0|0:0,0:0:0:0:
468,96,136415,2,0,L|477:26,1,69.9999978637696,2|0,0:0|0:0,0:0:0:0:
388,36,136738,2,0,L|379:110,1,69.9999978637696,2|0,0:0|0:0,0:0:0:0:
220,48,137060,1,0,0:0:0:0:
220,48,137221,6,0,L|81:55,1,139.999995727539,2|0,0:0|0:0,0:0:0:0:
48,144,137705,2,0,L|188:151,1,139.999995727539,2|0,0:0|0:0,0:0:0:0:
147,241,138189,2,0,L|8:248,1,139.999995727539,2|0,0:0|0:0,0:0:0:0:
44,336,138673,2,0,L|183:339,1,139.999995727539,2|0,0:0|0:0,0:0:0:0:
256,284,139157,5,2,0:0:0:0:
344,304,139318,1,0,0:0:0:0:
424,260,139479,1,2,0:0:0:0:
512,280,139641,1,0,0:0:0:0:
496,120,139802,22,0,P|436:164|360:164,1,139.999995727539,2|0,0:0|0:0,0:0:0:0:
288,132,140286,2,0,L|284:208,1,69.9999978637696,2|0,0:0|0:0,0:0:0:0:
408,80,140608,2,0,L|401:11,1,69.9999978637696,2|0,0:0|0:0,0:0:0:0:
292,44,140931,1,0,0:0:0:0:
184,12,141092,6,0,L|168:160,1,139.999995727539,2|0,0:0|0:0,0:0:0:0:
15,129,141576,2,0,P|49:119|84:120,1,69.9999978637696,2|0,0:0|0:0,0:0:0:0:
63,277,141899,2,0,L|60:208,2,69.9999978637696,2|0|0,0:0|0:0|0:0,0:0:0:0:
68,368,142383,5,2,0:0:0:0:
156,244,142544,2,0,P|232:240|320:244,1,139.999995727539,2|0,0:0|0:0,0:0:0:0:
376,358,143028,2,0,L|376:288,1,69.9999978637696,2|0,0:0|0:0,0:0:0:0:
466,277,143351,2,0,L|463:347,1,69.9999978637696
472,188,143673,5,2,0:0:0:0:
468,48,143835,2,0,L|472:192,1,139.999995727539,2|0,0:0|0:0,0:0:0:0:
384,116,144318,2,0,P|356:88|320:72,1,69.9999978637696,2|0,0:0|0:0,0:0:0:0:
304,164,144641,2,0,P|265:153|226:157,1,69.9999978637696,0|0,0:0|0:0,0:0:0:0:
65,104,144963,22,0,P|134:104|196:72,1,139.999995727539,2|0,0:0|0:0,0:0:0:0:
56,196,145447,2,0,L|49:265,1,69.9999978637696,2|0,0:0|0:0,0:0:0:0:
152,208,145769,2,0,L|164:280,1,69.9999978637696,2|0,0:0|0:0,0:0:0:0:
235,155,146092,1,0,0:0:0:0:
304,280,146254,6,0,P|388:264|436:204,1,139.999995727539,2|0,0:0|0:0,0:0:0:0:
500,276,146737,2,0,L|496:372,1,69.9999978637696,2|0,0:0|0:0,0:0:0:0:
424,227,147060,2,0,L|420:144,1,69.9999978637696,2|0,0:0|0:0,0:0:0:0:
327,67,147382,1,0,0:0:0:0:
327,67,147544,6,0,P|357:128|420:157,1,139.999995727539,2|0,0:0|0:0,0:0:0:0:
240,112,148028,2,0,L|92:108,1,139.999995727539,2|0,0:0|0:0,0:0:0:0:
220,248,148512,2,0,L|376:240,1,139.999995727539,2|0,0:0|0:0,0:0:0:0:
128,284,148996,2,0,P|98:222|35:194,1,139.999995727539,2|0,0:0|0:0,0:0:0:0:
100,108,149479,5,2,0:0:0:0:
192,100,149641,1,0,0:0:0:0:
260,160,149802,1,2,0:0:0:0:
352,152,149963,1,0,0:0:0:0:
456,48,150125,22,0,L|448:196,1,139.999995727539,2|0,0:0|0:0,0:0:0:0:
392,260,150609,2,0,L|320:264,1,69.9999978637696,2|0,0:0|0:0,0:0:0:0:
472,300,150931,2,0,L|484:372,1,69.9999978637696,2|0,0:0|0:0,0:0:0:0:
448,187,151254,1,0,0:0:0:0:
322,263,151415,6,0,P|252:260|188:216,1,139.999995727539,2|0,0:0|0:0,0:0:0:0:
352,104,151898,2,0,L|355:173,1,69.9999978637696,2|0,0:0|0:0,0:0:0:0:
184,132,152221,2,0,L|176:56,2,69.9999978637696,2|0|0,0:0|0:0|0:0,0:0:0:0:
196,224,152706,5,2,0:0:0:0:
92,131,152867,2,0,P|55:190|58:259,1,139.999995727539,2|0,0:0|0:0,0:0:0:0:
116,328,153350,2,0,L|200:324,1,69.9999978637696,2|0,0:0|0:0,0:0:0:0:
369,317,153673,2,0,L|376:248,1,69.9999978637696
280,324,153995,5,2,0:0:0:0:
460,316,154157,2,0,L|476:172,1,139.999995727539,2|0,0:0|0:0,0:0:0:0:
444,144,154560,1,0,0:0:0:0:
444,144,154641,2,0,L|452:56,1,69.9999978637696,2|0,0:0|0:0,0:0:0:0:
348,212,154964,1,8,0:1:0:0:
328,20,155125,1,8,0:1:0:0:
280,120,155286,22,0,B|168:116|168:116|124:92,1,160,6|2,0:0|0:0,0:0:0:0:
84,4,155770,2,0,P|92:84|32:164,1,160,2|2,0:0|0:0,0:0:0:0:
108,228,156254,1,2,3:2:0:0:
108,228,156415,1,0,3:0:0:0:
24,276,156577,6,0,P|16:320|20:360,1,80,2|0,0:0|0:0,0:0:0:0:
204,260,156899,2,0,P|206:220|198:181,1,80,2|0,0:0|0:0,0:0:0:0:
112,324,157222,2,0,P|177:366|256:360,1,160,0|2,1:0|0:0,0:0:0:0:
332,300,157706,1,0,0:0:0:0:
464,340,157867,5,2,3:2:0:0:
332,300,158028,2,0,L|336:208,1,80,2|0,0:0|0:0,0:0:0:0:
480,84,158351,2,0,L|488:180,1,80,2|0,0:0|0:0,0:0:0:0:
272,140,158673,1,2,0:0:0:0:
376,36,158835,2,0,L|372:140,1,80,2|0,3:2|3:0,0:0:0:0:
272,140,159157,6,0,P|188:128|120:56,1,160,2|2,0:0|0:0,0:0:0:0:
152,232,159641,1,0,0:0:0:0:
79,170,159802,2,0,P|39:165|1:174,2,80,0|0|0,1:0|0:0|0:0,0:0:0:0:
228,108,160286,1,2,0:2:0:0:
228,108,160367,1,2,0:2:0:0:
228,108,160448,22,0,P|292:84|388:100,1,160,2|2,3:2|0:0,0:0:0:0:
488,184,160931,1,2,0:0:0:0:
392,209,161093,2,0,P|360:206|312:184,1,80,0|2,0:0|0:0,0:0:0:0:
150,119,161415,2,0,P|189:119|227:107,1,80,2|0,3:2|3:2,0:2:0:0:
316,187,161738,6,0,B|317:249|317:249|280:352,1,160,0|0,0:0|3:0,0:0:0:0:
188,352,162222,1,2,0:0:0:0:
392,308,162383,1,2,1:2:0:0:
392,308,162706,2,0,L|496:316,1,80,2|0,0:0|0:0,0:0:0:0:
348,88,163028,6,0,P|315:142|326:243,1,160,2|2,3:2|0:0,0:0:0:0:
426,175,163512,1,2,0:0:0:0:
322,235,163673,2,0,L|228:228,1,80,2|0,0:0|0:0,0:0:0:0:
392,308,163996,1,2,3:2:0:0:
392,308,164157,1,2,3:2:0:0:
426,175,164319,6,0,P|368:124|276:120,1,160,0|2,0:0|0:0,0:0:0:0:
242,229,164802,1,0,0:0:0:0:
60,164,164964,1,0,1:0:0:0:
68,192,165286,1,0,0:0:0:0:
148,112,165448,1,2,0:2:0:0:
148,112,165528,1,2,0:2:0:0:
148,112,165609,22,0,L|151:32,1,80,6|0,0:2|3:0,0:0:0:0:
232,160,165931,1,2,0:0:0:0:
304,100,166093,2,0,P|369:89|476:96,1,160,2|2,0:0|0:0,0:0:0:0:
420,240,166577,2,0,L|320:236,1,80,2|0,3:2|3:0,0:0:0:0:
156,228,166899,6,0,P|226:260|256:333,1,160,0|2,0:0|0:0,0:0:0:0:
72,276,167383,1,0,0:0:0:0:
8,204,167544,2,0,L|4:120,1,80,2|0,1:2|0:0,0:0:0:0:
136,28,167867,2,0,L|128:108,1,80,2|0,0:0|0:0,0:0:0:0:
268,108,168190,6,0,L|363:113,1,80,2|0,3:2|3:0,0:0:0:0:
396,240,168512,1,2,0:0:0:0:
367,331,168673,2,0,P|305:284|304:207,1,160,2|0,0:0|0:0,0:0:0:0:
448,152,169157,2,0,L|544:144,1,80,2|0,3:2|3:0,0:0:0:0:
347,112,169480,6,0,L|175:104,1,160,2|0,0:0|0:0,0:0:0:0:
60,160,169964,1,0,0:0:0:0:
156,12,170125,1,2,1:2:0:0:
36,64,170286,1,0,0:0:0:0:
187,104,170448,2,0,P|196:144|196:200,1,80,2|0,0:0|0:0,0:0:0:0:
36,336,170770,22,0,L|48:244,1,80,2|0,3:2|3:0,0:0:0:0:
160,288,171093,1,2,0:2:0:0:
160,288,171254,1,2,0:2:0:0:
276,187,171415,2,0,B|247:181|247:181|192:183,1,80,0|2,0:0|0:0,0:0:0:0:
256,344,171738,2,0,L|356:344,1,80,2|0,3:2|3:0,0:0:0:0:
412,236,172060,6,0,P|477:278|493:354,1,160,2|2,0:0|0:0,0:0:0:0:
364,152,172544,1,0,0:0:0:0:
400,64,172706,2,0,L|488:56,1,80,2|0,1:2|0:0,0:0:0:0:
372,160,173028,1,2,0:0:0:0:
372,160,173190,1,0,0:0:0:0:
276,112,173351,6,0,L|196:108,1,80,2|2,3:2|3:2,0:0:0:0:
168,246,173673,2,0,L|248:240,1,80,2|0,0:0|0:0,0:0:0:0:
102,176,173996,2,0,P|99:98|42:45,1,160,2|2,0:0|3:2,0:0:0:0:
24,228,174480,1,2,3:2:0:0:
88,300,174641,6,0,L|91:379,1,80,2|0,0:0|0:0,0:0:0:0:
193,350,174964,2,0,L|180:272,1,80,2|0,0:0|0:0,0:0:0:0:
264,228,175286,6,0,L|304:368,1,119.999996337891,0|0,1:0|0:0,0:0:0:0:
332,160,175770,1,0,0:0:0:0:
376,248,175931,1,4,0:0:0:0:
104,84,181093,69,2,0:3:0:0:
0,268,183673,70,0,P|152:248|320:260,1,300.000011444092,2|2,0:0|0:1,0:0:0:0:
380,296,185609,6,0,P|388:320|392:352,2,46.6666652425131,0|0|0,1:0|3:0|3:0,0:0:0:0:
464,280,185931,2,0,P|483:300|500:324,2,46.6666652425131,8|4|4,0:3|0:3|0:3,0:0:0:0:
500,148,186254,6,0,P|441:200|363:207,1,160,4|0,0:0|0:0,0:0:0:0:
280,160,186738,1,0,0:0:0:0:
188,184,186899,1,0,1:0:0:0:
188,184,187060,1,0,3:0:0:0:
280,160,187383,5,0,3:0:0:0:
111,100,187544,2,0,P|80:172|96:249,1,160,0|0,3:0|0:0,0:0:0:0:
184,320,188028,1,0,0:0:0:0:
8,344,188190,1,0,1:0:0:0:
8,344,188351,1,0,3:0:0:0:
184,320,188674,5,0,3:0:0:0:
96,249,188835,2,0,L|96:160,1,80,0|0,3:0|3:0,3:0:0:0:
276,144,189157,1,0,1:0:0:0:
268,240,189319,1,0,3:0:0:0:
276,144,189480,1,8,1:0:0:0:
268,240,189641,1,0,3:0:0:0:
192,84,189802,21,4,0:3:0:0:
276,144,189964,2,0,P|360:128|416:72,2,160,0|0|0,1:0|1:0|1:0,0:0:0:0:
192,84,190770,2,0,L|104:76,2,80,8|0|0,0:1|3:0|3:0,0:0:0:0:
276,302,191254,1,0,3:0:0:0:
276,302,191335,1,0,3:0:0:0:
276,302,191415,6,0,B|272:256|272:256|283:193|283:193|275:141,1,160,4|0,0:0|0:0,0:0:0:0:
368,256,191899,1,4,0:3:0:0:
184,204,192060,6,0,B|128:212|128:212|109:225,2,80,0|0|0,1:0|0:0|0:0,0:0:0:0:
368,256,192544,2,0,B|424:248|424:248|443:235,1,80,0|0,1:0|0:0,0:0:0:0:
275,143,192867,5,0,1:0:0:0:
256,336,193028,1,0,1:0:0:0:
256,336,193351,2,0,L|252:256,2,80,8|4|4,0:1|3:0|3:0,0:0:0:0:
490,156,193835,21,0,0:0:0:0:
476,316,193996,2,0,L|492:136,1,160,4|0,0:0|0:0,0:0:0:0:
368,140,194480,5,0,0:0:0:0:
372,220,194641,2,0,L|368:124,1,80,4|0,0:0|0:0,0:0:0:0:
250,120,194964,5,0,3:0:0:0:
256,160,195125,2,0,L|248:104,1,40,4|0,0:1|0:0,0:0:0:0:
148,60,195286,6,0,L|84:48,2,53.3333333333333,0|0|0,1:0|1:0|1:0,0:0:0:0:
108,136,195609,2,0,L|40:136,2,55.0000005245209,0|0|0,3:0|3:0|3:0,0:0:0:0:
96,220,195931,2,0,L|31:230,2,56.6666677474976,4|4|8,0:3|0:3|0:3,0:0:0:0:
100,304,196254,2,0,L|4:336,1,87.500000834465,8|0,2:3|0:0,0:0:0:0:
440,344,196577,22,0,P|463:275|424:152,1,179.999994506836,4|0,0:1|0:0,0:0:0:0:
188,180,197060,1,0,3:0:0:0:
258,263,197221,2,0,L|348:260,1,89.9999972534181,8|0,0:1|0:0,0:0:0:0:
188,180,197544,1,2,0:0:0:0:
80,192,197705,6,0,P|20:268|32:372,1,179.999994506836,2|2,0:0|0:0,0:0:0:0:
296,168,198189,2,0,B|304:112|304:112|296:80,1,89.9999972534181,2|0,0:0|0:0,0:0:0:0:
52,0,198512,2,0,B|44:32|44:32|52:88,1,89.9999972534181,8|0,0:1|0:0,0:0:0:0:
188,180,198834,1,8,0:1:0:0:
1,304,198995,1,0,3:0:0:0:
1,304,199076,1,0,3:0:0:0:
1,304,199157,6,0,P|84:273|172:288,1,179.999994506836,2|0,3:2|0:0,0:0:0:0:
372,312,199640,1,0,3:0:0:0:
276,260,199802,2,0,P|263:216|262:172,1,89.9999972534181,8|0,0:1|0:0,0:0:0:0:
312,76,200124,1,2,0:0:0:0:
498,96,200286,6,0,P|456:111|412:112,1,89.9999972534181,2|0,0:0|0:0,0:0:0:0:
312,76,200608,1,2,0:0:0:0:
436,16,200769,1,2,0:0:0:0:
424,148,200931,1,2,0:0:0:0:
224,132,201093,2,0,P|208:88|212:40,1,89.9999972534181,8|0,0:1|0:0,0:0:0:0:
436,184,201415,1,0,3:0:0:0:
436,184,201495,1,0,3:0:0:0:
436,184,201576,1,0,3:0:0:0:
210,45,201738,22,0,P|173:125|178:214,1,179.999994506836,6|2,0:0|0:0,0:0:0:0:
52,188,202222,2,0,L|44:92,1,89.9999972534181,2|8,0:0|0:1,0:0:0:0:
178,214,202544,1,2,0:0:0:0:
0,292,202705,1,2,0:0:0:0:
160,332,202866,1,2,0:0:0:0:
52,188,203028,6,0,P|44:88|72:12,1,179.999994506836,2|2,0:0|0:0,0:0:0:0:
376,72,203512,2,0,P|376:124|364:168,1,89.9999972534181,2|8,0:0|0:1,0:0:0:0:
256,304,203834,1,2,0:0:0:0:
264,104,203995,1,2,0:0:0:0:
344,256,204156,1,2,3:2:0:0:
344,256,204237,1,0,3:0:0:0:
344,256,204319,6,0,P|444:248|528:196,1,179.999994506836,2|2,3:0|0:0,0:0:0:0:
188,228,204802,2,0,P|156:272|148:312,1,89.9999972534181,2|8,0:0|0:1,0:0:0:0:
264,104,205125,2,0,P|264:52|240:8,1,89.9999972534181,2|0,0:0|0:0,0:0:0:0:
36,101,205447,5,2,0:0:0:0:
136,197,205608,1,2,0:0:0:0:
144,88,205769,1,2,0:0:0:0:
32,228,205930,1,2,0:0:0:0:
220,260,206092,1,2,0:0:0:0:
144,88,206253,5,8,0:1:0:0:
40,256,206415,1,8,0:1:0:0:
160,112,206576,1,4,0:3:0:0:
48,284,206738,1,8,0:3:0:0:
160,228,206899,6,0,P|249:223|327:265,1,179.999994506836,4|0,0:1|0:0,0:0:0:0:
432,284,207382,1,0,3:0:0:0:
349,351,207544,2,0,P|333:309|327:265,1,89.9999972534181,8|0,0:1|0:0,0:0:0:0:
384,100,207866,1,2,0:0:0:0:
512,176,208028,6,0,B|508:48|508:48|488:0,1,179.999994506836,2|2,0:0|0:0,0:0:0:0:
288,48,208511,2,0,L|281:137,1,89.9999972534181,2|0,0:0|0:0,0:0:0:0:
384,100,208834,2,0,L|488:100,1,89.9999972534181,8|0,0:1|0:0,0:0:0:0:
272,236,209156,1,8,0:1:0:0:
180,104,209319,1,0,3:0:0:0:
180,104,209398,1,0,3:0:0:0:
180,104,209480,6,0,L|-8:96,1,179.999994506836,2|0,3:2|0:0,0:0:0:0:
45,218,209964,2,0,L|135:211,1,89.9999972534181,0|8,0:0|0:1,0:0:0:0:
293,287,210286,1,2,0:0:0:0:
188,308,210448,1,2,0:0:0:0:
308,181,210609,6,0,P|384:232|388:336,1,179.999994506836,2|2,0:0|0:0,0:0:0:0:
293,287,211092,1,2,0:0:0:0:
212,132,211254,1,2,0:0:0:0:
416,212,211415,2,0,L|532:204,1,89.9999972534181,8|0,0:1|0:0,0:0:0:0:
320,68,211738,1,0,3:0:0:0:
168,240,211899,1,0,3:0:0:0:
168,240,211980,1,0,3:0:0:0:
168,240,212060,22,0,B|32:232|32:232|-3:206,1,179.999994506836,6|0,0:0|0:0,0:0:0:0:
48,108,212544,2,0,L|44:0,1,89.9999972534181,0|8,0:0|0:1,0:0:0:0:
176,144,212866,1,2,0:0:0:0:
188,36,213028,1,2,0:0:0:0:
336,172,213189,6,0,P|303:89|314:0,1,179.999994506836,2|2,0:0|0:0,0:0:0:0:
444,168,213673,2,0,P|436:214|412:252,1,89.9999972534181,2|0,0:0|0:0,0:0:0:0:
208,168,213995,1,8,0:1:0:0:
336,84,214156,1,2,0:0:0:0:
308,276,214318,1,2,0:0:0:0:
96,248,214479,1,0,3:0:0:0:
96,248,214560,1,0,3:0:0:0:
96,248,214641,6,0,P|91:158|110:70,1,179.999994506836,2|2,3:0|0:0,0:0:0:0:
144,344,215124,2,0,B|88:349|88:349|48:343,1,89.9999972534181,2|8,0:0|0:1,0:0:0:0:
208,168,215448,2,0,B|241:163|241:163|297:168,1,89.9999972534181,2|0,0:0|0:0,0:0:0:0:
468,264,215769,5,2,0:0:0:0:
476,136,215931,1,2,0:0:0:0:
295,211,216092,1,8,0:1:0:0:
468,264,216253,1,2,0:0:0:0:
441,129,216415,1,2,0:0:0:0:
292,251,216576,1,8,0:1:0:0:
468,264,216738,1,2,0:0:0:0:
405,121,216899,2,0,L|401:25,1,89.9999972534181,2|0,0:0|0:0,0:0:0:0:
46,153,217221,22,0,P|115:98|203:100,1,179.999994506836,4|0,0:1|0:0,0:0:0:0:
340,202,217705,1,0,3:0:0:0:
232,222,217866,2,0,P|184:214|144:190,1,89.9999972534181,8|0,0:1|0:0,0:0:0:0:
340,202,218189,1,2,0:0:0:0:
448,214,218350,6,0,P|494:289|490:377,1,179.999994506836,2|2,0:0|0:0,0:0:0:0:
267,121,218835,2,0,P|255:78|256:34,1,89.9999972534181,2|0,0:0|0:0,0:0:0:0:
500,10,219157,2,0,P|500:54|488:97,1,89.9999972534181,8|0,0:1|0:0,0:0:0:0:
348,74,219480,1,8,0:1:0:0:
512,224,219641,1,0,3:0:0:0:
512,224,219722,1,0,3:0:0:0:
512,224,219803,6,0,P|436:192|336:204,1,179.999994506836,2|0,3:2|0:0,0:0:0:0:
260,276,220286,2,0,P|216:287|172:283,1,89.9999972534181,0|8,0:0|0:1,0:0:0:0:
120,148,220609,1,2,0:0:0:0:
68,316,220770,1,2,0:0:0:0:
120,148,220932,6,0,L|115:58,1,89.9999972534181,2|0,0:0|0:0,0:0:0:0:
171,282,221254,1,2,0:0:0:0:
244,124,221416,2,0,L|248:32,1,89.9999972534181,2|0,0:0|0:0,0:0:0:0:
432,256,221738,2,0,L|443:345,1,89.9999972534181,8|0,0:1|0:0,0:0:0:0:
232,312,222061,1,0,3:0:0:0:
232,312,222141,1,0,3:0:0:0:
232,312,222222,2,0,L|168:308,1,44.999998626709,0|0,3:0|0:0,0:0:0:0:
316,156,222383,22,0,B|495:152,1,179.999994506836,6|2,0:0|0:0,0:0:0:0:
224,216,222867,2,0,P|209:173|208:128,1,89.9999972534181,2|8,0:0|0:1,0:0:0:0:
380,20,223190,1,2,0:0:0:0:
480,188,223351,1,2,0:0:0:0:
316,156,223512,1,2,0:0:0:0:
504,100,223673,6,0,L|512:288,1,179.999994506836,2|2,0:0|0:0,0:0:0:0:
344,348,224157,2,0,L|347:255,1,89.9999972534181,2|8,0:0|0:1,0:0:0:0:
480,188,224480,1,2,0:0:0:0:
280,180,224641,1,2,0:0:0:0:
452,32,224802,1,2,3:2:0:0:
452,32,224883,1,0,3:0:0:0:
452,32,224964,6,0,P|372:72|264:60,1,179.999994506836,2|0,3:0|0:0,0:0:0:0:
188,16,225448,1,0,3:0:0:0:
300,153,225609,2,0,P|298:109|283:67,1,89.9999972534181,8|0,0:1|0:0,0:0:0:0:
20,112,225931,2,0,P|4:154|2:198,1,89.9999972534181,2|0,0:0|0:0,0:0:0:0:
216,300,226254,5,2,0:0:0:0:
188,196,226415,2,0,P|147:177|103:175,1,89.9999972534181,10|0,0:1|0:0,0:0:0:0:
216,300,226738,1,2,0:0:0:0:
432,216,226899,5,8,0:1:0:0:
300,153,227061,1,8,0:1:0:0:
368,336,227222,1,4,0:3:0:0:
428,184,227383,1,8,0:3:0:0:
252,284,227544,6,0,B|208:292|208:292|64:288,1,179.999994506836,6|0,0:0|0:0,0:0:0:0:
328,48,228028,2,0,B|396:48|396:48|464:64|464:64|512:60,1,179.999994506836,4|0,3:0|0:0,0:0:0:0:
92,180,228512,2,0,B|76:92|76:92|88:-8,1,179.999994506836,8|0,0:1|0:0,0:0:0:0:
444,152,228996,2,0,B|456:228|456:228|448:256|448:256|456:352,1,179.999994506836,0|0,3:0|0:0,0:0:0:0:
244,72,229479,6,0,L|344:80,1,89.9999972534181
276,312,229802,2,0,L|184:320,1,89.9999972534181
453,330,230125,6,0,P|446:242|391:172,1,179.999994506836,4|0,0:0|0:0,0:0:0:0:
48,80,230608,2,0,P|160:80|232:36,1,179.999994506836,0|0,3:0|0:0,0:0:0:0:
448,68,231092,2,0,P|380:132|384:240,1,179.999994506836,8|0,0:1|0:0,0:0:0:0:
84,300,231576,2,0,P|124:224|76:124,1,179.999994506836,8|0,3:0|0:0,0:0:0:0:
304,84,232060,5,0,3:0:0:0:
304,84,232168,2,0,L|312:152,1,59.9999981689454,0|0,3:0|3:0,3:0:0:0:
212,252,232383,1,0,3:0:0:0:
212,252,232491,2,0,L|219:192,1,59.9999981689454,0|0,3:0|3:0,3:0:0:0:
432,216,232705,22,0,P|480:140|464:24,1,179.999994506836,6|0,0:0|0:0,0:0:0:0:
84,240,233189,2,0,P|60:156|69:61,1,179.999994506836,0|0,1:0|0:0,0:0:0:0:
408,128,233673,2,0,P|416:224|415:307,1,179.999994506836,8|0,0:1|0:0,0:0:0:0:
104,140,234157,2,0,L|88:336,1,179.999994506836,0|0,3:0|0:0,0:0:0:0:
368,192,234641,5,0,1:0:0:0:
192,240,234803,1,0,3:0:0:0:
311,108,234964,1,0,1:0:0:0:
268,308,235125,1,0,3:0:0:0:
311,107,235286,6,0,P|228:141|140:129,1,179.999994506836,4|0,0:0|0:0,0:0:0:0:
421,107,235770,2,0,P|465:119|513:151,2,89.9999972534181,0|0|0,1:0|3:0|3:0,0:0:0:0:
228,344,236254,2,0,P|272:342|312:320,1,89.9999972534181,4|0,0:0|0:0,0:0:0:0:
248,180,236577,5,0,1:0:0:0:
248,180,236684,2,0,L|244:260,1,59.9999981689454,0|0,1:0|3:0,0:0:0:0:
170,103,236899,1,0,1:0:0:0:
170,103,237006,2,0,L|166:43,1,59.9999981689454,0|0,3:0|3:0,0:0:0:0:
132,204,237222,2,0,L|124:284,2,59.9999981689454,2|2|2,2:0|0:0|0:0,0:0:0:0:
52,136,237544,2,0,L|48:56,2,59.9999981689454,2|2|2,2:0|0:0|0:0,0:0:0:0:
248,180,237867,22,0,B|308:192|356:160|356:160|392:164|436:144,1,179.999994506836,6|0,0:0|0:0,0:0:0:0:
421,149,238351,1,0,3:0:0:0:
284,1,238512,2,0,P|278:45|287:90,1,89.9999972534181,10|0,0:1|0:0,0:0:0:0:
384,248,238835,5,2,0:0:0:0:
248,180,238996,2,0,B|104:176|104:176|148:200,1,179.999994506836,2|2,0:0|0:0,0:0:0:0:
23,223,239480,2,0,P|11:181|19:137,1,89.9999972534181,2|0,0:0|0:0,0:0:0:0:
188,88,239802,5,10,0:1:0:0:
160,276,239964,1,2,0:0:0:0:
188,88,240125,1,2,0:0:0:0:
160,276,240286,1,2,0:0:0:0:
104,176,240448,6,0,P|144:188|208:184,1,89.9999972534181,2|2,0:0|0:0,0:0:0:0:
236,176,240690,1,2,0:0:0:0:
236,176,240770,2,0,P|280:172|340:188,1,89.9999972534181,2|2,0:0|0:0,0:0:0:0:
364,204,241012,1,2,0:0:0:0:
364,204,241093,21,10,0:1:0:0:
276,268,241254,1,2,0:0:0:0:
324,80,241416,1,2,0:0:0:0:
456,136,241577,1,2,0:0:0:0:
384,232,241738,1,2,0:2:0:0:
236,176,241900,1,10,0:1:0:0:
324,80,242060,2,0,L|328:-16,1,89.9999972534181,2|0,0:0|0:0,0:0:0:0:
440,112,242383,6,0,B|444:192|444:192|456:212|456:212|456:236|456:236|476:296,2,179.999994506836,10|0|0,0:1|0:0|3:0,0:0:0:0:
342,158,243351,5,2,0:0:0:0:
342,158,243512,1,2,0:0:0:0:
332,265,243673,1,10,0:1:0:0:
440,112,243834,1,2,0:0:0:0:
253,96,243996,2,0,L|170:38,1,89.9999972534181,2|0,0:0|0:0,0:0:0:0:
431,220,244319,5,2,0:0:0:0:
351,50,244480,1,10,0:1:0:0:
243,203,244641,1,2,0:0:0:0:
342,158,244802,1,2,0:0:0:0:
431,220,244964,2,0,B|402:274|350:286|350:286|360:312|354:358,1,179.999994506836,10|2,0:1|0:0,0:0:0:0:
250,326,245448,1,2,0:0:0:0:
198,194,245609,21,2,0:0:0:0:
34,294,245770,1,2,0:0:0:0:
34,294,245851,1,2,0:0:0:0:
34,294,245931,1,2,0:0:0:0:
166,282,246093,1,2,0:0:0:0:
166,282,246173,1,2,0:0:0:0:
166,282,246254,5,10,0:1:0:0:
32,96,246415,1,2,0:0:0:0:
54,266,246577,1,2,0:0:0:0:
208,168,246738,2,0,L|108:164,1,89.9999972534181,2|0,0:0|0:0,0:0:0:0:
436,288,247060,6,0,B|470:254|470:254|472:216|472:216|468:200|468:200|476:184|476:184|476:144|476:144|464:112,1,179.999994506836,4|0,0:0|0:0,0:0:0:0:
280,16,247544,1,6,0:0:0:0:
280,16,247625,1,2,0:0:0:0:
280,16,247706,2,0,L|284:68,1,44.999998626709,2|0,0:0|0:0,0:0:0:0:
312,276,247867,1,6,0:0:0:0:
312,276,247948,1,2,0:0:0:0:
312,276,248028,2,0,L|316:212,1,44.999998626709,2|0,0:0|0:0,0:0:0:0:
34,163,248190,6,0,B|108:158|108:158|132:162|132:162|213:158,1,179.999994506836,4|0,0:1|0:0,0:0:0:0:
475,123,248673,1,2,0:0:0:0:
360,336,248835,2,0,B|296:292|320:216|320:216|368:184,1,179.999994506836,10|0,0:1|0:0,0:0:0:0:
475,123,249319,1,2,0:0:0:0:
312,92,249480,22,0,L|307:-1,1,89.9999972534181,2|10,0:0|0:1,0:0:0:0:
440,248,249802,1,2,0:0:0:0:
440,248,249910,2,0,L|504:240,1,59.9999981689454,2|2,0:0|0:0,0:0:0:0:
312,192,250125,1,10,0:1:0:0:
312,192,250233,2,0,L|248:184,1,59.9999981689454,2|2,0:1|0:0,0:0:0:0:
415,130,250448,1,2,0:0:0:0:
415,130,250555,2,0,L|479:122,1,59.9999981689454,2|2,0:0|0:0,0:0:0:0:
215,81,250770,5,2,0:0:0:0:
192,95,250850,1,2,0:0:0:0:
173,114,250931,1,2,0:0:0:0:
158,137,251011,1,2,0:0:0:0:
150,162,251092,1,2,0:0:0:0:
148,189,251173,1,2,0:0:0:0:
153,216,251253,1,2,0:0:0:0:
163,240,251334,1,2,0:0:0:0:
180,264,251415,6,0,L|236:272,3,44.999998626709,10|2|2|2,0:1|0:0|0:0|0:0,0:0:0:0:
160,360,251738,2,0,L|112:368,3,44.999998626709,2|2|2|2,0:0|0:0|0:0|0:0,0:0:0:0:
296,356,252060,5,2,0:0:0:0:
314,336,252140,1,2,0:0:0:0:
328,313,252221,1,10,0:1:0:0:
335,287,252301,1,2,0:0:0:0:
337,260,252382,1,2,0:0:0:0:
331,234,252463,1,2,0:0:0:0:
320,209,252543,1,2,0:0:0:0:
303,188,252624,1,2,0:0:0:0:
282,170,252705,22,8,P|368:160|472:156,1,179.999994506836,10|2,0:1|0:0,0:1:0:0:
492,68,253351,5,6,0:0:0:0:
512,240,253512,1,2,0:0:0:0:
336,48,253673,1,2,0:0:0:0:
320,209,253835,2,0,B|252:241|168:224|168:224|208:212,1,179.999994506836,10|0,0:1|0:0,0:0:0:0:
88,324,254319,2,0,P|43:247|56:168,1,134.999995880127,6|0,0:0|0:0,0:0:0:0:
76,172,254641,2,0,L|84:64,1,89.9999972534181,2|8,0:0|0:1,0:0:0:0:
344,44,254964,5,2,0:0:0:0:
352,152,255125,1,2,0:0:0:0:
191,216,255286,1,10,0:1:0:0:
199,108,255448,1,2,0:0:0:0:
368,64,255609,1,10,0:1:0:0:
376,172,255770,1,2,0:0:0:0:
199,108,255931,6,0,L|92:100,1,89.9999972534181,6|2,0:0|0:0,0:0:0:0:
8,240,256254,1,2,0:0:0:0:
88,312,256415,2,0,B|216:304|216:304|256:264,1,179.999994506836,10|0,0:1|0:0,0:0:0:0:
319,47,256899,21,6,0:0:0:0:
344,280,257060,1,2,0:0:0:0:
460,78,257222,1,2,0:1:0:0:
247,172,257383,1,10,0:1:0:0:
475,220,257544,1,2,0:1:0:0:
224,144,257706,1,2,0:0:0:0:
224,144,257786,1,2,0:0:0:0:
224,144,257867,1,2,0:1:0:0:
232,332,258028,1,2,0:0:0:0:
75,256,258190,2,0,L|-16:248,1,89.9999972534181,10|0,0:1|0:0,0:0:0:0:
76,344,258512,5,2,0:0:0:0:
101,339,258592,1,2,0:0:0:0:
125,327,258673,1,2,0:0:0:0:
144,307,258753,1,2,0:0:0:0:
156,283,258834,1,2,0:0:0:0:
160,257,258915,1,2,0:0:0:0:
155,230,258995,1,10,0:1:0:0:
142,206,259076,1,2,0:0:0:0:
122,188,259157,1,2,0:0:0:0:
97,178,259238,5,2,0:0:0:0:
78,160,259319,1,2,0:0:0:0:
64,136,259400,1,2,0:0:0:0:
60,109,259480,1,6,0:0:0:0:
63,83,259561,1,2,0:0:0:0:
75,59,259642,1,2,0:0:0:0:
94,39,259722,1,2,0:0:0:0:
118,27,259803,5,2,0:0:0:0:
219,66,259964,2,0,B|271:70|271:70|311:58|311:58|351:74|419:54,1,179.999994506836,10|0,0:1|0:0,0:0:0:0:
348,256,260448,2,0,P|308:212|310:154,2,119.999996337891,10|2|2,0:1|0:0|0:0,0:0:0:0:
384,184,260985,1,2,0:0:0:0:
348,256,261093,22,0,L|196:252,1,119.999996337891,6|2,0:0|0:0,0:0:0:0:
386,326,261415,2,0,P|417:295|428:252,1,89.9999972534181,2|10,0:0|0:1,0:0:0:0:
192,188,261738,2,0,P|160:219|150:262,1,89.9999972534181,2|0,0:0|0:1,0:0:0:0:
360,56,262060,5,8,1:0:0:0:
256,352,262222,1,8,1:0:0:0:
256,100,263673,37,8,0:0:0:0:
264,180,264964,1,8,0:0:0:0:
272,260,266254,1,8,0:0:0:0:
280,340,267544,1,8,0:0:0:0:
464,192,268190,54,0,L|456:308,1,100
364,108,268835,22,0,P|276:108|188:40,2,179.999994506836,2|2|2,0:3|0:0|0:0,0:0:0:0:
424,48,269964,2,0,L|492:44,1,59.9999981689454
364,108,270286,1,2,0:0:0:0:
288,72,270448,1,2,0:0:0:0:
64,192,270770,6,0,L|70:72,1,119.999996337891,2|0,0:0|0:0,0:0:0:0:
272,248,271415,6,0,P|184:248|96:316,2,179.999994506836,2|2|2,0:3|0:0|0:0,0:0:0:0:
336,304,272544,2,0,L|340:372,1,59.9999981689454
412,264,272867,1,2,0:0:0:0:
488,296,273028,1,2,0:0:0:0:
348,40,273351,6,0,L|480:36,1,119.999996337891,2|0,0:0|0:0,0:0:0:0:
272,248,273996,22,0,L|264:104,1,119.999996337891,2|2,0:0|0:0,0:0:0:0:
260,44,274480,1,2,0:0:0:0:
48,116,274802,6,0,L|36:48,2,59.9999981689454,2|2|2,0:0|0:0|0:0,0:0:0:0:
124,152,275286,2,0,P|140:216|108:288,1,119.999996337891,2|2,0:0|0:0,0:0:0:0:
48,304,275770,1,2,0:0:0:0:
339,250,276093,6,0,L|279:247,1,59.9999981689454,2|2,0:0|0:0,0:0:0:0:
396,312,276415,1,2,0:0:0:0:
476,284,276577,2,0,P|504:244|504:164,1,119.999996337891,2|2,0:0|0:0,0:0:0:0:
440,128,277060,2,0,L|432:-4,1,119.999996337891,2|2,0:0|0:0,0:0:0:0:
296,248,277706,6,0,L|304:112,1,119.999996337891,2|2,0:0|0:0,0:0:0:0:
308,44,278190,1,2,0:0:0:0:
188,24,278512,22,0,L|169:142,1,119.999996337891,2|0,0:0|0:0,0:0:0:0:
44,287,279157,6,0,P|100:268|159:276,1,119.999996337891,2|0,0:3|0:0,0:0:0:0:
220,336,279641,2,0,B|308:332|308:332|348:304,1,119.999996337891,2|2,0:0|0:0,0:0:0:0:
396,256,280125,1,2,0:0:0:0:
492,312,280286,2,0,L|484:160,1,119.999996337891,2|2,0:0|0:0,0:0:0:0:
480,108,280770,1,2,0:0:0:0:
288,124,281093,6,0,L|280:260,1,119.999996337891,2|0,0:0|0:0,0:0:0:0:
363,47,281738,6,0,P|313:17|254:18,1,119.999996337891,2|0,0:0|0:0,0:0:0:0:
392,140,282222,2,0,P|424:124|444:108,1,59.9999981689454,2|0,0:0|0:0,0:0:0:0:
456,12,282544,1,2,0:0:0:0:
456,12,282706,1,2,0:0:0:0:
288,124,282867,2,0,P|300:192|360:236,1,119.999996337891,2|2,0:0|0:0,0:0:0:0:
432,236,283351,1,2,0:0:0:0:
256,332,283673,21,2,0:0:0:0:
128,316,283835,2,0,L|131:375,1,59.9999981689454,2|2,0:0|0:0,0:0:0:0:
63,263,284157,2,0,P|115:235|173:246,2,119.999996337891,2|0|0,0:0|0:0|0:0,0:0:0:0:
384,316,285125,6,0,L|380:375,1,59.9999981689454,2|2,0:0|0:0,0:0:0:0:
449,263,285447,2,0,P|396:235|338:246,2,119.999996337891,2|0|0,0:0|0:0|0:0,0:0:0:0:
212,152,286415,5,2,0:0:0:0:
236,59,286577,1,2,0:0:0:0:
304,127,286738,1,2,0:0:0:0:
212,152,286899,6,0,L|88:144,1,119.999996337891,2|2,0:0|0:0,0:0:0:0:
304,127,287383,2,0,L|312:196,1,59.9999981689454,2|0,0:0|0:0,0:0:0:0:
236,59,287706,2,0,L|240:-12,1,59.9999981689454,2|0,0:0|0:0,0:0:0:0:
236,248,288028,2,0,L|240:396,1,119.999996337891,2|0,0:3|0:0,0:0:0:0:
348,200,288512,5,2,0:0:0:0:
112,248,288673,1,2,0:0:0:0:
472,108,289480,6,0,P|392:160|292:152,1,192.0000046875,4|0,0:1|0:0,0:0:0:0:
88,196,289964,1,0,0:0:0:0:
208,228,290125,2,0,B|220:272|220:272|216:332,1,96.0000023437501,8|0,0:1|0:0,0:0:0:0:
96,204,290448,1,0,3:0:0:0:
96,204,290528,1,0,3:0:0:0:
96,204,290609,5,2,0:0:0:0:
200,40,290770,1,2,0:0:0:0:
336,224,290931,1,8,0:1:0:0:
196,160,291093,1,2,0:0:0:0:
420,44,291254,1,2,0:0:0:0:
336,224,291415,2,0,L|329:128,1,96.0000023437501,8|0,0:1|0:0,0:0:0:0:
456,248,291738,1,2,0:0:0:0:
264,328,291899,1,0,3:0:0:0:
264,328,291980,1,0,3:0:0:0:
264,328,292060,6,0,B|212:324|212:324|152:276|176:180,1,192.0000046875,2|0,3:2|0:0,0:0:0:0:
345,35,292544,2,0,P|341:95|325:135,1,96.0000023437501,2|8,0:0|0:1,0:0:0:0:
60,192,292867,2,0,P|84:136|112:104,1,96.0000023437501,2|0,0:0|0:0,0:0:0:0:
444,176,293190,6,0,P|380:224|260:232,1,192.0000046875,2|8,0:0|0:1,0:0:0:0:
220,64,293673,1,2,0:0:0:0:
148,288,293835,1,0,0:0:0:0:
352,192,293996,1,8,0:1:0:0:
352,192,294077,1,0,3:0:0:0:
352,192,294157,1,0,3:2:0:0:
60,192,294319,1,8,3:1:0:0:
60,192,294399,1,0,3:0:0:0:
60,192,294480,2,0,L|56:132,1,48.000001171875,0|0,3:2|0:0,0:0:0:0:
236,76,294641,22,0,P|192:160|200:254,1,192.0000046875,4|2,0:0|0:0,0:0:0:0:
472,336,295125,2,0,P|468:288|455:241,1,96.0000023437501,2|8,0:0|0:1,0:0:0:0:
352,192,295448,1,2,0:0:0:0:
320,332,295609,1,2,0:0:0:0:
484,212,295770,1,2,0:0:0:0:
416,96,295931,6,0,P|320:152|224:136,1,192.0000046875,2|2,0:0|0:0,0:0:0:0:
48,80,296415,2,0,L|144:84,1,96.0000023437501,2|8,0:0|0:1,0:0:0:0:
352,192,296738,1,2,0:0:0:0:
96,240,296899,1,2,0:0:0:0:
254,49,297060,1,2,3:2:0:0:
254,49,297141,1,0,3:0:0:0:
254,49,297222,6,0,B|250:113|250:113|242:145,1,96.0000023437501,0|0,3:0|0:0,0:0:0:0:
44,320,297544,2,0,B|57:291|57:291|95:239,1,96.0000023437501,2|0,0:0|0:0,0:0:0:0:
348,252,297867,2,0,P|302:265|254:270,1,96.0000023437501,8|0,0:1|0:0,0:0:0:0:
143,83,298190,1,2,0:0:0:0:
393,141,298351,6,0,P|443:221|437:315,1,192.0000046875,2|2,0:0|0:0,0:0:0:0:
292,79,298835,2,0,P|326:46|370:28,1,96.0000023437501,2|0,0:0|0:0,0:0:0:0:
296,260,299157,1,8,0:1:0:0:
112,104,299319,1,8,0:1:0:0:
72,296,299480,1,4,0:3:0:0:
296,124,299641,1,8,0:3:0:0:
296,260,299802,22,0,P|392:280|472:364,1,192.0000046875,4|0,0:0|0:0,0:0:0:0:
204,332,300286,2,0,P|184:292|184:232,1,96.0000023437501,0|0,1:0|0:0,0:0:0:0:
396,64,300609,1,0,3:0:0:0:
396,64,300690,1,0,3:0:0:0:
396,64,300770,2,0,B|416:112|416:112|406:252,1,192.0000046875,4|0,0:0|0:0,0:0:0:0:
123,143,301254,2,0,L|27:139,2,96.0000023437501,2|2|2,0:0|0:0|0:0,0:0:0:0:
328,128,301738,5,8,0:1:0:0:
104,272,301899,1,0,3:0:0:0:
356,259,302060,1,8,0:1:0:0:
123,143,302222,1,0,3:0:0:0:
356,259,302383,6,0,P|437:214|463:124,1,192.0000046875,4|0,0:0|0:0,0:0:0:0:
328,128,302867,1,0,3:0:0:0:
276,320,303028,1,0,1:1:0:0:
472,244,303190,1,0,1:1:0:0:
241,210,303351,2,0,P|173:274|171:367,1,192.0000046875,4|0,0:0|0:0,0:0:0:0:
60,336,303835,2,0,L|56:240,2,96.0000023437501,2|0|2,0:0|0:0|0:0,0:0:0:0:
64,120,304319,5,0,3:0:0:0:
68,92,304427,1,0,3:0:0:0:
72,64,304534,1,0,3:0:0:0:
160,80,304641,1,0,3:0:0:0:
164,108,304749,1,0,3:0:0:0:
168,136,304856,1,0,3:0:0:0:
250,70,304964,22,0,P|338:38|432:56,1,192.0000046875,4|0,0:0|0:0,0:0:0:0:
485,277,305448,1,0,3:0:0:0:
372,254,305609,2,0,B|352:227|352:227|349:165,1,96.0000023437501,0|2,3:0|0:0,0:0:0:0:
484,277,305931,2,0,P|427:351|329:361,1,192.0000046875,4|0,0:0|0:0,0:0:0:0:
15,284,306415,2,0,B|155:280|155:280|204:300,1,192.0000046875,0|0,1:0|3:0,0:0:0:0:
372,254,306899,6,0,P|388:210|386:162,1,96.0000023437501
44,80,307222,2,0,P|42:127|58:172,1,96.0000023437501
489,118,307544,6,0,P|401:66|289:82,1,192.0000046875,4|0,0:1|0:0,0:0:0:0:
200,300,308028,1,4,0:3:0:0:
204,204,308190,1,4,0:3:0:0:
208,108,308351,1,4,0:3:0:0:
58,172,308512,5,8,1:0:0:0:
452,256,308673,1,8,1:0:0:0:
76,252,310125,6,0,B|64:200|72:164|72:164|88:200|88:200|279:192|279:192|339:92|339:92|299:28|99:32|83:232|135:296|216:368|324:372|440:292|404:148|404:148|428:176|448:176,2,1200.00004577637,2|0|0,2:3|2:0|2:0,0:0:0:0:
256,192,320609,12,2,330770,2:3:0:0:
